  0
SECTION
  2
HEADER
  9
$ACADVER
  1
AC1015
  9
$ACADMAINTVER
 70
    20
  9
$DWGCODEPAGE
  3
ANSI_932
  9
$INSBASE
 10
0.0
 20
0.0
 30
0.0
  9
$EXTMIN
 10
-0.0000000000002274
 20
-0.0000000000000568
 30
0.0
  9
$EXTMAX
 10
415.9999999999997
 20
290.0
 30
4.0
  9
$LIMMIN
 10
0.0
 20
0.0
  9
$LIMMAX
 10
420.0
 20
297.0
  9
$ORTHOMODE
 70
     1
  9
$REGENMODE
 70
     1
  9
$FILLMODE
 70
     1
  9
$QTEXTMODE
 70
     0
  9
$MIRRTEXT
 70
     1
  9
$LTSCALE
 40
1.0
  9
$ATTMODE
 70
     1
  9
$TEXTSIZE
 40
2.5
  9
$TRACEWID
 40
1.0
  9
$TEXTSTYLE
  7
TXT
  9
$CLAYER
  8
0
  9
$CELTYPE
  6
BYLAYER
  9
$CECOLOR
 62
   256
  9
$CELTSCALE
 40
1.0
  9
$DISPSILH
 70
     0
  9
$DIMSCALE
 40
1.0
  9
$DIMASZ
 40
2.5
  9
$DIMEXO
 40
1.0
  9
$DIMDLI
 40
6.0
  9
$DIMRND
 40
0.0
  9
$DIMDLE
 40
0.0
  9
$DIMEXE
 40
1.0
  9
$DIMTP
 40
0.0
  9
$DIMTM
 40
0.0
  9
$DIMTXT
 40
3.0
  9
$DIMCEN
 40
0.0
  9
$DIMTSZ
 40
0.0
  9
$DIMTOL
 70
     0
  9
$DIMLIM
 70
     0
  9
$DIMTIH
 70
     0
  9
$DIMTOH
 70
     0
  9
$DIMSE1
 70
     0
  9
$DIMSE2
 70
     0
  9
$DIMTAD
 70
     3
  9
$DIMZIN
 70
     8
  9
$DIMBLK
  1

  9
$DIMASO
 70
     1
  9
$DIMSHO
 70
     1
  9
$DIMPOST
  1

  9
$DIMAPOST
  1

  9
$DIMALT
 70
     0
  9
$DIMALTD
 70
     2
  9
$DIMALTF
 40
25.4
  9
$DIMLFAC
 40
1.0
  9
$DIMTOFL
 70
     0
  9
$DIMTVP
 40
0.0
  9
$DIMTIX
 70
     0
  9
$DIMSOXD
 70
     0
  9
$DIMSAH
 70
     0
  9
$DIMBLK1
  1

  9
$DIMBLK2
  1

  9
$DIMSTYLE
  2
A
  9
$DIMCLRD
 70
     6
  9
$DIMCLRE
 70
     6
  9
$DIMCLRT
 70
     3
  9
$DIMTFAC
 40
1.0
  9
$DIMGAP
 40
1.0
  9
$DIMJUST
 70
     0
  9
$DIMSD1
 70
     0
  9
$DIMSD2
 70
     0
  9
$DIMTOLJ
 70
     1
  9
$DIMTZIN
 70
     0
  9
$DIMALTZ
 70
     0
  9
$DIMALTTZ
 70
     0
  9
$DIMUPT
 70
     0
  9
$DIMDEC
 70
     1
  9
$DIMTDEC
 70
     1
  9
$DIMALTU
 70
     2
  9
$DIMALTTD
 70
     2
  9
$DIMTXSTY
  7
TXT
  9
$DIMAUNIT
 70
     0
  9
$DIMADEC
 70
     0
  9
$DIMALTRND
 40
0.0
  9
$DIMAZIN
 70
     0
  9
$DIMDSEP
 70
    46
  9
$DIMATFIT
 70
     3
  9
$DIMFRAC
 70
     0
  9
$DIMLDRBLK
  1

  9
$DIMLUNIT
 70
     2
  9
$DIMLWD
 70
    -2
  9
$DIMLWE
 70
    -2
  9
$DIMTMOVE
 70
     1
  9
$LUNITS
 70
     2
  9
$LUPREC
 70
     2
  9
$SKETCHINC
 40
1.0
  9
$FILLETRAD
 40
0.0
  9
$AUNITS
 70
     0
  9
$AUPREC
 70
     2
  9
$MENU
  1
.
  9
$ELEVATION
 40
0.0
  9
$PELEVATION
 40
0.0
  9
$THICKNESS
 40
0.0
  9
$LIMCHECK
 70
     0
  9
$CHAMFERA
 40
0.0
  9
$CHAMFERB
 40
0.0
  9
$CHAMFERC
 40
1.75
  9
$CHAMFERD
 40
0.0174532925199433
  9
$SKPOLY
 70
     0
  9
$TDCREATE
 40
2451555.620234838
  9
$TDUCREATE
 40
2451555.245234838
  9
$TDUPDATE
 40
2457828.675530428
  9
$TDUUPDATE
 40
2457828.300530428
  9
$TDINDWG
 40
3.0170649769
  9
$TDUSRTIMER
 40
3.0170649769
  9
$USRTIMER
 70
     1
  9
$ANGBASE
 50
0.0
  9
$ANGDIR
 70
     0
  9
$PDMODE
 70
     0
  9
$PDSIZE
 40
0.0
  9
$PLINEWID
 40
0.0
  9
$SPLFRAME
 70
     0
  9
$SPLINETYPE
 70
     6
  9
$SPLINESEGS
 70
     8
  9
$HANDSEED
  5
C00A
  9
$SURFTAB1
 70
     6
  9
$SURFTAB2
 70
     6
  9
$SURFTYPE
 70
     6
  9
$SURFU
 70
     6
  9
$SURFV
 70
     6
  9
$UCSBASE
  2

  9
$UCSNAME
  2

  9
$UCSORG
 10
0.0
 20
0.0
 30
0.0
  9
$UCSXDIR
 10
1.0
 20
0.0
 30
0.0
  9
$UCSYDIR
 10
0.0
 20
1.0
 30
0.0
  9
$UCSORTHOREF
  2

  9
$UCSORTHOVIEW
 70
     0
  9
$UCSORGTOP
 10
0.0
 20
0.0
 30
0.0
  9
$UCSORGBOTTOM
 10
0.0
 20
0.0
 30
0.0
  9
$UCSORGLEFT
 10
0.0
 20
0.0
 30
0.0
  9
$UCSORGRIGHT
 10
0.0
 20
0.0
 30
0.0
  9
$UCSORGFRONT
 10
0.0
 20
0.0
 30
0.0
  9
$UCSORGBACK
 10
0.0
 20
0.0
 30
0.0
  9
$PUCSBASE
  2

  9
$PUCSNAME
  2

  9
$PUCSORG
 10
0.0
 20
0.0
 30
0.0
  9
$PUCSXDIR
 10
1.0
 20
0.0
 30
0.0
  9
$PUCSYDIR
 10
0.0
 20
1.0
 30
0.0
  9
$PUCSORTHOREF
  2

  9
$PUCSORTHOVIEW
 70
     0
  9
$PUCSORGTOP
 10
0.0
 20
0.0
 30
0.0
  9
$PUCSORGBOTTOM
 10
0.0
 20
0.0
 30
0.0
  9
$PUCSORGLEFT
 10
0.0
 20
0.0
 30
0.0
  9
$PUCSORGRIGHT
 10
0.0
 20
0.0
 30
0.0
  9
$PUCSORGFRONT
 10
0.0
 20
0.0
 30
0.0
  9
$PUCSORGBACK
 10
0.0
 20
0.0
 30
0.0
  9
$USERI1
 70
     0
  9
$USERI2
 70
     0
  9
$USERI3
 70
     0
  9
$USERI4
 70
     0
  9
$USERI5
 70
     0
  9
$USERR1
 40
0.0
  9
$USERR2
 40
0.0
  9
$USERR3
 40
0.0
  9
$USERR4
 40
0.0
  9
$USERR5
 40
0.0
  9
$WORLDVIEW
 70
     1
  9
$SHADEDGE
 70
     3
  9
$SHADEDIF
 70
    70
  9
$TILEMODE
 70
     1
  9
$MAXACTVP
 70
    48
  9
$PINSBASE
 10
0.0
 20
0.0
 30
0.0
  9
$PLIMCHECK
 70
     0
  9
$PEXTMIN
 10
1.000000000000000E+20
 20
1.000000000000000E+20
 30
1.000000000000000E+20
  9
$PEXTMAX
 10
-1.000000000000000E+20
 20
-1.000000000000000E+20
 30
-1.000000000000000E+20
  9
$PLIMMIN
 10
0.0
 20
0.0
  9
$PLIMMAX
 10
420.0
 20
297.0
  9
$UNITMODE
 70
     0
  9
$VISRETAIN
 70
     1
  9
$PLINEGEN
 70
     0
  9
$PSLTSCALE
 70
     1
  9
$TREEDEPTH
 70
  3020
  9
$CMLSTYLE
  2
STANDARD
  9
$CMLJUST
 70
     0
  9
$CMLSCALE
 40
20.0
  9
$PROXYGRAPHICS
 70
     1
  9
$MEASUREMENT
 70
     1
  9
$CELWEIGHT
370
    -1
  9
$ENDCAPS
280
     0
  9
$JOINSTYLE
280
     0
  9
$LWDISPLAY
290
     0
  9
$INSUNITS
 70
     0
  9
$HYPERLINKBASE
  1

  9
$STYLESHEET
  1
LIN.ctb
  9
$XEDIT
290
     1
  9
$CEPSNTYPE
380
     0
  9
$PSTYLEMODE
290
     1
  9
$FINGERPRINTGUID
  2
{1CF51E8A-A506-11D4-A7D9-AF69F5C20846}
  9
$VERSIONGUID
  2
{9F3E8DB6-549D-4961-95CA-C3714F48C53C}
  9
$EXTNAMES
290
     1
  9
$PSVPSCALE
 40
0.0
  9
$OLESTARTUP
290
     0
  0
ENDSEC
  0
SECTION
  2
CLASSES
  0
CLASS
  1
DICTIONARYVAR
  2
AcDbDictionaryVar
  3
ObjectDBX Classes
 90
        0
280
     0
281
     0
  0
CLASS
  1
SORTENTSTABLE
  2
AcDbSortentsTable
  3
ObjectDBX Classes
 90
        0
280
     0
281
     0
  0
CLASS
  1
HATCH
  2
AcDbHatch
  3
ObjectDBX Classes
 90
        0
280
     0
281
     1
  0
CLASS
  1
LWPOLYLINE
  2
AcDbPolyline
  3
ObjectDBX Classes
 90
        0
280
     0
281
     1
  0
CLASS
  1
ACDBDICTIONARYWDFLT
  2
AcDbDictionaryWithDefault
  3
ObjectDBX Classes
 90
        0
280
     0
281
     0
  0
CLASS
  1
ACDBPLACEHOLDER
  2
AcDbPlaceHolder
  3
ObjectDBX Classes
 90
        0
280
     0
281
     0
  0
CLASS
  1
LAYOUT
  2
AcDbLayout
  3
ObjectDBX Classes
 90
        0
280
     0
281
     0
  0
CLASS
  1
LONG_TRANSACTION
  2
AcDbLongTransaction
  3
ObjectDBX Classes
 90
    32768
280
     0
281
     0
  0
CLASS
  1
LWPOLYLINE
  2
AcDbPolyline
  3
ObjectDBX Classes
 90
        0
280
     0
281
     1
  0
CLASS
  1
HATCH
  2
AcDbHatch
  3
ObjectDBX Classes
 90
        0
280
     0
281
     1
  0
CLASS
  1
XRECORD
  2
AcDbXrecord
  3
ObjectDBX Classes
 90
        0
280
     0
281
     0
  0
CLASS
  1
TABLESTYLE
  2
AcDbTableStyle
  3
ObjectDBX Classes
 90
     2047
280
     0
281
     0
  0
CLASS
  1
MATERIAL
  2
AcDbMaterial
  3
ObjectDBX Classes
 90
        0
280
     0
281
     0
  0
CLASS
  1
VISUALSTYLE
  2
AcDbVisualStyle
  3
ObjectDBX Classes
 90
     4095
280
     0
281
     0
  0
CLASS
  1
SCALE
  2
AcDbScale
  3
ObjectDBX Classes
 90
     1153
280
     0
281
     0
  0
CLASS
  1
MLEADERSTYLE
  2
AcDbMLeaderStyle
  3
ACDB_MLEADERSTYLE_CLASS
 90
     4095
280
     0
281
     0
  0
CLASS
  1
ACME_DOCUMENT
  2
AcMeDbDoc
  3
AcMeServices
 90
    33792
280
     0
281
     0
  0
CLASS
  1
AMGSETTINGSOBJ
  2
AmgSettingsObj
  3
"AcadM|Product Description: AutoCAD Mechanical|Company: Autodesk, Inc."
 90
    33792
280
     0
281
     0
  0
CLASS
  1
ACMESCOPE
  2
AcMeScope
  3
AcMeServices
 90
    33792
280
     0
281
     0
  0
CLASS
  1
ACMECOMMANDHISTORY
  2
AcMeCommandHistory
  3
AcMeServices
 90
    33792
280
     0
281
     0
  0
CLASS
  1
ACIMSYSVARMAN
  2
AcImSysVarManager
  3
AcMeServices
 90
    33792
280
     0
281
     0
  0
CLASS
  1
ACIMINTSYSVAR
  2
AcImIntSysVar
  3
AcMeServices
 90
    33792
280
     0
281
     0
  0
CLASS
  1
ACMESTATEMGR
  2
AcMeStateMgr
  3
AcMeServices
 90
    33792
280
     0
281
     0
  0
CLASS
  1
ACDBENTITYCACHE
  2
AcMeEntityCache
  3
AcMeServices
 90
    33792
280
     0
281
     0
  0
CLASS
  1
ACGREFMASTER
  2
AcGrefMaster
  3
AcAttribServices
 90
    33792
280
     0
281
     0
  0
CLASS
  1
AM_DRAWING_MGR
  2
AcDmDwgMgr
  3
AcMechDwgViewMgmt
 90
    33792
280
     0
281
     0
  0
CLASS
  1
AM_DWG_DOCUMENT
  2
AcDmDwgDocument
  3
AcMechDwgViewMgmt
 90
    33792
280
     0
281
     0
  0
CLASS
  1
AM_DWG_SHEET
  2
AcDmSheet
  3
AcMechDwgViewMgmt
 90
    33792
280
     0
281
     0
  0
CLASS
  1
AM_VIEWDIMPARMAP
  2
AcDmViewDimParMap
  3
AcMechDwgViewMgmt
 90
    33792
280
     0
281
     0
  0
CLASS
  1
AMDTINTERNALREACTOR
  2
AmdtInternalReactor
  3
AcMeServices
 90
    33792
280
     0
281
     0
  0
CLASS
  1
ACIMREALSYSVAR
  2
AcImRealSysVar
  3
AcMeServices
 90
    33792
280
     0
281
     0
  0
CLASS
  1
AM_DWGMGR_NAME
  2
AcDmDwgMgrName
  3
AcMechDwgViewMgmt
 90
    33792
280
     0
281
     0
  0
CLASS
  1
ACME_DATABASE
  2
AcMeDbDatabase
  3
AcMeServices
 90
    33792
280
     0
281
     0
  0
CLASS
  1
ACRFINSADJUSTERMGR
  2
AcRfInsAdjusterMgr
  3
AcMeServices
 90
    33792
280
     0
281
     0
  0
CLASS
  1
ACGREFACADMASTER
  2
AcGrefacadMaster
  3
AcGrefServices
 90
    33792
280
     0
281
     0
  0
CLASS
  1
AMDTMENUSTATEMGR
  2
AmdtMenuStateMgr
  3
McadcomServices
 90
    33792
280
     0
281
     0
  0
CLASS
  1
AMDTMCOMMENUSTATE
  2
AmdtMcomMenuState
  3
McadcomServices
 90
    33792
280
     0
281
     0
  0
CLASS
  1
AMIMASTER
  2
AmiMaster
  3
AmiServices
 90
    33792
280
     0
281
     0
  0
CLASS
  1
MAPIAMMOUDLE
  2
MApiAmModule
  3
MApiAmServices
 90
    33792
280
     0
281
     0
  0
CLASS
  1
ACIMSTRSYSVAR
  2
AcImStrSysVar
  3
AcMeServices
 90
    33792
280
     0
281
     0
  0
CLASS
  1
AMDTDMMENUSTATE
  2
AmdtDmMenuState
  3
AcMechDwgViewMgmt
 90
    33792
280
     0
281
     0
  0
CLASS
  1
AMDTAMMENUSTATE
  2
AmdtAmMenuState
  3
DesignerAssemblies
 90
    33792
280
     0
281
     0
  0
CLASS
  1
ACAMPROJECT
  2
AcAmProject
  3
DesignerAssemblies
 90
    33792
280
     0
281
     0
  0
CLASS
  1
ACAMGRCOMPDEF
  2
AcAmGrCompDef
  3
DesignerAssemblies
 90
    33792
280
     0
281
     0
  0
CLASS
  1
ACAMCOMPDEF
  2
AcAmCompDef
  3
DesignerAssemblies
 90
    33792
280
     0
281
     0
  0
CLASS
  1
ACAMCOMPDEFMGR
  2
AcAmCompDefMgr
  3
DesignerAssemblies
 90
    33792
280
     0
281
     0
  0
CLASS
  1
AMCONTEXTMGR
  2
AcAmContextMgr
  3
DesignerAssemblies
 90
    33792
280
     0
281
     0
  0
CLASS
  1
ACAMCONTEXTMODELER
  2
AcAmContextModeler
  3
DesignerAssemblies
 90
    33792
280
     0
281
     0
  0
CLASS
  1
ACMDATADICTIONARY
  2
AcmDataDictionary
  3
"AcmSymBB|Product Description: AutoCAD Mechanical|Company: Autodesk, Inc."
 90
    33792
280
     0
281
     0
  0
CLASS
  1
ACAMGRCOMPDEFSET
  2
AcAmGrCompDefSet
  3
DesignerAssemblies
 90
    33792
280
     0
281
     0
  0
CLASS
  1
AMDTBROWSERDBTAB
  2
AmdtBrowserDbTab
  3
McadcomServices
 90
    33792
280
     0
281
     0
  0
CLASS
  1
CBROWSERAPPOBJECT
  2
CBrowserAppObject
  3
McadcomServices
 90
    33792
280
     0
281
     0
  0
CLASS
  1
DM_PLACEHOLDER
  2
AcDmSelsetPlaceholder
  3
AcMechDwgViewMgmt
 90
    33792
280
     0
281
     0
  0
CLASS
  1
EXACXREFPANELOBJECT
  2
ExAcXREFPanelObject
  3
EXAC_ESW
 90
    33793
280
     0
281
     0
  0
CLASS
  1
NPOCOLLECTION
  2
AcDbImpNonPersistentObjectsCollection
  3
ObjectDBX Classes
 90
    33921
280
     0
281
     0
  0
CLASS
  1
ACMSTANDARDISO
  2
AcmStandardISO
  3
"Amdt_StdImp|Product Description: AutoCAD Mechanical|Company: Autodesk, Inc."
 90
    33792
280
     0
281
     0
  0
CLASS
  1
AMDTEDGESTANDARDISO13715
  2
AmdtEdgeStdISO13715
  3
"Amdt_StdImp|Product Description: AutoCAD Mechanical|Company: Autodesk, Inc."
 90
    33792
280
     0
281
     0
  0
CLASS
  1
ACMSURFSTANDARDISO2002
  2
AcmSurfTextStdISO2002
  3
"Amdt_StdImp|Product Description: AutoCAD Mechanical|Company: Autodesk, Inc."
 90
    33792
280
     0
281
     0
  0
CLASS
  1
ACMFCFSTANDARDISO
  2
AcmFCFStdISO
  3
"Amdt_StdImp|Product Description: AutoCAD Mechanical|Company: Autodesk, Inc."
 90
    33792
280
     0
281
     0
  0
CLASS
  1
ACMWELDSTANDARDISO
  2
AcmWeldingStdISO
  3
"Amdt_StdImp|Product Description: AutoCAD Mechanical|Company: Autodesk, Inc."
 90
    33792
280
     0
281
     0
  0
CLASS
  1
ACMIDSTANDARDISO
  2
AcmIdStdISO
  3
"Amdt_StdImp|Product Description: AutoCAD Mechanical|Company: Autodesk, Inc."
 90
    33792
280
     0
281
     0
  0
CLASS
  1
ACMDATUMSTANDARDISO
  2
AcmDatumStdISO
  3
"Amdt_StdImp|Product Description: AutoCAD Mechanical|Company: Autodesk, Inc."
 90
    33792
280
     0
281
     0
  0
CLASS
  1
ACMBOMSTANDARDISO
  2
AcmBOMStdISO
  3
"Amdt_StdImp|Product Description: AutoCAD Mechanical|Company: Autodesk, Inc."
 90
    33792
280
     0
281
     0
  0
CLASS
  1
ACMDETAILSTANDARDISO
  2
AmdtDetailSymStdISO
  3
"Amdt_StdImp|Product Description: AutoCAD Mechanical|Company: Autodesk, Inc."
 90
    33792
280
     0
281
     0
  0
CLASS
  1
ACMSECTIONSTANDARDISO2001
  2
AmdtSectionSymStdISO2001
  3
"Amdt_StdImp|Product Description: AutoCAD Mechanical|Company: Autodesk, Inc."
 90
    33792
280
     0
281
     0
  0
CLASS
  1
ACMCENTERLINESTANDARDISO
  2
AmdtCenterLineStdISO
  3
"Amdt_StdImp|Product Description: AutoCAD Mechanical|Company: Autodesk, Inc."
 90
    33792
280
     0
281
     0
  0
CLASS
  1
ACMTHREADLINESTANDARDISO
  2
AmdtThreadLineStdISO
  3
"Amdt_StdImp|Product Description: AutoCAD Mechanical|Company: Autodesk, Inc."
 90
    33792
280
     0
281
     0
  0
CLASS
  1
ACMNOTESTANDARDISO
  2
AmdtNoteStdISO
  3
"Amdt_StdImp|Product Description: AutoCAD Mechanical|Company: Autodesk, Inc."
 90
    33792
280
     0
281
     0
  0
CLASS
  1
ACMTAPERSTANDARDISO
  2
AcmTaperStdISO
  3
"Amdt_StdImp|Product Description: AutoCAD Mechanical|Company: Autodesk, Inc."
 90
    33792
280
     0
281
     0
  0
CLASS
  1
ACMANOOTATIONVIEWSTANDARDISO
  2
AmdtAnViewStdISO
  3
"Amdt_StdImp|Product Description: AutoCAD Mechanical|Company: Autodesk, Inc."
 90
    33792
280
     0
281
     0
  0
CLASS
  1
ACAMGLAYSTD
  2
AcAmgLayStd
  3
"AmgLay|Product Description: AutoCAD Mechanical|Company: Autodesk, Inc."
 90
    33792
280
     0
281
     0
  0
CLASS
  1
ACAMGDIMSTD
  2
AcAmgDimStd
  3
"AmgDim|Product Description: AutoCAD Mechanical|Company: Autodesk, Inc."
 90
    33792
280
     0
281
     0
  0
CLASS
  1
AMGOBJPROPCFG
  2
AmgObjPropCfg
  3
"AmgLay|Product Description: AutoCAD Mechanical|Company: Autodesk, Inc."
 90
    33793
280
     0
281
     0
  0
CLASS
  1
ACAMGHOLECHARTSTDISO
  2
AcAmgHoleChartStdISO
  3
AmgDim|Product Description: AutoCAD Mechanical|Company: Autodesk, Inc.
 90
    33792
280
     0
281
     0
  0
CLASS
  1
ACAMGTITLESTD
  2
AcAmgTitleStd
  3
"AmgTitle|Product Description: AutoCAD Mechanical|Company: Autodesk, Inc."
 90
    36863
280
     0
281
     0
  0
CLASS
  1
AMDTNOTETEMPLATEDB
  2
AmdtNoteTemplateDB
  3
AcmSymBB|Product Description: AutoCAD Mechanical|Company: Autodesk, Inc.
 90
    33792
280
     0
281
     0
  0
CLASS
  1
ACAMGFILTERDAT
  2
AcAmgFilterDat
  3
"AcadM|Product Description: AutoCAD Mechanical|Company: Autodesk, Inc."
 90
    33792
280
     0
281
     0
  0
CLASS
  1
AEC_REFEDIT_STATUS_TRACKER
  2
AecDbRefEditStatusTracker
  3
AecArchBase70|Product Desc: Autodesk Architectural Desktop 2007 |Company: Autodesk,Inc. |WEB Address: www.autodesk.com
 90
    32897
280
     0
281
     0
  0
CLASS
  1
CELLSTYLEMAP
  2
AcDbCellStyleMap
  3
ObjectDBX Classes
 90
     1152
280
     0
281
     0
  0
CLASS
  1
ACDBSECTIONVIEWSTYLE
  2
AcDbSectionViewStyle
  3
ObjectDBX Classes
 90
     1025
280
     0
281
     0
  0
CLASS
  1
ACDBDETAILVIEWSTYLE
  2
AcDbDetailViewStyle
  3
ObjectDBX Classes
 90
     1025
280
     0
281
     0
  0
ENDSEC
  0
SECTION
  2
TABLES
  0
TABLE
  2
VPORT
  5
8
102
{ACAD_XDICTIONARY
360
B80A
102
}
330
0
100
AcDbSymbolTable
 70
     2
  0
VPORT
  5
C003
330
8
100
AcDbSymbolTableRecord
100
AcDbViewportTableRecord
  2
*Active
 70
     0
 10
0.0
 20
0.0
 11
1.0
 21
1.0
 12
263.1909207263948
 22
148.0025707950432
 13
0.0
 23
0.0
 14
10.0
 24
10.0
 15
10.0
 25
10.0
 16
0.0
 26
0.0
 36
1.0
 17
0.0
 27
0.0
 37
0.0
 40
304.2762116896053
 41
2.647181628392484
 42
50.0
 43
0.0
 44
0.0
 50
0.0
 51
0.0
 71
     0
 72
   100
 73
     1
 74
     1
 75
     0
 76
     0
 77
     0
 78
     0
281
     0
 65
     1
110
0.0
120
0.0
130
0.0
111
1.0
121
0.0
131
0.0
112
0.0
122
1.0
132
0.0
 79
     0
146
0.0
  0
ENDTAB
  0
TABLE
  2
LTYPE
  5
5
330
0
100
AcDbSymbolTable
 70
    14
  0
LTYPE
  5
12
330
5
100
AcDbSymbolTableRecord
100
AcDbLinetypeTableRecord
  2
BYBLOCK
 70
     0
  3

 72
    65
 73
     0
 40
0.0
  0
LTYPE
  5
13
330
5
100
AcDbSymbolTableRecord
100
AcDbLinetypeTableRecord
  2
BYLAYER
 70
     0
  3

 72
    65
 73
     0
 40
0.0
  0
LTYPE
  5
14
330
5
100
AcDbSymbolTableRecord
100
AcDbLinetypeTableRecord
  2
CONTINUOUS
 70
     0
  3
Solid line
 72
    65
 73
     0
 40
0.0
  0
LTYPE
  5
650B
330
5
100
AcDbSymbolTableRecord
100
AcDbLinetypeTableRecord
  2
CENTER
 70
     0
  3
Center ____ _ ____ _ ____ _ ____ _ ____ _ ____
 72
    65
 73
     4
 40
50.8
 49
31.75
 74
     0
 49
-6.349999999999999
 74
     0
 49
6.349999999999999
 74
     0
 49
-6.349999999999999
 74
     0
  0
LTYPE
  5
650C
330
5
100
AcDbSymbolTableRecord
100
AcDbLinetypeTableRecord
  2
HIDDEN
 70
     0
  3
Hidden __ __ __ __ __ __ __ __ __ __ __ __ __ _
 72
    65
 73
     2
 40
9.524999999999998
 49
6.349999999999999
 74
     0
 49
-3.174999999999999
 74
     0
  0
LTYPE
  5
B445
330
5
100
AcDbSymbolTableRecord
100
AcDbLinetypeTableRecord
  2
PHANTOM2
 70
     0
  3
Phantom (.5x) ___ _ _ ___ _ _ ___ _ _ ___ _ _
 72
    65
 73
     6
 40
31.75
 49
15.875
 74
     0
 49
-3.174999999999999
 74
     0
 49
3.174999999999999
 74
     0
 49
-3.174999999999999
 74
     0
 49
3.174999999999999
 74
     0
 49
-3.174999999999999
 74
     0
  0
LTYPE
  5
B485
330
5
100
AcDbSymbolTableRecord
100
AcDbLinetypeTableRecord
  2
AM_ISO02W050
 70
     0
  3
__ __ __ __ __ __ __ __ __ __ __ __ __ __ __
 72
    65
 73
     2
 40
7.5
 49
6.0
 74
     0
 49
-1.5
 74
     0
  0
LTYPE
  5
B486
330
5
100
AcDbSymbolTableRecord
100
AcDbLinetypeTableRecord
  2
AM_ISO08W050
 70
     0
  3
____ . ____ . ____ . ____ . ____ . ____ . ____
 72
    65
 73
     4
 40
18.0
 49
12.0
 74
     0
 49
-1.5
 74
     0
 49
3.0
 74
     0
 49
-1.5
 74
     0
  0
LTYPE
  5
B487
330
5
100
AcDbSymbolTableRecord
100
AcDbLinetypeTableRecord
  2
AM_ISO09W050
 70
     0
  3
_____ . . _____ . . _____ . . ____ .. ____
 72
    65
 73
     6
 40
22.5
 49
12.0
 74
     0
 49
-1.5
 74
     0
 49
3.0
 74
     0
 49
-1.5
 74
     0
 49
3.0
 74
     0
 49
-1.5
 74
     0
  0
LTYPE
  5
B488
330
5
100
AcDbSymbolTableRecord
100
AcDbLinetypeTableRecord
  2
Amconstr
 70
     0
  3
_______________________
 72
    65
 73
     2
 40
9999.0
 49
9999.0
 74
     0
 49
0.0
 74
     0
  0
LTYPE
  5
B489
330
5
100
AcDbSymbolTableRecord
100
AcDbLinetypeTableRecord
  2
AM_ISO08W050x2
 70
     0
  3
__ . __ . __ . __ . __ . __
 72
    65
 73
     4
 40
9.0
 49
6.0
 74
     0
 49
-0.75
 74
     0
 49
1.5
 74
     0
 49
-0.75
 74
     0
  0
LTYPE
  5
B48A
330
5
100
AcDbSymbolTableRecord
100
AcDbLinetypeTableRecord
  2
AM_ISO02W050x2
 70
     0
  3
 _ _ _ _ _ _ _ _ _ _ _ _
 72
    65
 73
     2
 40
3.75
 49
3.0
 74
     0
 49
-0.75
 74
     0
  0
LTYPE
  5
B48D
330
5
100
AcDbSymbolTableRecord
100
AcDbLinetypeTableRecord
  2
Amzigzag
 70
     0
  3
/\/-/\/-/\/-/\/-/\/-/\/
 72
    65
 73
     2
 40
11.0001
 49
0.0001
 74
     4
 75
   136
340
B48C
 46
0.04
 50
0.0
 44
0.0
 45
0.0
 49
-11.0
 74
     0
  0
LTYPE
  5
B49C
330
5
100
AcDbSymbolTableRecord
100
AcDbLinetypeTableRecord
  2
ACISOWELD
 70
     0
  3
_ _ _ _ _
 72
    65
 73
     2
 40
2.0
 49
2.0
 74
     0
 49
-1.0
 74
     0
  0
LTYPE
  5
B49D
330
5
100
AcDbSymbolTableRecord
100
AcDbLinetypeTableRecord
  2
ACISOTGB
 70
     0
  3
__ . . __ . .
 72
    65
 73
     6
 40
9.0
 49
4.0
 74
     0
 49
-1.0
 74
     0
 49
1.0
 74
     0
 49
-1.0
 74
     0
 49
1.0
 74
     0
 49
-1.0
 74
     0
  0
LTYPE
  5
B49E
330
5
100
AcDbSymbolTableRecord
100
AcDbLinetypeTableRecord
  2
ACISOTGL
 70
     0
  3
_ _ _ _ _
 72
    65
 73
     2
 40
3.0
 49
2.0
 74
     0
 49
-1.0
 74
     0
  0
ENDTAB
  0
TABLE
  2
LAYER
  5
2
102
{ACAD_XDICTIONARY
360
B8F9
102
}
330
0
100
AcDbSymbolTable
 70
     8
  0
LAYER
  5
E
102
{ACAD_XDICTIONARY
360
B7F8
102
}
330
2
100
AcDbSymbolTableRecord
100
AcDbLayerTableRecord
  2
0
 70
     0
 62
     7
  6
CONTINUOUS
370
    -3
390
5CF2
  0
LAYER
  5
B9
102
{ACAD_XDICTIONARY
360
B7FA
102
}
330
2
100
AcDbSymbolTableRecord
100
AcDbLayerTableRecord
  2
DIM
 70
     0
 62
     3
  6
CONTINUOUS
370
    -3
390
5CF2
  0
LAYER
  5
F2
330
2
100
AcDbSymbolTableRecord
100
AcDbLayerTableRecord
  2
DEFPOINTS
 70
     0
 62
     4
  6
CONTINUOUS
290
     0
370
    -3
390
5CF2
  0
LAYER
  5
644E
102
{ACAD_XDICTIONARY
360
B7FC
102
}
330
2
100
AcDbSymbolTableRecord
100
AcDbLayerTableRecord
  2
図框線
 70
     0
 62
     9
  6
CONTINUOUS
370
    -3
390
5CF2
1001
ACADSTRINGINFO
1000
MIFCodePage
1070
     1
  0
LAYER
  5
650D
102
{ACAD_XDICTIONARY
360
B7FE
102
}
330
2
100
AcDbSymbolTableRecord
100
AcDbLayerTableRecord
  2
中心線
 70
     0
 62
     1
  6
CENTER
370
    -3
390
5CF2
1001
ACADSTRINGINFO
1000
MIFCodePage
1070
     1
  0
LAYER
  5
650E
102
{ACAD_XDICTIONARY
360
B800
102
}
330
2
100
AcDbSymbolTableRecord
100
AcDbLayerTableRecord
  2
本体内線
 70
     0
 62
     4
  6
HIDDEN
370
    -3
390
5CF2
1001
ACADSTRINGINFO
1000
MIFCodePage
1070
     1
  0
LAYER
  5
650F
102
{ACAD_XDICTIONARY
360
B802
102
}
330
2
100
AcDbSymbolTableRecord
100
AcDbLayerTableRecord
  2
本体外線
 70
     0
 62
     2
  6
CONTINUOUS
370
    -3
390
5CF2
1001
ACADSTRINGINFO
1000
MIFCodePage
1070
     1
  0
LAYER
  5
6510
102
{ACAD_XDICTIONARY
360
B804
102
}
330
2
100
AcDbSymbolTableRecord
100
AcDbLayerTableRecord
  2
剖面線
 70
     0
 62
     5
  6
CONTINUOUS
370
    -3
390
5CF2
1001
ACADSTRINGINFO
1000
MIFCodePage
1070
     1
  0
ENDTAB
  0
TABLE
  2
STYLE
  5
3
330
0
100
AcDbSymbolTable
 70
     8
  0
STYLE
  5
F
330
3
100
AcDbSymbolTableRecord
100
AcDbTextStyleTableRecord
  2
STANDARD
 70
     0
 40
0.0
 41
1.0
 50
0.0
 71
     0
 42
2.5
  3
txt
  4

  0
STYLE
  5
BE
330
3
100
AcDbSymbolTableRecord
100
AcDbTextStyleTableRecord
  2
ISOCP3
 70
     0
 40
0.0
 41
1.0
 50
0.0
 71
     0
 42
2.5
  3
isocp3.shx
  4

  0
STYLE
  5
2A37
330
3
100
AcDbSymbolTableRecord
100
AcDbTextStyleTableRecord
  2
TXT
 70
     0
 40
0.0
 41
1.0
 50
0.0
 71
     0
 42
2.5
  3
txt.shx
  4
bigfont.shx
  0
STYLE
  5
5DCB
330
3
100
AcDbSymbolTableRecord
100
AcDbTextStyleTableRecord
  2
LKK
 70
     0
 40
50.0
 41
1.5
 50
0.0
 71
     0
 42
50.0
  3
MS PGothic.ttf
  4

1001
ACAD
1000
MS PGothic
1071
    32818
  0
STYLE
  5
5DCC
330
3
100
AcDbSymbolTableRecord
100
AcDbTextStyleTableRecord
  2
JL
 70
     0
 40
10.0
 41
0.5
 50
0.0
 71
     0
 42
5.0
  3
MS Mincho.ttf
  4

1001
ACAD
1000
MS Mincho
1071
    32785
  0
STYLE
  5
B48C
330
3
100
AcDbSymbolTableRecord
100
AcDbTextStyleTableRecord
  2

 70
     1
 40
0.0
 41
1.0
 50
0.0
 71
     0
 42
2.5
  3
genltshp.shx
  4

  0
STYLE
  5
B49A
330
3
100
AcDbSymbolTableRecord
100
AcDbTextStyleTableRecord
  2
ACISOTS
 70
     0
 40
1.0
 41
1.0
 50
0.0
 71
     0
 42
2.5
  3
isocp.shx
  4
chineset.shx
  0
STYLE
  5
B49B
330
3
100
AcDbSymbolTableRecord
100
AcDbTextStyleTableRecord
  2
ACISOGDT
 70
     0
 40
0.0
 41
1.0
 50
0.0
 71
     0
 42
2.5
  3
amgdt.shx
  4

  0
ENDTAB
  0
TABLE
  2
VIEW
  5
6
330
0
100
AcDbSymbolTable
 70
     0
  0
ENDTAB
  0
TABLE
  2
UCS
  5
7
330
0
100
AcDbSymbolTable
 70
     0
  0
ENDTAB
  0
TABLE
  2
APPID
  5
9
330
0
100
AcDbSymbolTable
 70
    23
  0
APPID
  5
10
330
9
100
AcDbSymbolTableRecord
100
AcDbRegAppTableRecord
  2
ACAD
 70
     0
  0
APPID
  5
B2EE
330
9
100
AcDbSymbolTableRecord
100
AcDbRegAppTableRecord
  2
ACAD_PSEXT
 70
     0
  0
APPID
  5
B34E
330
9
100
AcDbSymbolTableRecord
100
AcDbRegAppTableRecord
  2
ACAD_EXEMPT_FROM_CAD_STANDARDS
 70
     0
  0
APPID
  5
B39F
330
9
100
AcDbSymbolTableRecord
100
AcDbRegAppTableRecord
  2
ACAD_DSTYLE_DIMEXT_LENGTH
 70
     0
  0
APPID
  5
B3A0
330
9
100
AcDbSymbolTableRecord
100
AcDbRegAppTableRecord
  2
ACAD_DSTYLE_DIMEXT_ENABLED
 70
     0
  0
APPID
  5
B3A1
330
9
100
AcDbSymbolTableRecord
100
AcDbRegAppTableRecord
  2
ACAD_DSTYLE_DIMJOGGED_JOGANGLE_SYMBOL
 70
     0
  0
APPID
  5
B3A2
330
9
100
AcDbSymbolTableRecord
100
AcDbRegAppTableRecord
  2
ACAD_DSTYLE_DIMARC_LENGTH_SYMBOL
 70
     0
  0
APPID
  5
B40B
330
9
100
AcDbSymbolTableRecord
100
AcDbRegAppTableRecord
  2
ACADSTRINGINFO
 70
     0
  0
APPID
  5
B41C
330
9
100
AcDbSymbolTableRecord
100
AcDbRegAppTableRecord
  2
MCAD_NO_VIS
 70
     0
  0
APPID
  5
B41D
330
9
100
AcDbSymbolTableRecord
100
AcDbRegAppTableRecord
  2
ACAD_TEMP_GRAPHIC
 70
     0
  0
APPID
  5
B447
330
9
100
AcDbSymbolTableRecord
100
AcDbRegAppTableRecord
  2
AD_DRAW
 70
     0
  0
APPID
  5
B44A
330
9
100
AcDbSymbolTableRecord
100
AcDbRegAppTableRecord
  2
ACATTRIBSERVICES
 70
     0
  0
APPID
  5
B463
330
9
100
AcDbSymbolTableRecord
100
AcDbRegAppTableRecord
  2
DESIGNERASSEMBLIES
 70
     0
  0
APPID
  5
B468
330
9
100
AcDbSymbolTableRecord
100
AcDbRegAppTableRecord
  2
ACADM_DIM_EDIT
 70
     0
  0
APPID
  5
B469
330
9
100
AcDbSymbolTableRecord
100
AcDbRegAppTableRecord
  2
AMDT_DM_ADJ
 70
     0
  0
APPID
  5
B482
330
9
100
AcDbSymbolTableRecord
100
AcDbRegAppTableRecord
  2
ACAD_DSTYLE_DIMJAG
 70
     0
  0
APPID
  5
B483
330
9
100
AcDbSymbolTableRecord
100
AcDbRegAppTableRecord
  2
ACAD_DSTYLE_DIMBREAK
 70
     0
  0
APPID
  5
B88E
330
9
100
AcDbSymbolTableRecord
100
AcDbRegAppTableRecord
  2
ACAD_MLEADERVER
 70
     0
  0
APPID
  5
B88F
330
9
100
AcDbSymbolTableRecord
100
AcDbRegAppTableRecord
  2
ACAD_DSTYLE_DIM_LINETYPE
 70
     0
  0
APPID
  5
B890
330
9
100
AcDbSymbolTableRecord
100
AcDbRegAppTableRecord
  2
ACAD_DSTYLE_DIM_EXT1_LINETYPE
 70
     0
  0
APPID
  5
B891
330
9
100
AcDbSymbolTableRecord
100
AcDbRegAppTableRecord
  2
ACAD_DSTYLE_DIM_EXT2_LINETYPE
 70
     0
  0
APPID
  5
B8F8
330
9
100
AcDbSymbolTableRecord
100
AcDbRegAppTableRecord
  2
ACAD_NAV_VCDISPLAY
 70
     0
  0
APPID
  5
BCAA
330
9
100
AcDbSymbolTableRecord
100
AcDbRegAppTableRecord
  2
ACAD_OBJECT_CHANGE_GUID
 70
     0
  0
ENDTAB
  0
TABLE
  2
DIMSTYLE
  5
A
330
0
100
AcDbSymbolTable
 70
     9
100
AcDbDimStyleTable
 71
     1
340
1A4
  0
DIMSTYLE
105
1D
330
A
100
AcDbSymbolTableRecord
100
AcDbDimStyleTableRecord
  2
STANDARD
 70
     0
 41
3.0
 42
0.06
 77
     3
140
4.0
144
0.3333333333333333
172
     1
340
F
  0
DIMSTYLE
105
1A4
102
{ACAD_REACTORS
330
B98D
330
B98E
330
B98F
330
B990
330
B99A
330
B9A8
330
B9AA
102
}
330
A
100
AcDbSymbolTableRecord
100
AcDbDimStyleTableRecord
  2
A
 70
     0
 41
2.5
 42
1.0
 43
6.0
 44
1.0
 73
     0
 74
     0
 77
     3
 78
     8
140
3.0
141
0.0
147
1.0
176
     6
177
     6
178
     3
271
     1
272
     1
279
     1
340
2A37
  0
DIMSTYLE
105
B481
330
A
100
AcDbSymbolTableRecord
100
AcDbDimStyleTableRecord
  2
AM_ISO
 70
     0
  4
"
 41
3.5
 42
1.0
 43
10.0
 44
1.0
 47
0.1
 48
0.1
 73
     0
 74
     0
 77
     1
 78
     8
 79
     2
140
3.5
141
0.0
143
0.0393701
146
0.71
147
1.5
172
     1
176
   256
177
   256
178
     2
271
     2
272
     3
274
     4
283
     0
284
     8
340
F
371
    -1
372
    -1
1001
ACAD_DSTYLE_DIMJAG
1070
   388
1040
1.5
1001
ACAD_DSTYLE_DIMBREAK
1070
   391
1040
3.75
1001
ACAD_DSTYLE_DIMARC_LENGTH_SYMBOL
1070
   379
1070
     1
1001
ACAD_DSTYLE_DIM_LINETYPE
1070
   380
1005
12
1001
ACAD_DSTYLE_DIM_EXT1_LINETYPE
1070
   381
1005
12
1001
ACAD_DSTYLE_DIM_EXT2_LINETYPE
1070
   382
1005
12
  0
DIMSTYLE
105
B48E
330
A
100
AcDbSymbolTableRecord
100
AcDbDimStyleTableRecord
  2
AM_ISO$3
 70
     0
  4
"
 41
3.5
 42
1.0
 43
10.0
 44
1.0
 47
0.1
 48
0.1
 73
     0
 77
     1
 78
     8
 79
     2
140
3.5
141
0.0
143
0.0393701
146
0.71
147
1.5
176
   256
177
   256
178
     2
271
     2
272
     3
274
     4
283
     0
284
     8
288
     1
289
     0
340
F
371
    -1
372
    -1
1001
ACAD_DSTYLE_DIMBREAK
1070
   391
1040
3.75
1001
ACAD_DSTYLE_DIMJAG
1070
   388
1040
1.5
1001
ACAD_DSTYLE_DIMARC_LENGTH_SYMBOL
1070
   379
1070
     1
1001
ACAD_DSTYLE_DIM_LINETYPE
1070
   380
1005
12
1001
ACAD_DSTYLE_DIM_EXT1_LINETYPE
1070
   381
1005
12
1001
ACAD_DSTYLE_DIM_EXT2_LINETYPE
1070
   382
1005
12
  0
DIMSTYLE
105
B48F
330
A
100
AcDbSymbolTableRecord
100
AcDbDimStyleTableRecord
  2
AM_ISO$4
 70
     0
  4
"
 41
3.5
 42
1.0
 43
10.0
 44
1.0
 47
0.1
 48
0.1
 73
     0
 77
     1
 78
     8
 79
     2
140
3.5
141
0.0
143
0.0393701
146
0.71
147
1.5
176
   256
177
   256
178
     2
271
     2
272
     3
274
     4
283
     0
284
     8
288
     1
289
     0
340
F
371
    -1
372
    -1
1001
ACAD_DSTYLE_DIMBREAK
1070
   391
1040
3.75
1001
ACAD_DSTYLE_DIMJAG
1070
   388
1040
1.5
1001
ACAD_DSTYLE_DIMARC_LENGTH_SYMBOL
1070
   379
1070
     1
1001
ACAD_DSTYLE_DIM_LINETYPE
1070
   380
1005
12
1001
ACAD_DSTYLE_DIM_EXT1_LINETYPE
1070
   381
1005
12
1001
ACAD_DSTYLE_DIM_EXT2_LINETYPE
1070
   382
1005
12
  0
DIMSTYLE
105
B490
330
A
100
AcDbSymbolTableRecord
100
AcDbDimStyleTableRecord
  2
AM_ISO$6
 70
     0
  4
"
 41
3.5
 42
1.0
 43
10.0
 44
1.0
 47
0.1
 48
0.1
 73
     0
 74
     0
 78
     8
 79
     2
140
3.5
141
0.0
143
0.0393701
146
0.71
147
1.5
172
     1
176
   256
177
   256
178
     2
271
     2
272
     3
274
     4
283
     0
284
     8
340
F
371
    -1
372
    -1
1001
ACAD_DSTYLE_DIMBREAK
1070
   391
1040
3.75
1001
ACAD_DSTYLE_DIMJAG
1070
   388
1040
1.5
1001
ACAD_DSTYLE_DIMARC_LENGTH_SYMBOL
1070
   379
1070
     1
1001
ACAD_DSTYLE_DIM_LINETYPE
1070
   380
1005
12
1001
ACAD_DSTYLE_DIM_EXT1_LINETYPE
1070
   381
1005
12
1001
ACAD_DSTYLE_DIM_EXT2_LINETYPE
1070
   382
1005
12
  0
DIMSTYLE
105
B491
330
A
100
AcDbSymbolTableRecord
100
AcDbDimStyleTableRecord
  2
AM_ISO$7
 70
     0
  4
"
 41
3.5
 42
1.0
 43
10.0
 44
1.0
 47
0.1
 48
0.1
 73
     0
 74
     0
 77
     1
 78
     8
 79
     2
140
3.5
141
0.0
143
0.0393701
146
0.71
147
1.5
172
     1
176
   256
177
   256
178
     2
271
     2
272
     3
274
     4
283
     0
284
     8
340
F
371
    -1
372
    -1
1001
ACAD_DSTYLE_DIMBREAK
1070
   391
1040
3.75
1001
ACAD_DSTYLE_DIMJAG
1070
   388
1040
1.5
1001
ACAD_DSTYLE_DIMARC_LENGTH_SYMBOL
1070
   379
1070
     1
1001
ACAD_DSTYLE_DIM_LINETYPE
1070
   380
1005
12
1001
ACAD_DSTYLE_DIM_EXT1_LINETYPE
1070
   381
1005
12
1001
ACAD_DSTYLE_DIM_EXT2_LINETYPE
1070
   382
1005
12
  0
DIMSTYLE
105
B492
330
A
100
AcDbSymbolTableRecord
100
AcDbDimStyleTableRecord
  2
AM_ISO$SF
 70
     0
  4
"
 41
3.5
 42
1.0
 43
10.0
 44
1.0
 47
0.1
 48
0.1
 73
     0
 74
     0
 75
     1
 76
     1
 77
     1
 78
     8
 79
     2
140
3.5
141
0.0
143
0.0393701
146
0.71
147
1.5
172
     1
176
   256
177
   256
178
     2
271
     2
272
     3
274
     4
283
     0
284
     8
340
F
371
    -1
372
    -1
1001
ACAD_DSTYLE_DIMBREAK
1070
   391
1040
3.75
1001
ACAD_DSTYLE_DIMJAG
1070
   388
1040
1.5
1001
ACAD_DSTYLE_DIMARC_LENGTH_SYMBOL
1070
   379
1070
     1
1001
ACAD_DSTYLE_DIM_LINETYPE
1070
   380
1005
12
1001
ACAD_DSTYLE_DIM_EXT1_LINETYPE
1070
   381
1005
12
1001
ACAD_DSTYLE_DIM_EXT2_LINETYPE
1070
   382
1005
12
  0
DIMSTYLE
105
B497
330
A
100
AcDbSymbolTableRecord
100
AcDbDimStyleTableRecord
  2
AM_ISO$SH
 70
     0
  4
"
 41
3.5
 42
1.0
 43
10.0
 44
1.0
 47
0.1
 48
0.1
 73
     0
 74
     0
 75
     1
 76
     1
 77
     1
 78
     8
 79
     2
140
3.5
141
0.0
143
0.0393701
144
2.0
146
0.71
147
1.5
172
     1
173
     1
176
   256
177
   256
178
     2
271
     2
272
     3
274
     4
283
     0
284
     8
340
F
343
B493
371
    -1
372
    -1
1001
ACAD_DSTYLE_DIMBREAK
1070
   391
1040
3.75
1001
ACAD_DSTYLE_DIMJAG
1070
   388
1040
1.5
1001
ACAD_DSTYLE_DIMARC_LENGTH_SYMBOL
1070
   379
1070
     1
1001
ACAD_DSTYLE_DIM_LINETYPE
1070
   380
1005
12
1001
ACAD_DSTYLE_DIM_EXT1_LINETYPE
1070
   381
1005
12
1001
ACAD_DSTYLE_DIM_EXT2_LINETYPE
1070
   382
1005
12
  0
ENDTAB
  0
TABLE
  2
BLOCK_RECORD
  5
1
330
0
100
AcDbSymbolTable
 70
    17
  0
BLOCK_RECORD
  5
18
102
{ACAD_XDICTIONARY
360
45F
102
}
330
1
100
AcDbSymbolTableRecord
100
AcDbBlockTableRecord
  2
*MODEL_SPACE
340
5CF5
  0
BLOCK_RECORD
  5
15
102
{ACAD_XDICTIONARY
360
5D89
102
}
330
1
100
AcDbSymbolTableRecord
100
AcDbBlockTableRecord
  2
*PAPER_SPACE
340
5CF6
  0
BLOCK_RECORD
  5
79D5
330
1
100
AcDbSymbolTableRecord
100
AcDbBlockTableRecord
  2
*D0
340
0
  0
BLOCK_RECORD
  5
79E1
330
1
100
AcDbSymbolTableRecord
100
AcDbBlockTableRecord
  2
*D1
340
0
  0
BLOCK_RECORD
  5
79ED
330
1
100
AcDbSymbolTableRecord
100
AcDbBlockTableRecord
  2
*D2
340
0
  0
BLOCK_RECORD
  5
7A05
330
1
100
AcDbSymbolTableRecord
100
AcDbBlockTableRecord
  2
*D3
340
0
  0
BLOCK_RECORD
  5
7A11
330
1
100
AcDbSymbolTableRecord
100
AcDbBlockTableRecord
  2
*D4
340
0
  0
BLOCK_RECORD
  5
7C35
330
1
100
AcDbSymbolTableRecord
100
AcDbBlockTableRecord
  2
*D5
340
0
  0
BLOCK_RECORD
  5
8078
330
1
100
AcDbSymbolTableRecord
100
AcDbBlockTableRecord
  2
_DOTSMALL
340
0
  0
BLOCK_RECORD
  5
8081
330
1
100
AcDbSymbolTableRecord
100
AcDbBlockTableRecord
  2
*D7
340
0
  0
BLOCK_RECORD
  5
B399
330
1
100
AcDbSymbolTableRecord
100
AcDbBlockTableRecord
  2
_Open30
340
0
  0
BLOCK_RECORD
  5
B493
330
1
100
AcDbSymbolTableRecord
100
AcDbBlockTableRecord
  2
GENAXEH
340
0
  0
BLOCK_RECORD
  5
BA5C
330
1
100
AcDbSymbolTableRecord
100
AcDbBlockTableRecord
  2
*D10
340
0
  0
BLOCK_RECORD
  5
BA68
330
1
100
AcDbSymbolTableRecord
100
AcDbBlockTableRecord
  2
*D11
340
0
  0
BLOCK_RECORD
  5
BA74
330
1
100
AcDbSymbolTableRecord
100
AcDbBlockTableRecord
  2
*D12
340
0
  0
BLOCK_RECORD
  5
BA80
330
1
100
AcDbSymbolTableRecord
100
AcDbBlockTableRecord
  2
*D13
340
0
  0
BLOCK_RECORD
  5
BA8C
330
1
100
AcDbSymbolTableRecord
100
AcDbBlockTableRecord
  2
*D14
340
0
  0
BLOCK_RECORD
  5
BA98
330
1
100
AcDbSymbolTableRecord
100
AcDbBlockTableRecord
  2
*D15
340
0
  0
BLOCK_RECORD
  5
BAA4
330
1
100
AcDbSymbolTableRecord
100
AcDbBlockTableRecord
  2
*D16
340
0
  0
ENDTAB
  0
ENDSEC
  0
SECTION
  2
BLOCKS
  0
BLOCK
  5
19
330
18
100
AcDbEntity
  8
0
100
AcDbBlockBegin
  2
*MODEL_SPACE
 70
     0
 10
0.0
 20
0.0
 30
0.0
  3
*MODEL_SPACE
  1

  0
ENDBLK
  5
1A
330
18
100
AcDbEntity
  8
0
100
AcDbBlockEnd
  0
BLOCK
  5
16
330
15
100
AcDbEntity
 67
     1
  8
0
100
AcDbBlockBegin
  2
*PAPER_SPACE
 70
     0
 10
0.0
 20
0.0
 30
0.0
  3
*PAPER_SPACE
  1

  0
ENDBLK
  5
17
330
15
100
AcDbEntity
 67
     1
  8
0
100
AcDbBlockEnd
  0
BLOCK
  5
B198
330
79D5
100
AcDbEntity
  8
0
100
AcDbBlockBegin
  2
*D0
 70
     1
 10
0.0
 20
0.0
 30
0.0
  3
*D0
  1

  0
LINE
  5
B354
330
79D5
100
AcDbEntity
  8
0
 62
     6
370
    -2
100
AcDbLine
 10
47.94169031167955
 20
78.46679976913769
 30
0.0
 11
47.94169031167955
 21
53.57983261152925
 31
0.0
  0
LINE
  5
B355
330
79D5
100
AcDbEntity
  8
0
 62
     6
370
    -2
100
AcDbLine
 10
157.9416903116794
 20
78.4667997691386
 30
0.0
 11
157.9416903116794
 21
53.57983261152925
 31
0.0
  0
LINE
  5
B356
330
79D5
100
AcDbEntity
  8
0
 62
     6
370
    -2
100
AcDbLine
 10
50.44169031167955
 20
54.57983261152925
 30
0.0
 11
155.4416903116794
 21
54.57983261152925
 31
0.0
  0
MTEXT
  5
B357
330
79D5
100
AcDbEntity
  8
0
 62
     3
100
AcDbMText
 10
102.9416903116795
 20
57.07983261152925
 30
0.0
 40
3.0
 41
0.0
 71
     5
 72
     1
  1
\A1;%%c110%%p0.5
  7
TXT
 73
     1
 44
1.0
1001
ACAD
1000
MTEXTBEGIN
1070
    73
1070
     1
1070
    44
1040
1.0
1070
    74
1070
     0
1000
MTEXTEND
  0
SOLID
  5
B358
330
79D5
100
AcDbEntity
  8
0
 62
     6
100
AcDbTrace
 10
50.44169031167955
 20
54.99649927819592
 30
0.0
 11
50.44169031167955
 21
54.16316594486259
 31
0.0
 12
47.94169031167955
 22
54.57983261152925
 32
0.0
 13
47.94169031167955
 23
54.57983261152925
 33
0.0
  0
SOLID
  5
B359
330
79D5
100
AcDbEntity
  8
0
 62
     6
100
AcDbTrace
 10
155.4416903116794
 20
54.99649927819592
 30
0.0
 11
155.4416903116794
 21
54.16316594486259
 31
0.0
 12
157.9416903116794
 22
54.57983261152925
 32
0.0
 13
157.9416903116794
 23
54.57983261152925
 33
0.0
  0
POINT
  5
B35A
330
79D5
100
AcDbEntity
  8
DEFPOINTS
 62
     0
100
AcDbPoint
 10
47.94169031167955
 20
79.46679976913769
 30
0.0
  0
POINT
  5
B35B
330
79D5
100
AcDbEntity
  8
DEFPOINTS
 62
     0
100
AcDbPoint
 10
157.9416903116794
 20
79.4667997691386
 30
0.0
  0
POINT
  5
B35C
330
79D5
100
AcDbEntity
  8
DEFPOINTS
 62
     0
100
AcDbPoint
 10
157.9416903116794
 20
54.57983261152925
 30
0.0
  0
ENDBLK
  5
B1A2
330
79D5
100
AcDbEntity
  8
0
100
AcDbBlockEnd
  0
BLOCK
  5
B1A3
330
79E1
100
AcDbEntity
  8
0
100
AcDbBlockBegin
  2
*D1
 70
     1
 10
0.0
 20
0.0
 30
0.0
  3
*D1
  1

  0
LINE
  5
B35D
330
79E1
100
AcDbEntity
  8
0
 62
     6
370
    -2
100
AcDbLine
 10
57.44169031167955
 20
78.46679976913787
 30
0.0
 11
57.44169031167955
 21
60.78917988661943
 31
0.0
  0
LINE
  5
B35E
330
79E1
100
AcDbEntity
  8
0
 62
     6
370
    -2
100
AcDbLine
 10
148.4416903116795
 20
78.46679976913946
 30
0.0
 11
148.4416903116795
 21
60.78917988661943
 31
0.0
  0
LINE
  5
B35F
330
79E1
100
AcDbEntity
  8
0
 62
     6
370
    -2
100
AcDbLine
 10
59.94169031167955
 20
61.78917988661943
 30
0.0
 11
145.9416903116795
 21
61.78917988661943
 31
0.0
  0
SOLID
  5
B360
330
79E1
100
AcDbEntity
  8
0
 62
     6
100
AcDbTrace
 10
59.94169031167955
 20
62.2058465532861
 30
0.0
 11
59.94169031167955
 21
61.37251321995277
 31
0.0
 12
57.44169031167955
 22
61.78917988661943
 32
0.0
 13
57.44169031167955
 23
61.78917988661943
 33
0.0
  0
SOLID
  5
B361
330
79E1
100
AcDbEntity
  8
0
 62
     6
100
AcDbTrace
 10
145.9416903116795
 20
62.2058465532861
 30
0.0
 11
145.9416903116795
 21
61.37251321995277
 31
0.0
 12
148.4416903116795
 22
61.78917988661943
 32
0.0
 13
148.4416903116795
 23
61.78917988661943
 33
0.0
  0
MTEXT
  5
B362
330
79E1
100
AcDbEntity
  8
0
 62
     3
100
AcDbMText
 10
102.9416903116795
 20
64.28917988661943
 30
0.0
 40
3.0
 41
0.0
 71
     5
 72
     1
  1
\A1;%%C91
  7
TXT
 73
     1
 44
1.0
1001
ACAD
1000
MTEXTBEGIN
1070
    73
1070
     1
1070
    44
1040
1.0
1070
    74
1070
     0
1000
MTEXTEND
  0
POINT
  5
B363
330
79E1
100
AcDbEntity
  8
DEFPOINTS
 62
     0
100
AcDbPoint
 10
57.44169031167955
 20
79.46679976913786
 30
0.0
  0
POINT
  5
B364
330
79E1
100
AcDbEntity
  8
DEFPOINTS
 62
     0
100
AcDbPoint
 10
148.4416903116795
 20
79.46679976913945
 30
0.0
  0
POINT
  5
B365
330
79E1
100
AcDbEntity
  8
DEFPOINTS
 62
     0
100
AcDbPoint
 10
148.4416903116795
 20
61.78917988661943
 30
0.0
  0
ENDBLK
  5
B1AD
330
79E1
100
AcDbEntity
  8
0
100
AcDbBlockEnd
  0
BLOCK
  5
B1AE
330
79ED
100
AcDbEntity
  8
0
100
AcDbBlockBegin
  2
*D2
 70
     1
 10
0.0
 20
0.0
 30
0.0
  3
*D2
  1

  0
LINE
  5
B366
330
79ED
100
AcDbEntity
  8
0
 62
     6
370
    -2
100
AcDbLine
 10
43.94169031167949
 20
85.46679976913761
 30
0.0
 11
43.94169031167949
 21
46.37048463688053
 31
0.0
  0
LINE
  5
B367
330
79ED
100
AcDbEntity
  8
0
 62
     6
370
    -2
100
AcDbLine
 10
161.9416903116794
 20
85.4067997691386
 30
0.0
 11
161.9416903116794
 21
46.37048463688053
 31
0.0
  0
LINE
  5
B368
330
79ED
100
AcDbEntity
  8
0
 62
     6
370
    -2
100
AcDbLine
 10
46.44169031167949
 20
47.37048463688053
 30
0.0
 11
159.4416903116794
 21
47.37048463688053
 31
0.0
  0
MTEXT
  5
B369
330
79ED
100
AcDbEntity
  8
0
 62
     3
100
AcDbMText
 10
102.5253415081182
 20
49.87048463688053
 30
0.0
 40
3.0
 41
0.0
 71
     5
 72
     1
  1
\A1;%%C118%%p0.2
  7
TXT
 73
     1
 44
1.0
1001
ACAD
1000
MTEXTBEGIN
1070
    73
1070
     1
1070
    44
1040
1.0
1070
    74
1070
     0
1000
MTEXTEND
  0
SOLID
  5
B36A
330
79ED
100
AcDbEntity
  8
0
 62
     6
100
AcDbTrace
 10
46.44169031167949
 20
47.78715130354719
 30
0.0
 11
46.44169031167949
 21
46.95381797021386
 31
0.0
 12
43.94169031167949
 22
47.37048463688053
 32
0.0
 13
43.94169031167949
 23
47.37048463688053
 33
0.0
  0
SOLID
  5
B36B
330
79ED
100
AcDbEntity
  8
0
 62
     6
100
AcDbTrace
 10
159.4416903116794
 20
47.78715130354719
 30
0.0
 11
159.4416903116794
 21
46.95381797021386
 31
0.0
 12
161.9416903116794
 22
47.37048463688053
 32
0.0
 13
161.9416903116794
 23
47.37048463688053
 33
0.0
  0
POINT
  5
B36C
330
79ED
100
AcDbEntity
  8
DEFPOINTS
 62
     0
100
AcDbPoint
 10
43.94169031167949
 20
86.46679976913761
 30
0.0
  0
POINT
  5
B36D
330
79ED
100
AcDbEntity
  8
DEFPOINTS
 62
     0
100
AcDbPoint
 10
161.9416903116794
 20
86.4067997691386
 30
0.0
  0
POINT
  5
B36E
330
79ED
100
AcDbEntity
  8
DEFPOINTS
 62
     0
100
AcDbPoint
 10
161.9416903116794
 20
47.37048463688053
 30
0.0
  0
ENDBLK
  5
B1B8
330
79ED
100
AcDbEntity
  8
0
100
AcDbBlockEnd
  0
BLOCK
  5
B161
330
7A05
100
AcDbEntity
  8
0
100
AcDbBlockBegin
  2
*D3
 70
     1
 10
0.0
 20
0.0
 30
0.0
  3
*D3
  1

  0
LINE
  5
B36F
330
7A05
100
AcDbEntity
  8
0
 62
     6
370
    -2
100
AcDbLine
 10
46.94169031167954
 20
79.46679976913769
 30
0.0
 11
28.91124452336389
 21
79.4667997691377
 31
0.0
  0
LINE
  5
B370
330
7A05
100
AcDbEntity
  8
0
 62
     6
370
    -2
100
AcDbLine
 10
39.44169031167933
 20
96.46679976913818
 30
0.0
 11
28.91124452336389
 21
96.46679976913819
 31
0.0
  0
LINE
  5
B371
330
7A05
100
AcDbEntity
  8
0
 62
     6
370
    -2
100
AcDbLine
 10
29.91124452336389
 20
81.9667997691377
 30
0.0
 11
29.91124452336389
 21
93.96679976913819
 31
0.0
  0
SOLID
  5
B372
330
7A05
100
AcDbEntity
  8
0
 62
     6
100
AcDbTrace
 10
29.49457785669722
 20
81.9667997691377
 30
0.0
 11
30.32791119003056
 21
81.9667997691377
 31
0.0
 12
29.91124452336389
 22
79.4667997691377
 32
0.0
 13
29.91124452336389
 23
79.4667997691377
 33
0.0
  0
SOLID
  5
B373
330
7A05
100
AcDbEntity
  8
0
 62
     6
100
AcDbTrace
 10
29.49457785669722
 20
93.96679976913819
 30
0.0
 11
30.32791119003056
 21
93.96679976913819
 31
0.0
 12
29.91124452336389
 22
96.46679976913819
 32
0.0
 13
29.91124452336389
 23
96.46679976913819
 33
0.0
  0
MTEXT
  5
B374
330
7A05
100
AcDbEntity
  8
0
 62
     3
100
AcDbMText
 10
27.41124452336388
 20
87.96679976913795
 30
0.0
 40
3.0
 41
0.0
 71
     5
 72
     1
  1
\A1;17
  7
TXT
 11
0.0000000000000001
 21
1.0
 31
0.0
 73
     1
 44
1.0
1001
ACAD
1000
MTEXTBEGIN
1070
    73
1070
     1
1070
    44
1040
1.0
1070
    74
1070
     0
1000
MTEXTEND
  0
POINT
  5
B375
330
7A05
100
AcDbEntity
  8
DEFPOINTS
 62
     0
100
AcDbPoint
 10
47.94169031167955
 20
79.46679976913769
 30
0.0
  0
POINT
  5
B376
330
7A05
100
AcDbEntity
  8
DEFPOINTS
 62
     0
100
AcDbPoint
 10
40.44169031167932
 20
96.46679976913818
 30
0.0
  0
POINT
  5
B377
330
7A05
100
AcDbEntity
  8
DEFPOINTS
 62
     0
100
AcDbPoint
 10
29.91124452336389
 20
96.46679976913819
 30
0.0
  0
ENDBLK
  5
B16B
330
7A05
100
AcDbEntity
  8
0
100
AcDbBlockEnd
  0
BLOCK
  5
B117
330
7A11
100
AcDbEntity
  8
0
100
AcDbBlockBegin
  2
*D4
 70
     1
 10
0.0
 20
0.0
 30
0.0
  3
*D4
  1

  0
LINE
  5
B378
330
7A11
100
AcDbEntity
  8
0
 62
     6
370
    -2
100
AcDbLine
 10
57.94169031167955
 20
111.8001331024717
 30
0.0
 11
57.94169031167955
 21
125.8019055903906
 31
0.0
  0
LINE
  5
B379
330
7A11
100
AcDbEntity
  8
0
 62
     6
370
    -2
100
AcDbLine
 10
147.9416903116793
 20
111.8001331024716
 30
0.0
 11
147.9416903116793
 21
125.8019055903906
 31
0.0
  0
LINE
  5
B37A
330
7A11
100
AcDbEntity
  8
0
 62
     6
370
    -2
100
AcDbLine
 10
60.44169031167955
 20
124.8019055903906
 30
0.0
 11
145.4416903116793
 21
124.8019055903906
 31
0.0
  0
SOLID
  5
B37B
330
7A11
100
AcDbEntity
  8
0
 62
     6
100
AcDbTrace
 10
60.44169031167955
 20
125.2185722570573
 30
0.0
 11
60.44169031167955
 21
124.385238923724
 31
0.0
 12
57.94169031167955
 22
124.8019055903906
 32
0.0
 13
57.94169031167955
 23
124.8019055903906
 33
0.0
  0
SOLID
  5
B37C
330
7A11
100
AcDbEntity
  8
0
 62
     6
100
AcDbTrace
 10
145.4416903116793
 20
125.2185722570573
 30
0.0
 11
145.4416903116793
 21
124.385238923724
 31
0.0
 12
147.9416903116793
 22
124.8019055903906
 32
0.0
 13
147.9416903116793
 23
124.8019055903906
 33
0.0
  0
MTEXT
  5
B37D
330
7A11
100
AcDbEntity
  8
0
 62
     3
100
AcDbMText
 10
102.9416903116794
 20
127.3019055903906
 30
0.0
 40
3.0
 41
0.0
 71
     5
 72
     1
  1
\A1;M90X2.0P
  7
TXT
 73
     1
 44
1.0
1001
ACAD
1000
MTEXTBEGIN
1070
    73
1070
     1
1070
    44
1040
1.0
1070
    74
1070
     0
1000
MTEXTEND
  0
POINT
  5
B37E
330
7A11
100
AcDbEntity
  8
DEFPOINTS
 62
     0
100
AcDbPoint
 10
57.94169031167955
 20
110.8001331024717
 30
0.0
  0
POINT
  5
B37F
330
7A11
100
AcDbEntity
  8
DEFPOINTS
 62
     0
100
AcDbPoint
 10
147.9416903116793
 20
110.8001331024716
 30
0.0
  0
POINT
  5
B380
330
7A11
100
AcDbEntity
  8
DEFPOINTS
 62
     0
100
AcDbPoint
 10
147.9416903116793
 20
124.8019055903906
 30
0.0
  0
ENDBLK
  5
B121
330
7A11
100
AcDbEntity
  8
0
100
AcDbBlockEnd
  0
BLOCK
  5
B12F
330
7C35
100
AcDbEntity
  8
0
100
AcDbBlockBegin
  2
*D5
 70
     1
 10
0.0
 20
0.0
 30
0.0
  3
*D5
  1

  0
LINE
  5
B381
330
7C35
100
AcDbEntity
  8
DIM
 62
     6
370
    -2
100
AcDbLine
 10
162.8816903116794
 20
111.4667997691386
 30
0.0
 11
176.2663520481028
 21
111.4667997691386
 31
0.0
  0
LINE
  5
B382
330
7C35
100
AcDbEntity
  8
DIM
 62
     6
370
    -2
100
AcDbLine
 10
158.9416903116795
 20
79.4667997691386
 30
0.0
 11
176.2663520481028
 21
79.46679976913859
 31
0.0
  0
LINE
  5
B383
330
7C35
100
AcDbEntity
  8
DIM
 62
     6
370
    -2
100
AcDbLine
 10
175.2663520481029
 20
108.9667997691386
 30
0.0
 11
175.2663520481029
 21
81.96679976913859
 31
0.0
  0
SOLID
  5
B384
330
7C35
100
AcDbEntity
  8
DIM
 62
     6
100
AcDbTrace
 10
174.8496853814362
 20
108.9667997691386
 30
0.0
 11
175.6830187147695
 21
108.9667997691386
 31
0.0
 12
175.2663520481029
 22
111.4667997691386
 32
0.0
 13
175.2663520481029
 23
111.4667997691386
 33
0.0
  0
SOLID
  5
B385
330
7C35
100
AcDbEntity
  8
DIM
 62
     6
100
AcDbTrace
 10
174.8496853814362
 20
81.96679976913859
 30
0.0
 11
175.6830187147695
 21
81.96679976913859
 31
0.0
 12
175.2663520481029
 22
79.46679976913859
 32
0.0
 13
175.2663520481029
 23
79.46679976913859
 33
0.0
  0
MTEXT
  5
B386
330
7C35
100
AcDbEntity
  8
DIM
 62
     3
100
AcDbMText
 10
172.7663520481028
 20
95.46679976913862
 30
0.0
 40
3.0
 41
0.0
 71
     5
 72
     1
  1
\A1;32%%p0.2
  7
TXT
 11
0.0000000000000001
 21
1.0
 31
0.0
 73
     1
 44
1.0
1001
ACAD
1000
MTEXTBEGIN
1070
    73
1070
     1
1070
    44
1040
1.0
1070
    74
1070
     0
1000
MTEXTEND
  0
POINT
  5
B387
330
7C35
100
AcDbEntity
  8
DEFPOINTS
 62
     0
100
AcDbPoint
 10
161.8816903116794
 20
111.4667997691386
 30
0.0
  0
POINT
  5
B388
330
7C35
100
AcDbEntity
  8
DEFPOINTS
 62
     0
100
AcDbPoint
 10
157.9416903116795
 20
79.4667997691386
 30
0.0
  0
POINT
  5
B389
330
7C35
100
AcDbEntity
  8
DEFPOINTS
 62
     0
100
AcDbPoint
 10
175.2663520481029
 20
79.46679976913859
 30
0.0
  0
ENDBLK
  5
B139
330
7C35
100
AcDbEntity
  8
0
100
AcDbBlockEnd
  0
BLOCK
  5
8079
330
8078
100
AcDbEntity
  8
0
100
AcDbBlockBegin
  2
_DOTSMALL
 70
     0
 10
0.0
 20
0.0
 30
0.0
  3
_DOTSMALL
  1

  0
LWPOLYLINE
  5
807A
330
8078
100
AcDbEntity
  8
0
  6
ByBlock
 62
     0
100
AcDbPolyline
 90
        2
 70
     1
 43
0.5
 10
-0.0625
 20
0.0
 42
1.0
 10
0.0625
 20
0.0
 42
1.0
  0
ENDBLK
  5
807E
330
8078
100
AcDbEntity
  8
0
100
AcDbBlockEnd
  0
BLOCK
  5
B122
330
8081
100
AcDbEntity
  8
0
100
AcDbBlockBegin
  2
*D7
 70
     1
 10
0.0
 20
0.0
 30
0.0
  3
*D7
  1

  0
LINE
  5
B38A
330
8081
100
AcDbEntity
  8
DIM
 62
     6
370
    -2
100
AcDbLine
 10
149.4416903116795
 20
82.46679976913855
 30
0.0
 11
169.3806716328275
 21
82.46679976913853
 31
0.0
  0
LINE
  5
B38B
330
8081
100
AcDbEntity
  8
DIM
 62
     6
370
    -2
100
AcDbLine
 10
158.9416903116795
 20
79.4667997691386
 30
0.0
 11
169.3806716328275
 21
79.46679976913859
 31
0.0
  0
LINE
  5
B38C
330
8081
100
AcDbEntity
  8
DIM
 62
     6
370
    -2
100
AcDbLine
 10
168.3806716328275
 20
84.96679976913853
 30
0.0
 11
168.3806716328275
 21
87.46679976913853
 31
0.0
  0
LINE
  5
B38D
330
8081
100
AcDbEntity
  8
DIM
 62
     6
370
    -2
100
AcDbLine
 10
168.3806716328275
 20
76.96679976913859
 30
0.0
 11
168.3806716328275
 21
74.46679976913859
 31
0.0
  0
MTEXT
  5
B38E
330
8081
100
AcDbEntity
  8
DIM
 62
     3
100
AcDbMText
 10
165.8806716328275
 20
80.96679976913858
 30
0.0
 40
3.0
 41
0.0
 71
     5
 72
     1
  1
\A1;3
  7
TXT
 11
0.0000000000000001
 21
1.0
 31
0.0
 73
     1
 44
1.0
1001
ACAD
1000
MTEXTBEGIN
1070
    73
1070
     1
1070
    44
1040
1.0
1070
    74
1070
     0
1000
MTEXTEND
  0
SOLID
  5
B38F
330
8081
100
AcDbEntity
  8
DIM
 62
     6
100
AcDbTrace
 10
167.9640049661609
 20
84.96679976913853
 30
0.0
 11
168.7973382994942
 21
84.96679976913853
 31
0.0
 12
168.3806716328275
 22
82.46679976913853
 32
0.0
 13
168.3806716328275
 23
82.46679976913853
 33
0.0
  0
SOLID
  5
B390
330
8081
100
AcDbEntity
  8
DIM
 62
     6
100
AcDbTrace
 10
167.9640049661609
 20
76.96679976913859
 30
0.0
 11
168.7973382994942
 21
76.96679976913859
 31
0.0
 12
168.3806716328275
 22
79.46679976913859
 32
0.0
 13
168.3806716328275
 23
79.46679976913859
 33
0.0
  0
POINT
  5
B391
330
8081
100
AcDbEntity
  8
DEFPOINTS
 62
     0
100
AcDbPoint
 10
148.4416903116795
 20
82.46679976913855
 30
0.0
  0
POINT
  5
B392
330
8081
100
AcDbEntity
  8
DEFPOINTS
 62
     0
100
AcDbPoint
 10
157.9416903116795
 20
79.4667997691386
 30
0.0
  0
POINT
  5
B393
330
8081
100
AcDbEntity
  8
DEFPOINTS
 62
     0
100
AcDbPoint
 10
168.3806716328275
 20
79.46679976913859
 30
0.0
  0
ENDBLK
  5
B12E
330
8081
100
AcDbEntity
  8
0
100
AcDbBlockEnd
  0
BLOCK
  5
B39A
330
B399
100
AcDbEntity
  8
0
100
AcDbBlockBegin
  2
_Open30
 70
     0
 10
0.0
 20
0.0
 30
0.0
  3
_Open30
  1

  0
LINE
  5
B39B
330
B399
100
AcDbEntity
  8
0
  6
ByBlock
 62
     0
370
    -2
100
AcDbLine
 10
-1.0
 20
0.26794919
 30
0.0
 11
0.0
 21
0.0
 31
0.0
  0
LINE
  5
B39C
330
B399
100
AcDbEntity
  8
0
  6
ByBlock
 62
     0
370
    -2
100
AcDbLine
 10
0.0
 20
0.0
 30
0.0
 11
-1.0
 21
-0.26794919
 31
0.0
  0
LINE
  5
B39D
330
B399
100
AcDbEntity
  8
0
  6
ByBlock
 62
     0
370
    -2
100
AcDbLine
 10
0.0
 20
0.0
 30
0.0
 11
-1.0
 21
0.0
 31
0.0
  0
ENDBLK
  5
B39E
330
B399
100
AcDbEntity
  8
0
100
AcDbBlockEnd
  0
BLOCK
  5
B495
330
B493
100
AcDbEntity
  8
0
100
AcDbBlockBegin
  2
GENAXEH
 70
     0
 10
0.0
 20
0.0
 30
0.0
  3
GENAXEH
  1

  0
LINE
  5
B494
330
B493
100
AcDbEntity
  8
0
100
AcDbLine
 10
-1.0
 20
0.0
 30
0.0
 11
1.0
 21
0.0
 31
0.0
  0
ENDBLK
  5
B496
330
B493
100
AcDbEntity
  8
0
100
AcDbBlockEnd
  0
BLOCK
  5
BA5D
330
BA5C
100
AcDbEntity
  8
0
100
AcDbBlockBegin
  2
*D10
 70
     1
 10
0.0
 20
0.0
 30
0.0
  3
*D10
  1

  0
LINE
  5
BAB1
330
BA5C
100
AcDbEntity
  8
0
 62
     6
370
    -2
100
AcDbLine
 10
255.9416903116796
 20
78.46679976913769
 30
0.0
 11
255.9416903116796
 21
53.57983261152925
 31
0.0
  0
LINE
  5
BAB2
330
BA5C
100
AcDbEntity
  8
0
 62
     6
370
    -2
100
AcDbLine
 10
365.9416903116794
 20
78.4667997691386
 30
0.0
 11
365.9416903116794
 21
53.57983261152925
 31
0.0
  0
LINE
  5
BAB3
330
BA5C
100
AcDbEntity
  8
0
 62
     6
370
    -2
100
AcDbLine
 10
258.4416903116796
 20
54.57983261152925
 30
0.0
 11
363.4416903116794
 21
54.57983261152925
 31
0.0
  0
MTEXT
  5
BAB4
330
BA5C
100
AcDbEntity
  8
0
 62
     3
100
AcDbMText
 10
310.9416903116795
 20
57.07983261152925
 30
0.0
 40
3.0
 41
0.0
 71
     5
 72
     1
  1
\A1;%%c110%%p0.5
  7
TXT
 73
     1
 44
1.0
1001
ACAD
1000
MTEXTBEGIN
1070
    73
1070
     1
1070
    44
1040
1.0
1070
    74
1070
     0
1000
MTEXTEND
  0
SOLID
  5
BAB5
330
BA5C
100
AcDbEntity
  8
0
 62
     6
100
AcDbTrace
 10
258.4416903116796
 20
54.99649927819592
 30
0.0
 11
258.4416903116796
 21
54.16316594486259
 31
0.0
 12
255.9416903116796
 22
54.57983261152925
 32
0.0
 13
255.9416903116796
 23
54.57983261152925
 33
0.0
  0
SOLID
  5
BAB6
330
BA5C
100
AcDbEntity
  8
0
 62
     6
100
AcDbTrace
 10
363.4416903116794
 20
54.99649927819592
 30
0.0
 11
363.4416903116794
 21
54.16316594486259
 31
0.0
 12
365.9416903116794
 22
54.57983261152925
 32
0.0
 13
365.9416903116794
 23
54.57983261152925
 33
0.0
  0
POINT
  5
BAB7
330
BA5C
100
AcDbEntity
  8
DEFPOINTS
 62
     0
100
AcDbPoint
 10
255.9416903116796
 20
79.46679976913769
 30
0.0
  0
POINT
  5
BAB8
330
BA5C
100
AcDbEntity
  8
DEFPOINTS
 62
     0
100
AcDbPoint
 10
365.9416903116794
 20
79.4667997691386
 30
0.0
  0
POINT
  5
BAB9
330
BA5C
100
AcDbEntity
  8
DEFPOINTS
 62
     0
100
AcDbPoint
 10
365.9416903116794
 20
54.57983261152925
 30
0.0
  0
ENDBLK
  5
BA5E
330
BA5C
100
AcDbEntity
  8
0
100
AcDbBlockEnd
  0
BLOCK
  5
BA69
330
BA68
100
AcDbEntity
  8
0
100
AcDbBlockBegin
  2
*D11
 70
     1
 10
0.0
 20
0.0
 30
0.0
  3
*D11
  1

  0
LINE
  5
BABA
330
BA68
100
AcDbEntity
  8
0
 62
     6
370
    -2
100
AcDbLine
 10
265.4416903116796
 20
78.46679976913787
 30
0.0
 11
265.4416903116796
 21
60.78917988661943
 31
0.0
  0
LINE
  5
BABB
330
BA68
100
AcDbEntity
  8
0
 62
     6
370
    -2
100
AcDbLine
 10
356.4416903116796
 20
78.46679976913946
 30
0.0
 11
356.4416903116796
 21
60.78917988661943
 31
0.0
  0
LINE
  5
BABC
330
BA68
100
AcDbEntity
  8
0
 62
     6
370
    -2
100
AcDbLine
 10
267.9416903116796
 20
61.78917988661943
 30
0.0
 11
353.9416903116796
 21
61.78917988661943
 31
0.0
  0
SOLID
  5
BABD
330
BA68
100
AcDbEntity
  8
0
 62
     6
100
AcDbTrace
 10
267.9416903116796
 20
62.2058465532861
 30
0.0
 11
267.9416903116796
 21
61.37251321995277
 31
0.0
 12
265.4416903116796
 22
61.78917988661943
 32
0.0
 13
265.4416903116796
 23
61.78917988661943
 33
0.0
  0
SOLID
  5
BABE
330
BA68
100
AcDbEntity
  8
0
 62
     6
100
AcDbTrace
 10
353.9416903116796
 20
62.2058465532861
 30
0.0
 11
353.9416903116796
 21
61.37251321995277
 31
0.0
 12
356.4416903116796
 22
61.78917988661943
 32
0.0
 13
356.4416903116796
 23
61.78917988661943
 33
0.0
  0
MTEXT
  5
BABF
330
BA68
100
AcDbEntity
  8
0
 62
     3
100
AcDbMText
 10
310.9416903116795
 20
64.28917988661943
 30
0.0
 40
3.0
 41
0.0
 71
     5
 72
     1
  1
\A1;%%C91
  7
TXT
 73
     1
 44
1.0
1001
ACAD
1000
MTEXTBEGIN
1070
    73
1070
     1
1070
    44
1040
1.0
1070
    74
1070
     0
1000
MTEXTEND
  0
POINT
  5
BAC0
330
BA68
100
AcDbEntity
  8
DEFPOINTS
 62
     0
100
AcDbPoint
 10
265.4416903116796
 20
79.46679976913786
 30
0.0
  0
POINT
  5
BAC1
330
BA68
100
AcDbEntity
  8
DEFPOINTS
 62
     0
100
AcDbPoint
 10
356.4416903116796
 20
79.46679976913945
 30
0.0
  0
POINT
  5
BAC2
330
BA68
100
AcDbEntity
  8
DEFPOINTS
 62
     0
100
AcDbPoint
 10
356.4416903116796
 20
61.78917988661943
 30
0.0
  0
ENDBLK
  5
BA6A
330
BA68
100
AcDbEntity
  8
0
100
AcDbBlockEnd
  0
BLOCK
  5
BA75
330
BA74
100
AcDbEntity
  8
0
100
AcDbBlockBegin
  2
*D12
 70
     1
 10
0.0
 20
0.0
 30
0.0
  3
*D12
  1

  0
LINE
  5
BAC3
330
BA74
100
AcDbEntity
  8
0
 62
     6
370
    -2
100
AcDbLine
 10
251.9416903116795
 20
85.46679976913761
 30
0.0
 11
251.9416903116795
 21
46.37048463688053
 31
0.0
  0
LINE
  5
BAC4
330
BA74
100
AcDbEntity
  8
0
 62
     6
370
    -2
100
AcDbLine
 10
369.9416903116794
 20
85.4067997691386
 30
0.0
 11
369.9416903116794
 21
46.37048463688053
 31
0.0
  0
LINE
  5
BAC5
330
BA74
100
AcDbEntity
  8
0
 62
     6
370
    -2
100
AcDbLine
 10
254.4416903116795
 20
47.37048463688053
 30
0.0
 11
367.4416903116794
 21
47.37048463688053
 31
0.0
  0
MTEXT
  5
BAC6
330
BA74
100
AcDbEntity
  8
0
 62
     3
100
AcDbMText
 10
310.5253415081183
 20
49.87048463688053
 30
0.0
 40
3.0
 41
0.0
 71
     5
 72
     1
  1
\A1;%%C118%%p0.2
  7
TXT
 73
     1
 44
1.0
1001
ACAD
1000
MTEXTBEGIN
1070
    73
1070
     1
1070
    44
1040
1.0
1070
    74
1070
     0
1000
MTEXTEND
  0
SOLID
  5
BAC7
330
BA74
100
AcDbEntity
  8
0
 62
     6
100
AcDbTrace
 10
254.4416903116795
 20
47.78715130354719
 30
0.0
 11
254.4416903116795
 21
46.95381797021386
 31
0.0
 12
251.9416903116795
 22
47.37048463688053
 32
0.0
 13
251.9416903116795
 23
47.37048463688053
 33
0.0
  0
SOLID
  5
BAC8
330
BA74
100
AcDbEntity
  8
0
 62
     6
100
AcDbTrace
 10
367.4416903116794
 20
47.78715130354719
 30
0.0
 11
367.4416903116794
 21
46.95381797021386
 31
0.0
 12
369.9416903116794
 22
47.37048463688053
 32
0.0
 13
369.9416903116794
 23
47.37048463688053
 33
0.0
  0
POINT
  5
BAC9
330
BA74
100
AcDbEntity
  8
DEFPOINTS
 62
     0
100
AcDbPoint
 10
251.9416903116795
 20
86.46679976913761
 30
0.0
  0
POINT
  5
BACA
330
BA74
100
AcDbEntity
  8
DEFPOINTS
 62
     0
100
AcDbPoint
 10
369.9416903116794
 20
86.4067997691386
 30
0.0
  0
POINT
  5
BACB
330
BA74
100
AcDbEntity
  8
DEFPOINTS
 62
     0
100
AcDbPoint
 10
369.9416903116794
 20
47.37048463688053
 30
0.0
  0
ENDBLK
  5
BA76
330
BA74
100
AcDbEntity
  8
0
100
AcDbBlockEnd
  0
BLOCK
  5
BA81
330
BA80
100
AcDbEntity
  8
0
100
AcDbBlockBegin
  2
*D13
 70
     1
 10
0.0
 20
0.0
 30
0.0
  3
*D13
  1

  0
LINE
  5
BACC
330
BA80
100
AcDbEntity
  8
0
 62
     6
370
    -2
100
AcDbLine
 10
254.9416903116796
 20
79.46679976913769
 30
0.0
 11
236.9112445233639
 21
79.46679976913769
 31
0.0
  0
LINE
  5
BACD
330
BA80
100
AcDbEntity
  8
0
 62
     6
370
    -2
100
AcDbLine
 10
247.4416903116793
 20
96.46679976913818
 30
0.0
 11
236.9112445233639
 21
96.46679976913818
 31
0.0
  0
LINE
  5
BACE
330
BA80
100
AcDbEntity
  8
0
 62
     6
370
    -2
100
AcDbLine
 10
237.9112445233639
 20
81.96679976913769
 30
0.0
 11
237.9112445233639
 21
93.96679976913818
 31
0.0
  0
SOLID
  5
BACF
330
BA80
100
AcDbEntity
  8
0
 62
     6
100
AcDbTrace
 10
237.4945778566972
 20
81.96679976913769
 30
0.0
 11
238.3279111900306
 21
81.96679976913769
 31
0.0
 12
237.9112445233639
 22
79.46679976913769
 32
0.0
 13
237.9112445233639
 23
79.46679976913769
 33
0.0
  0
SOLID
  5
BAD0
330
BA80
100
AcDbEntity
  8
0
 62
     6
100
AcDbTrace
 10
237.4945778566972
 20
93.96679976913818
 30
0.0
 11
238.3279111900306
 21
93.96679976913818
 31
0.0
 12
237.9112445233639
 22
96.46679976913818
 32
0.0
 13
237.9112445233639
 23
96.46679976913818
 33
0.0
  0
MTEXT
  5
BAD1
330
BA80
100
AcDbEntity
  8
0
 62
     3
100
AcDbMText
 10
235.4112445233639
 20
87.96679976913798
 30
0.0
 40
3.0
 41
0.0
 71
     5
 72
     1
  1
\A1;17
  7
TXT
 11
0.0000000000000001
 21
1.0
 31
0.0
 73
     1
 44
1.0
1001
ACAD
1000
MTEXTBEGIN
1070
    73
1070
     1
1070
    44
1040
1.0
1070
    74
1070
     0
1000
MTEXTEND
  0
POINT
  5
BAD2
330
BA80
100
AcDbEntity
  8
DEFPOINTS
 62
     0
100
AcDbPoint
 10
255.9416903116796
 20
79.46679976913769
 30
0.0
  0
POINT
  5
BAD3
330
BA80
100
AcDbEntity
  8
DEFPOINTS
 62
     0
100
AcDbPoint
 10
248.4416903116793
 20
96.46679976913818
 30
0.0
  0
POINT
  5
BAD4
330
BA80
100
AcDbEntity
  8
DEFPOINTS
 62
     0
100
AcDbPoint
 10
237.9112445233639
 20
96.46679976913818
 30
0.0
  0
ENDBLK
  5
BA82
330
BA80
100
AcDbEntity
  8
0
100
AcDbBlockEnd
  0
BLOCK
  5
BA8D
330
BA8C
100
AcDbEntity
  8
0
100
AcDbBlockBegin
  2
*D14
 70
     1
 10
0.0
 20
0.0
 30
0.0
  3
*D14
  1

  0
LINE
  5
BAD5
330
BA8C
100
AcDbEntity
  8
0
 62
     6
370
    -2
100
AcDbLine
 10
265.9416903116796
 20
111.8001331024717
 30
0.0
 11
265.9416903116796
 21
125.8019055903906
 31
0.0
  0
LINE
  5
BAD6
330
BA8C
100
AcDbEntity
  8
0
 62
     6
370
    -2
100
AcDbLine
 10
355.9416903116793
 20
111.8001331024716
 30
0.0
 11
355.9416903116793
 21
125.8019055903906
 31
0.0
  0
LINE
  5
BAD7
330
BA8C
100
AcDbEntity
  8
0
 62
     6
370
    -2
100
AcDbLine
 10
268.4416903116796
 20
124.8019055903906
 30
0.0
 11
353.4416903116794
 21
124.8019055903906
 31
0.0
  0
SOLID
  5
BAD8
330
BA8C
100
AcDbEntity
  8
0
 62
     6
100
AcDbTrace
 10
268.4416903116796
 20
125.2185722570573
 30
0.0
 11
268.4416903116796
 21
124.385238923724
 31
0.0
 12
265.9416903116796
 22
124.8019055903906
 32
0.0
 13
265.9416903116796
 23
124.8019055903906
 33
0.0
  0
SOLID
  5
BAD9
330
BA8C
100
AcDbEntity
  8
0
 62
     6
100
AcDbTrace
 10
353.4416903116794
 20
125.2185722570573
 30
0.0
 11
353.4416903116794
 21
124.385238923724
 31
0.0
 12
355.9416903116793
 22
124.8019055903906
 32
0.0
 13
355.9416903116793
 23
124.8019055903906
 33
0.0
  0
MTEXT
  5
BADA
330
BA8C
100
AcDbEntity
  8
0
 62
     3
100
AcDbMText
 10
310.9416903116795
 20
127.3019055903906
 30
0.0
 40
3.0
 41
0.0
 71
     5
 72
     1
  1
\A1;M90X2.0P
  7
TXT
 73
     1
 44
1.0
1001
ACAD
1000
MTEXTBEGIN
1070
    73
1070
     1
1070
    44
1040
1.0
1070
    74
1070
     0
1000
MTEXTEND
  0
POINT
  5
BADB
330
BA8C
100
AcDbEntity
  8
DEFPOINTS
 62
     0
100
AcDbPoint
 10
265.9416903116796
 20
110.8001331024717
 30
0.0
  0
POINT
  5
BADC
330
BA8C
100
AcDbEntity
  8
DEFPOINTS
 62
     0
100
AcDbPoint
 10
355.9416903116793
 20
110.8001331024716
 30
0.0
  0
POINT
  5
BADD
330
BA8C
100
AcDbEntity
  8
DEFPOINTS
 62
     0
100
AcDbPoint
 10
355.9416903116793
 20
124.8019055903906
 30
0.0
  0
ENDBLK
  5
BA8E
330
BA8C
100
AcDbEntity
  8
0
100
AcDbBlockEnd
  0
BLOCK
  5
BA99
330
BA98
100
AcDbEntity
  8
0
100
AcDbBlockBegin
  2
*D15
 70
     1
 10
0.0
 20
0.0
 30
0.0
  3
*D15
  1

  0
LINE
  5
BADE
330
BA98
100
AcDbEntity
  8
DIM
 62
     6
370
    -2
100
AcDbLine
 10
370.8816903116794
 20
111.4667997691386
 30
0.0
 11
384.2663520481029
 21
111.4667997691386
 31
0.0
  0
LINE
  5
BADF
330
BA98
100
AcDbEntity
  8
DIM
 62
     6
370
    -2
100
AcDbLine
 10
366.9416903116795
 20
79.4667997691386
 30
0.0
 11
384.2663520481029
 21
79.4667997691386
 31
0.0
  0
LINE
  5
BAE0
330
BA98
100
AcDbEntity
  8
DIM
 62
     6
370
    -2
100
AcDbLine
 10
383.2663520481029
 20
108.9667997691386
 30
0.0
 11
383.2663520481029
 21
81.96679976913861
 31
0.0
  0
SOLID
  5
BAE1
330
BA98
100
AcDbEntity
  8
DIM
 62
     6
100
AcDbTrace
 10
382.8496853814362
 20
108.9667997691386
 30
0.0
 11
383.6830187147695
 21
108.9667997691386
 31
0.0
 12
383.2663520481029
 22
111.4667997691386
 32
0.0
 13
383.2663520481029
 23
111.4667997691386
 33
0.0
  0
SOLID
  5
BAE2
330
BA98
100
AcDbEntity
  8
DIM
 62
     6
100
AcDbTrace
 10
382.8496853814362
 20
81.96679976913861
 30
0.0
 11
383.6830187147695
 21
81.96679976913861
 31
0.0
 12
383.2663520481029
 22
79.4667997691386
 32
0.0
 13
383.2663520481029
 23
79.4667997691386
 33
0.0
  0
MTEXT
  5
BAE3
330
BA98
100
AcDbEntity
  8
DIM
 62
     3
100
AcDbMText
 10
380.7663520481029
 20
95.46679976913866
 30
0.0
 40
3.0
 41
0.0
 71
     5
 72
     1
  1
\A1;32%%p0.2
  7
TXT
 11
0.0000000000000001
 21
1.0
 31
0.0
 73
     1
 44
1.0
1001
ACAD
1000
MTEXTBEGIN
1070
    73
1070
     1
1070
    44
1040
1.0
1070
    74
1070
     0
1000
MTEXTEND
  0
POINT
  5
BAE4
330
BA98
100
AcDbEntity
  8
DEFPOINTS
 62
     0
100
AcDbPoint
 10
369.8816903116794
 20
111.4667997691386
 30
0.0
  0
POINT
  5
BAE5
330
BA98
100
AcDbEntity
  8
DEFPOINTS
 62
     0
100
AcDbPoint
 10
365.9416903116795
 20
79.4667997691386
 30
0.0
  0
POINT
  5
BAE6
330
BA98
100
AcDbEntity
  8
DEFPOINTS
 62
     0
100
AcDbPoint
 10
383.2663520481029
 20
79.4667997691386
 30
0.0
  0
ENDBLK
  5
BA9A
330
BA98
100
AcDbEntity
  8
0
100
AcDbBlockEnd
  0
BLOCK
  5
BAA5
330
BAA4
100
AcDbEntity
  8
0
100
AcDbBlockBegin
  2
*D16
 70
     1
 10
0.0
 20
0.0
 30
0.0
  3
*D16
  1

  0
LINE
  5
BAE7
330
BAA4
100
AcDbEntity
  8
DIM
 62
     6
370
    -2
100
AcDbLine
 10
357.4416903116796
 20
82.46679976913855
 30
0.0
 11
377.3806716328276
 21
82.46679976913855
 31
0.0
  0
LINE
  5
BAE8
330
BAA4
100
AcDbEntity
  8
DIM
 62
     6
370
    -2
100
AcDbLine
 10
366.9416903116795
 20
79.4667997691386
 30
0.0
 11
377.3806716328276
 21
79.4667997691386
 31
0.0
  0
LINE
  5
BAE9
330
BAA4
100
AcDbEntity
  8
DIM
 62
     6
370
    -2
100
AcDbLine
 10
376.3806716328276
 20
84.96679976913855
 30
0.0
 11
376.3806716328276
 21
87.46679976913855
 31
0.0
  0
LINE
  5
BAEA
330
BAA4
100
AcDbEntity
  8
DIM
 62
     6
370
    -2
100
AcDbLine
 10
376.3806716328276
 20
76.9667997691386
 30
0.0
 11
376.3806716328276
 21
74.4667997691386
 31
0.0
  0
MTEXT
  5
BAEB
330
BAA4
100
AcDbEntity
  8
DIM
 62
     3
100
AcDbMText
 10
373.8806716328276
 20
80.96679976913858
 30
0.0
 40
3.0
 41
0.0
 71
     5
 72
     1
  1
\A1;3
  7
TXT
 11
0.0000000000000001
 21
1.0
 31
0.0
 73
     1
 44
1.0
1001
ACAD
1000
MTEXTBEGIN
1070
    73
1070
     1
1070
    44
1040
1.0
1070
    74
1070
     0
1000
MTEXTEND
  0
SOLID
  5
BAEC
330
BAA4
100
AcDbEntity
  8
DIM
 62
     6
100
AcDbTrace
 10
375.9640049661609
 20
84.96679976913855
 30
0.0
 11
376.7973382994942
 21
84.96679976913855
 31
0.0
 12
376.3806716328276
 22
82.46679976913855
 32
0.0
 13
376.3806716328276
 23
82.46679976913855
 33
0.0
  0
SOLID
  5
BAED
330
BAA4
100
AcDbEntity
  8
DIM
 62
     6
100
AcDbTrace
 10
375.9640049661609
 20
76.9667997691386
 30
0.0
 11
376.7973382994942
 21
76.9667997691386
 31
0.0
 12
376.3806716328276
 22
79.4667997691386
 32
0.0
 13
376.3806716328276
 23
79.4667997691386
 33
0.0
  0
POINT
  5
BAEE
330
BAA4
100
AcDbEntity
  8
DEFPOINTS
 62
     0
100
AcDbPoint
 10
356.4416903116796
 20
82.46679976913855
 30
0.0
  0
POINT
  5
BAEF
330
BAA4
100
AcDbEntity
  8
DEFPOINTS
 62
     0
100
AcDbPoint
 10
365.9416903116795
 20
79.4667997691386
 30
0.0
  0
POINT
  5
BAF0
330
BAA4
100
AcDbEntity
  8
DEFPOINTS
 62
     0
100
AcDbPoint
 10
376.3806716328276
 20
79.4667997691386
 30
0.0
  0
ENDBLK
  5
BAA6
330
BAA4
100
AcDbEntity
  8
0
100
AcDbBlockEnd
  0
ENDSEC
  0
SECTION
  2
ENTITIES
  0
MTEXT
  5
C0
330
18
100
AcDbEntity
  8
0
100
AcDbMText
 10
41.26970765600413
 20
233.6950877649332
 30
0.0
 40
2.5
 41
0.0
 71
     1
 72
     5
  1

  7
ISOCP3
 73
     1
 44
1.0
1001
ACAD
1000
MTEXTBEGIN
1070
    73
1070
     1
1070
    44
1040
1.0
1070
    74
1070
     0
1000
MTEXTEND
  0
LINE
  5
64AF
330
18
100
AcDbEntity
  8
図框線
100
AcDbLine
 10
207.9999999999998
 20
289.9999999999999
 30
0.0
 11
207.9999999999998
 21
-0.0000000000000568
 31
0.0
  0
MTEXT
  5
825D
330
18
100
AcDbEntity
  8
DIM
100
AcDbMText
 10
344.4549937131133
 20
148.244530198793
 30
0.0
 40
4.0
 41
0.0
 71
     4
 72
     1
  1
\A1;
  7
TXT
 73
     1
 44
1.0
1001
ACAD
1000
MTEXTBEGIN
1070
    73
1070
     1
1070
    44
1040
1.0
1070
    74
1070
     0
1000
MTEXTEND
  0
MTEXT
  5
872C
330
18
100
AcDbEntity
  8
DIM
100
AcDbMText
 10
342.3185849030297
 20
145.2563795808798
 30
0.0
 40
4.0
 41
0.0
 71
     4
 72
     1
  1
\A1;
  7
TXT
 73
     1
 44
1.0
1001
ACAD
1000
MTEXTBEGIN
1070
    73
1070
     1
1070
    44
1040
1.0
1070
    74
1070
     0
1000
MTEXTEND
  0
MTEXT
  5
936C
330
18
100
AcDbEntity
  8
0
 62
     3
100
AcDbMText
 10
358.3854594775469
 20
140.6837634409686
 30
0.0
 40
4.0
 41
0.0
 71
     4
 72
     1
  1
\A1;
  7
TXT
 73
     1
 44
1.0
1001
ACAD
1000
MTEXTBEGIN
1070
    73
1070
     1
1070
    44
1040
1.0
1070
    74
1070
     0
1000
MTEXTEND
  0
MTEXT
  5
9B93
330
18
100
AcDbEntity
  8
0
 62
     3
100
AcDbMText
 10
604.7705413674602
 20
132.2753785768178
 30
0.0
 40
4.0
 41
0.0
 71
     4
 72
     1
  1
\A1;
  7
TXT
 73
     1
 44
1.0
1001
ACAD
1000
MTEXTBEGIN
1070
    73
1070
     1
1070
    44
1040
1.0
1070
    74
1070
     0
1000
MTEXTEND
  0
MTEXT
  5
9FCD
330
18
100
AcDbEntity
  8
0
 62
     3
100
AcDbMText
 10
714.7883439432941
 20
41.62482956564509
 30
0.0
 40
4.0
 41
0.0
 71
     4
 72
     1
  1
\A1;
  7
TXT
 73
     1
 44
1.0
1001
ACAD
1000
MTEXTBEGIN
1070
    73
1070
     1
1070
    44
1040
1.0
1070
    74
1070
     0
1000
MTEXTEND
  0
MTEXT
  5
9FCF
330
18
100
AcDbEntity
  8
0
 62
     3
100
AcDbMText
 10
715.2160331507063
 20
28.80849272150181
 30
0.0
 40
4.0
 41
0.0
 71
     4
 72
     1
  1
\A1;
  7
TXT
 73
     1
 44
1.0
1001
ACAD
1000
MTEXTBEGIN
1070
    73
1070
     1
1070
    44
1040
1.0
1070
    74
1070
     0
1000
MTEXTEND
  0
MTEXT
  5
A440
330
18
100
AcDbEntity
  8
0
 62
     3
100
AcDbMText
 10
395.2731970052805
 20
116.5437548989266
 30
0.0
 40
4.0
 41
0.0
 71
     4
 72
     1
  1
\A1;
  7
TXT
 73
     1
 44
1.0
1001
ACAD
1000
MTEXTBEGIN
1070
    73
1070
     1
1070
    44
1040
1.0
1070
    74
1070
     0
1000
MTEXTEND
  0
MTEXT
  5
A442
330
18
100
AcDbEntity
  8
0
 62
     3
100
AcDbMText
 10
391.122931274866
 20
128.1514963407173
 30
0.0
 40
4.0
 41
0.0
 71
     4
 72
     1
  1
\A1;
  7
TXT
 73
     1
 44
1.0
1001
ACAD
1000
MTEXTBEGIN
1070
    73
1070
     1
1070
    44
1040
1.0
1070
    74
1070
     0
1000
MTEXTEND
  0
MTEXT
  5
A744
330
18
100
AcDbEntity
  8
0
 62
     3
100
AcDbMText
 10
403.0634702091011
 20
124.408102257506
 30
0.0
 40
4.0
 41
0.0
 71
     4
 72
     1
  1
\A1;
  7
TXT
 73
     1
 44
1.0
1001
ACAD
1000
MTEXTBEGIN
1070
    73
1070
     1
1070
    44
1040
1.0
1070
    74
1070
     0
1000
MTEXTEND
  0
MTEXT
  5
A746
330
18
100
AcDbEntity
  8
0
 62
     3
100
AcDbMText
 10
398.9132044786866
 20
136.0158436992967
 30
0.0
 40
4.0
 41
0.0
 71
     4
 72
     1
  1
\A1;
  7
TXT
 73
     1
 44
1.0
1001
ACAD
1000
MTEXTBEGIN
1070
    73
1070
     1
1070
    44
1040
1.0
1070
    74
1070
     0
1000
MTEXTEND
  0
MTEXT
  5
ABC9
330
18
100
AcDbEntity
  8
0
 62
     3
100
AcDbMText
 10
412.1995590088552
 20
136.9454704451616
 30
0.0
 40
5.0
 41
0.0
 71
     1
 72
     1
  1

  7
TXT
 73
     1
 44
1.0
1001
ACAD
1000
MTEXTBEGIN
1070
    73
1070
     1
1070
    44
1040
1.0
1070
    74
1070
     0
1000
MTEXTEND
  0
MTEXT
  5
ABCB
330
18
100
AcDbEntity
  8
0
 62
     3
100
AcDbMText
 10
405.5511401505712
 20
148.0108428146011
 30
0.0
 40
5.0
 41
0.0
 71
     1
 72
     1
  1

  7
TXT
 73
     1
 44
1.0
1001
ACAD
1000
MTEXTBEGIN
1070
    73
1070
     1
1070
    44
1040
1.0
1070
    74
1070
     0
1000
MTEXTEND
  0
MTEXT
  5
AF57
330
18
100
AcDbEntity
  8
0
 62
     3
100
AcDbMText
 10
450.3440331044796
 20
111.5194891547238
 30
0.0
 40
5.0
 41
0.0
 71
     1
 72
     1
  1

  7
TXT
 73
     1
 44
1.0
1001
ACAD
1000
MTEXTBEGIN
1070
    73
1070
     1
1070
    44
1040
1.0
1070
    74
1070
     0
1000
MTEXTEND
  0
MTEXT
  5
AF59
330
18
100
AcDbEntity
  8
0
 62
     3
100
AcDbMText
 10
447.8727313667262
 20
127.8139294270237
 30
0.0
 40
5.0
 41
0.0
 71
     1
 72
     1
  1

  7
TXT
 73
     1
 44
1.0
1001
ACAD
1000
MTEXTBEGIN
1070
    73
1070
     1
1070
    44
1040
1.0
1070
    74
1070
     0
1000
MTEXTEND
  0
LINE
  5
B90E
330
18
100
AcDbEntity
  8
DIM
 62
     6
100
AcDbLine
 10
383.2663520481028
 20
67.61911883487993
 30
0.0
 11
383.2663520481029
 21
79.4667997691386
 31
0.0
  0
LINE
  5
B90F
330
18
100
AcDbEntity
  8
DIM
 62
     6
100
AcDbLine
 10
265.9416903116796
 20
134.1852079800695
 30
0.0
 11
265.9416903116796
 21
125.8019055903906
 31
0.0
  0
TOLERANCE
  5
B910
330
18
100
AcDbEntity
  8
DIM
  6
ByBlock
100
AcDbFcf
  3
A
 10
388.2663520481028
 20
67.61911883487993
 30
0.0
  1
{\Fgdt;h}%%v0.005%%v%%vA%%v%%v
1001
ACAD
1000
DSTYLE
1002
{
1070
   140
1040
2.743999999999999
1070
   147
1040
0.6859999999999999
1002
}
  0
MTEXT
  5
B911
330
18
100
AcDbEntity
  8
0
100
AcDbMText
 10
225.8194827894977
 20
19.37399834316261
 30
0.0
 40
5.0
 41
0.0
 71
     1
 72
     5
  1
\Ftxt.shx,bigfont.shx|c128;呉銘宏
  7
JL
 73
     1
 44
1.0
1001
ACAD
1000
MTEXTBEGIN
1070
    73
1070
     1
1070
    44
1040
1.0
1070
    74
1070
     0
1000
MTEXTEND
  0
MTEXT
  5
B913
330
18
100
AcDbEntity
  8
0
100
AcDbMText
 10
289.2351766519637
 20
29.2278230533891
 30
0.0
 40
4.5
 41
0.0
 71
     1
 72
     5
  1
\Ftxt.shx,bigfont.shx|c128;1 : 1
  7
JL
 73
     1
 44
1.0
1001
ACAD
1000
MTEXTBEGIN
1070
    73
1070
     1
1070
    44
1040
1.0
1070
    74
1070
     0
1000
MTEXTEND
  0
MTEXT
  5
B914
330
18
100
AcDbEntity
  8
0
 48
2.0
370
    25
100
AcDbMText
 10
354.1234268906314
 20
3.636969934829039
 30
0.0
 40
4.5
 41
0.0
 71
     5
 72
     1
  1
\Ftxt.shx,bigfont.shx|c128;N L 4 0 0 7 6
 73
     1
 44
1.0
1001
ACAD
1000
MTEXTBEGIN
1070
    73
1070
     1
1070
    44
1040
1.0
1070
    74
1070
     0
1000
MTEXTEND
  0
MTEXT
  5
B915
330
18
100
AcDbEntity
  8
0
 48
2.0
100
AcDbMText
 10
386.1300746997774
 20
22.17550270047843
 30
0.0
 40
4.5
 41
0.0
 71
     5
 72
     1
  1
\P\Ftxt.shx,bigfont.shx|c128;TMF90X2.0P
 73
     1
 44
1.0
1001
ACAD
1000
MTEXTBEGIN
1070
    73
1070
     1
1070
    44
1040
1.0
1070
    74
1070
     0
1000
MTEXTEND
  0
MTEXT
  5
B916
330
18
100
AcDbEntity
  8
0
100
AcDbMText
 10
224.0234810910954
 20
28.64592585511957
 30
0.0
 40
4.5
 41
0.0
 71
     1
 72
     5
  1
\Ftxt.shx,bigfont.shx|c128;05.03.14
  7
JL
 73
     1
 44
1.0
1001
ACAD
1000
MTEXTBEGIN
1070
    73
1070
     1
1070
    44
1040
1.0
1070
    74
1070
     0
1000
MTEXTEND
  0
LEADER
  5
B917
330
18
100
AcDbEntity
  8
DIM
 62
     6
100
AcDbLeader
  3
A
 76
     2
 10
368.8137854419474
 20
204.2987625808577
 30
0.0
 10
381.4640896101995
 20
215.5169121670397
 30
0.0
  0
MTEXT
  5
B918
330
18
100
AcDbEntity
  8
DIM
100
AcDbMText
 10
383.6101181463104
 20
219.3724072029482
 30
0.0
 40
5.0
 41
1.0
 71
     1
 72
     5
  1
\Ftxt.shx,bigfont.shx|c128;1
 73
     1
 44
1.0
1001
ACAD
1000
MTEXTBEGIN
1070
    73
1070
     1
1070
    44
1040
1.0
1070
    74
1070
     0
1000
MTEXTEND
  0
LINE
  5
B919
330
18
100
AcDbEntity
  8
DIM
 62
     6
100
AcDbLine
 10
265.9416903116796
 20
134.1852079800695
 30
0.0
 11
266.8541486599051
 21
133.2073338843444
 31
0.0
  0
HATCH
  5
B91A
330
18
100
AcDbEntity
  8
DIM
  6
Continuous
 62
     6
100
AcDbHatch
 10
0.0
 20
0.0
 30
0.0
210
0.0
220
0.0
230
1.0
  2
SOLID
 70
     1
 71
     0
 91
        1
 92
        7
 72
     0
 73
     1
 93
        3
 10
265.940566197227
 20
132.201519585089
 10
266.8592982858271
 20
133.1863273803327
 10
265.940566197227
 20
134.1711351755764
 97
        0
 75
     0
 76
     1
 47
0.2359147607200769
 98
        1
 10
266.2283821934578
 20
133.3978033860242
  0
LINE
  5
B91B
330
18
100
AcDbEntity
  8
DIM
 62
     6
100
AcDbLine
 10
271.6012414666012
 20
131.3936800801849
 30
0.0
 11
271.6012414666012
 21
135.0399788702061
 31
0.0
  0
LINE
  5
B91C
330
18
100
AcDbEntity
  8
DIM
 62
     6
100
AcDbLine
 10
271.6012414666012
 20
135.0399788702061
 30
0.0
 11
275.4098767121119
 21
135.0399788702061
 31
0.0
  0
LINE
  5
B91D
330
18
100
AcDbEntity
  8
DIM
 62
     6
100
AcDbLine
 10
275.4098767121119
 20
131.455641874818
 30
0.0
 11
275.4098767121119
 21
135.1019406648392
 31
0.0
  0
LINE
  5
B91E
330
18
100
AcDbEntity
  8
DIM
 62
     6
100
AcDbLine
 10
271.6012414666012
 20
131.3936800801849
 30
0.0
 11
275.4098767121119
 21
131.3936800801849
 31
0.0
  0
LINE
  5
B91F
330
18
100
AcDbEntity
  8
DIM
 62
     6
100
AcDbLine
 10
271.6012414666012
 20
133.2168294751955
 30
0.0
 11
266.8404476308781
 21
133.2168294751955
 31
0.0
  0
MTEXT
  5
B920
330
18
100
AcDbEntity
  8
DIM
100
AcDbMText
 10
272.5584791890408
 20
134.7086471544326
 30
0.0
 40
3.0
 41
2.354875985554478
 71
     1
 72
     5
  1
A
  7
ISOCP3
 73
     1
 44
1.0
1001
ACAD
1000
MTEXTBEGIN
1070
    73
1070
     1
1070
    44
1040
1.0
1070
    74
1070
     0
1000
MTEXTEND
  0
LINE
  5
B921
330
18
100
AcDbEntity
  8
図框線
100
AcDbLine
 10
415.9999999999997
 20
289.9999999999999
 30
0.0
 11
415.9999999999997
 21
-0.0000000000000568
 31
0.0
  0
LINE
  5
B922
330
18
100
AcDbEntity
  8
図框線
370
    30
100
AcDbLine
 10
207.9999999999998
 20
0.0
 30
0.0
 11
207.9999999999998
 21
290.0
 31
0.0
  0
LINE
  5
B923
330
18
100
AcDbEntity
  8
0
 62
     7
 48
5.0
100
AcDbLine
 39
4.0
 10
257.9475051563431
 20
27.8953239783782
 30
0.0
 11
263.2793088720523
 21
29.22827490730549
 31
0.0
  0
MTEXT
  5
B924
330
18
100
AcDbEntity
  8
0
100
AcDbMText
 10
223.9786697715874
 20
9.63134010478825
 30
0.0
 40
6.0
 41
0.0
 71
     1
 72
     5
  1
\Ftxt.shx,bigfont.shx|c128;日機株式会社
  7
LKK
 73
     1
 44
1.0
1001
ACAD
1000
MTEXTBEGIN
1070
    73
1070
     1
1070
    44
1040
1.0
1070
    74
1070
     0
1000
MTEXTEND
  0
LINE
  5
B926
330
18
100
AcDbEntity
  8
図框線
100
AcDbLine
 10
208.0
 20
0.0
 30
0.0
 11
415.9999999999997
 21
0.0
 31
0.0
  0
LINE
  5
B927
330
18
100
AcDbEntity
  8
図框線
100
AcDbLine
 10
208.0
 20
12.0
 30
0.0
 11
415.9999999999997
 21
12.00000000000006
 31
0.0
  0
LINE
  5
B928
330
18
100
AcDbEntity
  8
図框線
100
AcDbLine
 10
208.0
 20
22.0
 30
0.0
 11
304.0
 21
22.0
 31
0.0
  0
LINE
  5
B929
330
18
100
AcDbEntity
  8
図框線
100
AcDbLine
 10
208.0
 20
32.0
 30
0.0
 11
415.9999999999997
 21
32.0
 31
0.0
  0
LINE
  5
B92A
330
18
100
AcDbEntity
  8
図框線
100
AcDbLine
 10
220.0
 20
32.0
 30
0.0
 11
220.0
 21
12.0
 31
0.0
  0
LINE
  5
B92B
330
18
100
AcDbEntity
  8
図框線
100
AcDbLine
 10
240.0
 20
32.0
 30
0.0
 11
240.0
 21
12.0
 31
0.0
  0
MTEXT
  5
B92C
330
18
100
AcDbEntity
  8
0
100
AcDbMText
 10
210.9494442488208
 20
29.04715033351227
 30
0.0
 40
4.5
 41
0.0
 71
     1
 72
     5
  1
\Ftxt.shx,bigfont.shx|c128;日 付
  7
JL
 73
     1
 44
1.0
1001
ACAD
1000
MTEXTBEGIN
1070
    73
1070
     1
1070
    44
1040
1.0
1070
    74
1070
     0
1000
MTEXTEND
  0
MTEXT
  5
B92E
330
18
100
AcDbEntity
  8
0
100
AcDbMText
 10
211.09571236491
 20
19.83833899470915
 30
0.0
 40
4.5
 41
0.0
 71
     1
 72
     5
  1
\Ftxt.shx,bigfont.shx|c128;製 図
  7
JL
 73
     1
 44
1.0
1001
ACAD
1000
MTEXTBEGIN
1070
    73
1070
     1
1070
    44
1040
1.0
1070
    74
1070
     0
1000
MTEXTEND
  0
LINE
  5
B930
330
18
100
AcDbEntity
  8
0
 62
     7
370
    25
100
AcDbLine
 10
263.2793088720523
 20
23.89647119159633
 30
0.0
 11
263.2793088720523
 21
29.22827490730549
 31
0.0
  0
MTEXT
  5
B931
330
18
100
AcDbEntity
  8
0
100
AcDbMText
 10
274.7025406733255
 20
29.42231870267847
 30
0.0
 40
4.5
 41
0.0
 71
     1
 72
     5
  1
\Ftxt.shx,bigfont.shx|c128;尺 度
  7
JL
 73
     1
 44
1.0
1001
ACAD
1000
MTEXTBEGIN
1070
    73
1070
     1
1070
    44
1040
1.0
1070
    74
1070
     0
1000
MTEXTEND
  0
LINE
  5
B933
330
18
100
AcDbEntity
  8
図框線
100
AcDbLine
 10
272.0
 20
32.0
 30
0.0
 11
272.0
 21
12.0
 31
0.0
  0
LINE
  5
B934
330
18
100
AcDbEntity
  8
0
 62
     7
370
    25
100
AcDbLine
 10
249.2833241183157
 20
23.23894871736115
 30
0.0
 11
249.2833241183157
 21
29.67466750005656
 31
0.0
  0
CIRCLE
  5
B935
330
18
100
AcDbEntity
  8
0
 62
     7
100
AcDbCircle
 10
249.2833241183157
 20
26.5623730494508
 30
0.0
 40
2.665901857854641
  0
LINE
  5
B936
330
18
100
AcDbEntity
  8
0
 62
     7
370
    25
100
AcDbLine
 10
257.1803028110608
 20
26.56237304945091
 30
0.0
 11
263.7579732190316
 21
26.56237304945091
 31
0.0
  0
LINE
  5
B937
330
18
100
AcDbEntity
  8
0
 62
     7
100
AcDbLine
 10
257.9475051563431
 20
25.22942212052362
 30
0.0
 11
263.2793088720523
 21
23.89647119159633
 31
0.0
  0
LINE
  5
B938
330
18
100
AcDbEntity
  8
図框線
100
AcDbLine
 10
252.0
 20
21.99999999999989
 30
0.0
 11
252.0
 21
12.0
 31
0.0
  0
LINE
  5
B939
330
18
100
AcDbEntity
  8
0
 62
     7
370
    25
100
AcDbLine
 10
245.9517253284393
 20
26.5623730494508
 30
0.0
 11
252.8139159467691
 21
26.56237304945091
 31
0.0
  0
CIRCLE
  5
B93A
330
18
100
AcDbEntity
  8
0
 62
     7
100
AcDbCircle
 10
249.2833241183157
 20
26.5623730494508
 30
0.0
 40
1.33295092892732
  0
MTEXT
  5
B93B
330
18
100
AcDbEntity
  8
0
100
AcDbMText
 10
243.1208651803977
 20
19.39982343168049
 30
0.0
 40
4.5
 41
0.0
 71
     1
 72
     5
  1
\Ftxt.shx,bigfont.shx|c128;検 図
  7
JL
 73
     1
 44
1.0
1001
ACAD
1000
MTEXTBEGIN
1070
    73
1070
     1
1070
    44
1040
1.0
1070
    74
1070
     0
1000
MTEXTEND
  0
LINE
  5
B93D
330
18
100
AcDbEntity
  8
0
 62
     7
370
    25
100
AcDbLine
 10
257.9475051563431
 20
25.22942212052362
 30
0.0
 11
257.9475051563431
 21
27.8953239783782
 31
0.0
  0
MTEXT
  5
B93E
330
18
100
AcDbEntity
  8
0
100
AcDbMText
 10
274.995074183375
 20
19.62882052001464
 30
0.0
 40
4.5
 41
0.0
 71
     1
 72
     5
  1
\Ftxt.shx,bigfont.shx|c128;承 認
  7
JL
 73
     1
 44
1.0
1001
ACAD
1000
MTEXTBEGIN
1070
    73
1070
     1
1070
    44
1040
1.0
1070
    74
1070
     0
1000
MTEXTEND
  0
LINE
  5
B940
330
18
100
AcDbEntity
  8
図框線
100
AcDbLine
 10
209.7317246304089
 20
231.9847361417972
 30
0.0
 11
258.9989928629816
 21
231.984736141797
 31
0.0
  0
LINE
  5
B941
330
18
100
AcDbEntity
  8
図框線
100
AcDbLine
 10
209.7317246304089
 20
239.1847361417972
 30
0.0
 11
258.9989928629816
 21
239.1847361417972
 31
0.0
  0
LINE
  5
B942
330
18
100
AcDbEntity
  8
図框線
100
AcDbLine
 10
209.7317246304089
 20
246.3847361417971
 30
0.0
 11
258.9989928629816
 21
246.384736141797
 31
0.0
  0
LINE
  5
B943
330
18
100
AcDbEntity
  8
図框線
100
AcDbLine
 10
209.7317246304089
 20
253.5847361417972
 30
0.0
 11
258.9989928629816
 21
253.5847361417971
 31
0.0
  0
LINE
  5
B944
330
18
100
AcDbEntity
  8
図框線
100
AcDbLine
 10
209.7317246304089
 20
224.7847361417971
 30
0.0
 11
258.9989928629816
 21
224.7847361417971
 31
0.0
  0
MTEXT
  5
B945
330
18
100
AcDbEntity
  8
0
 62
     7
 48
2.0
100
AcDbMText
 10
234.2487362296879
 20
254.3779045523813
 30
0.0
 40
4.8
 41
0.0
 71
     5
 72
     1
  1
\P\Ftxt.shx,bigfont.shx|c128;諸　　　　元
 73
     1
 44
1.0
1001
ACAD
1000
MTEXTBEGIN
1070
    73
1070
     1
1070
    44
1040
1.0
1070
    74
1070
     0
1000
MTEXTEND
  0
LINE
  5
B947
330
18
100
AcDbEntity
  8
図框線
100
AcDbLine
 10
209.7317246304089
 20
253.5847361417971
 30
0.0
 11
209.7317246304089
 21
224.7847361417971
 31
0.0
  0
MTEXT
  5
B948
330
18
100
AcDbEntity
  8
0
100
AcDbMText
 10
213.2541604440892
 20
244.8582269746763
 30
0.0
 40
4.4
 41
163.916286842249
 71
     1
 72
     5
  1
\Ftxt.shx,bigfont.shx|c128;熱　処　理
  7
JL
 73
     1
 44
1.0
1001
ACAD
1000
MTEXTBEGIN
1070
    73
1070
     1
1070
    44
1040
1.0
1070
    74
1070
     0
1000
MTEXTEND
  0
LINE
  5
B94A
330
18
100
AcDbEntity
  8
図框線
100
AcDbLine
 10
229.6970504074577
 20
246.384736141797
 30
0.0
 11
229.6970504074577
 21
224.7847361417971
 31
0.0
  0
MTEXT
  5
B94B
330
18
100
AcDbEntity
  8
0
100
AcDbMText
 10
305.6570255626382
 20
11.15332144655735
 30
0.0
 40
5.0
 41
0.0
 71
     1
 72
     5
  1
\Ftxt.shx,bigfont.shx|c128;図  面  番  号
  7
JL
 73
     1
 44
1.0
1001
ACAD
1000
MTEXTBEGIN
1070
    73
1070
     1
1070
    44
1040
1.0
1070
    74
1070
     0
1000
MTEXTEND
  0
MTEXT
  5
B94D
330
18
100
AcDbEntity
  8
0
 62
     7
 48
2.0
100
AcDbMText
 10
329.8260850653862
 20
22.29156825453561
 30
0.0
 40
4.5
 41
0.0
 71
     5
 72
     1
  1
\P\Ftxt.shx,bigfont.shx|c128;    精密ロックナット
 73
     1
 44
1.0
1001
ACAD
1000
MTEXTBEGIN
1070
    73
1070
     1
1070
    44
1040
1.0
1070
    74
1070
     0
1000
MTEXTEND
  0
MTEXT
  5
B94F
330
18
100
AcDbEntity
  8
0
370
    25
100
AcDbMText
 10
306.8002923053598
 20
29.80688815403971
 30
0.0
 40
5.0
 41
0.0
 71
     1
 72
     5
  1
\Ftxt.shx,bigfont.shx|c128;品  名
  7
JL
 73
     1
 44
1.0
1001
ACAD
1000
MTEXTBEGIN
1070
    73
1070
     1
1070
    44
1040
1.0
1070
    74
1070
     0
1000
MTEXTEND
  0
LINE
  5
B951
330
18
100
AcDbEntity
  8
図框線
100
AcDbLine
 10
304.0
 20
32.0
 30
0.0
 11
304.0
 21
0.19104161092514
 31
0.0
  0
LINE
  5
B952
330
18
100
AcDbEntity
  8
図框線
100
AcDbLine
 10
284.0
 20
32.0
 30
0.0
 11
284.0
 21
12.0
 31
0.0
  0
LINE
  5
B953
330
18
100
AcDbEntity
  8
図框線
100
AcDbLine
 10
361.2235601908683
 20
32.0
 30
0.0
 11
361.2235601908683
 21
12.0
 31
0.0
  0
MTEXT
  5
B954
330
18
100
AcDbEntity
  8
0
100
AcDbMText
 10
212.9738860767099
 20
237.8559985274162
 30
0.0
 40
4.4
 41
163.6058628849672
 71
     1
 72
     5
  1
\Ftxt.shx,bigfont.shx|c128;表 面 処 理
  7
JL
 73
     1
 44
1.0
1001
ACAD
1000
MTEXTBEGIN
1070
    73
1070
     1
1070
    44
1040
1.0
1070
    74
1070
     0
1000
MTEXTEND
  0
MTEXT
  5
B956
330
18
100
AcDbEntity
  8
0
100
AcDbMText
 10
213.263951925145
 20
230.5675256738083
 30
0.0
 40
4.4
 41
166.1718
 71
     1
 72
     5
  1
\Ftxt.shx,bigfont.shx|c128;等     　級
  7
JL
 73
     1
 44
1.0
1001
ACAD
1000
MTEXTBEGIN
1070
    73
1070
     1
1070
    44
1040
1.0
1070
    74
1070
     0
1000
MTEXTEND
  0
LINE
  5
B958
330
18
100
AcDbEntity
  8
図框線
100
AcDbLine
 10
258.9989928629816
 20
253.5847361417971
 30
0.0
 11
258.9989928629816
 21
224.7847361417972
 31
0.0
  0
MTEXT
  5
B959
330
18
100
AcDbEntity
  8
0
100
AcDbMText
 10
231.3363815162225
 20
244.6832690672667
 30
0.0
 40
4.4
 41
291.8960056857887
 71
     1
 72
     5
  1
\Ftxt.shx,bigfont.shx|c128;調質　HRC30%%d%%p２%%d
  7
JL
 73
     1
 44
1.0
1001
ACAD
1000
MTEXTBEGIN
1070
    73
1070
     1
1070
    44
1040
1.0
1070
    74
1070
     0
1000
MTEXTEND
  0
MTEXT
  5
B95B
330
18
100
AcDbEntity
  8
0
370
    25
100
AcDbMText
 10
365.2494735287423
 20
29.58569764093568
 30
0.0
 40
5.0
 41
0.0
 71
     1
 72
     5
  1
\Ftxt.shx,bigfont.shx|c128;型  番
  7
JL
 73
     1
 44
1.0
1001
ACAD
1000
MTEXTBEGIN
1070
    73
1070
     1
1070
    44
1040
1.0
1070
    74
1070
     0
1000
MTEXTEND
  0
MTEXT
  5
B95D
330
18
100
AcDbEntity
  8
0
100
AcDbMText
 10
380.7872651223391
 20
11.23700203391422
 30
0.0
 40
5.0
 41
0.0
 71
     1
 72
     5
  1
\Ftxt.shx,bigfont.shx|c128;変更
  7
JL
 73
     1
 44
1.0
1001
ACAD
1000
MTEXTBEGIN
1070
    73
1070
     1
1070
    44
1040
1.0
1070
    74
1070
     0
1000
MTEXTEND
  0
LINE
  5
B95F
330
18
100
AcDbEntity
  8
図框線
100
AcDbLine
 10
379.0
 20
12.00907027842731
 30
0.0
 11
379.0
 21
0.0
 31
0.0
  0
MTEXT
  5
B960
330
18
100
AcDbEntity
  8
0
100
AcDbMText
 10
231.5970205176589
 20
230.5681362452594
 30
0.0
 40
4.4
 41
290.783364796891
 71
     1
 72
     5
  1
\Ftxt.shx,bigfont.shx|c128;ＩＳＯ - ４Ｈ
  7
JL
 73
     1
 44
1.0
1001
ACAD
1000
MTEXTBEGIN
1070
    73
1070
     1
1070
    44
1040
1.0
1070
    74
1070
     0
1000
MTEXTEND
  0
MTEXT
  5
B962
330
18
100
AcDbEntity
  8
0
100
AcDbMText
 10
231.7714817157892
 20
237.5031055904614
 30
0.0
 40
4.4
 41
291.4548
 71
     1
 72
     5
  1
\Ftxt.shx,bigfont.shx|c128;黒  　    染
  7
JL
 73
     1
 44
1.0
1001
ACAD
1000
MTEXTBEGIN
1070
    73
1070
     1
1070
    44
1040
1.0
1070
    74
1070
     0
1000
MTEXTEND
  0
MTEXT
  5
B964
330
18
100
AcDbEntity
  8
0
100
AcDbMText
 10
268.0631860075901
 20
270.095850257545
 30
0.0
 40
5.0
 41
0.0
 71
     1
 72
     5
  1
\Ftxt.shx,bigfont.shx|c128;M8X1.25P-10L
  7
JL
 73
     1
 44
1.0
1001
ACAD
1000
MTEXTBEGIN
1070
    73
1070
     1
1070
    44
1040
1.0
1070
    74
1070
     0
1000
MTEXTEND
  0
MTEXT
  5
B965
330
18
100
AcDbEntity
  8
0
100
AcDbMText
 10
268.0631860075901
 20
262.095850257545
 30
0.0
 40
5.0
 41
0.0
 71
     1
 72
     5
  1
\Ftxt.shx,bigfont.shx|c128;%%c7X7L
  7
JL
 73
     1
 44
1.0
1001
ACAD
1000
MTEXTBEGIN
1070
    73
1070
     1
1070
    44
1040
1.0
1070
    74
1070
     0
1000
MTEXTEND
  0
LINE
  5
B966
330
18
100
AcDbEntity
  8
図框線
100
AcDbLine
 10
207.9999999999998
 20
263.9999999999999
 30
0.0
 11
415.9999999999997
 21
263.9999999999999
 31
0.0
  0
LINE
  5
B967
330
18
100
AcDbEntity
  8
図框線
100
AcDbLine
 10
207.9999999999998
 20
271.9999999999999
 30
0.0
 11
415.9999999999997
 21
271.9999999999999
 31
0.0
  0
LINE
  5
B968
330
18
100
AcDbEntity
  8
図框線
 62
     9
100
AcDbLine
 10
207.9999999999998
 20
279.9999999999999
 30
0.0
 11
415.9999999999997
 21
279.9999999999999
 31
0.0
  0
LINE
  5
B969
330
18
100
AcDbEntity
  8
図框線
100
AcDbLine
 10
207.9999999999998
 20
290.0
 30
0.0
 11
415.9999999999997
 21
290.0
 31
0.0
  0
MTEXT
  5
B96A
330
18
100
AcDbEntity
  8
0
100
AcDbMText
 10
267.4163025968173
 20
287.3155952051104
 30
0.0
 40
5.0
 41
0.0
 71
     1
 72
     5
  1
\Ftxt.shx,bigfont.shx|c128;図    番 / 規　　格
  7
JL
 73
     1
 44
1.0
1001
ACAD
1000
MTEXTBEGIN
1070
    73
1070
     1
1070
    44
1040
1.0
1070
    74
1070
     0
1000
MTEXTEND
  0
LINE
  5
B96C
330
18
100
AcDbEntity
  8
図框線
100
AcDbLine
 10
207.9999999999998
 20
263.9999999999999
 30
0.0
 11
415.9999999999997
 21
263.9999999999999
 31
0.0
  0
LINE
  5
B96D
330
18
100
AcDbEntity
  8
図框線
100
AcDbLine
 10
207.9999999999998
 20
255.9999999999999
 30
0.0
 11
415.9999999999997
 21
255.9999999999999
 31
0.0
  0
MTEXT
  5
B96E
330
18
100
AcDbEntity
  8
0
100
AcDbMText
 10
230.0143491414124
 20
286.7888025819827
 30
0.0
 40
5.0
 41
0.0
 71
     1
 72
     5
  1
\Ftxt.shx,bigfont.shx|c128;品　          名
  7
JL
 73
     1
 44
1.0
1001
ACAD
1000
MTEXTBEGIN
1070
    73
1070
     1
1070
    44
1040
1.0
1070
    74
1070
     0
1000
MTEXTEND
  0
MTEXT
  5
B970
330
18
100
AcDbEntity
  8
0
100
AcDbMText
 10
226.8650376130422
 20
270.5298549795346
 30
0.0
 40
6.0
 41
0.0
 71
     1
 72
     5
  1
\Ftxt.shx,bigfont.shx|c128;セットスクリュ-
  7
JL
 73
     1
 44
1.0
1001
ACAD
1000
MTEXTBEGIN
1070
    73
1070
     1
1070
    44
1040
1.0
1070
    74
1070
     0
1000
MTEXTEND
  0
MTEXT
  5
B972
330
18
100
AcDbEntity
  8
0
100
AcDbMText
 10
226.6694145900474
 20
278.3660650505403
 30
0.0
 40
6.0
 41
0.0
 71
     1
 72
     5
  1
\Ftxt.shx,bigfont.shx|c128;ロックナット　  
  7
JL
 73
     1
 44
1.0
1001
ACAD
1000
MTEXTBEGIN
1070
    73
1070
     1
1070
    44
1040
1.0
1070
    74
1070
     0
1000
MTEXTEND
  0
MTEXT
  5
B974
330
18
100
AcDbEntity
  8
0
100
AcDbMText
 10
226.8650376130422
 20
262.5298549795346
 30
0.0
 40
6.0
 41
0.0
 71
     1
 72
     5
  1
\Ftxt.shx,bigfont.shx|c128;ロックピン 
  7
JL
 73
     1
 44
1.0
1001
ACAD
1000
MTEXTBEGIN
1070
    73
1070
     1
1070
    44
1040
1.0
1070
    74
1070
     0
1000
MTEXTEND
  0
LINE
  5
B976
330
18
100
AcDbEntity
  8
図框線
100
AcDbLine
 10
222.9999999999998
 20
289.9999999999998
 30
0.0
 11
223.0000000000001
 21
255.9999999999999
 31
0.0
  0
LINE
  5
B977
330
18
100
AcDbEntity
  8
0
100
AcDbLine
 10
222.9999999999998
 20
289.9999999999998
 30
0.0
 11
222.9999999999998
 21
263.9999999999999
 31
0.0
  0
MTEXT
  5
B978
330
18
100
AcDbEntity
  8
0
100
AcDbMText
 10
214.2152890873905
 20
262.7436409356394
 30
0.0
 40
5.0
 41
0.0
 71
     1
 72
     5
  1
\Ftxt.shx,bigfont.shx|c128;3
  7
JL
 73
     1
 44
1.0
1001
ACAD
1000
MTEXTBEGIN
1070
    73
1070
     1
1070
    44
1040
1.0
1070
    74
1070
     0
1000
MTEXTEND
  0
MTEXT
  5
B979
330
18
100
AcDbEntity
  8
0
100
AcDbMText
 10
215.1019570266668
 20
278.5798510066454
 30
0.0
 40
5.0
 41
0.0
 71
     1
 72
     5
  1
\Ftxt.shx,bigfont.shx|c128;1
  7
JL
 73
     1
 44
1.0
1001
ACAD
1000
MTEXTBEGIN
1070
    73
1070
     1
1070
    44
1040
1.0
1070
    74
1070
     0
1000
MTEXTEND
  0
MTEXT
  5
B97A
330
18
100
AcDbEntity
  8
0
100
AcDbMText
 10
214.2152890873905
 20
270.7436409356394
 30
0.0
 40
5.0
 41
0.0
 71
     1
 72
     5
  1
\Ftxt.shx,bigfont.shx|c128;2
  7
JL
 73
     1
 44
1.0
1001
ACAD
1000
MTEXTBEGIN
1070
    73
1070
     1
1070
    44
1040
1.0
1070
    74
1070
     0
1000
MTEXTEND
  0
MTEXT
  5
B97B
330
18
100
AcDbEntity
  8
0
100
AcDbMText
 10
210.2090839918424
 20
287.0885254164057
 30
0.0
 40
5.0
 41
0.0
 71
     1
 72
     5
  1
\Ftxt.shx,bigfont.shx|c128;照   号
  7
JL
 73
     1
 44
1.0
1001
ACAD
1000
MTEXTBEGIN
1070
    73
1070
     1
1070
    44
1040
1.0
1070
    74
1070
     0
1000
MTEXTEND
  0
LINE
  5
B97D
330
18
100
AcDbEntity
  8
図框線
 62
     9
100
AcDbLine
 10
262.9999999999998
 20
289.9999999999998
 30
0.0
 11
262.9999999999998
 21
256.0
 31
0.0
  0
MTEXT
  5
B97E
330
18
100
AcDbEntity
  8
0
100
AcDbMText
 10
354.3353765925378
 20
287.5804049742369
 30
0.0
 40
5.0
 41
0.0
 71
     1
 72
     5
  1
\Ftxt.shx,bigfont.shx|c128;備           考
  7
JL
 73
     1
 44
1.0
1001
ACAD
1000
MTEXTBEGIN
1070
    73
1070
     1
1070
    44
1040
1.0
1070
    74
1070
     0
1000
MTEXTEND
  0
LINE
  5
B980
330
18
100
AcDbEntity
  8
図框線
 62
     9
100
AcDbLine
 10
302.9999999999998
 20
289.9999999999999
 30
0.0
 11
302.9999999999998
 21
255.9999999999999
 31
0.0
  0
MTEXT
  5
B981
330
18
100
AcDbEntity
  8
0
100
AcDbMText
 10
304.7838702977638
 20
262.3660650505403
 30
0.0
 40
5.0
 41
0.0
 71
     1
 72
     5
  1
\Ftxt.shx,bigfont.shx|c128;C3604
  7
JL
 73
     1
 44
1.0
1001
ACAD
1000
MTEXTBEGIN
1070
    73
1070
     1
1070
    44
1040
1.0
1070
    74
1070
     0
1000
MTEXTEND
  0
MTEXT
  5
B982
330
18
100
AcDbEntity
  8
0
100
AcDbMText
 10
304.7838702977638
 20
278.3660650505403
 30
0.0
 40
5.0
 41
0.0
 71
     1
 72
     5
  1
\Ftxt.shx,bigfont.shx|c128;SCM-440
  7
JL
 73
     1
 44
1.0
1001
ACAD
1000
MTEXTBEGIN
1070
    73
1070
     1
1070
    44
1040
1.0
1070
    74
1070
     0
1000
MTEXTEND
  0
MTEXT
  5
B983
330
18
100
AcDbEntity
  8
0
100
AcDbMText
 10
304.7838702977638
 20
270.3660650505403
 30
0.0
 40
5.0
 41
0.0
 71
     1
 72
     5
  1
\Ftxt.shx,bigfont.shx|c128;SCM435
  7
JL
 73
     1
 44
1.0
1001
ACAD
1000
MTEXTBEGIN
1070
    73
1070
     1
1070
    44
1040
1.0
1070
    74
1070
     0
1000
MTEXTEND
  0
MTEXT
  5
B984
330
18
100
AcDbEntity
  8
0
100
AcDbMText
 10
307.800324994454
 20
287.5804049742369
 30
0.0
 40
5.0
 41
0.0
 71
     1
 72
     5
  1
\Ftxt.shx,bigfont.shx|c128;材　質
  7
JL
 73
     1
 44
1.0
1001
ACAD
1000
MTEXTBEGIN
1070
    73
1070
     1
1070
    44
1040
1.0
1070
    74
1070
     0
1000
MTEXTEND
  0
LINE
  5
B986
330
18
100
AcDbEntity
  8
図框線
 62
     9
100
AcDbLine
 10
322.9999999999998
 20
289.9999999999999
 30
0.0
 11
322.9999999999998
 21
255.9999999999999
 31
0.0
  0
LINE
  5
B987
330
18
100
AcDbEntity
  8
図框線
100
AcDbLine
 10
337.9999999999998
 20
289.9999999999999
 30
0.0
 11
337.9999999999998
 21
255.9999999999999
 31
0.0
  0
MTEXT
  5
B988
330
18
100
AcDbEntity
  8
0
100
AcDbMText
 10
329.2152890873904
 20
262.7436409356394
 30
0.0
 40
5.0
 41
0.0
 71
     1
 72
     5
  1
\Ftxt.shx,bigfont.shx|c128;3
  7
JL
 73
     1
 44
1.0
1001
ACAD
1000
MTEXTBEGIN
1070
    73
1070
     1
1070
    44
1040
1.0
1070
    74
1070
     0
1000
MTEXTEND
  0
MTEXT
  5
B989
330
18
100
AcDbEntity
  8
0
100
AcDbMText
 10
330.1019570266667
 20
278.5798510066454
 30
0.0
 40
5.0
 41
0.0
 71
     1
 72
     5
  1
\Ftxt.shx,bigfont.shx|c128;1
  7
JL
 73
     1
 44
1.0
1001
ACAD
1000
MTEXTBEGIN
1070
    73
1070
     1
1070
    44
1040
1.0
1070
    74
1070
     0
1000
MTEXTEND
  0
MTEXT
  5
B98A
330
18
100
AcDbEntity
  8
0
100
AcDbMText
 10
329.2152890873904
 20
270.7436409356394
 30
0.0
 40
5.0
 41
0.0
 71
     1
 72
     5
  1
\Ftxt.shx,bigfont.shx|c128;3
  7
JL
 73
     1
 44
1.0
1001
ACAD
1000
MTEXTBEGIN
1070
    73
1070
     1
1070
    44
1040
1.0
1070
    74
1070
     0
1000
MTEXTEND
  0
MTEXT
  5
B98B
330
18
100
AcDbEntity
  8
0
100
AcDbMText
 10
324.4337403119171
 20
287.5804049742369
 30
0.0
 40
5.0
 41
0.0
 71
     1
 72
     5
  1
\Ftxt.shx,bigfont.shx|c128;数   量
  7
JL
 73
     1
 44
1.0
1001
ACAD
1000
MTEXTBEGIN
1070
    73
1070
     1
1070
    44
1040
1.0
1070
    74
1070
     0
1000
MTEXTEND
  0
DIMENSION
  5
B98D
330
18
100
AcDbEntity
  8
0
100
AcDbDimension
  2
*D10
 10
365.9416903116794
 20
54.57983261152925
 30
0.0
 11
310.9416903116795
 21
54.57983261152925
 31
0.0
 70
   160
  1
%%c<>%%p0.5
 71
     5
 42
109.9999999999999
  3
A
100
AcDbAlignedDimension
 13
255.9416903116796
 23
79.46679976913769
 33
0.0
 14
365.9416903116794
 24
79.4667997691386
 34
0.0
100
AcDbRotatedDimension
  0
DIMENSION
  5
B98E
330
18
100
AcDbEntity
  8
0
100
AcDbDimension
  2
*D11
 10
356.4416903116796
 20
61.78917988661943
 30
0.0
 11
310.9416903116795
 21
64.28917988661943
 31
0.0
 70
    32
  1
%%C<>
 71
     5
 42
91.0
  3
A
100
AcDbAlignedDimension
 13
265.4416903116796
 23
79.46679976913786
 33
0.0
 14
356.4416903116796
 24
79.46679976913945
 34
0.0
100
AcDbRotatedDimension
  0
DIMENSION
  5
B98F
330
18
100
AcDbEntity
  8
0
100
AcDbDimension
  2
*D12
 10
369.9416903116794
 20
47.37048463688053
 30
0.0
 11
310.5253415081183
 21
47.37048463688053
 31
0.0
 70
   160
  1
%%C<>%%p0.2
 71
     5
 42
117.9999999999999
  3
A
100
AcDbAlignedDimension
 13
251.9416903116795
 23
86.46679976913761
 33
0.0
 14
369.9416903116794
 24
86.4067997691386
 34
0.0
100
AcDbRotatedDimension
  0
DIMENSION
  5
B990
330
18
100
AcDbEntity
  8
0
100
AcDbDimension
  2
*D13
 10
237.9112445233639
 20
96.46679976913818
 30
0.0
 11
235.4112445233639
 21
87.96679976913798
 31
0.0
 70
    32
 71
     5
 42
17.00000000000048
  3
A
100
AcDbAlignedDimension
 13
255.9416903116796
 23
79.46679976913769
 33
0.0
 14
248.4416903116793
 24
96.46679976913818
 34
0.0
 50
90.0
100
AcDbRotatedDimension
  0
MTEXT
  5
B991
330
18
100
AcDbEntity
  8
DIM
100
AcDbMText
 10
221.1032716085339
 20
110.7056411555646
 30
0.0
 40
3.0
 41
45.86832165126851
 71
     1
 72
     5
  1
(6等分)
  7
TXT
 73
     1
 44
1.0
1001
ACAD
1000
MTEXTBEGIN
1070
    73
1070
     1
1070
    44
1040
1.0
1070
    74
1070
     0
1000
MTEXTEND
  0
MTEXT
  5
B993
330
18
100
AcDbEntity
  8
DIM
100
AcDbMText
 10
377.8868706143018
 20
145.041399059002
 30
0.0
 40
5.0
 41
1.0
 71
     1
 72
     5
  1
\Ftxt.shx,bigfont.shx|c128;3
 73
     1
 44
1.0
1001
ACAD
1000
MTEXTBEGIN
1070
    73
1070
     1
1070
    44
1040
1.0
1070
    74
1070
     0
1000
MTEXTEND
  0
LEADER
  5
B994
330
18
100
AcDbEntity
  8
DIM
 62
     6
100
AcDbLeader
  3
A
 74
     0
 76
     2
 10
367.3598404093531
 20
105.0061035880889
 30
0.0
 10
380.5976931109689
 20
122.7024715613211
 30
0.0
  0
MTEXT
  5
B995
330
18
100
AcDbEntity
  8
DIM
100
AcDbMText
 10
380.5914038225439
 20
128.395894654647
 30
0.0
 40
5.0
 41
1.0
 71
     1
 72
     5
  1
\Ftxt.shx,bigfont.shx|c128;2
 73
     1
 44
1.0
1001
ACAD
1000
MTEXTBEGIN
1070
    73
1070
     1
1070
    44
1040
1.0
1070
    74
1070
     0
1000
MTEXTEND
  0
LWPOLYLINE
  5
B996
330
18
100
AcDbEntity
  8
DIM
 62
     6
100
AcDbPolyline
 90
        3
 70
     1
 43
0.0
 10
288.4817022270521
 20
79.46679976913866
 10
289.8846633811828
 20
77.0367997691386
 10
287.0787410729215
 20
77.0367997691386
  0
LWPOLYLINE
  5
B997
330
18
100
AcDbEntity
  8
DIM
 62
     6
100
AcDbPolyline
 90
        3
 70
     1
 43
0.0
 10
285.6757799187905
 20
79.46679976913866
 10
287.0787410729215
 20
77.0367997691386
 10
284.2728187646596
 20
77.0367997691386
  0
LWPOLYLINE
  5
B998
330
18
100
AcDbEntity
  8
DIM
 62
     6
100
AcDbPolyline
 90
        3
 70
     1
 43
0.0
 10
291.2876245353138
 20
79.46679976913866
 10
292.6905856894448
 20
77.0367997691386
 10
289.8846633811828
 20
77.0367997691386
  0
MTEXT
  5
B999
330
18
100
AcDbEntity
  8
DIM
100
AcDbMText
 10
287.2243700033225
 20
76.25017483579587
 30
0.0
 40
3.0
 41
1.0
 71
     1
 72
     5
  1
\Ftxt.shx,bigfont.shx|c128;G
 73
     1
 44
1.0
1001
ACAD
1000
MTEXTBEGIN
1070
    73
1070
     1
1070
    44
1040
1.0
1070
    74
1070
     0
1000
MTEXTEND
  0
DIMENSION
  5
B99A
330
18
100
AcDbEntity
  8
0
100
AcDbDimension
  2
*D14
 10
355.9416903116793
 20
124.8019055903906
 30
0.0
 11
310.9416903116795
 21
127.3019055903906
 31
0.0
 70
    32
  1
M<>X2.0P
 71
     5
 42
89.99999999999976
  3
A
100
AcDbAlignedDimension
 13
265.9416903116796
 23
110.8001331024717
 33
0.0
 14
355.9416903116793
 24
110.8001331024716
 34
0.0
100
AcDbRotatedDimension
  0
LEADER
  5
B99B
330
18
100
AcDbEntity
  8
DIM
 62
     6
100
AcDbLeader
  3
A
 73
     0
 75
     1
 40
3.0
 41
25.2
 76
     3
 10
254.8528414114075
 20
190.3932543921128
 30
0.0
 10
245.8868702024821
 20
179.9878861547677
 30
0.0
 10
243.3868702024821
 20
179.9878861547677
 30
0.0
340
B99C
  0
MTEXT
  5
B99C
102
{ACAD_REACTORS
330
B99B
102
}
330
18
100
AcDbEntity
  8
DIM
 62
     3
100
AcDbMText
 10
242.3868702024821
 20
182.4878861547677
 30
0.0
 40
3.0
 41
0.0
 71
     6
 72
     1
  1
\A1;6-%%C6.4深さ7
  7
TXT
 73
     1
 44
1.0
1001
ACAD
1000
MTEXTBEGIN
1070
    73
1070
     1
1070
    44
1040
1.0
1070
    74
1070
     0
1000
MTEXTEND
  0
MTEXT
  5
B99E
330
18
100
AcDbEntity
  8
0
  6
ByBlock
 62
     3
100
AcDbMText
 10
312.9014035574933
 20
198.3120591371258
 30
0.0
 40
3.0
 41
0.0
 71
     5
 72
     1
  1
P.C.D 108±0.1
  7
TXT
 11
0.7899410193191406
 21
0.6131828324382845
 31
0.0
 73
     1
 44
1.0
1001
ACAD
1000
MTEXTBEGIN
1070
    73
1070
     1
1070
    44
1040
1.0
1070
    74
1070
     0
1000
MTEXTEND
  0
LINE
  5
B9A0
330
18
100
AcDbEntity
  8
0
  6
ByBlock
 62
     6
100
AcDbLine
 10
268.2820992053383
 20
159.709150755741
 30
0.0
 11
353.6012814180206
 21
225.9257434388377
 31
0.0
  0
SOLID
  5
B9A1
330
18
100
AcDbEntity
  8
0
  6
ByBlock
 62
     6
100
AcDbTrace
 10
270.5125455246247
 20
160.9127787414116
 30
0.0
 11
270.0016150255267
 21
161.5711057646576
 31
0.0
 12
268.2820992053377
 22
159.7091507557407
 32
0.0
 13
268.2820992053377
 23
159.7091507557407
 33
0.0
  0
SOLID
  5
B9A2
330
18
100
AcDbEntity
  8
0
  6
ByBlock
 62
     6
100
AcDbTrace
 10
351.8817655978318
 20
224.0637884299209
 30
0.0
 11
351.3708350987339
 21
224.7221154531669
 31
0.0
 12
353.6012814180208
 22
225.9257434388378
 32
0.0
 13
353.6012814180208
 23
225.9257434388378
 33
0.0
  0
POINT
  5
B9A3
330
18
100
AcDbEntity
  8
DEFPOINTS
  6
ByBlock
 62
     0
100
AcDbPoint
 10
353.6012814180208
 20
225.9257434388378
 30
0.0
  0
POINT
  5
B9A4
330
18
100
AcDbEntity
  8
DEFPOINTS
  6
ByBlock
 62
     0
100
AcDbPoint
 10
268.2820992053377
 20
159.7091507557407
 30
0.0
  0
LEADER
  5
B9A5
330
18
100
AcDbEntity
  8
DIM
 62
     6
100
AcDbLeader
  3
A
 73
     0
 75
     1
 40
3.0
 41
25.2
 76
     3
 10
251.9416903116795
 20
96.46679976913823
 30
0.0
 10
243.6942222919316
 20
111.2826455131614
 30
0.0
 10
241.1942222919316
 20
111.2826455131614
 30
0.0
340
B9A6
  0
MTEXT
  5
B9A6
102
{ACAD_REACTORS
330
B9A5
102
}
330
18
100
AcDbEntity
  8
DIM
 62
     3
100
AcDbMText
 10
240.1942222919316
 20
113.7826455131614
 30
0.0
 40
3.0
 41
0.0
 71
     6
 72
     1
  1
\A1;6-%%c8深さ8.5
  7
TXT
 73
     1
 44
1.0
1001
ACAD
1000
MTEXTBEGIN
1070
    73
1070
     1
1070
    44
1040
1.0
1070
    74
1070
     0
1000
MTEXTEND
  0
DIMENSION
  5
B9A8
330
18
100
AcDbEntity
  8
DIM
100
AcDbDimension
  2
*D15
 10
383.2663520481029
 20
79.4667997691386
 30
0.0
 11
380.7663520481029
 21
95.46679976913866
 31
0.0
 70
    32
  1
<>%%p0.2
 71
     5
 42
32.0
  3
A
100
AcDbAlignedDimension
 13
369.8816903116794
 23
111.4667997691386
 33
0.0
 14
365.9416903116795
 24
79.4667997691386
 34
0.0
 50
90.0
100
AcDbRotatedDimension
  0
LEADER
  5
B9A9
330
18
100
AcDbEntity
  8
0
 62
     6
100
AcDbLeader
  3
A
 76
     2
 10
355.9527903684631
 20
101.6358433643689
 30
0.0
 10
378.463619203864
 20
139.6463404407573
 30
0.0
1001
ACAD
1000
DSTYLE
1002
{
1070
   341
1005
8078
1070
   173
1070
     1
1070
   343
1005
8078
1070
   344
1005
8078
1002
}
  0
DIMENSION
  5
B9AA
330
18
100
AcDbEntity
  8
DIM
100
AcDbDimension
  2
*D16
 10
376.3806716328276
 20
79.4667997691386
 30
0.0
 11
376.3806716328276
 21
80.96679976913858
 31
0.0
 70
   160
 71
     5
 42
2.999999999999943
  3
A
100
AcDbAlignedDimension
 13
356.4416903116796
 23
82.46679976913855
 33
0.0
 14
365.9416903116795
 24
79.4667997691386
 34
0.0
 50
90.0
100
AcDbRotatedDimension
  0
LINE
  5
B9AB
330
18
100
AcDbEntity
  8
本体内線
  6
HIDDEN
 48
0.2
100
AcDbLine
 10
260.4416903116795
 20
188.8174470972897
 30
0.0
 11
260.4416903116795
 21
196.8174470972896
 31
0.0
  0
LINE
  5
B9AC
330
18
100
AcDbEntity
  8
本体内線
  6
HIDDEN
 48
0.2
100
AcDbLine
 10
260.4416903116795
 20
196.8174470972896
 30
0.0
 11
252.0774397006337
 21
196.8174470972897
 31
0.0
  0
LINE
  5
B9AD
330
18
100
AcDbEntity
  8
本体内線
  6
HIDDEN
 48
0.2
100
AcDbLine
 10
260.4416903116795
 20
188.8174470972897
 30
0.0
 11
252.0774397006336
 21
188.8174470972897
 31
0.0
  0
LINE
  5
B9AE
330
18
100
AcDbEntity
  8
本体内線
  6
HIDDEN
 48
0.2
100
AcDbLine
 10
260.4416903116795
 20
196.8174470972896
 30
0.0
 11
261.4416903116794
 21
192.8174470972896
 31
0.0
  0
LINE
  5
B9AF
330
18
100
AcDbEntity
  8
本体内線
  6
HIDDEN
 48
0.2
100
AcDbLine
 10
261.4416903116794
 20
192.8174470972896
 30
0.0
 11
260.4416903116795
 21
188.8174470972897
 31
0.0
  0
CIRCLE
  5
B9B0
330
18
100
AcDbEntity
  8
本体外線
 48
0.03
100
AcDbCircle
 10
256.9416903116795
 20
192.8174470972896
 30
0.0
 40
3.2
  0
LINE
  5
B9B1
330
18
100
AcDbEntity
  8
中心線
  6
CENTER
 48
0.15
100
AcDbLine
 10
310.9416903116795
 20
76.46679976913866
 30
0.0
 11
310.9416903116794
 21
114.4667997691386
 31
0.0
  0
LINE
  5
B9B2
330
18
100
AcDbEntity
  8
0
100
AcDbLine
 10
369.1970200863252
 20
100.2240150449398
 30
0.0
 11
364.1970200863253
 21
108.884269082784
 31
0.0
  0
LINE
  5
B9B3
330
18
100
AcDbEntity
  8
本体内線
  6
HIDDEN
 48
0.2
100
AcDbLine
 10
363.0597133904307
 20
104.6327748588158
 30
0.0
 11
363.059713390431
 21
102.4541420638617
 31
0.0
  0
LINE
  5
B9B4
330
18
100
AcDbEntity
  8
本体内線
  6
HIDDEN
 48
0.2
100
AcDbLine
 10
363.0597133904312
 20
102.4541420638617
 30
0.0
 11
364.9464647363791
 21
101.3648256663846
 31
0.0
  0
LWPOLYLINE
  5
B9B5
330
18
100
AcDbEntity
  8
0
100
AcDbPolyline
 90
        2
 70
     0
 43
0.0
 10
369.1970200863251
 20
101.8240150449404
 10
365.5826607323803
 20
108.0842690827845
  0
LINE
  5
B9B6
330
18
100
AcDbEntity
  8
中心線
  6
CENTER
 48
0.15
100
AcDbLine
 10
369.8898404093529
 20
106.4667997691386
 30
0.0
 11
353.3925613257531
 21
96.94209124932575
 31
0.0
  0
LINE
  5
B9B7
330
18
100
AcDbEntity
  8
本体内線
  6
HIDDEN
 48
0.2
100
AcDbLine
 10
366.446464736379
 20
106.5881166600772
 30
0.0
 11
363.0597133904308
 21
104.6327748588158
 31
0.0
  0
LINE
  5
B9B8
330
18
100
AcDbEntity
  8
本体内線
  6
HIDDEN
 48
0.2
100
AcDbLine
 10
368.3332160823275
 20
103.320167467646
 30
0.0
 11
364.946464736379
 21
101.3648256663845
 31
0.0
  0
LINE
  5
B9B9
330
18
100
AcDbEntity
  8
0
100
AcDbLine
 10
358.9616371790777
 20
103.5522182752155
 30
0.0
 11
359.6936879866464
 21
106.2842690827844
 31
0.0
  0
LINE
  5
B9BA
330
18
100
AcDbEntity
  8
0
100
AcDbLine
 10
361.9616371790773
 20
98.35606585250882
 30
0.0
 11
364.6936879866463
 21
97.6240150449399
 31
0.0
  0
LWPOLYLINE
  5
B9BB
330
18
100
AcDbEntity
  8
0
100
AcDbPolyline
 90
        2
 70
     0
 43
0.0
 10
362.9616371790775
 20
96.62401504493987
 10
357.9616371790775
 20
105.2842690827841
  0
LINE
  5
B9BC
330
18
100
AcDbEntity
  8
0
100
AcDbLine
 10
369.1970200863251
 20
101.8240150449396
 30
0.0
 11
369.1970200863252
 21
100.2240150449397
 31
0.0
  0
LINE
  5
B9BD
330
18
100
AcDbEntity
  8
0
100
AcDbLine
 10
365.5826607323804
 20
108.0842690827845
 30
0.0
 11
364.1970200863257
 21
108.8842690827842
 31
0.0
  0
LINE
  5
B9BE
330
18
100
AcDbEntity
  8
本体内線
  6
HIDDEN
 48
0.2
100
AcDbLine
 10
363.0597133904307
 20
104.6327748588158
 30
0.0
 11
364.9464647363789
 21
101.3648256663844
 31
0.0
  0
LINE
  5
B9BF
330
18
100
AcDbEntity
  8
中心線
  6
CENTER
 48
0.15
100
AcDbLine
 10
256.9416903116794
 20
102.4667997691382
 30
0.0
 11
256.9416903116794
 21
114.4667997691387
 31
0.0
  0
LINE
  5
B9C0
102
{ACAD_REACTORS
330
BA2C
102
}
330
18
100
AcDbEntity
  8
本体外線
100
AcDbLine
 10
260.1416903116795
 20
104.4667997691382
 30
0.0
 11
260.1416903116795
 21
111.4667997691382
 31
0.0
  0
LINE
  5
B9C1
102
{ACAD_REACTORS
330
BA2C
102
}
330
18
100
AcDbEntity
  8
本体外線
100
AcDbLine
 10
253.7416903116795
 20
104.4667997691382
 30
0.0
 11
253.7416903116795
 21
111.4667997691382
 31
0.0
  0
LINE
  5
B9C2
330
18
100
AcDbEntity
  8
本体外線
100
AcDbLine
 10
260.1416903116793
 20
104.4667997691382
 30
0.0
 11
253.7416903116795
 21
104.4667997691382
 31
0.0
  0
LINE
  5
B9C3
102
{ACAD_REACTORS
330
BA2C
102
}
330
18
100
AcDbEntity
  8
本体外線
100
AcDbLine
 10
253.7416903116795
 20
104.4667997691382
 30
0.0
 11
256.9416903116794
 21
103.4667997691382
 31
0.0
  0
LINE
  5
B9C4
102
{ACAD_REACTORS
330
BA2C
102
}
330
18
100
AcDbEntity
  8
本体外線
100
AcDbLine
 10
256.9416903116794
 20
103.4667997691382
 30
0.0
 11
260.1416903116795
 21
104.4667997691382
 31
0.0
  0
POINT
  5
B9C5
330
18
100
AcDbEntity
  8
0
100
AcDbPoint
 10
260.1416903116795
 20
111.4667997691382
 30
0.0
  0
POINT
  5
B9C6
330
18
100
AcDbEntity
  8
0
100
AcDbPoint
 10
253.7416903116795
 20
111.4667997691382
 30
0.0
  0
POINT
  5
B9C7
330
18
100
AcDbEntity
  8
0
100
AcDbPoint
 10
260.1416903116795
 20
111.4667997691382
 30
0.0
  0
POINT
  5
B9C8
330
18
100
AcDbEntity
  8
0
100
AcDbPoint
 10
253.7416903116795
 20
111.4667997691382
 30
0.0
  0
LINE
  5
B9C9
330
18
100
AcDbEntity
  8
中心線
  6
CENTER
 48
0.15
100
AcDbLine
 10
310.9416903116796
 20
254.8174470972893
 30
0.0
 11
310.9416903116794
 21
130.8174470972893
 31
0.0
  0
LINE
  5
B9CA
102
{ACAD_REACTORS
330
BA2C
102
}
330
18
100
AcDbEntity
  8
本体外線
100
AcDbLine
 10
260.4416903116793
 20
92.46679976913821
 30
0.0
 11
251.9416903116795
 21
92.46679976913821
 31
0.0
  0
LINE
  5
B9CB
330
18
100
AcDbEntity
  8
中心線
  6
CENTER
 48
0.15
100
AcDbLine
 10
262.6241034411874
 20
96.46679976913818
 30
0.0
 11
248.4416903116793
 21
96.46679976913818
 31
0.0
  0
LINE
  5
B9CC
102
{ACAD_REACTORS
330
BA2C
102
}
330
18
100
AcDbEntity
  8
本体外線
100
AcDbLine
 10
260.4416903116793
 20
100.4667997691381
 30
0.0
 11
251.9416903116795
 21
100.4667997691382
 31
0.0
  0
LINE
  5
B9CD
102
{ACAD_REACTORS
330
BA2C
102
}
330
18
100
AcDbEntity
  8
本体外線
100
AcDbLine
 10
260.4416903116793
 20
100.4667997691381
 30
0.0
 11
261.4416903116794
 21
96.46679976913826
 31
0.0
  0
LINE
  5
B9CE
102
{ACAD_REACTORS
330
BA2C
102
}
330
18
100
AcDbEntity
  8
本体外線
100
AcDbLine
 10
261.4416903116794
 20
96.46679976913826
 30
0.0
 11
260.4416903116793
 21
92.46679976913821
 31
0.0
  0
LINE
  5
B9CF
330
18
100
AcDbEntity
  8
本体外線
100
AcDbLine
 10
260.4416903116793
 20
92.46679976913821
 30
0.0
 11
260.4416903116793
 21
100.4667997691381
 31
0.0
  0
LINE
  5
B9D0
102
{ACAD_REACTORS
330
BA2C
102
}
330
18
100
AcDbEntity
  8
本体外線
100
AcDbLine
 10
251.9416903116795
 20
111.4667997691387
 30
0.0
 11
369.9416903116794
 21
111.4667997691386
 31
0.0
  0
LINE
  5
B9D1
102
{ACAD_REACTORS
330
BA2C
102
}
330
18
100
AcDbEntity
  8
本体外線
100
AcDbLine
 10
365.9416903116794
 20
79.4667997691386
 30
0.0
 11
365.9416903116794
 21
82.46679976913858
 31
0.0
  0
LINE
  5
B9D2
102
{ACAD_REACTORS
330
BA2C
102
}
330
18
100
AcDbEntity
  8
0
100
AcDbLine
 10
355.9416903116795
 20
83.13346643580532
 30
0.0
 11
355.9416903116794
 21
92.57104683135068
 31
0.0
  0
LINE
  5
B9D3
102
{ACAD_REACTORS
330
BA2C
102
}
330
18
100
AcDbEntity
  8
本体外線
100
AcDbLine
 10
365.9416903116794
 20
82.4667997691386
 30
0.0
 11
369.9416903116794
 21
86.4067997691386
 31
0.0
  0
LINE
  5
B9D4
102
{ACAD_REACTORS
330
BA2C
102
}
330
18
100
AcDbEntity
  8
本体外線
100
AcDbLine
 10
369.9416903116794
 20
86.4067997691386
 30
0.0
 11
369.9416903116794
 21
111.4667997691386
 31
0.0
  0
LINE
  5
B9D5
102
{ACAD_REACTORS
330
BA2C
102
}
330
18
100
AcDbEntity
  8
0
100
AcDbLine
 10
369.9416903116794
 20
100.6539506000055
 30
0.0
 11
354.9416903116795
 21
91.99369656216111
 31
0.0
  0
LINE
  5
B9D6
102
{ACAD_REACTORS
330
BA2C
102
}
330
18
100
AcDbEntity
  8
0
100
AcDbLine
 10
368.6700944471972
 20
111.4667997691386
 30
0.0
 11
354.9416903116793
 21
103.5407019459534
 31
0.0
  0
LINE
  5
B9D7
330
18
100
AcDbEntity
  8
0
100
AcDbLine
 10
365.5826607323811
 20
108.084269082784
 30
0.0
 11
359.1865083096739
 21
104.3914487597562
 31
0.0
  0
LINE
  5
B9D8
330
18
100
AcDbEntity
  8
0
100
AcDbLine
 10
369.1970200863251
 20
101.8240150449397
 30
0.0
 11
362.8008676636189
 21
98.13119472191228
 31
0.0
  0
LINE
  5
B9D9
330
18
100
AcDbEntity
  8
0
100
AcDbLine
 10
358.2116371790776
 20
104.8512563808918
 30
0.0
 11
354.9416903116793
 21
102.9633516767636
 31
0.0
  0
LINE
  5
B9DA
330
18
100
AcDbEntity
  8
0
100
AcDbLine
 10
362.7116371790776
 20
97.0570277468319
 30
0.0
 11
354.9416903116795
 21
92.57104683135052
 31
0.0
  0
LINE
  5
B9DB
102
{ACAD_REACTORS
330
BA2C
102
}
330
18
100
AcDbEntity
  8
0
100
AcDbLine
 10
265.9416903116796
 20
83.13346643580532
 30
0.0
 11
265.9416903116795
 21
110.8001331024722
 31
0.0
  0
ARC
  5
B9DC
330
18
100
AcDbEntity
  8
0
100
AcDbCircle
 10
310.9416903116795
 20
192.8174470972893
 30
0.0
 40
45.0
100
AcDbArc
 50
170.096308793083
 51
103.2701532873447
  0
LINE
  5
B9DD
330
18
100
AcDbEntity
  8
中心線
  6
CENTER
 48
0.15
100
AcDbLine
 10
248.9416903116794
 20
192.8174470972897
 30
0.0
 11
372.9416903116795
 21
192.8174470972891
 31
0.0
  0
LINE
  5
B9DE
330
18
100
AcDbEntity
  8
中心線
  6
CENTER
 48
0.15
100
AcDbLine
 10
346.370118000546
 20
213.4530113370856
 30
0.0
 11
364.6483194250767
 21
223.7948257674737
 31
0.0
  0
ARC
  5
B9DF
330
18
100
AcDbEntity
  8
本体外線
 48
0.06
100
AcDbCircle
 10
362.0548723473162
 20
222.2867980073379
 30
0.0
 40
5.0
100
AcDbArc
 50
122.3542257559798
 51
297.5781948294417
  0
ARC
  5
B9E0
330
18
100
AcDbEntity
  8
本体外線
 48
0.06
100
AcDbCircle
 10
357.7070621160392
 20
219.8174470972892
 30
0.0
 40
2.5
100
AcDbArc
 50
314.0744186800447
 51
105.1146402376018
  0
LINE
  5
B9E1
330
18
100
AcDbEntity
  8
中心線
  6
CENTER
 48
0.15
100
AcDbLine
 10
275.3522301288382
 20
213.1740264733525
 30
0.0
 11
257.2568232949566
 21
223.8325249368947
 31
0.0
  0
ARC
  5
B9E2
330
18
100
AcDbEntity
  8
本体外線
 48
0.06
100
AcDbCircle
 10
259.8595403705914
 20
222.3405458871345
 30
0.0
 40
5.0
100
AcDbArc
 50
242.35422575598
 51
57.57819482944233
  0
ARC
  5
B9E3
330
18
100
AcDbEntity
  8
本体外線
 48
0.06
100
AcDbCircle
 10
264.1719661051904
 20
219.8099072310391
 30
0.0
 40
2.5
100
AcDbArc
 50
74.07441868004548
 51
225.1146402376015
  0
LINE
  5
B9E4
102
{ACAD_REACTORS
330
BA2C
102
}
330
18
100
AcDbEntity
  8
本体外線
100
AcDbLine
 10
251.9416903116795
 20
86.46679976913761
 30
0.0
 11
251.9416903116794
 21
111.4667997691382
 31
0.0
  0
LWPOLYLINE
  5
B9E5
330
18
100
AcDbEntity
  8
0
100
AcDbPolyline
 90
        2
 70
     0
 43
0.0
 10
364.6936879866463
 20
97.62401504493986
 10
359.6936879866464
 20
106.2842690827841
  0
HATCH
  5
B9E6
330
18
100
AcDbEntity
  8
0
100
AcDbHatch
 10
0.0
 20
0.0
 30
0.0
210
0.0
220
0.0
230
1.0
  2
AR-SAND
 70
     0
 71
     0
 91
        2
 92
        7
 72
     0
 73
     1
 93
        4
 10
360.4316371790776
 20
101.0061035880889
 10
358.2116371790775
 20
104.8512563808918
 10
355.9416903116793
 20
103.5407019459533
 10
355.9416903116793
 20
98.41383155554936
 97
        0
 92
        7
 72
     0
 73
     1
 93
        4
 10
355.9416903116793
 20
98.41383155554932
 10
355.9416903116794
 20
93.14839710054011
 10
362.7116371790775
 20
97.0570277468319
 10
360.4316371790775
 20
101.0061035880889
 97
        0
 75
     0
 76
     1
 52
0.0
 41
0.05
 77
     0
 78
     4
 53
37.5
 43
249.1494297177087
 44
-96.37481977226414
 45
-0.0800015647992023
 46
2.447066186646711
 79
     6
 49
0.0
 49
-1.9304
 49
0.0
 49
-2.159
 49
0.0
 49
-2.06375
 53
7.499999999999999
 43
249.1494297177087
 44
-96.37481977226414
 45
2.247616415690013
 46
3.584125502841771
 79
     6
 49
0.0
 49
-1.0414
 49
0.0
 49
-1.7399
 49
0.0
 49
-0.6667500000000001
 53
327.5
 43
247.5873297177087
 44
-96.37481977226414
 45
3.95496185120729
 46
0.0071859233927285
 79
     6
 49
0.0
 49
-0.635
 49
0.0
 49
-2.286
 49
0.0
 49
-2.9845
 53
317.5
 43
247.5873297177087
 44
-96.37481977226414
 45
3.817782262361486
 46
1.114646616286081
 79
     6
 49
0.0
 49
-0.3175
 49
0.0
 49
-1.498599999999999
 49
0.0
 49
-1.7145
 47
0.0371737046505736
 98
        2
 10
358.4162369444625
 20
101.3195460810304
 10
358.4906698068794
 20
97.86239102177795
  0
LINE
  5
B9E7
330
18
100
AcDbEntity
  8
本体外線
100
AcDbLine
 10
265.4416903116796
 20
82.46679976913874
 30
0.0
 11
356.4416903116796
 21
82.4667997691386
 31
0.0
  0
LINE
  5
B9E8
102
{ACAD_REACTORS
330
BA2C
102
}
330
18
100
AcDbEntity
  8
本体外線
100
AcDbLine
 10
365.9416903116794
 20
79.46679976913962
 30
0.0
 11
255.9416903116796
 21
79.46679976913769
 31
0.0
  0
LINE
  5
B9E9
102
{ACAD_REACTORS
330
BA2C
102
}
330
18
100
AcDbEntity
  8
本体外線
100
AcDbLine
 10
255.9416903116796
 20
79.46679976913769
 30
0.0
 11
255.9416903116795
 21
82.46679976913766
 31
0.0
  0
LINE
  5
B9EA
102
{ACAD_REACTORS
330
BA2C
102
}
330
18
100
AcDbEntity
  8
本体外線
100
AcDbLine
 10
255.9416903116795
 20
82.46679976913769
 30
0.0
 11
251.9416903116795
 21
86.46679976913757
 31
0.0
  0
CIRCLE
  5
B9EB
330
18
100
AcDbEntity
  8
本体外線
100
AcDbCircle
 10
310.9416903116795
 20
192.8174470972893
 30
0.0
 40
59.0
  0
CIRCLE
  5
B9EC
330
18
100
AcDbEntity
  8
本体外線
100
AcDbCircle
 10
310.9416903116795
 20
192.8174470972893
 30
0.0
 40
44.0
  0
ARC
  5
B9ED
330
18
100
AcDbEntity
  8
本体外線
 48
0.06
100
AcDbCircle
 10
310.9150117317803
 20
133.8174581734588
 30
0.0
 40
5.0
100
AcDbArc
 50
2.354225755979504
 51
177.5781948294417
  0
ARC
  5
B9EE
330
18
100
AcDbEntity
  8
本体外線
 48
0.06
100
AcDbCircle
 10
310.9503962284583
 20
138.8174477396029
 30
0.0
 40
2.5
100
AcDbArc
 50
194.074418680045
 51
345.1146402376016
  0
CIRCLE
  5
B9EF
330
18
100
AcDbEntity
  8
中心線
  6
CENTER
 48
0.15
100
AcDbCircle
 10
310.9416903116795
 20
192.8174470972893
 30
0.0
 40
54.0
  0
LINE
  5
B9F0
330
18
100
AcDbEntity
  8
本体内線
  6
HIDDEN
 48
0.2
100
AcDbLine
 10
289.155791926817
 20
147.0831642061753
 30
0.0
 11
282.2275886965416
 21
151.0831642061753
 31
0.0
  0
LINE
  5
B9F1
330
18
100
AcDbEntity
  8
本体内線
  6
HIDDEN
 48
0.2
100
AcDbLine
 10
282.2275886965416
 20
151.0831642061753
 30
0.0
 11
278.0454633910186
 21
143.8395106933902
 31
0.0
  0
LINE
  5
B9F2
330
18
100
AcDbEntity
  8
本体内線
  6
HIDDEN
 48
0.2
100
AcDbLine
 10
289.155791926817
 20
147.0831642061753
 30
0.0
 11
284.9736666212941
 21
139.8395106933902
 31
0.0
  0
LINE
  5
B9F3
330
18
100
AcDbEntity
  8
本体内線
  6
HIDDEN
 48
0.2
100
AcDbLine
 10
282.2275886965416
 20
151.0831642061753
 30
0.0
 11
286.1916903116793
 21
149.9491896099597
 31
0.0
  0
LINE
  5
B9F4
330
18
100
AcDbEntity
  8
本体内線
  6
HIDDEN
 48
0.2
100
AcDbLine
 10
286.1916903116793
 20
149.9491896099597
 30
0.0
 11
289.155791926817
 21
147.0831642061753
 31
0.0
  0
CIRCLE
  5
B9F5
330
18
100
AcDbEntity
  8
本体外線
 48
0.03
100
AcDbCircle
 10
283.9416903116793
 20
146.0520752929298
 30
0.0
 40
3.2
  0
LINE
  5
B9F6
330
18
100
AcDbEntity
  8
本体内線
  6
HIDDEN
 48
0.2
100
AcDbLine
 10
339.655791926817
 20
151.0831642061751
 30
0.0
 11
332.7275886965415
 21
147.0831642061751
 31
0.0
  0
LINE
  5
B9F7
330
18
100
AcDbEntity
  8
本体内線
  6
HIDDEN
 48
0.2
100
AcDbLine
 10
332.7275886965415
 20
147.0831642061751
 30
0.0
 11
336.9097140020644
 21
139.83951069339
 31
0.0
  0
LINE
  5
B9F8
330
18
100
AcDbEntity
  8
本体内線
  6
HIDDEN
 48
0.2
100
AcDbLine
 10
339.655791926817
 20
151.0831642061751
 30
0.0
 11
343.8379172323399
 21
143.8395106933899
 31
0.0
  0
LINE
  5
B9F9
330
18
100
AcDbEntity
  8
本体内線
  6
HIDDEN
 48
0.2
100
AcDbLine
 10
332.7275886965415
 20
147.0831642061751
 30
0.0
 11
335.6916903116793
 21
149.9491896099596
 31
0.0
  0
LINE
  5
B9FA
330
18
100
AcDbEntity
  8
本体内線
  6
HIDDEN
 48
0.2
100
AcDbLine
 10
335.6916903116793
 20
149.9491896099596
 30
0.0
 11
339.655791926817
 21
151.0831642061751
 31
0.0
  0
CIRCLE
  5
B9FB
330
18
100
AcDbEntity
  8
本体外線
 48
0.03
100
AcDbCircle
 10
337.9416903116793
 20
146.0520752929296
 30
0.0
 40
3.2
  0
LINE
  5
B9FC
330
18
100
AcDbEntity
  8
本体内線
  6
HIDDEN
 48
0.2
100
AcDbLine
 10
361.4416903116796
 20
196.8174470972891
 30
0.0
 11
361.4416903116796
 21
188.8174470972892
 31
0.0
  0
LINE
  5
B9FD
330
18
100
AcDbEntity
  8
本体内線
  6
HIDDEN
 48
0.2
100
AcDbLine
 10
361.4416903116796
 20
188.8174470972891
 30
0.0
 11
369.8059409227253
 21
188.8174470972891
 31
0.0
  0
LINE
  5
B9FE
330
18
100
AcDbEntity
  8
本体内線
  6
HIDDEN
 48
0.2
100
AcDbLine
 10
361.4416903116796
 20
196.8174470972891
 30
0.0
 11
369.8059409227254
 21
196.8174470972891
 31
0.0
  0
LINE
  5
B9FF
330
18
100
AcDbEntity
  8
本体内線
  6
HIDDEN
 48
0.2
100
AcDbLine
 10
361.4416903116796
 20
188.8174470972891
 30
0.0
 11
360.4416903116796
 21
192.8174470972892
 31
0.0
  0
LINE
  5
BA00
330
18
100
AcDbEntity
  8
本体内線
  6
HIDDEN
 48
0.2
100
AcDbLine
 10
360.4416903116796
 20
192.8174470972892
 30
0.0
 11
361.4416903116796
 21
196.8174470972891
 31
0.0
  0
CIRCLE
  5
BA01
330
18
100
AcDbEntity
  8
本体外線
 48
0.03
100
AcDbCircle
 10
364.9416903116796
 20
192.8174470972891
 30
0.0
 40
3.2
  0
LINE
  5
BA02
330
18
100
AcDbEntity
  8
本体内線
  6
HIDDEN
 48
0.2
100
AcDbLine
 10
332.727588696542
 20
238.5517299884035
 30
0.0
 11
339.6557919268175
 21
234.5517299884035
 31
0.0
  0
LINE
  5
BA03
330
18
100
AcDbEntity
  8
本体内線
  6
HIDDEN
 48
0.2
100
AcDbLine
 10
339.6557919268176
 20
234.5517299884035
 30
0.0
 11
343.8379172323404
 21
241.7953835011886
 31
0.0
  0
LINE
  5
BA04
330
18
100
AcDbEntity
  8
本体内線
  6
HIDDEN
 48
0.2
100
AcDbLine
 10
332.727588696542
 20
238.5517299884035
 30
0.0
 11
336.909714002065
 21
245.7953835011887
 31
0.0
  0
LINE
  5
BA05
330
18
100
AcDbEntity
  8
本体内線
  6
HIDDEN
 48
0.2
100
AcDbLine
 10
339.6557919268176
 20
234.5517299884035
 30
0.0
 11
335.6916903116798
 21
235.685704584619
 31
0.0
  0
LINE
  5
BA06
330
18
100
AcDbEntity
  8
本体内線
  6
HIDDEN
 48
0.2
100
AcDbLine
 10
335.6916903116798
 20
235.685704584619
 30
0.0
 11
332.727588696542
 21
238.5517299884035
 31
0.0
  0
CIRCLE
  5
BA07
330
18
100
AcDbEntity
  8
本体外線
 48
0.03
100
AcDbCircle
 10
337.9416903116798
 20
239.582818901649
 30
0.0
 40
3.2
  0
LINE
  5
BA08
330
18
100
AcDbEntity
  8
本体内線
  6
HIDDEN
 48
0.2
100
AcDbLine
 10
282.227588696542
 20
234.5517299884038
 30
0.0
 11
289.1557919268175
 21
238.5517299884037
 31
0.0
  0
LINE
  5
BA09
330
18
100
AcDbEntity
  8
本体内線
  6
HIDDEN
 48
0.2
100
AcDbLine
 10
289.1557919268175
 20
238.5517299884038
 30
0.0
 11
284.9736666212947
 21
245.7953835011889
 31
0.0
  0
LINE
  5
BA0A
330
18
100
AcDbEntity
  8
本体内線
  6
HIDDEN
 48
0.2
100
AcDbLine
 10
282.227588696542
 20
234.5517299884038
 30
0.0
 11
278.0454633910192
 21
241.795383501189
 31
0.0
  0
LINE
  5
BA0B
330
18
100
AcDbEntity
  8
本体内線
  6
HIDDEN
 48
0.2
100
AcDbLine
 10
289.1557919268175
 20
238.5517299884038
 30
0.0
 11
286.1916903116797
 21
235.6857045846193
 31
0.0
  0
LINE
  5
BA0C
330
18
100
AcDbEntity
  8
本体内線
  6
HIDDEN
 48
0.2
100
AcDbLine
 10
286.1916903116797
 20
235.6857045846193
 30
0.0
 11
282.227588696542
 21
234.5517299884038
 31
0.0
  0
CIRCLE
  5
BA0D
330
18
100
AcDbEntity
  8
本体外線
 48
0.03
100
AcDbCircle
 10
283.9416903116798
 20
239.5828189016493
 30
0.0
 40
3.2
  0
LINE
  5
BA0E
330
18
100
AcDbEntity
  8
中心線
  6
CENTER
 48
0.15
100
AcDbLine
 10
279.9416903116799
 20
246.5110221319248
 30
0.0
 11
290.4416903116798
 21
228.3244886524515
 31
0.0
  0
LINE
  5
BA0F
330
18
100
AcDbEntity
  8
中心線
  6
CENTER
 48
0.15
100
AcDbLine
 10
341.9416903116797
 20
246.5110221319244
 30
0.0
 11
331.4416903116796
 21
228.3244886524512
 31
0.0
  0
LINE
  5
BA10
330
18
100
AcDbEntity
  8
中心線
  6
CENTER
 48
0.15
100
AcDbLine
 10
331.4416903116795
 20
157.3104055421273
 30
0.0
 11
341.9416903116793
 21
139.1238720626541
 31
0.0
  0
LINE
  5
BA11
330
18
100
AcDbEntity
  8
中心線
  6
CENTER
 48
0.15
100
AcDbLine
 10
290.4416903116793
 20
157.3104055421274
 30
0.0
 11
279.9416903116793
 21
139.1238720626542
 31
0.0
  0
LINE
  5
BA12
330
18
100
AcDbEntity
  8
本体外線
100
AcDbLine
 10
266.9416903116793
 20
109.4667997691387
 30
0.0
 11
354.9416903116793
 21
109.4667997691386
 31
0.0
  0
LINE
  5
BA13
330
18
100
AcDbEntity
  8
本体外線
100
AcDbLine
 10
266.9416903116796
 20
84.46679976913875
 30
0.0
 11
354.9416903116796
 21
84.46679976913861
 31
0.0
  0
LINE
  5
BA14
102
{ACAD_REACTORS
330
BA2C
102
}
330
18
100
AcDbEntity
  8
本体外線
 48
0.2
100
AcDbLine
 10
266.9416903116796
 20
84.46679976913875
 30
0.0
 11
266.9416903116793
 21
109.4667997691387
 31
0.0
  0
LINE
  5
BA15
102
{ACAD_REACTORS
330
BA2C
102
}
330
18
100
AcDbEntity
  8
本体外線
 48
0.2
100
AcDbLine
 10
354.9416903116796
 20
84.46679976913861
 30
0.0
 11
354.9416903116793
 21
109.4667997691386
 31
0.0
  0
LINE
  5
BA16
102
{ACAD_REACTORS
330
BA2C
102
}
330
18
100
AcDbEntity
  8
本体外線
 48
0.2
100
AcDbLine
 10
265.4416903116796
 20
79.46679976913786
 30
0.0
 11
265.4416903116796
 21
82.46679976913874
 31
0.0
  0
LINE
  5
BA17
102
{ACAD_REACTORS
330
BA2C
102
}
330
18
100
AcDbEntity
  8
本体外線
 48
0.2
100
AcDbLine
 10
356.4416903116796
 20
79.46679976913945
 30
0.0
 11
356.4416903116796
 21
82.4667997691386
 31
0.0
  0
LINE
  5
BA18
102
{ACAD_REACTORS
330
BA2C
102
}
330
18
100
AcDbEntity
  8
本体外線
100
AcDbLine
 10
265.4416903116796
 20
82.46679976913874
 30
0.0
 11
266.9416903116796
 21
84.46679976913875
 31
0.0
  0
LINE
  5
BA19
102
{ACAD_REACTORS
330
BA2C
102
}
330
18
100
AcDbEntity
  8
本体外線
100
AcDbLine
 10
354.9416903116796
 20
84.46679976913861
 30
0.0
 11
356.4416903116796
 21
82.4667997691386
 31
0.0
  0
LINE
  5
BA1A
102
{ACAD_REACTORS
330
BA2C
102
}
330
18
100
AcDbEntity
  8
本体外線
100
AcDbLine
 10
265.4416903116796
 20
111.4667997691387
 30
0.0
 11
266.9416903116796
 21
109.4667997691387
 31
0.0
  0
LINE
  5
BA1B
102
{ACAD_REACTORS
330
BA2C
102
}
330
18
100
AcDbEntity
  8
本体外線
100
AcDbLine
 10
354.9416903116796
 20
109.4667997691388
 30
0.0
 11
356.4416903116796
 21
111.4667997691388
 31
0.0
  0
LINE
  5
BA1C
102
{ACAD_REACTORS
330
BA2C
102
}
330
18
100
AcDbEntity
  8
0
100
AcDbLine
 10
355.9416903116793
 20
104.118052215143
 30
0.0
 11
355.9416903116793
 21
110.8001331024718
 31
0.0
  0
LEADER
  5
BA1D
330
18
100
AcDbEntity
  8
DIM
 62
     6
100
AcDbLeader
  3
A
 76
     2
 10
355.6916903116796
 20
83.46679976913859
 30
0.0
 10
343.7746719116412
 20
71.5497813691003
 30
0.0
  0
LEADER
  5
BA1E
330
18
100
AcDbEntity
  8
DIM
 62
     6
100
AcDbLeader
  3
A
 76
     2
 10
266.1916903116796
 20
110.4667997691387
 30
0.0
 10
276.1155461018203
 20
120.3937477316456
 30
0.0
  0
TEXT
  5
BA1F
330
18
100
AcDbEntity
  8
DIM
 62
     3
100
AcDbText
 10
271.7110793240544
 20
117.1766087166247
 30
0.0
 40
3.0
  1
C2
 50
45.0
  7
TXT
100
AcDbText
  0
TEXT
  5
BA20
330
18
100
AcDbEntity
  8
DIM
 62
     3
100
AcDbText
 10
343.9207152377524
 20
72.49740664662566
 30
0.0
 40
3.0
  1
C2
 50
45.0
  7
TXT
100
AcDbText
  0
LINE
  5
BA21
330
18
100
AcDbEntity
  8
0
  6
ByBlock
 62
     6
100
AcDbLine
 10
366.9416903116794
 20
79.46679976913966
 30
0.0
 11
401.3080738387079
 21
79.46679976914025
 31
0.0
  0
LINE
  5
BA22
330
18
100
AcDbEntity
  8
0
  6
ByBlock
 62
     6
100
AcDbLine
 10
370.7558658131374
 20
106.9667997691386
 30
0.0
 11
390.833456896844
 21
118.558602385996
 31
0.0
  0
ARC
  5
BA23
330
18
100
AcDbEntity
  8
0
  6
ByBlock
 62
     6
100
AcDbCircle
 10
323.1244686049944
 20
79.46679976913888
 30
0.0
 40
77.18360523371337
100
AcDbArc
 50
1.855908526560103
 51
28.14409147344095
  0
SOLID
  5
BA24
330
18
100
AcDbEntity
  8
0
  6
ByBlock
 62
     6
100
AcDbTrace
 10
400.684197986612
 20
81.97321987288868
 30
0.0
 11
399.8509739449691
 21
81.95972391524957
 31
0.0
 12
400.3080738387078
 22
79.46679976914021
 32
0.0
 13
400.3080738387078
 23
79.46679976914021
 33
0.0
  0
SOLID
  5
BA25
330
18
100
AcDbEntity
  8
0
  6
ByBlock
 62
     6
100
AcDbTrace
 10
390.8180334460693
 20
115.6711167988883
 30
0.0
 11
391.5463746119956
 21
116.0760409775459
 31
0.0
 12
389.9674314930596
 22
118.058602385996
 32
0.0
 13
389.9674314930596
 23
118.058602385996
 33
0.0
  0
MTEXT
  5
BA26
330
18
100
AcDbEntity
  8
0
  6
ByBlock
 62
     3
100
AcDbMText
 10
394.752980542124
 20
100.6543826503951
 30
0.0
 40
3.0
 41
0.0
 71
     5
 72
     1
  1
\A1;30°
  7
TXT
 11
-0.2588190451025325
 21
0.965925826289065
 31
0.0
 73
     1
 44
1.0
1001
ACAD
1000
MTEXTBEGIN
1070
    73
1070
     1
1070
    44
1040
1.0
1070
    74
1070
     0
1000
MTEXTEND
  0
POINT
  5
BA28
330
18
100
AcDbEntity
  8
DEFPOINTS
  6
ByBlock
 62
     0
100
AcDbPoint
 10
369.8898404093529
 20
106.4667997691386
 30
0.0
  0
POINT
  5
BA29
330
18
100
AcDbEntity
  8
DEFPOINTS
  6
ByBlock
 62
     0
100
AcDbPoint
 10
365.9416903116794
 20
79.46679976913962
 30
0.0
  0
POINT
  5
BA2A
330
18
100
AcDbEntity
  8
DEFPOINTS
  6
ByBlock
 62
     0
100
AcDbPoint
 10
255.9416903116796
 20
79.46679976913769
 30
0.0
  0
POINT
  5
BA2B
330
18
100
AcDbEntity
  8
DEFPOINTS
  6
ByBlock
 62
     0
100
AcDbPoint
 10
353.3925613257531
 20
96.94209124932575
 30
0.0
  0
HATCH
  5
BA2C
330
18
100
AcDbEntity
  8
剖面線
100
AcDbHatch
 10
0.0
 20
0.0
 30
0.0
210
0.0
220
0.0
230
1.0
  2
ANSI31
 70
     0
 71
     1
 91
        6
 92
        7
 72
     0
 73
     1
 93
       19
 10
265.9416903116795
 20
110.8001331024721
 10
265.4416903116796
 20
111.4667997691387
 10
260.1416903116795
 20
111.4667997691387
 10
260.1416903116795
 20
104.4667997691382
 10
256.9416903116794
 20
103.4667997691382
 10
253.7416903116795
 20
104.4667997691382
 10
253.7416903116795
 20
111.4667997691387
 10
251.9416903116794
 20
111.4667997691387
 10
251.9416903116795
 20
100.4667997691382
 10
260.4416903116793
 20
100.4667997691381
 10
261.4416903116794
 20
96.46679976913828
 10
260.4416903116793
 20
92.46679976913823
 10
251.9416903116795
 20
92.46679976913819
 10
251.9416903116795
 20
86.46679976913759
 10
255.9416903116795
 20
82.46679976913767
 10
255.9416903116796
 20
79.46679976913769
 10
265.4416903116796
 20
79.46679976913788
 10
265.4416903116796
 20
82.46679976913874
 10
265.9416903116796
 20
83.13346643580542
 97
       17
330
BA1A
330
B9D0
330
B9C0
330
B9C4
330
B9C3
330
B9C1
330
B9E4
330
B9CC
330
B9CD
330
B9CE
330
B9CA
330
B9EA
330
B9E9
330
B9E8
330
BA16
330
BA18
330
B9DB
 92
        7
 72
     0
 73
     1
 93
        4
 10
266.9416903116793
 20
109.466799769139
 10
265.9416903116795
 20
110.8001331024721
 10
265.9416903116796
 20
83.13346643580542
 10
266.9416903116796
 20
84.46679976913875
 97
        4
330
BA1A
330
B9DB
330
BA18
330
BA14
 92
        7
 72
     0
 73
     1
 93
        8
 10
355.9416903116794
 20
92.57104683135072
 10
355.9416903116795
 20
83.13346643580532
 10
356.4416903116796
 20
82.46679976913865
 10
356.4416903116796
 20
79.46679976913945
 10
365.9416903116794
 20
79.46679976913962
 10
365.9416903116795
 20
82.4667997691386
 10
369.9416903116794
 20
86.40679976913858
 10
369.9416903116794
 20
100.6539506000055
 97
        8
330
B9D5
330
B9D2
330
BA19
330
BA17
330
B9E8
330
B9D1
330
B9D3
330
B9D4
 92
        7
 72
     0
 73
     1
 93
        4
 10
355.9416903116794
 20
92.57104683135072
 10
354.9416903116795
 20
91.99369656216115
 10
354.9416903116795
 20
84.46679976913861
 10
355.9416903116795
 20
83.13346643580532
 97
        4
330
B9D5
330
BA15
330
BA19
330
B9D2
 92
        7
 72
     0
 73
     1
 93
        4
 10
356.4416903116793
 20
111.4667997691386
 10
355.9416903116793
 20
110.8001331024718
 10
355.9416903116793
 20
104.118052215143
 10
368.6700944471971
 20
111.4667997691386
 97
        4
330
B9D0
330
BA1B
330
BA1C
330
B9D6
 92
        7
 72
     0
 73
     1
 93
        4
 10
354.9416903116794
 20
103.5407019459535
 10
355.9416903116793
 20
104.118052215143
 10
355.9416903116793
 20
110.8001331024718
 10
354.9416903116793
 20
109.4667997691385
 97
        4
330
BA1B
330
BA15
330
B9D6
330
BA1C
 75
     0
 76
     1
 52
0.0
 41
0.5
 77
     0
 78
     1
 53
45.0
 43
210.5574440570123
 44
5.563744698244803
 45
-1.122532015133643
 46
1.122532015133644
 79
     0
 47
0.0995852900791078
 98
        6
 10
264.57093624829
 20
88.50241275973598
 10
266.7397112473224
 20
93.55883282248987
 10
363.2646113408097
 20
92.77178724304951
 10
355.4907293094945
 20
89.0871311576144
 10
358.1816880613214
 20
109.7012869849306
 10
355.3910645681059
 20
107.0124839900987
  0
LINE
  5
BA2D
330
18
100
AcDbEntity
  8
0
 62
     1
100
AcDbLine
 10
305.6577872407136
 20
64.95587648765614
 30
0.0
 11
316.6166223859068
 21
64.95587648765614
 31
0.0
  0
LINE
  5
BA2E
330
18
100
AcDbEntity
  8
0
 62
     1
100
AcDbLine
 10
305.6577872407136
 20
63.68241951107608
 30
0.0
 11
316.6166223859068
 21
63.68241951107608
 31
0.0
  0
LWPOLYLINE
  5
BA2F
330
18
100
AcDbEntity
  8
DIM
 62
     6
100
AcDbPolyline
 90
        3
 70
     1
 43
0.0
 10
289.8696165033312
 20
62.38444416791354
 10
295.0657689260379
 20
62.38444416791354
 10
292.4676927146846
 20
66.88444416791354
  0
MTEXT
  5
BA30
330
18
100
AcDbEntity
  8
DIM
100
AcDbMText
 10
292.1462527813083
 20
65.85770239768191
 30
0.0
 40
3.0
 41
0.0
 71
     1
 72
     5
  1
{\Ftxt,bigfont|c128;1}
  7
JL
 73
     1
 44
1.0
1001
ACAD
1000
MTEXTBEGIN
1070
    73
1070
     1
1070
    44
1040
1.0
1070
    74
1070
     0
1000
MTEXTEND
  0
MTEXT
  5
BA31
330
18
100
AcDbEntity
  8
DIM
 62
     3
100
AcDbMText
 10
300.0518468534311
 20
64.3577023976819
 30
0.0
 40
3.0
 41
0.0
 71
     5
 72
     1
  1
%%C93
  7
TXT
 73
     1
 44
1.0
1001
ACAD
1000
MTEXTBEGIN
1070
    73
1070
     1
1070
    44
1040
1.0
1070
    74
1070
     0
1000
MTEXTEND
  0
MTEXT
  5
BA32
330
18
100
AcDbEntity
  8
DIM
100
AcDbMText
 10
215.613778961633
 20
38.4875105127968
 30
0.0
 40
4.5
 41
0.0
 71
     1
 72
     5
  1
{\Ftxt,bigfont|c128;06.04.24外形寸法を変更する}
  7
JL
 73
     1
 44
1.0
1001
ACAD
1000
MTEXTBEGIN
1070
    73
1070
     1
1070
    44
1040
1.0
1070
    74
1070
     0
1000
MTEXTEND
  0
LWPOLYLINE
  5
BA34
330
18
100
AcDbEntity
  8
DIM
 62
     6
100
AcDbPolyline
 90
        3
 70
     1
 43
0.0
 10
209.4776714279497
 20
33.77309560472907
 10
214.6738238506563
 20
33.77309560472907
 10
212.075747639303
 20
38.27309560472907
  0
MTEXT
  5
BA35
330
18
100
AcDbEntity
  8
DIM
100
AcDbMText
 10
211.7543077059268
 20
37.24635383449743
 30
0.0
 40
3.0
 41
0.0
 71
     1
 72
     5
  1
{\Ftxt,bigfont|c128;1}
  7
JL
 73
     1
 44
1.0
1001
ACAD
1000
MTEXTBEGIN
1070
    73
1070
     1
1070
    44
1040
1.0
1070
    74
1070
     0
1000
MTEXTEND
  0
MTEXT
  5
BA36
330
18
100
AcDbEntity
  8
DIM
100
AcDbMText
 10
256.1037928583533
 20
38.4875105127968
 30
0.0
 40
4.5
 41
0.0
 71
     1
 72
     5
  1
{\Ftxt,bigfont|c128;謝}
  7
JL
 73
     1
 44
1.0
1001
ACAD
1000
MTEXTBEGIN
1070
    73
1070
     1
1070
    44
1040
1.0
1070
    74
1070
     0
1000
MTEXTEND
  0
CIRCLE
  5
BA38
330
18
100
AcDbEntity
  8
DIM
100
AcDbCircle
 10
257.1903889352455
 20
36.2198912956128
 30
0.0
 40
2.644201016044348
  0
MTEXT
  5
BA39
330
18
100
AcDbEntity
  8
0
 62
     3
100
AcDbMText
 10
287.7428268779103
 20
49.98551857640963
 30
0.0
 40
3.0
 41
0.0
 71
     5
 72
     1
  1
%%C120%%P0.2
  7
TXT
 73
     1
 44
1.0
1001
ACAD
1000
MTEXTBEGIN
1070
    73
1070
     1
1070
    44
1040
1.0
1070
    74
1070
     0
1000
MTEXTEND
  0
LINE
  5
BA3A
330
18
100
AcDbEntity
  8
0
 62
     1
100
AcDbLine
 10
299.4533848789103
 20
50.49565605548969
 30
0.0
 11
321.0223559606847
 21
50.49565605548969
 31
0.0
  0
LINE
  5
BA3B
330
18
100
AcDbEntity
  8
0
 62
     1
100
AcDbLine
 10
299.4533848789103
 20
49.22219907890962
 30
0.0
 11
321.0223559606847
 21
49.22219907890962
 31
0.0
  0
LWPOLYLINE
  5
BA3C
330
18
100
AcDbEntity
  8
DIM
 62
     6
100
AcDbPolyline
 90
        3
 70
     1
 43
0.0
 10
271.6793916790756
 20
48.04700374062189
 10
276.8755441017822
 20
48.04700374062189
 10
274.2774678904289
 20
52.54700374062188
  0
MTEXT
  5
BA3D
330
18
100
AcDbEntity
  8
DIM
100
AcDbMText
 10
273.9560279570527
 20
51.52026197039025
 30
0.0
 40
3.0
 41
0.0
 71
     1
 72
     5
  1
{\Ftxt,bigfont|c128;1}
  7
JL
 73
     1
 44
1.0
1001
ACAD
1000
MTEXTBEGIN
1070
    73
1070
     1
1070
    44
1040
1.0
1070
    74
1070
     0
1000
MTEXTEND
  0
MTEXT
  5
BA40
330
18
100
AcDbEntity
  8
0
100
AcDbMText
 10
257.8194827894977
 20
19.37399834316261
 30
0.0
 40
5.0
 41
0.0
 71
     1
 72
     5
  1
{\Ftxt,bigfont|c128;小\~柳}
  7
JL
 73
     1
 44
1.0
1001
ACAD
1000
MTEXTBEGIN
1070
    73
1070
     1
1070
    44
1040
1.0
1070
    74
1070
     0
1000
MTEXTEND
  0
LWPOLYLINE
  5
BA42
330
18
100
AcDbEntity
  8
DIM
 62
     6
100
AcDbPolyline
 90
        3
 70
     1
 43
0.0
 10
209.4776714279497
 20
40.41832639686151
 10
214.6738238506563
 20
40.41832639686151
 10
212.075747639303
 20
44.91832639686151
  0
MTEXT
  5
BA43
330
18
100
AcDbEntity
  8
DIM
100
AcDbMText
 10
211.5757680554595
 20
43.89158462662988
 30
0.0
 40
3.0
 41
0.0
 71
     1
 72
     5
  1
{\Ftxt,bigfont|c128;2}
  7
JL
 73
     1
 44
1.0
1001
ACAD
1000
MTEXTBEGIN
1070
    73
1070
     1
1070
    44
1040
1.0
1070
    74
1070
     0
1000
MTEXTEND
  0
MTEXT
  5
BA44
330
18
100
AcDbEntity
  8
DIM
100
AcDbMText
 10
215.4047954295703
 20
45.10127286523072
 30
0.0
 40
4.5
 41
0.0
 71
     1
 72
     5
  1
{\Ftxt,bigfont|c128;06.07.26セットスクリュ-長度変更  林}
  7
JL
 73
     1
 44
1.0
1001
ACAD
1000
MTEXTBEGIN
1070
    73
1070
     1
1070
    44
1040
1.0
1070
    74
1070
     0
1000
MTEXTEND
  0
CIRCLE
  5
BA46
330
18
100
AcDbEntity
  8
DIM
100
AcDbCircle
 10
265.2908638108769
 20
42.78758288387905
 30
0.0
 40
2.596393663011582
  0
LWPOLYLINE
  5
BA47
330
18
100
AcDbEntity
  8
DIM
 62
     6
100
AcDbPolyline
 90
        3
 70
     1
 43
0.0
 10
338.8141061683776
 20
265.0834578439441
 10
344.5876088602739
 20
265.0834578439441
 10
341.7008575143258
 20
270.0834578439441
  0
MTEXT
  5
BA48
330
18
100
AcDbEntity
  8
DIM
100
AcDbMText
 10
341.1453246433886
 20
268.9426336547978
 30
0.0
 40
3.333333333333333
 41
0.0
 71
     1
 72
     5
  1
{\Ftxt,bigfont|c128;2}
  7
JL
 73
     1
 44
1.0
1001
ACAD
1000
MTEXTBEGIN
1070
    73
1070
     1
1070
    44
1040
1.0
1070
    74
1070
     0
1000
MTEXTEND
  0
LINE
  5
BA49
330
18
100
AcDbEntity
  8
本体外線
 62
     1
100
AcDbLine
 10
266.0038122460925
 20
268.7775957782545
 30
0.0
 11
293.2384112255563
 21
268.7775957782545
 31
0.0
  0
LINE
  5
BA4A
330
18
100
AcDbEntity
  8
本体外線
 62
     1
100
AcDbLine
 10
266.0038122460925
 20
266.1792664683231
 30
0.0
 11
293.2384112255563
 21
266.1792664683231
 31
0.0
  0
MTEXT
  5
BA4B
330
18
100
AcDbEntity
  8
0
100
AcDbMText
 10
346.3489072640113
 20
270.095850257545
 30
0.0
 40
5.0
 41
0.0
 71
     1
 72
     5
  1
{\Ftxt,bigfont|c128;M8X1.25P-12L}
  7
JL
 73
     1
 44
1.0
1001
ACAD
1000
MTEXTBEGIN
1070
    73
1070
     1
1070
    44
1040
1.0
1070
    74
1070
     0
1000
MTEXTEND
  0
LINE
  5
BA4C
330
18
100
AcDbEntity
  8
DIM
 62
     6
100
AcDbLine
 10
383.2663520481028
 20
67.61911883487993
 30
0.0
 11
388.2663520481028
 21
67.61911883487993
 31
0.0
  0
MTEXT
  5
BA4D
330
18
100
AcDbEntity
  8
DIM
100
AcDbMText
 10
278.4728508778538
 20
38.37905843965837
 30
0.0
 40
4.5
 41
0.0
 71
     1
 72
     5
  1
{\Ftxt,bigfont|c136;12\Ftxt,bigfont|c128;.\Ftxt,bigfont|c136;10\Ftxt,bigfont|c128;.\Ftxt,bigfont|c136;16\Ftxt,bigfont|c128;セットスクリュ-、ロックピン規格変更  林}
  7
JL
 73
     1
 44
1.0
1001
ACAD
1000
MTEXTBEGIN
1070
    73
1070
     1
1070
    44
1040
1.0
1070
    74
1070
     0
1000
MTEXTEND
  0
LWPOLYLINE
  5
BA4F
330
18
100
AcDbEntity
  8
DIM
 62
     6
100
AcDbPolyline
 90
        3
 70
     1
 43
0.0
 10
272.3367433441704
 20
33.66464353159063
 10
277.532895766877
 20
33.66464353159063
 10
274.9348195555238
 20
38.16464353159063
  0
MTEXT
  5
BA50
330
18
100
AcDbEntity
  8
DIM
100
AcDbMText
 10
274.6133796221475
 20
37.13790176135899
 30
0.0
 40
3.0
 41
0.0
 71
     1
 72
     5
  1
{\Ftxt,bigfont|c136;3}
  7
JL
 73
     1
 44
1.0
1001
ACAD
1000
MTEXTBEGIN
1070
    73
1070
     1
1070
    44
1040
1.0
1070
    74
1070
     0
1000
MTEXTEND
  0
CIRCLE
  5
BA51
330
18
100
AcDbEntity
  8
DIM
100
AcDbCircle
 10
342.7572937600333
 20
36.11143922247436
 30
0.0
 40
2.644201016044348
  0
LWPOLYLINE
  5
BA52
330
18
100
AcDbEntity
  8
DIM
 62
     6
100
AcDbPolyline
 90
        3
 70
     1
 43
0.0
 10
378.6739976216698
 20
265.0897201017806
 10
384.4475003135661
 20
265.0897201017806
 10
381.560748967618
 20
270.0897201017806
  0
MTEXT
  5
BA53
330
18
100
AcDbEntity
  8
DIM
100
AcDbMText
 10
380.9739084177337
 20
268.9488959126343
 30
0.0
 40
3.333333333333333
 41
0.0
 71
     1
 72
     5
  1
{\Ftxt,bigfont|c136;3}
  7
JL
 73
     1
 44
1.0
1001
ACAD
1000
MTEXTBEGIN
1070
    73
1070
     1
1070
    44
1040
1.0
1070
    74
1070
     0
1000
MTEXTEND
  0
MTEXT
  5
BA54
330
18
100
AcDbEntity
  8
0
100
AcDbMText
 10
385.5787063966961
 20
270.0958501900245
 30
0.0
 40
5.0
 41
0.0
 71
     1
 72
     5
  1
{\Ftxt,bigfont|c128;M\Ftxt,bigfont|c136;10\Ftxt,bigfont|c128;X1.25P-12L}
  7
JL
 73
     1
 44
1.0
1001
ACAD
1000
MTEXTBEGIN
1070
    73
1070
     1
1070
    44
1040
1.0
1070
    74
1070
     0
1000
MTEXTEND
  0
LINE
  5
BA55
330
18
100
AcDbEntity
  8
本体外線
 62
     1
100
AcDbLine
 10
339.5380496253813
 20
269.0218970734847
 30
0.0
 11
371.4873201954181
 21
269.0218970734847
 31
0.0
  0
LINE
  5
BA56
330
18
100
AcDbEntity
  8
本体外線
 62
     1
100
AcDbLine
 10
339.5380496253813
 20
266.4227644144418
 30
0.0
 11
371.4873201954181
 21
266.4227644144418
 31
0.0
  0
MTEXT
  5
BA57
330
18
100
AcDbEntity
  8
DIM
100
AcDbMText
 10
278.7362299323303
 20
44.78184180718279
 30
0.0
 40
4.5
 41
0.0
 71
     1
 72
     5
  1
{\Ftxt,bigfont|c136;13\Ftxt,bigfont|c128;.0\Ftxt,bigfont|c136;4\Ftxt,bigfont|c128;.\Ftxt,bigfont|c136;17\Ftxt,bigfont|c128;振れ精度の変更  林}
  7
JL
 73
     1
 44
1.0
1001
ACAD
1000
MTEXTBEGIN
1070
    73
1070
     1
1070
    44
1040
1.0
1070
    74
1070
     0
1000
MTEXTEND
  0
MTEXT
  5
BA59
330
18
100
AcDbEntity
  8
DIM
100
AcDbMText
 10
274.1922089621525
 20
43.85171493025495
 30
0.0
 40
3.0
 41
0.0
 71
     1
 72
     5
  1
{\Ftxt,bigfont|c136;4}
  7
JL
 73
     1
 44
1.0
1001
ACAD
1000
MTEXTBEGIN
1070
    73
1070
     1
1070
    44
1040
1.0
1070
    74
1070
     0
1000
MTEXTEND
  0
REGION
  5
BA5A
330
18
100
AcDbEntity
  8
DIM
 62
     6
100
AcDbModelerGeometry
 70
     1
  1
koo mn n o          
  1
ni ^ *+0;:,4 ^ *+0\^ [ nh ^ LR iqoqjqhook QK mk H:; R>- nj nienmeki monh 
  1
n fqfffffffffffffffj:rooh n:rono 
  1
=0;& {rn {n {rn {rn |
  1
3*2/ {rn {rn {m {o |
  1
,7:33 {rn {rn {rn {l {rn {n |
  1
9><: {rn {rn {k {m {rn {j 90-(>-; ;0*=3: 0*+ |
  1
300/ {rn {rn {i {l |
  1
/3>1:r,*-9><: {rn mhkqfilimjoihhjikg knqgikfknnnmggfflh o o o n n o o 90-(>-;@) V V V V |
  1
<0:;8: {rn {h {g {rn {f 90-(>-; {k {rn |
  1
<0:;8: {rn {g {i {rn {no -:):-,:; {k {rn |
  1
<0:;8: {rn {i {h {rn {nn 90-(>-; {k {rn |
  1
:;8: {rn {nm {nl {i {nk 90-(>-; |
  1
:;8: {rn {nj {nl {h {ni 90-(>-; |
  1
:;8: {rn {nj {nm {g {nh 90-(>-; |
  1
):-+:' {rn {f {ng |
  1
):-+:' {rn {f {nf |
  1
,+->687+r<*-): {rn mhhqjinhonmhfnofg koqlikfknnnmggfflh o roqkfffffffffffffhfj oqgiiomjkolhgkklfgm o V V |
  1
):-+:' {rn {no {mo |
  1
,+->687+r<*-): {rn mhmqlijjkggjikolnh koqlikfknnnmggfflh o oqkfffffffffffffhfj oqgiiomjkolhgkklfgm o V V |
  1
,+->687+r<*-): {rn mhmqlijjkggjikolnh koqlikfknnnmggfflh o n o o V V |
  1
/061+ {rn mhhqjinhonmhfnofg koqlikfknnnmggfflh o |
  1
/061+ {rn mhkqfilimjoihhjikg kkqgikfknnnmggfflh o |
  1
/061+ {rn mhmqlijjkggjikolnh koqlikfknnnmggfflh o |
1001
ACAD_OBJECT_CHANGE_GUID
1070
     1
1071
364531135
1070
 -2370
1070
 18009
1070
   178
1070
    39
1070
   153
1070
   120
1070
    12
1070
    97
1070
    30
1070
   209
  0
CIRCLE
  5
BA5B
330
18
100
AcDbEntity
  8
DIM
100
AcDbCircle
 10
314.1720004597516
 20
42.7473213676541
 30
0.0
 40
2.569089018278418
  0
MTEXT
  5
BB90
330
18
100
AcDbEntity
  8
DIM
100
AcDbMText
 10
397.7442223046116
 20
5.861611885998399
 30
0.0
 40
3.0
 41
0.0
 71
     1
 72
     5
  1
{\Ftxt,bigfont|c136;4}
  7
JL
 73
     1
 44
1.0
1001
ACAD
1000
MTEXTBEGIN
1070
    73
1070
     1
1070
    44
1040
1.0
1070
    74
1070
     0
1000
MTEXTEND
  0
REGION
  5
BB91
330
18
100
AcDbEntity
  8
DIM
 62
     6
100
AcDbModelerGeometry
 70
     1
  1
koo mn n o          
  1
ni ^ *+0;:,4 ^ *+0\^ [ nh ^ LR iqoqjqhook QK mk H:; R>- nj nienmeki monh 
  1
n fqfffffffffffffffj:rooh n:rono 
  1
=0;& {rn {n {rn {rn |
  1
3*2/ {rn {rn {m {o |
  1
,7:33 {rn {rn {rn {l {rn {n |
  1
9><: {rn {rn {k {m {rn {j 90-(>-; ;0*=3: 0*+ |
  1
300/ {rn {rn {i {l |
  1
/3>1:r,*-9><: {rn lfgqjnjilgknomnjji lqghkglgoigilllgol o o o n n o o 90-(>-;@) V V V V |
  1
<0:;8: {rn {h {g {rn {f 90-(>-; {k {rn |
  1
<0:;8: {rn {g {i {rn {no -:):-,:; {k {rn |
  1
<0:;8: {rn {i {h {rn {nn 90-(>-; {k {rn |
  1
:;8: {rn {nm {nl {i {nk 90-(>-; |
  1
:;8: {rn {nj {nl {h {ni 90-(>-; |
  1
:;8: {rn {nj {nm {g {nh 90-(>-; |
  1
):-+:' {rn {f {ng |
  1
):-+:' {rn {f {nf |
  1
,+->687+r<*-): {rn konqnnlhnkimnjiggh mqlhkglgoigilllgol o roqkfffffffffffffhfj oqgiiomjkolhgkklfgm o V V |
  1
):-+:' {rn {no {mo |
  1
,+->687+r<*-): {rn lfjqfnhjimnfggimmk mqlhkglgoigilllgol o oqkfffffffffffffhfj oqgiiomjkolhgkklfgm o V V |
  1
,+->687+r<*-): {rn lfjqfnhjimnfggimmk mqlhkglgoigilllgol o n o o V V |
  1
/061+ {rn konqnnlhnkimnjiggh mqlhkglgoigilllgol o |
  1
/061+ {rn lfgqjnjilgknomnjji iqghkglgoigilllgol o |
  1
/061+ {rn lfjqfnhjimnfggimmk mqlhkglgoigilllgol o |
1001
ACAD_OBJECT_CHANGE_GUID
1070
     1
1071
-1680351329
1070
 29774
1070
 19797
1070
   142
1070
   228
1070
     6
1070
   210
1070
   150
1070
   175
1070
   129
1070
    75
  0
MTEXT
  5
BB92
330
18
100
AcDbEntity
  8
DIM
100
AcDbMText
 10
391.106394755372
 20
74.80152378045954
 30
0.0
 40
3.0
 41
0.0
 71
     1
 72
     5
  1
{\Ftxt,bigfont|c136;4}
  7
JL
 73
     1
 44
1.0
1001
ACAD
1000
MTEXTBEGIN
1070
    73
1070
     1
1070
    44
1040
1.0
1070
    74
1070
     0
1000
MTEXTEND
  0
REGION
  5
BB93
330
18
100
AcDbEntity
  8
DIM
 62
     6
100
AcDbModelerGeometry
 70
     1
  1
koo mn n o          
  1
ni ^ *+0;:,4 ^ *+0\^ [ nh ^ LR iqoqjqhook QK mk H:; R>- nj nienmeki monh 
  1
n fqfffffffffffffffj:rooh n:rono 
  1
=0;& {rn {n {rn {rn |
  1
3*2/ {rn {rn {m {o |
  1
,7:33 {rn {rn {rn {l {rn {n |
  1
9><: {rn {rn {k {m {rn {j 90-(>-; ;0*=3: 0*+ |
  1
300/ {rn {rn {i {l |
  1
/3>1:r,*-9><: {rn lfnqghhgnogiofhion hmqgnkhkffilofkjmg o o o n n o o 90-(>-;@) V V V V |
  1
<0:;8: {rn {h {g {rn {f 90-(>-; {k {rn |
  1
<0:;8: {rn {g {i {rn {no -:):-,:; {k {rn |
  1
<0:;8: {rn {i {h {rn {nn 90-(>-; {k {rn |
  1
:;8: {rn {nm {nl {i {nk 90-(>-; |
  1
:;8: {rn {nj {nl {h {ni 90-(>-; |
  1
:;8: {rn {nj {nm {g {nh 90-(>-; |
  1
):-+:' {rn {f {ng |
  1
):-+:' {rn {f {nf |
  1
,+->687+r<*-): {rn lfkqkhjgghohmlmfll hnqlnkhkffilofkjmg o roqkfffffffffffffhfj oqgiiomjkolhgkklfgm o V V |
  1
):-+:' {rn {no {mo |
  1
,+->687+r<*-): {rn lgfqmhfhlkikfimmh hnqlnkhkffilofkjmg o oqkfffffffffffffhfj oqgiiomjkolhgkklfgm o V V |
  1
,+->687+r<*-): {rn lgfqmhfhlkikfimmh hnqlnkhkffilofkjmg o n o o V V |
  1
/061+ {rn lfkqkhjgghohmlmfll hnqlnkhkffilofkjmg o |
  1
/061+ {rn lfnqghhgnogiofhion hjqgnkhkffilofkjmg o |
  1
/061+ {rn lgfqmhfhlkikfimmh hnqlnkhkffilofkjmg o |
1001
ACAD_OBJECT_CHANGE_GUID
1070
     1
1071
-985185379
1070
 28008
1070
 19015
1070
   141
1070
   141
1070
   124
1070
   228
1070
   119
1070
    18
1070
   136
1070
   250
  0
MTEXT
  5
BB94
330
18
100
AcDbEntity
  8
DIM
100
AcDbMText
 10
396.5324764842561
 20
74.80152378045954
 30
0.0
 40
3.0
 41
0.0
 71
     1
 72
     5
  1
{\Ftxt,bigfont|c136;\W0.9;0.003}
  7
JL
 73
     1
 44
1.0
1001
ACAD
1000
MTEXTBEGIN
1070
    73
1070
     1
1070
    44
1040
1.0
1070
    74
1070
     0
1000
MTEXTEND
  0
LINE
  5
BB95
330
18
100
AcDbEntity
  8
0
 62
     1
100
AcDbLine
 10
395.8915963376678
 20
68.01357754533296
 30
0.0
 11
406.7385549510763
 21
68.01357754533296
 31
0.0
  0
LINE
  5
BB96
330
18
100
AcDbEntity
  8
0
 62
     1
100
AcDbLine
 10
395.8915963376678
 20
66.94780908451048
 30
0.0
 11
406.7385549510763
 21
66.94780908451048
 31
0.0
  0
LINE
  5
BCE4
330
18
100
AcDbEntity
  8
本体外線
 62
     1
100
AcDbLine
 10
266.0038122460925
 20
260.7901894609214
 30
0.0
 11
279.6211117358244
 21
260.7901894609214
 31
0.0
  0
LINE
  5
BCE5
330
18
100
AcDbEntity
  8
本体外線
 62
     1
100
AcDbLine
 10
266.0038122460925
 20
258.19186015099
 30
0.0
 11
279.6211117358244
 21
258.19186015099
 31
0.0
  0
LWPOLYLINE
  5
BCEC
330
18
100
AcDbEntity
  8
DIM
 62
     6
100
AcDbPolyline
 90
        3
 70
     1
 43
0.0
 10
338.8368298950435
 20
257.5302111768416
 10
344.6103325869398
 20
257.5302111768416
 10
341.7235812409916
 20
262.5302111768416
  0
MTEXT
  5
BCED
330
18
100
AcDbEntity
  8
DIM
100
AcDbMText
 10
341.1367406911073
 20
261.3893869876953
 30
0.0
 40
3.333333333333333
 41
0.0
 71
     1
 72
     5
  1
{\Ftxt,bigfont|c136;3}
  7
JL
 73
     1
 44
1.0
1001
ACAD
1000
MTEXTBEGIN
1070
    73
1070
     1
1070
    44
1040
1.0
1070
    74
1070
     0
1000
MTEXTEND
  0
MTEXT
  5
BCEE
330
18
100
AcDbEntity
  8
0
100
AcDbMText
 10
346.4524536470651
 20
262.095850257545
 30
0.0
 40
5.0
 41
0.0
 71
     1
 72
     5
  1
{\Ftxt,bigfont|c128;%%C\Ftxt,bigfont|c136;8.7\Ftxt,bigfont|c128;X\Ftxt,bigfont|c136;9\Ftxt,bigfont|c128;L}
  7
JL
 73
     1
 44
1.0
1001
ACAD
1000
MTEXTBEGIN
1070
    73
1070
     1
1070
    44
1040
1.0
1070
    74
1070
     0
1000
MTEXTEND
  0
ENDSEC
  0
SECTION
  2
OBJECTS
  0
DICTIONARY
  5
C
330
0
100
AcDbDictionary
281
     1
  3
ACAD_2007HEADERVARS_RT
350
BF6A
  3
ACAD_CIP_PREVIOUS_PRODUCT_INFO
350
B8F6
  3
ACAD_COLOR
350
B263
  3
ACAD_DETAILVIEWSTYLE
350
B8E8
  3
ACAD_GROUP
350
D
  3
ACAD_LAYOUT
350
5CF3
  3
ACAD_MATERIAL
350
B262
  3
ACAD_MLEADERSTYLE
350
B409
  3
ACAD_MLINESTYLE
350
1B
  3
ACAD_PLOTSETTINGS
350
5CF4
  3
ACAD_PLOTSTYLENAME
350
5CF1
  3
ACAD_SCALELIST
350
B3F7
  3
ACAD_SECTIONVIEWSTYLE
350
B8E6
  3
ACAD_TABLESTYLE
350
B264
  3
ACAD_VISUALSTYLE
350
B3DE
  3
ACDB_RECOMPOSE_DATA
350
BF68
  3
ACDBHEADERROUNDTRIPXREC
350
C005
  3
ACDBVARIABLEDICTIONARY
350
45D
  3
AcmDictionary
350
B464
  3
AEC_PROPERTY_SET_DEFS
350
B623
  3
AMG
350
B417
  3
AMGSNAPSETTINGS
350
B627
  3
DWGPROPS
350
C004
  0
DICTIONARY
  5
B80A
330
8
100
AcDbDictionary
280
     1
281
     1
  3
ACAD_XREC_ROUNDTRIP
360
BF6F
  0
DICTIONARY
  5
B8F9
330
2
100
AcDbDictionary
280
     1
281
     1
  3
ACAD_LAYERSTATES
360
B8FA
  0
DICTIONARY
  5
B7F8
330
E
100
AcDbDictionary
280
     1
281
     1
  3
ADSK_XREC_LAYER_RECONCILED
360
B7F9
  0
DICTIONARY
  5
B7FA
330
B9
100
AcDbDictionary
280
     1
281
     1
  3
ADSK_XREC_LAYER_RECONCILED
360
B7FB
  0
DICTIONARY
  5
B7FC
330
644E
100
AcDbDictionary
280
     1
281
     1
  3
ADSK_XREC_LAYER_RECONCILED
360
B7FD
  0
DICTIONARY
  5
B7FE
330
650D
100
AcDbDictionary
280
     1
281
     1
  3
ADSK_XREC_LAYER_RECONCILED
360
B7FF
  0
DICTIONARY
  5
B800
330
650E
100
AcDbDictionary
280
     1
281
     1
  3
ADSK_XREC_LAYER_RECONCILED
360
B801
  0
DICTIONARY
  5
B802
330
650F
100
AcDbDictionary
280
     1
281
     1
  3
ADSK_XREC_LAYER_RECONCILED
360
B803
  0
DICTIONARY
  5
B804
330
6510
100
AcDbDictionary
280
     1
281
     1
  3
ADSK_XREC_LAYER_RECONCILED
360
B805
  0
DICTIONARY
  5
45F
330
18
100
AcDbDictionary
280
     1
281
     1
  3
ACAD_LAYOUTSELFREF
360
5D8B
  3
ACAD_SORTENTS
360
460
  0
DICTIONARY
  5
5D89
330
15
100
AcDbDictionary
280
     1
281
     1
  3
ACAD_LAYOUTSELFREF
360
5D8A
  0
DICTIONARY
  5
BF6A
102
{ACAD_REACTORS
330
C
102
}
330
C
100
AcDbDictionary
281
     1
  3
DIMARCSYM
350
BF6B
  3
DIMLTEX1
350
BF6D
  3
DIMLTEX2
350
BF6E
  3
DIMLTYPE
350
BF6C
  0
XRECORD
  5
B8F6
102
{ACAD_REACTORS
330
C
102
}
330
C
100
AcDbXrecord
280
     1
300
ACD
300
2013
300
ACD_F_S
  0
DICTIONARY
  5
B263
102
{ACAD_REACTORS
330
C
102
}
330
C
100
AcDbDictionary
281
     1
  0
DICTIONARY
  5
B8E8
102
{ACAD_REACTORS
330
C
102
}
330
C
100
AcDbDictionary
281
     1
  3
Metric50
350
B8E9
  0
DICTIONARY
  5
D
102
{ACAD_REACTORS
330
C
102
}
330
C
100
AcDbDictionary
281
     1
  0
DICTIONARY
  5
5CF3
102
{ACAD_REACTORS
330
C
102
}
330
C
100
AcDbDictionary
281
     1
  3
Model
350
5CF5
  3
配置1
350
5CF6
1001
ACADSTRINGINFO
1000
MIFCodePage
1070
     1
  0
DICTIONARY
  5
B262
102
{ACAD_REACTORS
330
C
102
}
330
C
100
AcDbDictionary
281
     1
  3
ByBlock
350
B3CE
  3
ByLayer
350
B3C6
  3
Global
350
B3D6
  0
DICTIONARY
  5
B409
102
{ACAD_REACTORS
330
C
102
}
330
C
100
AcDbDictionary
281
     1
  3
Standard
350
B40A
  0
DICTIONARY
  5
1B
102
{ACAD_REACTORS
330
C
102
}
330
C
100
AcDbDictionary
281
     1
  3
STANDARD
350
1C
  0
DICTIONARY
  5
5CF4
102
{ACAD_REACTORS
330
C
102
}
330
C
100
AcDbDictionary
281
     1
  0
ACDBDICTIONARYWDFLT
  5
5CF1
102
{ACAD_REACTORS
330
C
102
}
330
C
100
AcDbDictionary
281
     1
  3
Normal
350
5CF2
100
AcDbDictionaryWithDefault
340
5CF2
  0
DICTIONARY
  5
B3F7
102
{ACAD_REACTORS
330
C
102
}
330
C
100
AcDbDictionary
281
     1
  3
A0
350
B3F8
  3
A1
350
B3F9
  3
A2
350
B3FA
  3
A3
350
B3FB
  3
A4
350
B3FC
  3
A5
350
B3FD
  3
A6
350
B3FE
  3
A7
350
B3FF
  3
A8
350
B400
  3
A9
350
B401
  3
B0
350
B402
  3
B1
350
B403
  3
B2
350
B404
  3
B3
350
B405
  3
B4
350
B406
  3
B5
350
B407
  3
B6
350
B408
  0
DICTIONARY
  5
B8E6
102
{ACAD_REACTORS
330
C
102
}
330
C
100
AcDbDictionary
281
     1
  3
Metric50
350
B8E7
  0
DICTIONARY
  5
B264
102
{ACAD_REACTORS
330
C
102
}
330
C
100
AcDbDictionary
281
     1
  3
Standard
350
B265
  0
DICTIONARY
  5
B3DE
102
{ACAD_REACTORS
330
C
102
}
330
C
100
AcDbDictionary
281
     1
  3
2dWireframe
350
B3E4
  3
Basic
350
B3E3
  3
Brighten
350
B3EA
  3
ColorChange
350
B3EE
  3
Conceptual
350
B3E7
  3
Dim
350
B3E9
  3
EdgeColorOff
350
B3F6
  3
Facepattern
350
B3ED
  3
Flat
350
B3DF
  3
FlatWithEdges
350
B3E0
  3
Gouraud
350
B3E1
  3
GouraudWithEdges
350
B3E2
  3
Hidden
350
B3E6
  3
JitterOff
350
B3F4
  3
Linepattern
350
B3EC
  3
OverhangOff
350
B3F5
  3
Realistic
350
B3E8
  3
Shaded
350
B3F3
  3
Shaded with edges
350
B3F2
  3
Shades of Gray
350
B3EF
  3
Sketchy
350
B3F0
  3
Thicken
350
B3EB
  3
Wireframe
350
B3E5
  3
X-Ray
350
B3F1
  0
XRECORD
  5
BF68
102
{ACAD_REACTORS
330
C
102
}
330
C
100
AcDbXrecord
280
     1
 90
        1
330
B265
  0
DICTIONARY
  5
C005
102
{ACAD_REACTORS
330
C
102
}
330
C
100
AcDbDictionary
281
     1
  0
DICTIONARY
  5
45D
102
{ACAD_REACTORS
330
C
102
}
330
C
100
AcDbDictionary
281
     1
  3
CANNOSCALE
350
B8E1
  3
CMLEADERSTYLE
350
B8E0
  3
CTABLESTYLE
350
B2CA
  3
CVIEWDETAILSTYLE
350
BCD2
  3
CVIEWSECTIONSTYLE
350
BCD3
  3
DIMASSOC
350
B8E4
  3
INDEXCTL
350
B8E2
  3
PROJECTNAME
350
C002
  3
SORTENTS
350
45E
  3
XCLIPFRAME
350
BFF5
  0
DICTIONARY
  5
B464
102
{ACAD_REACTORS
330
C
102
}
330
C
100
AcDbDictionary
281
     1
  3
AcmStdDictionary
350
B46F
  0
DICTIONARY
  5
B623
102
{ACAD_REACTORS
330
C
102
}
330
C
100
AcDbDictionary
281
     1
  0
DICTIONARY
  5
B417
102
{ACAD_REACTORS
330
C
102
}
330
C
100
AcDbDictionary
281
     1
  0
DICTIONARY
  5
B627
102
{ACAD_REACTORS
330
C
102
}
330
C
100
AcDbDictionary
281
     1
  0
XRECORD
  5
C004
102
{ACAD_REACTORS
330
C
102
}
330
C
100
AcDbXrecord
280
     1
  1
DWGPROPS COOKIE
  2

  3

  4

  6

  7

  8
G570
  9

300
=
301
=
302
=
303
=
304
=
305
=
306
=
307
=
308
=
309
=
 40
3.017063819444444
 41
2451555.620234838
 42
2457828.675530428
  1

 90
        0
  0
XRECORD
  5
BF6F
102
{ACAD_REACTORS
330
B80A
102
}
330
B80A
100
AcDbXrecord
280
     1
102
VTR_0.000_0.000_1.000_1.000_VISUALSTYLE
340
B3E4
102
VTR_0.000_0.000_1.000_1.000_GRIDDISPLAY
 70
     3
102
VTR_0.000_0.000_1.000_1.000_GRIDMAJOR
 70
     5
102
VTR_0.000_0.000_1.000_1.000_DEFAULTLIGHTING
280
     1
102
VTR_0.000_0.000_1.000_1.000_DEFAULTLIGHTINGTYPE
 70
     1
102
VTR_0.000_0.000_1.000_1.000_BRIGHTNESS
141
0.0
102
VTR_0.000_0.000_1.000_1.000_CONTRAST
142
0.0
  0
DICTIONARY
  5
B8FA
102
{ACAD_REACTORS
330
B8F9
102
}
330
B8F9
100
AcDbDictionary
281
     1
  0
XRECORD
  5
B7F9
102
{ACAD_REACTORS
330
B7F8
102
}
330
B7F8
100
AcDbXrecord
280
     1
290
     1
  0
XRECORD
  5
B7FB
102
{ACAD_REACTORS
330
B7FA
102
}
330
B7FA
100
AcDbXrecord
280
     1
290
     1
  0
XRECORD
  5
B7FD
102
{ACAD_REACTORS
330
B7FC
102
}
330
B7FC
100
AcDbXrecord
280
     1
290
     1
  0
XRECORD
  5
B7FF
102
{ACAD_REACTORS
330
B7FE
102
}
330
B7FE
100
AcDbXrecord
280
     1
290
     1
  0
XRECORD
  5
B801
102
{ACAD_REACTORS
330
B800
102
}
330
B800
100
AcDbXrecord
280
     1
290
     1
  0
XRECORD
  5
B803
102
{ACAD_REACTORS
330
B802
102
}
330
B802
100
AcDbXrecord
280
     1
290
     1
  0
XRECORD
  5
B805
102
{ACAD_REACTORS
330
B804
102
}
330
B804
100
AcDbXrecord
280
     1
290
     1
  0
XRECORD
  5
5D8B
102
{ACAD_REACTORS
330
45F
102
}
330
45F
100
AcDbXrecord
280
     1
340
18
  0
SORTENTSTABLE
  5
460
102
{ACAD_REACTORS
330
45F
102
}
330
45F
100
AcDbSortentsTable
330
18
331
C0
  5
CB
331
A440
  5
A440
331
AF57
  5
AF57
331
ABC9
  5
ABC9
331
64AF
  5
64AF
331
A442
  5
A442
331
9B93
  5
9B93
331
AF59
  5
AF59
331
ABCB
  5
ABCB
331
872C
  5
872C
331
936C
  5
936C
331
A744
  5
A744
331
825D
  5
825D
331
9FCD
  5
9FCD
331
A746
  5
A746
331
9FCF
  5
9FCF
  0
XRECORD
  5
5D8A
102
{ACAD_REACTORS
330
5D89
102
}
330
5D89
100
AcDbXrecord
280
     1
340
15
  0
XRECORD
  5
BF6B
102
{ACAD_REACTORS
330
BF6A
102
}
330
BF6A
100
AcDbXrecord
280
     1
 70
     1
  0
XRECORD
  5
BF6D
102
{ACAD_REACTORS
330
BF6A
102
}
330
BF6A
100
AcDbXrecord
280
     1
340
12
  0
XRECORD
  5
BF6E
102
{ACAD_REACTORS
330
BF6A
102
}
330
BF6A
100
AcDbXrecord
280
     1
340
12
  0
XRECORD
  5
BF6C
102
{ACAD_REACTORS
330
BF6A
102
}
330
BF6A
100
AcDbXrecord
280
     1
340
12
  0
ACAD_PROXY_OBJECT
  5
B8E9
102
{ACAD_REACTORS
330
B8E8
102
}
330
B8E8
100
AcDbProxyObject
 90
      499
 91
      580
 95
   983063
 70
     0
 93
      893
310
9094D6574726963353000481E0000000000000A20500E0000000000000A20233E0000000000000A20400000000000017202029C129E2E20B1AB30B9102B34B2BBA232BA30B4B624B21F129014129E2E20B1AB30B9102B34B2BBA9B1B0B632902E33101112B9B7111F129480233A33800
340
F
340
0
340
14
340
F
340
14
340
14
 94
        0
1001
ACAD
1000
AcRTDxfName
1000
ACDBDETAILVIEWSTYLE
  0
LAYOUT
  5
5CF5
102
{ACAD_XDICTIONARY
360
C006
102
}
102
{ACAD_REACTORS
330
5CF3
102
}
330
5CF3
100
AcDbPlotSettings
  1

  2
hp LaserJet 1300 PCL 6
  4
A4
  6

 40
5.027083396911621
 41
5.069413185119628
 42
5.027084350585937
 43
5.027069091796875
 44
209.9733276367187
 45
296.9683227539062
 46
0.0
 47
4.069198200335847
 48
-0.0000000000002274
 49
-0.0000000000000568
140
207.9999999999998
141
290.0
142
1.0
143
1.040420538557967
 70
 11956
 72
     1
 73
     0
 74
     4
  7
LIN.ctb
 75
     0
147
0.9611498071597173
148
0.0000000000002274
149
0.0000000000000568
100
AcDbLayout
  1
Model
 70
     1
 71
     0
 10
0.0
 20
0.0
 11
12.0
 21
9.0
 12
0.0
 22
0.0
 32
0.0
 14
0.0
 24
0.0
 34
0.0
 15
0.0
 25
0.0
 35
0.0
146
0.0
 13
0.0
 23
0.0
 33
0.0
 16
1.0
 26
0.0
 36
0.0
 17
0.0
 27
1.0
 37
0.0
 76
     0
330
18
331
B3C4
1001
ACAD_PSEXT
1000
hp LaserJet 1300 PCL 6
1000
hp LaserJet 1300 PCL 6
1000
HP 1300
1000

1070
     0
  0
LAYOUT
  5
5CF6
102
{ACAD_XDICTIONARY
360
C008
102
}
102
{ACAD_REACTORS
330
5CF3
102
}
330
5CF3
100
AcDbPlotSettings
  1

  2
EPSON STYLUS COLOR 440
  4

  6

 40
0.0
 41
0.0
 42
0.0
 43
0.0
 44
0.0
 45
0.0
 46
0.0
 47
0.0
 48
0.0
 49
0.0
140
0.0
141
0.0
142
1.0
143
1.0
 70
   688
 72
     0
 73
     0
 74
     5
  7
LIN.ctb
 75
    16
147
1.0
148
0.0
149
0.0
100
AcDbLayout
  1
ｰtｸm1
 70
     1
 71
     1
 10
0.0
 20
0.0
 11
420.0
 21
297.0
 12
0.0
 22
0.0
 32
0.0
 14
1.000000000000000E+20
 24
1.000000000000000E+20
 34
1.000000000000000E+20
 15
-1.000000000000000E+20
 25
-1.000000000000000E+20
 35
-1.000000000000000E+20
146
0.0
 13
0.0
 23
0.0
 33
0.0
 16
1.0
 26
0.0
 36
0.0
 17
0.0
 27
1.0
 37
0.0
 76
     0
330
15
1001
ACADSTRINGINFO
1000
MIFCodePage
1070
     1
  0
MATERIAL
  5
B3CE
102
{ACAD_XDICTIONARY
360
B3CF
102
}
102
{ACAD_REACTORS
330
B262
102
}
330
B262
100
AcDbMaterial
  1
ByBlock
 72
     0
 73
     2
 43
0.0208333333333333
 43
0.0
 43
0.0
 43
0.0
 43
0.0
 43
0.0208333333333333
 43
0.0
 43
0.0
 43
0.0
 43
0.0
 43
1.0
 43
0.0
 43
0.0
 43
0.0
 43
0.0
 43
1.0
 77
     0
 78
     2
 47
0.0208333333333333
 47
0.0
 47
0.0
 47
0.0
 47
0.0
 47
0.0208333333333333
 47
0.0
 47
0.0
 47
0.0
 47
0.0
 47
1.0
 47
0.0
 47
0.0
 47
0.0
 47
0.0
 47
1.0
171
     0
172
     2
 49
0.0208333333333333
 49
0.0
 49
0.0
 49
0.0
 49
0.0
 49
0.0208333333333333
 49
0.0
 49
0.0
 49
0.0
 49
0.0
 49
1.0
 49
0.0
 49
0.0
 49
0.0
 49
0.0
 49
1.0
175
     0
176
     2
142
0.0208333333333333
142
0.0
142
0.0
142
0.0
142
0.0
142
0.0208333333333333
142
0.0
142
0.0
142
0.0
142
0.0
142
1.0
142
0.0
142
0.0
142
0.0
142
0.0
142
1.0
179
     0
270
     2
144
0.0208333333333333
144
0.0
144
0.0
144
0.0
144
0.0
144
0.0208333333333333
144
0.0
144
0.0
144
0.0
144
0.0
144
1.0
144
0.0
144
0.0
144
0.0
144
0.0
144
1.0
274
     2
147
0.0208333333333333
147
0.0
147
0.0
147
0.0
147
0.0
147
0.0208333333333333
147
0.0
147
0.0
147
0.0
147
0.0
147
1.0
147
0.0
147
0.0
147
0.0
147
0.0
147
1.0
  0
MATERIAL
  5
B3C6
102
{ACAD_XDICTIONARY
360
B3C7
102
}
102
{ACAD_REACTORS
330
B262
102
}
330
B262
100
AcDbMaterial
  1
ByLayer
 72
     0
 73
     2
 43
0.0208333333333333
 43
0.0
 43
0.0
 43
0.0
 43
0.0
 43
0.0208333333333333
 43
0.0
 43
0.0
 43
0.0
 43
0.0
 43
1.0
 43
0.0
 43
0.0
 43
0.0
 43
0.0
 43
1.0
 77
     0
 78
     2
 47
0.0208333333333333
 47
0.0
 47
0.0
 47
0.0
 47
0.0
 47
0.0208333333333333
 47
0.0
 47
0.0
 47
0.0
 47
0.0
 47
1.0
 47
0.0
 47
0.0
 47
0.0
 47
0.0
 47
1.0
171
     0
172
     2
 49
0.0208333333333333
 49
0.0
 49
0.0
 49
0.0
 49
0.0
 49
0.0208333333333333
 49
0.0
 49
0.0
 49
0.0
 49
0.0
 49
1.0
 49
0.0
 49
0.0
 49
0.0
 49
0.0
 49
1.0
175
     0
176
     2
142
0.0208333333333333
142
0.0
142
0.0
142
0.0
142
0.0
142
0.0208333333333333
142
0.0
142
0.0
142
0.0
142
0.0
142
1.0
142
0.0
142
0.0
142
0.0
142
0.0
142
1.0
179
     0
270
     2
144
0.0208333333333333
144
0.0
144
0.0
144
0.0
144
0.0
144
0.0208333333333333
144
0.0
144
0.0
144
0.0
144
0.0
144
1.0
144
0.0
144
0.0
144
0.0
144
0.0
144
1.0
274
     2
147
0.0208333333333333
147
0.0
147
0.0
147
0.0
147
0.0
147
0.0208333333333333
147
0.0
147
0.0
147
0.0
147
0.0
147
1.0
147
0.0
147
0.0
147
0.0
147
0.0
147
1.0
  0
MATERIAL
  5
B3D6
102
{ACAD_XDICTIONARY
360
B3D7
102
}
102
{ACAD_REACTORS
330
B262
102
}
330
B262
100
AcDbMaterial
  1
Global
 72
     0
 73
     2
 43
0.0208333333333333
 43
0.0
 43
0.0
 43
0.0
 43
0.0
 43
0.0208333333333333
 43
0.0
 43
0.0
 43
0.0
 43
0.0
 43
1.0
 43
0.0
 43
0.0
 43
0.0
 43
0.0
 43
1.0
 77
     0
 78
     2
 47
0.0208333333333333
 47
0.0
 47
0.0
 47
0.0
 47
0.0
 47
0.0208333333333333
 47
0.0
 47
0.0
 47
0.0
 47
0.0
 47
1.0
 47
0.0
 47
0.0
 47
0.0
 47
0.0
 47
1.0
171
     0
172
     2
 49
0.0208333333333333
 49
0.0
 49
0.0
 49
0.0
 49
0.0
 49
0.0208333333333333
 49
0.0
 49
0.0
 49
0.0
 49
0.0
 49
1.0
 49
0.0
 49
0.0
 49
0.0
 49
0.0
 49
1.0
175
     0
176
     2
142
0.0208333333333333
142
0.0
142
0.0
142
0.0
142
0.0
142
0.0208333333333333
142
0.0
142
0.0
142
0.0
142
0.0
142
1.0
142
0.0
142
0.0
142
0.0
142
0.0
142
1.0
179
     0
270
     2
144
0.0208333333333333
144
0.0
144
0.0
144
0.0
144
0.0
144
0.0208333333333333
144
0.0
144
0.0
144
0.0
144
0.0
144
1.0
144
0.0
144
0.0
144
0.0
144
0.0
144
1.0
274
     2
147
0.0208333333333333
147
0.0
147
0.0
147
0.0
147
0.0
147
0.0208333333333333
147
0.0
147
0.0
147
0.0
147
0.0
147
1.0
147
0.0
147
0.0
147
0.0
147
0.0
147
1.0
  0
ACAD_PROXY_OBJECT
  5
B40A
102
{ACAD_REACTORS
330
B409
102
}
330
B409
100
AcDbProxyObject
 90
      499
 91
      515
 95
   983063
 70
     0
 93
      618
310
40901902A4063FBFFFFFE000000000000002040AD7A3703D0AD73F4254DD185B99185C99000000000000000104090141901A00000000000004100000000000000041025764000000000000300FC0
340
12
340
0
340
F
340
0
 94
        0
1001
ACAD_MLEADERVER
1070
     2
1001
ACAD
1000
AcRTDxfName
1000
MLEADERSTYLE
  0
MLINESTYLE
  5
1C
102
{ACAD_REACTORS
330
1B
102
}
330
1B
100
AcDbMlineStyle
  2
STANDARD
 70
     0
  3

 62
   256
 51
90.0
 52
90.0
 71
     2
 49
0.5
 62
   256
  6
BYLAYER
 49
-0.5
 62
   256
  6
BYLAYER
  0
ACDBPLACEHOLDER
  5
5CF2
102
{ACAD_REACTORS
330
5CF1
102
}
330
5CF1
  0
ACAD_PROXY_OBJECT
  5
B3F8
102
{ACAD_REACTORS
330
B3F7
102
}
330
B3F7
100
AcDbProxyObject
 90
      499
 91
      514
 95
   983063
 70
     0
 93
       49
310
904313A3100598
 94
        0
1001
ACAD
1000
AcRTDxfName
1000
SCALE
  0
ACAD_PROXY_OBJECT
  5
B3F9
102
{ACAD_REACTORS
330
B3F7
102
}
330
B3F7
100
AcDbProxyObject
 90
      499
 91
      514
 95
   983063
 70
     0
 93
      113
310
904313A32004000000000000004011
 94
        0
1001
ACAD
1000
AcRTDxfName
1000
SCALE
  0
ACAD_PROXY_OBJECT
  5
B3FA
102
{ACAD_REACTORS
330
B3F7
102
}
330
B3F7
100
AcDbProxyObject
 90
      499
 91
      514
 95
   983063
 70
     0
 93
      113
310
904313A34004000000000000104054
 94
        0
1001
ACAD
1000
AcRTDxfName
1000
SCALE
  0
ACAD_PROXY_OBJECT
  5
B3FB
102
{ACAD_REACTORS
330
B3F7
102
}
330
B3F7
100
AcDbProxyObject
 90
      499
 91
      514
 95
   983063
 70
     0
 93
      113
310
904313A35004000000000000144011
 94
        0
1001
ACAD
1000
AcRTDxfName
1000
SCALE
  0
ACAD_PROXY_OBJECT
  5
B3FC
102
{ACAD_REACTORS
330
B3F7
102
}
330
B3F7
100
AcDbProxyObject
 90
      499
 91
      514
 95
   983063
 70
     0
 93
      113
310
904313A38004000000000000204054
 94
        0
1001
ACAD
1000
AcRTDxfName
1000
SCALE
  0
ACAD_PROXY_OBJECT
  5
B3FD
102
{ACAD_REACTORS
330
B3F7
102
}
330
B3F7
100
AcDbProxyObject
 90
      499
 91
      514
 95
   983063
 70
     0
 93
      121
310
905313A3130004000000000000244064
 94
        0
1001
ACAD
1000
AcRTDxfName
1000
SCALE
  0
ACAD_PROXY_OBJECT
  5
B3FE
102
{ACAD_REACTORS
330
B3F7
102
}
330
B3F7
100
AcDbProxyObject
 90
      499
 91
      514
 95
   983063
 70
     0
 93
      121
310
905313A3136004000000000000304009
 94
        0
1001
ACAD
1000
AcRTDxfName
1000
SCALE
  0
ACAD_PROXY_OBJECT
  5
B3FF
102
{ACAD_REACTORS
330
B3F7
102
}
330
B3F7
100
AcDbProxyObject
 90
      499
 91
      514
 95
   983063
 70
     0
 93
      121
310
905313A3230004000000000000344064
 94
        0
1001
ACAD
1000
AcRTDxfName
1000
SCALE
  0
ACAD_PROXY_OBJECT
  5
B400
102
{ACAD_REACTORS
330
B3F7
102
}
330
B3F7
100
AcDbProxyObject
 90
      499
 91
      514
 95
   983063
 70
     0
 93
      121
310
905313A33300040000000000003E4009
 94
        0
1001
ACAD
1000
AcRTDxfName
1000
SCALE
  0
ACAD_PROXY_OBJECT
  5
B401
102
{ACAD_REACTORS
330
B3F7
102
}
330
B3F7
100
AcDbProxyObject
 90
      499
 91
      514
 95
   983063
 70
     0
 93
      121
310
905313A3430004000000000000444064
 94
        0
1001
ACAD
1000
AcRTDxfName
1000
SCALE
  0
ACAD_PROXY_OBJECT
  5
B402
102
{ACAD_REACTORS
330
B3F7
102
}
330
B3F7
100
AcDbProxyObject
 90
      499
 91
      514
 95
   983063
 70
     0
 93
      121
310
905313A3530004000000000000494009
 94
        0
1001
ACAD
1000
AcRTDxfName
1000
SCALE
  0
ACAD_PROXY_OBJECT
  5
B403
102
{ACAD_REACTORS
330
B3F7
102
}
330
B3F7
100
AcDbProxyObject
 90
      499
 91
      514
 95
   983063
 70
     0
 93
      129
310
906313A313030004000000000000594009
 94
        0
1001
ACAD
1000
AcRTDxfName
1000
SCALE
  0
ACAD_PROXY_OBJECT
  5
B404
102
{ACAD_REACTORS
330
B3F7
102
}
330
B3F7
100
AcDbProxyObject
 90
      499
 91
      514
 95
   983063
 70
     0
 93
      113
310
904323A31000000000000000010140
 94
        0
1001
ACAD
1000
AcRTDxfName
1000
SCALE
  0
ACAD_PROXY_OBJECT
  5
B405
102
{ACAD_REACTORS
330
B3F7
102
}
330
B3F7
100
AcDbProxyObject
 90
      499
 91
      514
 95
   983063
 70
     0
 93
      113
310
904343A31000000000000000410159
 94
        0
1001
ACAD
1000
AcRTDxfName
1000
SCALE
  0
ACAD_PROXY_OBJECT
  5
B406
102
{ACAD_REACTORS
330
B3F7
102
}
330
B3F7
100
AcDbProxyObject
 90
      499
 91
      514
 95
   983063
 70
     0
 93
      113
310
904383A31000000000000000810140
 94
        0
1001
ACAD
1000
AcRTDxfName
1000
SCALE
  0
ACAD_PROXY_OBJECT
  5
B407
102
{ACAD_REACTORS
330
B3F7
102
}
330
B3F7
100
AcDbProxyObject
 90
      499
 91
      514
 95
   983063
 70
     0
 93
      121
310
90531303A31000000000000000910140
 94
        0
1001
ACAD
1000
AcRTDxfName
1000
SCALE
  0
ACAD_PROXY_OBJECT
  5
B408
102
{ACAD_REACTORS
330
B3F7
102
}
330
B3F7
100
AcDbProxyObject
 90
      499
 91
      514
 95
   983063
 70
     0
 93
      129
310
9063130303A31000000000000001650102
 94
        0
1001
ACAD
1000
AcRTDxfName
1000
SCALE
  0
ACAD_PROXY_OBJECT
  5
B8E7
102
{ACAD_REACTORS
330
B8E6
102
}
330
B8E6
100
AcDbProxyObject
 90
      499
 91
      579
 95
   983063
 70
     0
 93
     2047
310
9094D65747269633530004B360000000000000A2060000000000000A202229258409E5840A25840A65840B05840B4000000000000001220233A65800000000000028800000000000000A2060000000000000A2040000000000001720202AD129E2E20B1AB30B9102B34B2BBA9B2B1BA34B7B729BA30B93A24B21F1296929E2
310
E20B1AB30B9102B34B2BBA9B2B1BA34B7B722B73224B21F129014129E2E20B1AB30B9102B34B2BBA9B1B0B632902E33101112B9B7111F12948060080A0E829CA692666200C400000000000002204000000000000022020D0305A88A9F643F27E32B9969C2960E81F87FA0718D4DE3E87E32B9969C2960E85F9E5129FC49EA5
310
FA7E
340
F
340
0
340
0
340
14
340
14
340
F
 94
        0
1001
ACAD
1000
AcRTDxfName
1000
ACDBSECTIONVIEWSTYLE
  0
TABLESTYLE
  5
B265
102
{ACAD_XDICTIONARY
360
B806
102
}
102
{ACAD_REACTORS
330
B264
102
}
330
B264
100
AcDbTableStyle
  3
Standard
 70
     0
 71
     0
 40
1.5
 41
1.5
280
     0
281
     0
  7
STANDARD
140
4.5
170
     2
 62
     0
 63
     7
283
     0
274
    -2
284
     1
 64
     0
275
    -2
285
     1
 65
     0
276
    -2
286
     1
 66
     0
277
    -2
287
     1
 67
     0
278
    -2
288
     1
 68
     0
279
    -2
289
     1
 69
     0
  7
STANDARD
140
6.0
170
     5
 62
     0
 63
     7
283
     0
274
    -2
284
     1
 64
     0
275
    -2
285
     1
 65
     0
276
    -2
286
     1
 66
     0
277
    -2
287
     1
 67
     0
278
    -2
288
     1
 68
     0
279
    -2
289
     1
 69
     0
  7
STANDARD
140
4.5
170
     5
 62
     0
 63
     7
283
     0
274
    -2
284
     1
 64
     0
275
    -2
285
     1
 65
     0
276
    -2
286
     1
 66
     0
277
    -2
287
     1
 67
     0
278
    -2
288
     1
 68
     0
279
    -2
289
     1
 69
     0
  0
ACAD_PROXY_OBJECT
  5
B3E4
102
{ACAD_XDICTIONARY
360
BFA7
102
}
102
{ACAD_REACTORS
330
B3DE
102
}
330
B3DE
100
AcDbProxyObject
 90
      499
 91
      513
 95
   983063
 70
     0
 93
      444
310
430C9915DA5C99599C985B59401049028333333333333E3BF0000000000000FB0107901411070040501600405405064090741402480A0340
 94
        0
1001
ACAD
1000
AcDbSavedByObjectVersion
1070
     0
1000
AcRTDxfName
1000
VISUALSTYLE
  0
ACAD_PROXY_OBJECT
  5
B3E3
102
{ACAD_XDICTIONARY
360
BFA5
102
}
102
{ACAD_REACTORS
330
B3DE
102
}
330
B3DE
100
AcDbProxyObject
 90
      499
 91
      513
 95
   983063
 70
     0
 93
      396
310
4190985CDA58C0107406404333333333333E3BF0000000000000FB0107A41107004050150841D405064090741402480A0350
 94
        0
1001
ACAD
1000
AcDbSavedByObjectVersion
1070
     0
1000
AcRTDxfName
1000
VISUALSTYLE
  0
ACAD_PROXY_OBJECT
  5
B3EA
102
{ACAD_XDICTIONARY
360
BFB3
102
}
102
{ACAD_REACTORS
330
B3DE
102
}
330
B3DE
100
AcDbProxyObject
 90
      499
 91
      513
 95
   983063
 70
     0
 93
      436
310
42509C9A59DA1D195B8010C409028333333333333E3BF0000000000000FB010790141107004050150841D405064090741402480A029954
 94
        0
1001
ACAD
1000
AcDbSavedByObjectVersion
1070
     0
1000
AcRTDxfName
1000
VISUALSTYLE
  0
ACAD_PROXY_OBJECT
  5
B3EE
102
{ACAD_XDICTIONARY
360
BFBB
102
}
102
{ACAD_REACTORS
330
B3DE
102
}
330
B3DE
100
AcDbProxyObject
 90
      499
 91
      513
 95
   983063
 70
     0
 93
      460
310
4310DBDB1BDC90DA185B99D9401104090240C333333333333E3BF0000000000000FB0108901411070040501508421405064090741402480A0358
 94
        0
1001
ACAD
1000
AcDbSavedByObjectVersion
1070
     0
1000
AcRTDxfName
1000
VISUALSTYLE
  0
ACAD_PROXY_OBJECT
  5
B3E7
102
{ACAD_XDICTIONARY
360
BFAD
102
}
102
{ACAD_REACTORS
330
B3DE
102
}
330
B3DE
100
AcDbProxyObject
 90
      499
 91
      513
 95
   983063
 70
     0
 93
      508
310
42D0DBDB98D95C1D1D585B0010940D028333333333333E3BF0000000000000FB0107902409070040501000000000018199010841D405064090740C02480A0340
 94
        0
1001
ACAD
1000
AcDbSavedByObjectVersion
1070
     0
1000
AcRTDxfName
1000
VISUALSTYLE
  0
ACAD_PROXY_OBJECT
  5
B3E9
102
{ACAD_XDICTIONARY
360
BFB1
102
}
102
{ACAD_REACTORS
330
B3DE
102
}
330
B3DE
100
AcDbProxyObject
 90
      499
 91
      513
 95
   983063
 70
     0
 93
      420
310
41111A5B4010B409028333333333333E3BF0000000000000FB010790141107004050150841D405064090741402480A02677FFFFFD4
 94
        0
1001
ACAD
1000
AcDbSavedByObjectVersion
1070
     0
1000
AcRTDxfName
1000
VISUALSTYLE
  0
ACAD_PROXY_OBJECT
  5
B3F6
102
{ACAD_XDICTIONARY
360
BFCB
102
}
102
{ACAD_REACTORS
330
B3DE
102
}
330
B3DE
100
AcDbProxyObject
 90
      499
 91
      513
 95
   983063
 70
     0
 93
      460
310
43515919D950DBDB1BDC93D99980116409028333333333333E3BF0000000000000FB010790141107004050150841D405064090741402480A0350
 94
        0
1001
ACAD
1000
AcDbSavedByObjectVersion
1070
     0
1000
AcRTDxfName
1000
VISUALSTYLE
  0
ACAD_PROXY_OBJECT
  5
B3ED
102
{ACAD_XDICTIONARY
360
BFB9
102
}
102
{ACAD_REACTORS
330
B3DE
102
}
330
B3DE
100
AcDbProxyObject
 90
      499
 91
      513
 95
   983063
 70
     0
 93
      452
310
43119858D95C185D1D195C9B8010F409028333333333333E3BF0000000000000FB010790141107004050150841D405064090741402480A0350
 94
        0
1001
ACAD
1000
AcDbSavedByObjectVersion
1070
     0
1000
AcRTDxfName
1000
VISUALSTYLE
  0
ACAD_PROXY_OBJECT
  5
B3DF
102
{ACAD_XDICTIONARY
360
BF9D
102
}
102
{ACAD_REACTORS
330
B3DE
102
}
330
B3DE
100
AcDbProxyObject
 90
      499
 91
      513
 95
   983063
 70
     0
 93
      388
310
41519B185D00240901404333333333333E3BF0000000000000F9010740A907004050150841D405064090741402480A1B56
 94
        0
1001
ACAD
1000
AcDbSavedByObjectVersion
1070
     0
1000
AcRTDxfName
1000
VISUALSTYLE
  0
ACAD_PROXY_OBJECT
  5
B3E0
102
{ACAD_XDICTIONARY
360
BF9F
102
}
102
{ACAD_REACTORS
330
B3DE
102
}
330
B3DE
100
AcDbProxyObject
 90
      499
 91
      513
 95
   983063
 70
     0
 93
      476
310
43919B185D15DA5D1A115919D95CC010140901404333333333333E3BF0000000000000F90107409019070040501600405405064090741402480A1B50
 94
        0
1001
ACAD
1000
AcDbSavedByObjectVersion
1070
     0
1000
AcRTDxfName
1000
VISUALSTYLE
  0
ACAD_PROXY_OBJECT
  5
B3E1
102
{ACAD_XDICTIONARY
360
BFA1
102
}
102
{ACAD_REACTORS
330
B3DE
102
}
330
B3DE
100
AcDbProxyObject
 90
      499
 91
      513
 95
   983063
 70
     0
 93
      412
310
4211DBDD5C985D590010240902404333333333333E3BF0000000000000F9010740A9070040501641D405064090741402480A1B55
 94
        0
1001
ACAD
1000
AcDbSavedByObjectVersion
1070
     0
1000
AcRTDxfName
1000
VISUALSTYLE
  0
ACAD_PROXY_OBJECT
  5
B3E2
102
{ACAD_XDICTIONARY
360
BFA3
102
}
102
{ACAD_REACTORS
330
B3DE
102
}
330
B3DE
100
AcDbProxyObject
 90
      499
 91
      513
 95
   983063
 70
     0
 93
      500
310
4451DBDD5C985D5915DA5D1A115919D95CC010340902404333333333333E3BF0000000000000F90107409019070040501600405405064090741402480A1B50
 94
        0
1001
ACAD
1000
AcDbSavedByObjectVersion
1070
     0
1000
AcRTDxfName
1000
VISUALSTYLE
  0
ACAD_PROXY_OBJECT
  5
B3E6
102
{ACAD_XDICTIONARY
360
BFAB
102
}
102
{ACAD_REACTORS
330
B3DE
102
}
330
B3DE
100
AcDbProxyObject
 90
      499
 91
      513
 95
   983063
 70
     0
 93
      484
310
41D21A5919195B8010640502408333333333333E3BF0000000000000FB01079024090700405020000000000001110200405405064090740C02480A0340
 94
        0
1001
ACAD
1000
AcDbSavedByObjectVersion
1070
     0
1000
AcRTDxfName
1000
VISUALSTYLE
  0
ACAD_PROXY_OBJECT
  5
B3F4
102
{ACAD_XDICTIONARY
360
BFC7
102
}
102
{ACAD_REACTORS
330
B3DE
102
}
330
B3DE
100
AcDbProxyObject
 90
      499
 91
      513
 95
   983063
 70
     0
 93
      436
310
42929A5D1D195C93D99980114409028333333333333E3BF0000000000000FB010790141107004050150A41D405064090741402480A0354
 94
        0
1001
ACAD
1000
AcDbSavedByObjectVersion
1070
     0
1000
AcRTDxfName
1000
VISUALSTYLE
  0
ACAD_PROXY_OBJECT
  5
B3EC
102
{ACAD_XDICTIONARY
360
BFB7
102
}
102
{ACAD_REACTORS
330
B3DE
102
}
330
B3DE
100
AcDbProxyObject
 90
      499
 91
      513
 95
   983063
 70
     0
 93
      452
310
43131A5B995C185D1D195C9B8010E409028333333333333E3BF0000000000000FB010790141107004050750841D405064090741402483A0352
 94
        0
1001
ACAD
1000
AcDbSavedByObjectVersion
1070
     0
1000
AcRTDxfName
1000
VISUALSTYLE
  0
ACAD_PROXY_OBJECT
  5
B3F5
102
{ACAD_XDICTIONARY
360
BFC9
102
}
102
{ACAD_REACTORS
330
B3DE
102
}
330
B3DE
100
AcDbProxyObject
 90
      499
 91
      513
 95
   983063
 70
     0
 93
      452
310
4313DD995C9A185B99D3D99980115409028333333333333E3BF0000000000000FB010790141107004050150941D405064090741402480A0354
 94
        0
1001
ACAD
1000
AcDbSavedByObjectVersion
1070
     0
1000
AcRTDxfName
1000
VISUALSTYLE
  0
ACAD_PROXY_OBJECT
  5
B3E8
102
{ACAD_XDICTIONARY
360
BFAF
102
}
102
{ACAD_REACTORS
330
B3DE
102
}
330
B3DE
100
AcDbProxyObject
 90
      499
 91
      513
 95
   983063
 70
     0
 93
      436
310
429499585B1A5CDD1A58C0108409028333333333333E3BF0000000000000F9010740A907004050150800405405064090740C02480A1B44
 94
        0
1001
ACAD
1000
AcDbSavedByObjectVersion
1070
     0
1000
AcRTDxfName
1000
VISUALSTYLE
  0
ACAD_PROXY_OBJECT
  5
B3F3
102
{ACAD_XDICTIONARY
360
BFC5
102
}
102
{ACAD_REACTORS
330
B3DE
102
}
330
B3DE
100
AcDbProxyObject
 90
      499
 91
      513
 95
   983063
 70
     0
 93
      428
310
41D4DA185919590011B40902404333333333333E3BF0000000000000F9010740A41107004050150800405405064090840C02480A0B41
 94
        0
1001
ACAD
1000
AcDbSavedByObjectVersion
1070
     0
1000
AcRTDxfName
1000
VISUALSTYLE
  0
ACAD_PROXY_OBJECT
  5
B3F2
102
{ACAD_XDICTIONARY
360
BFC3
102
}
102
{ACAD_REACTORS
330
B3DE
102
}
330
B3DE
100
AcDbProxyObject
 90
      499
 91
      513
 95
   983063
 70
     0
 93
      524
310
4494DA18591959081DDA5D1A08195919D95CC011A40902404333333333333E3BF0000000000000F901074090142907004050250800405405064090740C02480A0B40
 94
        0
1001
ACAD
1000
AcDbSavedByObjectVersion
1070
     0
1000
AcRTDxfName
1000
VISUALSTYLE
  0
ACAD_PROXY_OBJECT
  5
B3EF
102
{ACAD_XDICTIONARY
360
BFBD
102
}
102
{ACAD_REACTORS
330
B3DE
102
}
330
B3DE
100
AcDbProxyObject
 90
      499
 91
      513
 95
   983063
 70
     0
 93
      540
310
43D4DA1859195CC81BD98811DC985E401174090240C333333333333E3BF0000000000000FB01079024090741D01000000000000111010841D405064090740C02480A0340
 94
        0
1001
ACAD
1000
AcDbSavedByObjectVersion
1070
     0
1000
AcRTDxfName
1000
VISUALSTYLE
  0
ACAD_PROXY_OBJECT
  5
B3F0
102
{ACAD_XDICTIONARY
360
BFBF
102
}
102
{ACAD_REACTORS
330
B3DE
102
}
330
B3DE
100
AcDbProxyObject
 90
      499
 91
      513
 95
   983063
 70
     0
 93
      484
310
4214DAD95D18DA1E4011840502408333333333333E3BF0000000000000FB01079024090741D01000000000000111010B41D405064090741802480A0340
 94
        0
1001
ACAD
1000
AcDbSavedByObjectVersion
1070
     0
1000
AcRTDxfName
1000
VISUALSTYLE
  0
ACAD_PROXY_OBJECT
  5
B3EB
102
{ACAD_XDICTIONARY
360
BFB5
102
}
102
{ACAD_REACTORS
330
B3DE
102
}
330
B3DE
100
AcDbProxyObject
 90
      499
 91
      513
 95
   983063
 70
     0
 93
      420
310
42151A1A58DAD95B8010D409028333333333333E3BF0000000000000FB010790141107004050150C41D405064090741402480A0354
 94
        0
1001
ACAD
1000
AcDbSavedByObjectVersion
1070
     0
1000
AcRTDxfName
1000
VISUALSTYLE
  0
ACAD_PROXY_OBJECT
  5
B3E5
102
{ACAD_XDICTIONARY
360
BFA9
102
}
102
{ACAD_REACTORS
330
B3DE
102
}
330
B3DE
100
AcDbProxyObject
 90
      499
 91
      513
 95
   983063
 70
     0
 93
      428
310
4295DA5C99599C985B59401059028333333333333E3BF0000000000000FB0107901411070040501600405405064090740C02480A0346
 94
        0
1001
ACAD
1000
AcDbSavedByObjectVersion
1070
     0
1000
AcRTDxfName
1000
VISUALSTYLE
  0
ACAD_PROXY_OBJECT
  5
B3F1
102
{ACAD_XDICTIONARY
360
BFC1
102
}
102
{ACAD_REACTORS
330
B3DE
102
}
330
B3DE
100
AcDbProxyObject
 90
      499
 91
      513
 95
   983063
 70
     0
 93
      412
310
41960B54985E4011940902404000000000000E03F0000000000000FB010740501907004050150841D405064090740C02480A1B41
 94
        0
1001
ACAD
1000
AcDbSavedByObjectVersion
1070
     0
1000
AcRTDxfName
1000
VISUALSTYLE
  0
DICTIONARYVAR
  5
B8E1
102
{ACAD_REACTORS
330
45D
102
}
330
45D
100
DictionaryVariables
280
     0
  1
1:1
  0
DICTIONARYVAR
  5
B8E0
102
{ACAD_REACTORS
330
45D
102
}
330
45D
100
DictionaryVariables
280
     0
  1
STANDARD
  0
DICTIONARYVAR
  5
B2CA
102
{ACAD_REACTORS
330
45D
102
}
330
45D
100
DictionaryVariables
280
     0
  1
STANDARD
  0
DICTIONARYVAR
  5
BCD2
102
{ACAD_REACTORS
330
45D
102
}
330
45D
100
DictionaryVariables
280
     0
  1
Metric50
  0
DICTIONARYVAR
  5
BCD3
102
{ACAD_REACTORS
330
45D
102
}
330
45D
100
DictionaryVariables
280
     0
  1
Metric50
  0
DICTIONARYVAR
  5
B8E4
102
{ACAD_REACTORS
330
45D
102
}
330
45D
100
DictionaryVariables
280
     0
  1
1
  0
DICTIONARYVAR
  5
B8E2
102
{ACAD_REACTORS
330
45D
102
}
330
45D
100
DictionaryVariables
280
     0
  1
0
  0
DICTIONARYVAR
  5
C002
102
{ACAD_REACTORS
330
45D
102
}
330
45D
100
DictionaryVariables
280
     0
  1

  0
DICTIONARYVAR
  5
45E
102
{ACAD_REACTORS
330
45D
102
}
330
45D
100
DictionaryVariables
280
     0
  1
127
  0
DICTIONARYVAR
  5
BFF5
102
{ACAD_REACTORS
330
45D
102
}
330
45D
100
DictionaryVariables
280
     0
  1
0
  0
DICTIONARY
  5
B46F
102
{ACAD_REACTORS
330
B464
102
}
330
B464
100
AcDbDictionary
281
     1
  0
DICTIONARY
  5
C006
330
5CF5
100
AcDbDictionary
280
     1
281
     1
  3
ACAD_XREC_ROUNDTRIP
360
C007
  0
DICTIONARY
  5
C008
330
5CF6
100
AcDbDictionary
280
     1
281
     1
  3
ACAD_XREC_ROUNDTRIP
360
C009
  0
DICTIONARY
  5
B3CF
330
B3CE
100
AcDbDictionary
280
     1
281
     1
  3
ACAD_XREC_ROUNDTRIP
360
BF9B
  3
BUMPTILE
360
B3D1
  3
DIFFUSETILE
360
B3D0
  3
OPACITYTILE
360
B3D4
  3
REFLECTIONTILE
360
B3D3
  3
REFRACTIONTILE
360
B3D5
  3
SPECULARTILE
360
B3D2
  0
DICTIONARY
  5
B3C7
330
B3C6
100
AcDbDictionary
280
     1
281
     1
  3
ACAD_XREC_ROUNDTRIP
360
BF9A
  3
BUMPTILE
360
B3C9
  3
DIFFUSETILE
360
B3C8
  3
OPACITYTILE
360
B3CC
  3
REFLECTIONTILE
360
B3CB
  3
REFRACTIONTILE
360
B3CD
  3
SPECULARTILE
360
B3CA
  0
DICTIONARY
  5
B3D7
330
B3D6
100
AcDbDictionary
280
     1
281
     1
  3
ACAD_XREC_ROUNDTRIP
360
BF9C
  3
BUMPTILE
360
B3D9
  3
DIFFUSETILE
360
B3D8
  3
OPACITYTILE
360
B3DC
  3
REFLECTIONTILE
360
B3DB
  3
REFRACTIONTILE
360
B3DD
  3
SPECULARTILE
360
B3DA
  0
DICTIONARY
  5
B806
330
B265
100
AcDbDictionary
280
     1
281
     1
  3
ACAD_ROUNDTRIP_2008_TABLESTYLE_CELLSTYLEMAP
360
BF67
  3
ACAD_XREC_ROUNDTRIP
360
BF95
  0
DICTIONARY
  5
BFA7
330
B3E4
100
AcDbDictionary
280
     1
281
     1
  3
ACAD_XREC_ROUNDTRIP
360
BFA8
  0
DICTIONARY
  5
BFA5
330
B3E3
100
AcDbDictionary
280
     1
281
     1
  3
ACAD_XREC_ROUNDTRIP
360
BFA6
  0
DICTIONARY
  5
BFB3
330
B3EA
100
AcDbDictionary
280
     1
281
     1
  3
ACAD_XREC_ROUNDTRIP
360
BFB4
  0
DICTIONARY
  5
BFBB
330
B3EE
100
AcDbDictionary
280
     1
281
     1
  3
ACAD_XREC_ROUNDTRIP
360
BFBC
  0
DICTIONARY
  5
BFAD
330
B3E7
100
AcDbDictionary
280
     1
281
     1
  3
ACAD_XREC_ROUNDTRIP
360
BFAE
  0
DICTIONARY
  5
BFB1
330
B3E9
100
AcDbDictionary
280
     1
281
     1
  3
ACAD_XREC_ROUNDTRIP
360
BFB2
  0
DICTIONARY
  5
BFCB
330
B3F6
100
AcDbDictionary
280
     1
281
     1
  3
ACAD_XREC_ROUNDTRIP
360
BFCC
  0
DICTIONARY
  5
BFB9
330
B3ED
100
AcDbDictionary
280
     1
281
     1
  3
ACAD_XREC_ROUNDTRIP
360
BFBA
  0
DICTIONARY
  5
BF9D
330
B3DF
100
AcDbDictionary
280
     1
281
     1
  3
ACAD_XREC_ROUNDTRIP
360
BF9E
  0
DICTIONARY
  5
BF9F
330
B3E0
100
AcDbDictionary
280
     1
281
     1
  3
ACAD_XREC_ROUNDTRIP
360
BFA0
  0
DICTIONARY
  5
BFA1
330
B3E1
100
AcDbDictionary
280
     1
281
     1
  3
ACAD_XREC_ROUNDTRIP
360
BFA2
  0
DICTIONARY
  5
BFA3
330
B3E2
100
AcDbDictionary
280
     1
281
     1
  3
ACAD_XREC_ROUNDTRIP
360
BFA4
  0
DICTIONARY
  5
BFAB
330
B3E6
100
AcDbDictionary
280
     1
281
     1
  3
ACAD_XREC_ROUNDTRIP
360
BFAC
  0
DICTIONARY
  5
BFC7
330
B3F4
100
AcDbDictionary
280
     1
281
     1
  3
ACAD_XREC_ROUNDTRIP
360
BFC8
  0
DICTIONARY
  5
BFB7
330
B3EC
100
AcDbDictionary
280
     1
281
     1
  3
ACAD_XREC_ROUNDTRIP
360
BFB8
  0
DICTIONARY
  5
BFC9
330
B3F5
100
AcDbDictionary
280
     1
281
     1
  3
ACAD_XREC_ROUNDTRIP
360
BFCA
  0
DICTIONARY
  5
BFAF
330
B3E8
100
AcDbDictionary
280
     1
281
     1
  3
ACAD_XREC_ROUNDTRIP
360
BFB0
  0
DICTIONARY
  5
BFC5
330
B3F3
100
AcDbDictionary
280
     1
281
     1
  3
ACAD_XREC_ROUNDTRIP
360
BFC6
  0
DICTIONARY
  5
BFC3
330
B3F2
100
AcDbDictionary
280
     1
281
     1
  3
ACAD_XREC_ROUNDTRIP
360
BFC4
  0
DICTIONARY
  5
BFBD
330
B3EF
100
AcDbDictionary
280
     1
281
     1
  3
ACAD_XREC_ROUNDTRIP
360
BFBE
  0
DICTIONARY
  5
BFBF
330
B3F0
100
AcDbDictionary
280
     1
281
     1
  3
ACAD_XREC_ROUNDTRIP
360
BFC0
  0
DICTIONARY
  5
BFB5
330
B3EB
100
AcDbDictionary
280
     1
281
     1
  3
ACAD_XREC_ROUNDTRIP
360
BFB6
  0
DICTIONARY
  5
BFA9
330
B3E5
100
AcDbDictionary
280
     1
281
     1
  3
ACAD_XREC_ROUNDTRIP
360
BFAA
  0
DICTIONARY
  5
BFC1
330
B3F1
100
AcDbDictionary
280
     1
281
     1
  3
ACAD_XREC_ROUNDTRIP
360
BFC2
  0
XRECORD
  5
C007
102
{ACAD_REACTORS
330
C006
102
}
330
C006
100
AcDbXrecord
280
     1
102
SHADEPLOT
 70
     0
102
SHADEPLOTRESLEVEL
 70
     2
102
SHADEPLOTCUSTOMDPI
 70
   300
  0
XRECORD
  5
C009
102
{ACAD_REACTORS
330
C008
102
}
330
C008
100
AcDbXrecord
280
     1
102
SHADEPLOT
 70
     0
102
SHADEPLOTRESLEVEL
 70
     2
102
SHADEPLOTCUSTOMDPI
 70
   300
  0
XRECORD
  5
BF9B
102
{ACAD_REACTORS
330
B3CF
102
}
330
B3CF
100
AcDbXrecord
280
     1
102
MATERIAL
148
0.0
149
0.0
149
0.0
 93
        0
 94
      127
282
     0
 72
     0
 77
     0
171
     0
175
     0
179
     0
273
     0
  0
XRECORD
  5
B3D1
102
{ACAD_REACTORS
330
B3CF
102
}
330
B3CF
100
AcDbXrecord
280
     1
270
     1
271
     1
  0
XRECORD
  5
B3D0
102
{ACAD_REACTORS
330
B3CF
102
}
330
B3CF
100
AcDbXrecord
280
     1
270
     1
271
     1
  0
XRECORD
  5
B3D4
102
{ACAD_REACTORS
330
B3CF
102
}
330
B3CF
100
AcDbXrecord
280
     1
270
     1
271
     1
  0
XRECORD
  5
B3D3
102
{ACAD_REACTORS
330
B3CF
102
}
330
B3CF
100
AcDbXrecord
280
     1
270
     1
271
     1
  0
XRECORD
  5
B3D5
102
{ACAD_REACTORS
330
B3CF
102
}
330
B3CF
100
AcDbXrecord
280
     1
270
     1
271
     1
  0
XRECORD
  5
B3D2
102
{ACAD_REACTORS
330
B3CF
102
}
330
B3CF
100
AcDbXrecord
280
     1
270
     1
271
     1
  0
XRECORD
  5
BF9A
102
{ACAD_REACTORS
330
B3C7
102
}
330
B3C7
100
AcDbXrecord
280
     1
102
MATERIAL
148
0.0
149
0.0
149
0.0
 93
        0
 94
      127
282
     0
 72
     0
 77
     0
171
     0
175
     0
179
     0
273
     0
  0
XRECORD
  5
B3C9
102
{ACAD_REACTORS
330
B3C7
102
}
330
B3C7
100
AcDbXrecord
280
     1
270
     1
271
     1
  0
XRECORD
  5
B3C8
102
{ACAD_REACTORS
330
B3C7
102
}
330
B3C7
100
AcDbXrecord
280
     1
270
     1
271
     1
  0
XRECORD
  5
B3CC
102
{ACAD_REACTORS
330
B3C7
102
}
330
B3C7
100
AcDbXrecord
280
     1
270
     1
271
     1
  0
XRECORD
  5
B3CB
102
{ACAD_REACTORS
330
B3C7
102
}
330
B3C7
100
AcDbXrecord
280
     1
270
     1
271
     1
  0
XRECORD
  5
B3CD
102
{ACAD_REACTORS
330
B3C7
102
}
330
B3C7
100
AcDbXrecord
280
     1
270
     1
271
     1
  0
XRECORD
  5
B3CA
102
{ACAD_REACTORS
330
B3C7
102
}
330
B3C7
100
AcDbXrecord
280
     1
270
     1
271
     1
  0
XRECORD
  5
BF9C
102
{ACAD_REACTORS
330
B3D7
102
}
330
B3D7
100
AcDbXrecord
280
     1
102
MATERIAL
148
0.0
149
0.0
149
0.0
 93
        0
 94
      127
282
     0
 72
     0
 77
     0
171
     0
175
     0
179
     0
273
     0
  0
XRECORD
  5
B3D9
102
{ACAD_REACTORS
330
B3D7
102
}
330
B3D7
100
AcDbXrecord
280
     1
270
     1
271
     1
  0
XRECORD
  5
B3D8
102
{ACAD_REACTORS
330
B3D7
102
}
330
B3D7
100
AcDbXrecord
280
     1
270
     1
271
     1
  0
XRECORD
  5
B3DC
102
{ACAD_REACTORS
330
B3D7
102
}
330
B3D7
100
AcDbXrecord
280
     1
270
     1
271
     1
  0
XRECORD
  5
B3DB
102
{ACAD_REACTORS
330
B3D7
102
}
330
B3D7
100
AcDbXrecord
280
     1
270
     1
271
     1
  0
XRECORD
  5
B3DD
102
{ACAD_REACTORS
330
B3D7
102
}
330
B3D7
100
AcDbXrecord
280
     1
270
     1
271
     1
  0
XRECORD
  5
B3DA
102
{ACAD_REACTORS
330
B3D7
102
}
330
B3D7
100
AcDbXrecord
280
     1
270
     1
271
     1
  0
ACAD_PROXY_OBJECT
  5
BF67
102
{ACAD_REACTORS
330
B806
102
}
330
B806
100
AcDbProxyObject
 90
      499
 91
      578
 95
   983063
 70
     0
 93
     5232
310
40D054060020000020000003200101A412A5058000000C10000000000000006101010000000000003E0FC000000000000F83F0000000000003E0FC000000000000F83F02B5E8DC0F42B1CFC0AD7A3703D0AC73F419019018000000C1003FBFFFFFE02B5E8DC0F42A9CFD029018000000C1003FBFFFFFE02B5E8DC0F42A9CFD
310
049018000000C1003FBFFFFFE02B5E8DC0F42A9CFD089018000000C1003FBFFFFFE02B5E8DC0F42A9CFD109018000000C1003FBFFFFFE02B5E8DC0F42A9CFD209018000000C1003FBFFFFFE02B5E8DC0F42A9CFD01405075F5449544C450041501A8000000C800406904A94160000003040000000000000012404040000000
310
00000F83F0000000000003E0FC000000000000F83F0000000000003E0FC0AD7A3703D0AC73F02B5E8DC0F42B1CFD0640640600000030400FEFFFFFF80AD7A3703D0AA73F40A40600000030400FEFFFFFF80AD7A3703D0AA73F41240600000030400FEFFFFFF80AD7A3703D0AA73F42240600000030400FEFFFFFF80AD7A370
310
3D0AA73F44240600000030400FEFFFFFF80AD7A3703D0AA73F48240600000030400FEFFFFFF80AD7A3703D0AA73F409014217D2115051115480105406A0000003200101A412A5028000000C10000000000000004901010000000000003E0FC000000000000F83F0000000000003E0FC000000000000F83F02B5E8DC0F42B1C
310
FC0AD7A3703D0AC73F419019018000000C1003FBFFFFFE02B5E8DC0F42A9CFD029018000000C1003FBFFFFFE02B5E8DC0F42A9CFD049018000000C1003FBFFFFFE02B5E8DC0F42A9CFD089018000000C1003FBFFFFFE02B5E8DC0F42A9CFD109018000000C1003FBFFFFFE02B5E8DC0F42A9CFD209018000000C1003FBFFFF
310
FE02B5E8DC0F42A9CFD03409065F444154410000
340
F
340
0
340
0
340
0
340
0
340
0
340
0
340
F
340
0
340
0
340
0
340
0
340
0
340
0
340
F
340
0
340
0
340
0
340
0
340
0
340
0
 94
        0
1001
ACAD
1000
AcRTDxfName
1000
CELLSTYLEMAP
  0
XRECORD
  5
BF95
102
{ACAD_REACTORS
330
B806
102
}
330
B806
100
AcDbXrecord
280
     1
102
ACAD_ROUNDTRIP_PRE2007_TABLESTYLE
 90
        4
 91
        0
  1

 92
        4
 93
        0
  2

 94
        4
 95
        0
  3

  0
XRECORD
  5
BFA8
102
{ACAD_REACTORS
330
BFA7
102
}
330
BFA7
100
AcDbXrecord
280
     1
102
RTVSPost2010Prop28
280
     1
102
RTVSPost2010PropOp28
 70
     1
102
RTVSPost2010Prop29
280
     1
102
RTVSPost2010PropOp29
 70
     1
102
RTVSPost2010Prop30
280
     0
102
RTVSPost2010PropOp30
 70
     1
102
RTVSPost2010Prop31
280
     0
102
RTVSPost2010PropOp31
 70
     1
102
RTVSPost2010Prop32
280
     0
102
RTVSPost2010PropOp32
 70
     1
102
RTVSPost2010Prop33
280
     0
102
RTVSPost2010PropOp33
 70
     1
102
RTVSPost2010Prop34
280
     0
102
RTVSPost2010PropOp34
 70
     1
102
RTVSPost2010Prop35
280
     0
102
RTVSPost2010PropOp35
 70
     1
102
RTVSPost2010Prop36
280
     0
102
RTVSPost2010PropOp36
 70
     1
102
RTVSPost2010Prop37
 90
       50
102
RTVSPost2010PropOp37
 70
     1
102
RTVSPost2010Prop38
140
0.0
102
RTVSPost2010PropOp38
 70
     1
102
RTVSPost2010Prop39
140
1.0
102
RTVSPost2010PropOp39
 70
     1
102
RTVSPost2010Prop40
 90
        0
102
RTVSPost2010PropOp40
 70
     1
102
RTVSPost2010Prop41ColorIndex
 90
       18
102
RTVSPost2010Prop41ColorRGB
 90
        0
102
RTVSPost2010PropOp41
 70
     1
102
RTVSPost2010Prop42
 90
       50
102
RTVSPost2010PropOp42
 70
     1
102
RTVSPost2010Prop43
 90
        3
102
RTVSPost2010PropOp43
 70
     1
102
RTVSPost2010Prop44ColorIndex
 90
        5
102
RTVSPost2010Prop44ColorRGB
 90
      255
102
RTVSPost2010PropOp44
 70
     1
102
RTVSPost2010Prop45
280
     0
102
RTVSPost2010PropOp45
 70
     1
102
RTVSPost2010Prop46
 90
       50
102
RTVSPost2010PropOp46
 70
     1
102
RTVSPost2010Prop47
 90
       50
102
RTVSPost2010PropOp47
 70
     1
102
RTVSPost2010Prop48
 90
       50
102
RTVSPost2010PropOp48
 70
     1
102
RTVSPost2010Prop49
280
     0
102
RTVSPost2010PropOp49
 70
     1
102
RTVSPost2010Prop50
 90
       50
102
RTVSPost2010PropOp50
 70
     1
102
RTVSPost2010Prop51ColorIndex
 90
      256
102
RTVSPost2010Prop51ColorRGB
 90
-16777216
102
RTVSPost2010PropOp51
 70
     0
102
RTVSPost2010Prop52
140
1.0
102
RTVSPost2010PropOp52
 70
     0
102
RTVSPost2010Prop53
 90
        2
102
RTVSPost2010PropOp53
 70
     1
102
RTVSPost2010Prop54
  1
strokes_ogs.tif
102
RTVSPost2010PropOp54
 70
     1
102
RTVSPost2010Prop55
280
     0
102
RTVSPost2010PropOp55
 70
     1
102
RTVSPost2010Prop56
140
1.0
102
RTVSPost2010PropOp56
 70
     1
102
RTVSPost2010Prop57
140
1.0
102
RTVSPost2010PropOp57
 70
     1
102
RTVSPropertyOp0
 70
     1
102
RTVSPropertyOp1
 70
     1
102
RTVSPropertyOp2
 70
     1
102
RTVSPropertyOp3
 70
     1
102
RTVSPropertyOp4
 70
     1
102
RTVSPropertyOp5
 70
     1
102
RTVSPropertyOp6
 70
     1
102
RTVSPropertyOp7
 70
     1
102
RTVSPropertyOp8
 70
     1
102
RTVSPropertyOp9
 70
     1
102
RTVSPropertyOp10
 70
     1
102
RTVSPropertyOp11
 70
     1
102
RTVSPropertyOp12
 70
     1
102
RTVSPropertyOp13
 70
     1
102
RTVSPropertyOp14
 70
     1
102
RTVSPropertyOp15
 70
     1
102
RTVSPropertyOp16
 70
     1
102
RTVSPropertyOp17
 70
     1
102
RTVSPropertyOp18
 70
     1
102
RTVSPropertyOp19
 70
     1
102
RTVSPropertyOp20
 70
     1
102
RTVSPropertyOp21
 70
     1
102
RTVSPropertyOp22
 70
     1
102
RTVSPropertyOp23
 70
     1
102
RTVSPropertyOp24
 70
     1
102
RTVSPropertyOp25
 70
     1
102
RTVSPropertyOp26
 70
     1
102
RTVSPropertyOp27
 70
     1
102
RTVSPropertyOp28
 70
     1
102
RTVSPropertyOp29
 70
     1
102
RTVSPropertyOp30
 70
     1
102
RTVSPropertyOp31
 70
     1
102
RTVSPropertyOp32
 70
     1
102
RTVSPropertyOp33
 70
     1
102
RTVSPropertyOp34
 70
     1
102
RTVSPropertyOp35
 70
     1
102
RTVSPropertyOp36
 70
     1
102
RTVSPropertyOp37
 70
     1
102
RTVSPropertyOp38
 70
     1
102
RTVSPropertyOp39
 70
     1
102
RTVSPropertyOp40
 70
     1
102
RTVSPropertyOp41
 70
     1
102
RTVSPropertyOp42
 70
     1
102
RTVSPropertyOp43
 70
     1
102
RTVSPropertyOp44
 70
     1
102
RTVSPropertyOp45
 70
     1
102
RTVSPropertyOp46
 70
     1
102
RTVSPropertyOp47
 70
     1
102
RTVSPropertyOp48
 70
     1
102
RTVSPropertyOp49
 70
     1
102
RTVSPropertyOp50
 70
     1
102
RTVSPropertyOp51
 70
     0
102
RTVSPropertyOp52
 70
     0
102
RTVSPropertyOp53
 70
     1
102
RTVSPropertyOp54
 70
     1
102
RTVSPropertyOp55
 70
     1
102
RTVSPropertyOp56
 70
     1
102
RTVSPropertyOp57
 70
     1
102
RTVSPropertyOp58
 70
     1
102
RTVSPropertyOp59
 70
     1
102
RTVSPropertyOp60
 70
     1
102
RTVSPropertyOp61
 70
     1
102
RTVSPropertyOp62
 70
     1
  0
XRECORD
  5
BFA6
102
{ACAD_REACTORS
330
BFA5
102
}
330
BFA5
100
AcDbXrecord
280
     1
102
RTVSPost2010Prop28
280
     0
102
RTVSPost2010PropOp28
 70
     1
102
RTVSPost2010Prop29
280
     1
102
RTVSPost2010PropOp29
 70
     1
102
RTVSPost2010Prop30
280
     1
102
RTVSPost2010PropOp30
 70
     1
102
RTVSPost2010Prop31
280
     0
102
RTVSPost2010PropOp31
 70
     1
102
RTVSPost2010Prop32
280
     0
102
RTVSPost2010PropOp32
 70
     1
102
RTVSPost2010Prop33
280
     0
102
RTVSPost2010PropOp33
 70
     1
102
RTVSPost2010Prop34
280
     0
102
RTVSPost2010PropOp34
 70
     1
102
RTVSPost2010Prop35
280
     0
102
RTVSPost2010PropOp35
 70
     1
102
RTVSPost2010Prop36
280
     0
102
RTVSPost2010PropOp36
 70
     1
102
RTVSPost2010Prop37
 90
       50
102
RTVSPost2010PropOp37
 70
     1
102
RTVSPost2010Prop38
140
0.0
102
RTVSPost2010PropOp38
 70
     1
102
RTVSPost2010Prop39
140
1.0
102
RTVSPost2010PropOp39
 70
     1
102
RTVSPost2010Prop40
 90
        0
102
RTVSPost2010PropOp40
 70
     1
102
RTVSPost2010Prop41ColorIndex
 90
       18
102
RTVSPost2010Prop41ColorRGB
 90
        0
102
RTVSPost2010PropOp41
 70
     1
102
RTVSPost2010Prop42
 90
       50
102
RTVSPost2010PropOp42
 70
     1
102
RTVSPost2010Prop43
 90
        3
102
RTVSPost2010PropOp43
 70
     1
102
RTVSPost2010Prop44ColorIndex
 90
        5
102
RTVSPost2010Prop44ColorRGB
 90
      255
102
RTVSPost2010PropOp44
 70
     1
102
RTVSPost2010Prop45
280
     0
102
RTVSPost2010PropOp45
 70
     1
102
RTVSPost2010Prop46
 90
       50
102
RTVSPost2010PropOp46
 70
     1
102
RTVSPost2010Prop47
 90
       50
102
RTVSPost2010PropOp47
 70
     1
102
RTVSPost2010Prop48
 90
       50
102
RTVSPost2010PropOp48
 70
     1
102
RTVSPost2010Prop49
280
     0
102
RTVSPost2010PropOp49
 70
     1
102
RTVSPost2010Prop50
 90
       50
102
RTVSPost2010PropOp50
 70
     1
102
RTVSPost2010Prop51ColorIndex
 90
      256
102
RTVSPost2010Prop51ColorRGB
 90
-16777216
102
RTVSPost2010PropOp51
 70
     0
102
RTVSPost2010Prop52
140
1.0
102
RTVSPost2010PropOp52
 70
     0
102
RTVSPost2010Prop53
 90
        2
102
RTVSPost2010PropOp53
 70
     1
102
RTVSPost2010Prop54
  1
strokes_ogs.tif
102
RTVSPost2010PropOp54
 70
     1
102
RTVSPost2010Prop55
280
     0
102
RTVSPost2010PropOp55
 70
     1
102
RTVSPost2010Prop56
140
1.0
102
RTVSPost2010PropOp56
 70
     1
102
RTVSPost2010Prop57
140
1.0
102
RTVSPost2010PropOp57
 70
     1
102
RTVSPropertyOp0
 70
     1
102
RTVSPropertyOp1
 70
     1
102
RTVSPropertyOp2
 70
     1
102
RTVSPropertyOp3
 70
     1
102
RTVSPropertyOp4
 70
     1
102
RTVSPropertyOp5
 70
     1
102
RTVSPropertyOp6
 70
     1
102
RTVSPropertyOp7
 70
     1
102
RTVSPropertyOp8
 70
     1
102
RTVSPropertyOp9
 70
     1
102
RTVSPropertyOp10
 70
     1
102
RTVSPropertyOp11
 70
     1
102
RTVSPropertyOp12
 70
     1
102
RTVSPropertyOp13
 70
     1
102
RTVSPropertyOp14
 70
     1
102
RTVSPropertyOp15
 70
     1
102
RTVSPropertyOp16
 70
     1
102
RTVSPropertyOp17
 70
     1
102
RTVSPropertyOp18
 70
     1
102
RTVSPropertyOp19
 70
     1
102
RTVSPropertyOp20
 70
     1
102
RTVSPropertyOp21
 70
     1
102
RTVSPropertyOp22
 70
     1
102
RTVSPropertyOp23
 70
     1
102
RTVSPropertyOp24
 70
     1
102
RTVSPropertyOp25
 70
     1
102
RTVSPropertyOp26
 70
     1
102
RTVSPropertyOp27
 70
     1
102
RTVSPropertyOp28
 70
     1
102
RTVSPropertyOp29
 70
     1
102
RTVSPropertyOp30
 70
     1
102
RTVSPropertyOp31
 70
     1
102
RTVSPropertyOp32
 70
     1
102
RTVSPropertyOp33
 70
     1
102
RTVSPropertyOp34
 70
     1
102
RTVSPropertyOp35
 70
     1
102
RTVSPropertyOp36
 70
     1
102
RTVSPropertyOp37
 70
     1
102
RTVSPropertyOp38
 70
     1
102
RTVSPropertyOp39
 70
     1
102
RTVSPropertyOp40
 70
     1
102
RTVSPropertyOp41
 70
     1
102
RTVSPropertyOp42
 70
     1
102
RTVSPropertyOp43
 70
     1
102
RTVSPropertyOp44
 70
     1
102
RTVSPropertyOp45
 70
     1
102
RTVSPropertyOp46
 70
     1
102
RTVSPropertyOp47
 70
     1
102
RTVSPropertyOp48
 70
     1
102
RTVSPropertyOp49
 70
     1
102
RTVSPropertyOp50
 70
     1
102
RTVSPropertyOp51
 70
     0
102
RTVSPropertyOp52
 70
     0
102
RTVSPropertyOp53
 70
     1
102
RTVSPropertyOp54
 70
     1
102
RTVSPropertyOp55
 70
     1
102
RTVSPropertyOp56
 70
     1
102
RTVSPropertyOp57
 70
     1
102
RTVSPropertyOp58
 70
     1
102
RTVSPropertyOp59
 70
     1
102
RTVSPropertyOp60
 70
     1
102
RTVSPropertyOp61
 70
     1
102
RTVSPropertyOp62
 70
     1
  0
XRECORD
  5
BFB4
102
{ACAD_REACTORS
330
BFB3
102
}
330
BFB3
100
AcDbXrecord
280
     1
102
RTVSPost2010Prop28
280
     0
102
RTVSPost2010PropOp28
 70
     1
102
RTVSPost2010Prop29
280
     1
102
RTVSPost2010PropOp29
 70
     1
102
RTVSPost2010Prop30
280
     1
102
RTVSPost2010PropOp30
 70
     1
102
RTVSPost2010Prop31
280
     0
102
RTVSPost2010PropOp31
 70
     1
102
RTVSPost2010Prop32
280
     0
102
RTVSPost2010PropOp32
 70
     1
102
RTVSPost2010Prop33
280
     0
102
RTVSPost2010PropOp33
 70
     1
102
RTVSPost2010Prop34
280
     0
102
RTVSPost2010PropOp34
 70
     1
102
RTVSPost2010Prop35
280
     0
102
RTVSPost2010PropOp35
 70
     1
102
RTVSPost2010Prop36
280
     0
102
RTVSPost2010PropOp36
 70
     1
102
RTVSPost2010Prop37
 90
       50
102
RTVSPost2010PropOp37
 70
     1
102
RTVSPost2010Prop38
140
0.0
102
RTVSPost2010PropOp38
 70
     1
102
RTVSPost2010Prop39
140
1.0
102
RTVSPost2010PropOp39
 70
     1
102
RTVSPost2010Prop40
 90
        0
102
RTVSPost2010PropOp40
 70
     1
102
RTVSPost2010Prop41ColorIndex
 90
       18
102
RTVSPost2010Prop41ColorRGB
 90
        0
102
RTVSPost2010PropOp41
 70
     1
102
RTVSPost2010Prop42
 90
       50
102
RTVSPost2010PropOp42
 70
     1
102
RTVSPost2010Prop43
 90
        3
102
RTVSPost2010PropOp43
 70
     1
102
RTVSPost2010Prop44ColorIndex
 90
        5
102
RTVSPost2010Prop44ColorRGB
 90
      255
102
RTVSPost2010PropOp44
 70
     1
102
RTVSPost2010Prop45
280
     0
102
RTVSPost2010PropOp45
 70
     1
102
RTVSPost2010Prop46
 90
       50
102
RTVSPost2010PropOp46
 70
     1
102
RTVSPost2010Prop47
 90
       50
102
RTVSPost2010PropOp47
 70
     1
102
RTVSPost2010Prop48
 90
       50
102
RTVSPost2010PropOp48
 70
     1
102
RTVSPost2010Prop49
280
     0
102
RTVSPost2010PropOp49
 70
     1
102
RTVSPost2010Prop50
 90
       50
102
RTVSPost2010PropOp50
 70
     1
102
RTVSPost2010Prop51ColorIndex
 90
      256
102
RTVSPost2010Prop51ColorRGB
 90
-16777216
102
RTVSPost2010PropOp51
 70
     0
102
RTVSPost2010Prop52
140
1.0
102
RTVSPost2010PropOp52
 70
     0
102
RTVSPost2010Prop53
 90
        2
102
RTVSPost2010PropOp53
 70
     1
102
RTVSPost2010Prop54
  1
strokes_ogs.tif
102
RTVSPost2010PropOp54
 70
     1
102
RTVSPost2010Prop55
280
     0
102
RTVSPost2010PropOp55
 70
     1
102
RTVSPost2010Prop56
140
1.0
102
RTVSPost2010PropOp56
 70
     1
102
RTVSPost2010Prop57
140
1.0
102
RTVSPost2010PropOp57
 70
     1
102
RTVSPropertyOp0
 70
     1
102
RTVSPropertyOp1
 70
     1
102
RTVSPropertyOp2
 70
     1
102
RTVSPropertyOp3
 70
     1
102
RTVSPropertyOp4
 70
     1
102
RTVSPropertyOp5
 70
     1
102
RTVSPropertyOp6
 70
     1
102
RTVSPropertyOp7
 70
     1
102
RTVSPropertyOp8
 70
     1
102
RTVSPropertyOp9
 70
     1
102
RTVSPropertyOp10
 70
     1
102
RTVSPropertyOp11
 70
     1
102
RTVSPropertyOp12
 70
     1
102
RTVSPropertyOp13
 70
     1
102
RTVSPropertyOp14
 70
     1
102
RTVSPropertyOp15
 70
     1
102
RTVSPropertyOp16
 70
     1
102
RTVSPropertyOp17
 70
     1
102
RTVSPropertyOp18
 70
     1
102
RTVSPropertyOp19
 70
     1
102
RTVSPropertyOp20
 70
     1
102
RTVSPropertyOp21
 70
     1
102
RTVSPropertyOp22
 70
     1
102
RTVSPropertyOp23
 70
     1
102
RTVSPropertyOp24
 70
     1
102
RTVSPropertyOp25
 70
     1
102
RTVSPropertyOp26
 70
     1
102
RTVSPropertyOp27
 70
     1
102
RTVSPropertyOp28
 70
     1
102
RTVSPropertyOp29
 70
     1
102
RTVSPropertyOp30
 70
     1
102
RTVSPropertyOp31
 70
     1
102
RTVSPropertyOp32
 70
     1
102
RTVSPropertyOp33
 70
     1
102
RTVSPropertyOp34
 70
     1
102
RTVSPropertyOp35
 70
     1
102
RTVSPropertyOp36
 70
     1
102
RTVSPropertyOp37
 70
     1
102
RTVSPropertyOp38
 70
     1
102
RTVSPropertyOp39
 70
     1
102
RTVSPropertyOp40
 70
     1
102
RTVSPropertyOp41
 70
     1
102
RTVSPropertyOp42
 70
     1
102
RTVSPropertyOp43
 70
     1
102
RTVSPropertyOp44
 70
     1
102
RTVSPropertyOp45
 70
     1
102
RTVSPropertyOp46
 70
     1
102
RTVSPropertyOp47
 70
     1
102
RTVSPropertyOp48
 70
     1
102
RTVSPropertyOp49
 70
     1
102
RTVSPropertyOp50
 70
     1
102
RTVSPropertyOp51
 70
     0
102
RTVSPropertyOp52
 70
     0
102
RTVSPropertyOp53
 70
     1
102
RTVSPropertyOp54
 70
     1
102
RTVSPropertyOp55
 70
     1
102
RTVSPropertyOp56
 70
     1
102
RTVSPropertyOp57
 70
     1
102
RTVSPropertyOp58
 70
     1
102
RTVSPropertyOp59
 70
     1
102
RTVSPropertyOp60
 70
     1
102
RTVSPropertyOp61
 70
     1
102
RTVSPropertyOp62
 70
     1
  0
XRECORD
  5
BFBC
102
{ACAD_REACTORS
330
BFBB
102
}
330
BFBB
100
AcDbXrecord
280
     1
102
RTVSPost2010Prop28
280
     0
102
RTVSPost2010PropOp28
 70
     1
102
RTVSPost2010Prop29
280
     1
102
RTVSPost2010PropOp29
 70
     1
102
RTVSPost2010Prop30
280
     1
102
RTVSPost2010PropOp30
 70
     1
102
RTVSPost2010Prop31
280
     0
102
RTVSPost2010PropOp31
 70
     1
102
RTVSPost2010Prop32
280
     0
102
RTVSPost2010PropOp32
 70
     1
102
RTVSPost2010Prop33
280
     0
102
RTVSPost2010PropOp33
 70
     1
102
RTVSPost2010Prop34
280
     0
102
RTVSPost2010PropOp34
 70
     1
102
RTVSPost2010Prop35
280
     0
102
RTVSPost2010PropOp35
 70
     1
102
RTVSPost2010Prop36
280
     0
102
RTVSPost2010PropOp36
 70
     1
102
RTVSPost2010Prop37
 90
       50
102
RTVSPost2010PropOp37
 70
     1
102
RTVSPost2010Prop38
140
0.0
102
RTVSPost2010PropOp38
 70
     1
102
RTVSPost2010Prop39
140
1.0
102
RTVSPost2010PropOp39
 70
     1
102
RTVSPost2010Prop40
 90
        0
102
RTVSPost2010PropOp40
 70
     1
102
RTVSPost2010Prop41ColorIndex
 90
       18
102
RTVSPost2010Prop41ColorRGB
 90
        0
102
RTVSPost2010PropOp41
 70
     1
102
RTVSPost2010Prop42
 90
       50
102
RTVSPost2010PropOp42
 70
     1
102
RTVSPost2010Prop43
 90
        3
102
RTVSPost2010PropOp43
 70
     1
102
RTVSPost2010Prop44ColorIndex
 90
        5
102
RTVSPost2010Prop44ColorRGB
 90
      255
102
RTVSPost2010PropOp44
 70
     1
102
RTVSPost2010Prop45
280
     0
102
RTVSPost2010PropOp45
 70
     1
102
RTVSPost2010Prop46
 90
       50
102
RTVSPost2010PropOp46
 70
     1
102
RTVSPost2010Prop47
 90
       50
102
RTVSPost2010PropOp47
 70
     1
102
RTVSPost2010Prop48
 90
       50
102
RTVSPost2010PropOp48
 70
     1
102
RTVSPost2010Prop49
280
     0
102
RTVSPost2010PropOp49
 70
     1
102
RTVSPost2010Prop50
 90
       50
102
RTVSPost2010PropOp50
 70
     1
102
RTVSPost2010Prop51ColorIndex
 90
      256
102
RTVSPost2010Prop51ColorRGB
 90
-16777216
102
RTVSPost2010PropOp51
 70
     0
102
RTVSPost2010Prop52
140
1.0
102
RTVSPost2010PropOp52
 70
     0
102
RTVSPost2010Prop53
 90
        2
102
RTVSPost2010PropOp53
 70
     1
102
RTVSPost2010Prop54
  1
strokes_ogs.tif
102
RTVSPost2010PropOp54
 70
     1
102
RTVSPost2010Prop55
280
     0
102
RTVSPost2010PropOp55
 70
     1
102
RTVSPost2010Prop56
140
1.0
102
RTVSPost2010PropOp56
 70
     1
102
RTVSPost2010Prop57
140
1.0
102
RTVSPost2010PropOp57
 70
     1
102
RTVSPropertyOp0
 70
     1
102
RTVSPropertyOp1
 70
     1
102
RTVSPropertyOp2
 70
     1
102
RTVSPropertyOp3
 70
     1
102
RTVSPropertyOp4
 70
     1
102
RTVSPropertyOp5
 70
     1
102
RTVSPropertyOp6
 70
     1
102
RTVSPropertyOp7
 70
     1
102
RTVSPropertyOp8
 70
     1
102
RTVSPropertyOp9
 70
     1
102
RTVSPropertyOp10
 70
     1
102
RTVSPropertyOp11
 70
     1
102
RTVSPropertyOp12
 70
     1
102
RTVSPropertyOp13
 70
     1
102
RTVSPropertyOp14
 70
     1
102
RTVSPropertyOp15
 70
     1
102
RTVSPropertyOp16
 70
     1
102
RTVSPropertyOp17
 70
     1
102
RTVSPropertyOp18
 70
     1
102
RTVSPropertyOp19
 70
     1
102
RTVSPropertyOp20
 70
     1
102
RTVSPropertyOp21
 70
     1
102
RTVSPropertyOp22
 70
     1
102
RTVSPropertyOp23
 70
     1
102
RTVSPropertyOp24
 70
     1
102
RTVSPropertyOp25
 70
     1
102
RTVSPropertyOp26
 70
     1
102
RTVSPropertyOp27
 70
     1
102
RTVSPropertyOp28
 70
     1
102
RTVSPropertyOp29
 70
     1
102
RTVSPropertyOp30
 70
     1
102
RTVSPropertyOp31
 70
     1
102
RTVSPropertyOp32
 70
     1
102
RTVSPropertyOp33
 70
     1
102
RTVSPropertyOp34
 70
     1
102
RTVSPropertyOp35
 70
     1
102
RTVSPropertyOp36
 70
     1
102
RTVSPropertyOp37
 70
     1
102
RTVSPropertyOp38
 70
     1
102
RTVSPropertyOp39
 70
     1
102
RTVSPropertyOp40
 70
     1
102
RTVSPropertyOp41
 70
     1
102
RTVSPropertyOp42
 70
     1
102
RTVSPropertyOp43
 70
     1
102
RTVSPropertyOp44
 70
     1
102
RTVSPropertyOp45
 70
     1
102
RTVSPropertyOp46
 70
     1
102
RTVSPropertyOp47
 70
     1
102
RTVSPropertyOp48
 70
     1
102
RTVSPropertyOp49
 70
     1
102
RTVSPropertyOp50
 70
     1
102
RTVSPropertyOp51
 70
     0
102
RTVSPropertyOp52
 70
     0
102
RTVSPropertyOp53
 70
     1
102
RTVSPropertyOp54
 70
     1
102
RTVSPropertyOp55
 70
     1
102
RTVSPropertyOp56
 70
     1
102
RTVSPropertyOp57
 70
     1
102
RTVSPropertyOp58
 70
     1
102
RTVSPropertyOp59
 70
     1
102
RTVSPropertyOp60
 70
     1
102
RTVSPropertyOp61
 70
     1
102
RTVSPropertyOp62
 70
     1
  0
XRECORD
  5
BFAE
102
{ACAD_REACTORS
330
BFAD
102
}
330
BFAD
100
AcDbXrecord
280
     1
102
RTVSPost2010Prop28
280
     0
102
RTVSPost2010PropOp28
 70
     1
102
RTVSPost2010Prop29
280
     1
102
RTVSPost2010PropOp29
 70
     1
102
RTVSPost2010Prop30
280
     1
102
RTVSPost2010PropOp30
 70
     1
102
RTVSPost2010Prop31
280
     0
102
RTVSPost2010PropOp31
 70
     1
102
RTVSPost2010Prop32
280
     0
102
RTVSPost2010PropOp32
 70
     1
102
RTVSPost2010Prop33
280
     0
102
RTVSPost2010PropOp33
 70
     1
102
RTVSPost2010Prop34
280
     0
102
RTVSPost2010PropOp34
 70
     1
102
RTVSPost2010Prop35
280
     0
102
RTVSPost2010PropOp35
 70
     1
102
RTVSPost2010Prop36
280
     0
102
RTVSPost2010PropOp36
 70
     1
102
RTVSPost2010Prop37
 90
       50
102
RTVSPost2010PropOp37
 70
     1
102
RTVSPost2010Prop38
140
0.0
102
RTVSPost2010PropOp38
 70
     1
102
RTVSPost2010Prop39
140
1.0
102
RTVSPost2010PropOp39
 70
     1
102
RTVSPost2010Prop40
 90
        0
102
RTVSPost2010PropOp40
 70
     1
102
RTVSPost2010Prop41ColorIndex
 90
       18
102
RTVSPost2010Prop41ColorRGB
 90
        0
102
RTVSPost2010PropOp41
 70
     1
102
RTVSPost2010Prop42
 90
       50
102
RTVSPost2010PropOp42
 70
     1
102
RTVSPost2010Prop43
 90
        3
102
RTVSPost2010PropOp43
 70
     1
102
RTVSPost2010Prop44ColorIndex
 90
        5
102
RTVSPost2010Prop44ColorRGB
 90
      255
102
RTVSPost2010PropOp44
 70
     1
102
RTVSPost2010Prop45
280
     0
102
RTVSPost2010PropOp45
 70
     1
102
RTVSPost2010Prop46
 90
       50
102
RTVSPost2010PropOp46
 70
     1
102
RTVSPost2010Prop47
 90
       50
102
RTVSPost2010PropOp47
 70
     1
102
RTVSPost2010Prop48
 90
       50
102
RTVSPost2010PropOp48
 70
     1
102
RTVSPost2010Prop49
280
     0
102
RTVSPost2010PropOp49
 70
     1
102
RTVSPost2010Prop50
 90
       50
102
RTVSPost2010PropOp50
 70
     1
102
RTVSPost2010Prop51ColorIndex
 90
      256
102
RTVSPost2010Prop51ColorRGB
 90
-16777216
102
RTVSPost2010PropOp51
 70
     0
102
RTVSPost2010Prop52
140
1.0
102
RTVSPost2010PropOp52
 70
     0
102
RTVSPost2010Prop53
 90
        2
102
RTVSPost2010PropOp53
 70
     1
102
RTVSPost2010Prop54
  1
strokes_ogs.tif
102
RTVSPost2010PropOp54
 70
     1
102
RTVSPost2010Prop55
280
     0
102
RTVSPost2010PropOp55
 70
     1
102
RTVSPost2010Prop56
140
1.0
102
RTVSPost2010PropOp56
 70
     1
102
RTVSPost2010Prop57
140
1.0
102
RTVSPost2010PropOp57
 70
     1
102
RTVSPropertyOp0
 70
     1
102
RTVSPropertyOp1
 70
     1
102
RTVSPropertyOp2
 70
     1
102
RTVSPropertyOp3
 70
     1
102
RTVSPropertyOp4
 70
     1
102
RTVSPropertyOp5
 70
     1
102
RTVSPropertyOp6
 70
     1
102
RTVSPropertyOp7
 70
     1
102
RTVSPropertyOp8
 70
     1
102
RTVSPropertyOp9
 70
     1
102
RTVSPropertyOp10
 70
     1
102
RTVSPropertyOp11
 70
     1
102
RTVSPropertyOp12
 70
     1
102
RTVSPropertyOp13
 70
     1
102
RTVSPropertyOp14
 70
     1
102
RTVSPropertyOp15
 70
     1
102
RTVSPropertyOp16
 70
     1
102
RTVSPropertyOp17
 70
     1
102
RTVSPropertyOp18
 70
     1
102
RTVSPropertyOp19
 70
     1
102
RTVSPropertyOp20
 70
     1
102
RTVSPropertyOp21
 70
     1
102
RTVSPropertyOp22
 70
     1
102
RTVSPropertyOp23
 70
     1
102
RTVSPropertyOp24
 70
     1
102
RTVSPropertyOp25
 70
     1
102
RTVSPropertyOp26
 70
     1
102
RTVSPropertyOp27
 70
     1
102
RTVSPropertyOp28
 70
     1
102
RTVSPropertyOp29
 70
     1
102
RTVSPropertyOp30
 70
     1
102
RTVSPropertyOp31
 70
     1
102
RTVSPropertyOp32
 70
     1
102
RTVSPropertyOp33
 70
     1
102
RTVSPropertyOp34
 70
     1
102
RTVSPropertyOp35
 70
     1
102
RTVSPropertyOp36
 70
     1
102
RTVSPropertyOp37
 70
     1
102
RTVSPropertyOp38
 70
     1
102
RTVSPropertyOp39
 70
     1
102
RTVSPropertyOp40
 70
     1
102
RTVSPropertyOp41
 70
     1
102
RTVSPropertyOp42
 70
     1
102
RTVSPropertyOp43
 70
     1
102
RTVSPropertyOp44
 70
     1
102
RTVSPropertyOp45
 70
     1
102
RTVSPropertyOp46
 70
     1
102
RTVSPropertyOp47
 70
     1
102
RTVSPropertyOp48
 70
     1
102
RTVSPropertyOp49
 70
     1
102
RTVSPropertyOp50
 70
     1
102
RTVSPropertyOp51
 70
     0
102
RTVSPropertyOp52
 70
     0
102
RTVSPropertyOp53
 70
     1
102
RTVSPropertyOp54
 70
     1
102
RTVSPropertyOp55
 70
     1
102
RTVSPropertyOp56
 70
     1
102
RTVSPropertyOp57
 70
     1
102
RTVSPropertyOp58
 70
     1
102
RTVSPropertyOp59
 70
     1
102
RTVSPropertyOp60
 70
     1
102
RTVSPropertyOp61
 70
     1
102
RTVSPropertyOp62
 70
     1
  0
XRECORD
  5
BFB2
102
{ACAD_REACTORS
330
BFB1
102
}
330
BFB1
100
AcDbXrecord
280
     1
102
RTVSPost2010Prop28
280
     0
102
RTVSPost2010PropOp28
 70
     1
102
RTVSPost2010Prop29
280
     1
102
RTVSPost2010PropOp29
 70
     1
102
RTVSPost2010Prop30
280
     1
102
RTVSPost2010PropOp30
 70
     1
102
RTVSPost2010Prop31
280
     0
102
RTVSPost2010PropOp31
 70
     1
102
RTVSPost2010Prop32
280
     0
102
RTVSPost2010PropOp32
 70
     1
102
RTVSPost2010Prop33
280
     0
102
RTVSPost2010PropOp33
 70
     1
102
RTVSPost2010Prop34
280
     0
102
RTVSPost2010PropOp34
 70
     1
102
RTVSPost2010Prop35
280
     0
102
RTVSPost2010PropOp35
 70
     1
102
RTVSPost2010Prop36
280
     0
102
RTVSPost2010PropOp36
 70
     1
102
RTVSPost2010Prop37
 90
       50
102
RTVSPost2010PropOp37
 70
     1
102
RTVSPost2010Prop38
140
0.0
102
RTVSPost2010PropOp38
 70
     1
102
RTVSPost2010Prop39
140
1.0
102
RTVSPost2010PropOp39
 70
     1
102
RTVSPost2010Prop40
 90
        0
102
RTVSPost2010PropOp40
 70
     1
102
RTVSPost2010Prop41ColorIndex
 90
       18
102
RTVSPost2010Prop41ColorRGB
 90
        0
102
RTVSPost2010PropOp41
 70
     1
102
RTVSPost2010Prop42
 90
       50
102
RTVSPost2010PropOp42
 70
     1
102
RTVSPost2010Prop43
 90
        3
102
RTVSPost2010PropOp43
 70
     1
102
RTVSPost2010Prop44ColorIndex
 90
        5
102
RTVSPost2010Prop44ColorRGB
 90
      255
102
RTVSPost2010PropOp44
 70
     1
102
RTVSPost2010Prop45
280
     0
102
RTVSPost2010PropOp45
 70
     1
102
RTVSPost2010Prop46
 90
       50
102
RTVSPost2010PropOp46
 70
     1
102
RTVSPost2010Prop47
 90
       50
102
RTVSPost2010PropOp47
 70
     1
102
RTVSPost2010Prop48
 90
       50
102
RTVSPost2010PropOp48
 70
     1
102
RTVSPost2010Prop49
280
     0
102
RTVSPost2010PropOp49
 70
     1
102
RTVSPost2010Prop50
 90
       50
102
RTVSPost2010PropOp50
 70
     1
102
RTVSPost2010Prop51ColorIndex
 90
      256
102
RTVSPost2010Prop51ColorRGB
 90
-16777216
102
RTVSPost2010PropOp51
 70
     0
102
RTVSPost2010Prop52
140
1.0
102
RTVSPost2010PropOp52
 70
     0
102
RTVSPost2010Prop53
 90
        2
102
RTVSPost2010PropOp53
 70
     1
102
RTVSPost2010Prop54
  1
strokes_ogs.tif
102
RTVSPost2010PropOp54
 70
     1
102
RTVSPost2010Prop55
280
     0
102
RTVSPost2010PropOp55
 70
     1
102
RTVSPost2010Prop56
140
1.0
102
RTVSPost2010PropOp56
 70
     1
102
RTVSPost2010Prop57
140
1.0
102
RTVSPost2010PropOp57
 70
     1
102
RTVSPropertyOp0
 70
     1
102
RTVSPropertyOp1
 70
     1
102
RTVSPropertyOp2
 70
     1
102
RTVSPropertyOp3
 70
     1
102
RTVSPropertyOp4
 70
     1
102
RTVSPropertyOp5
 70
     1
102
RTVSPropertyOp6
 70
     1
102
RTVSPropertyOp7
 70
     1
102
RTVSPropertyOp8
 70
     1
102
RTVSPropertyOp9
 70
     1
102
RTVSPropertyOp10
 70
     1
102
RTVSPropertyOp11
 70
     1
102
RTVSPropertyOp12
 70
     1
102
RTVSPropertyOp13
 70
     1
102
RTVSPropertyOp14
 70
     1
102
RTVSPropertyOp15
 70
     1
102
RTVSPropertyOp16
 70
     1
102
RTVSPropertyOp17
 70
     1
102
RTVSPropertyOp18
 70
     1
102
RTVSPropertyOp19
 70
     1
102
RTVSPropertyOp20
 70
     1
102
RTVSPropertyOp21
 70
     1
102
RTVSPropertyOp22
 70
     1
102
RTVSPropertyOp23
 70
     1
102
RTVSPropertyOp24
 70
     1
102
RTVSPropertyOp25
 70
     1
102
RTVSPropertyOp26
 70
     1
102
RTVSPropertyOp27
 70
     1
102
RTVSPropertyOp28
 70
     1
102
RTVSPropertyOp29
 70
     1
102
RTVSPropertyOp30
 70
     1
102
RTVSPropertyOp31
 70
     1
102
RTVSPropertyOp32
 70
     1
102
RTVSPropertyOp33
 70
     1
102
RTVSPropertyOp34
 70
     1
102
RTVSPropertyOp35
 70
     1
102
RTVSPropertyOp36
 70
     1
102
RTVSPropertyOp37
 70
     1
102
RTVSPropertyOp38
 70
     1
102
RTVSPropertyOp39
 70
     1
102
RTVSPropertyOp40
 70
     1
102
RTVSPropertyOp41
 70
     1
102
RTVSPropertyOp42
 70
     1
102
RTVSPropertyOp43
 70
     1
102
RTVSPropertyOp44
 70
     1
102
RTVSPropertyOp45
 70
     1
102
RTVSPropertyOp46
 70
     1
102
RTVSPropertyOp47
 70
     1
102
RTVSPropertyOp48
 70
     1
102
RTVSPropertyOp49
 70
     1
102
RTVSPropertyOp50
 70
     1
102
RTVSPropertyOp51
 70
     0
102
RTVSPropertyOp52
 70
     0
102
RTVSPropertyOp53
 70
     1
102
RTVSPropertyOp54
 70
     1
102
RTVSPropertyOp55
 70
     1
102
RTVSPropertyOp56
 70
     1
102
RTVSPropertyOp57
 70
     1
102
RTVSPropertyOp58
 70
     1
102
RTVSPropertyOp59
 70
     1
102
RTVSPropertyOp60
 70
     1
102
RTVSPropertyOp61
 70
     1
102
RTVSPropertyOp62
 70
     1
  0
XRECORD
  5
BFCC
102
{ACAD_REACTORS
330
BFCB
102
}
330
BFCB
100
AcDbXrecord
280
     1
102
RTVSPost2010Prop28
280
     0
102
RTVSPost2010PropOp28
 70
     0
102
RTVSPost2010Prop29
280
     1
102
RTVSPost2010PropOp29
 70
     0
102
RTVSPost2010Prop30
280
     1
102
RTVSPost2010PropOp30
 70
     0
102
RTVSPost2010Prop31
280
     0
102
RTVSPost2010PropOp31
 70
     0
102
RTVSPost2010Prop32
280
     0
102
RTVSPost2010PropOp32
 70
     0
102
RTVSPost2010Prop33
280
     0
102
RTVSPost2010PropOp33
 70
     1
102
RTVSPost2010Prop34
280
     0
102
RTVSPost2010PropOp34
 70
     1
102
RTVSPost2010Prop35
280
     0
102
RTVSPost2010PropOp35
 70
     1
102
RTVSPost2010Prop36
280
     0
102
RTVSPost2010PropOp36
 70
     1
102
RTVSPost2010Prop37
 90
       50
102
RTVSPost2010PropOp37
 70
     1
102
RTVSPost2010Prop38
140
0.0
102
RTVSPost2010PropOp38
 70
     1
102
RTVSPost2010Prop39
140
1.0
102
RTVSPost2010PropOp39
 70
     1
102
RTVSPost2010Prop40
 90
        0
102
RTVSPost2010PropOp40
 70
     1
102
RTVSPost2010Prop41ColorIndex
 90
       18
102
RTVSPost2010Prop41ColorRGB
 90
        0
102
RTVSPost2010PropOp41
 70
     1
102
RTVSPost2010Prop42
 90
       50
102
RTVSPost2010PropOp42
 70
     1
102
RTVSPost2010Prop43
 90
        3
102
RTVSPost2010PropOp43
 70
     1
102
RTVSPost2010Prop44ColorIndex
 90
        5
102
RTVSPost2010Prop44ColorRGB
 90
      255
102
RTVSPost2010PropOp44
 70
     1
102
RTVSPost2010Prop45
280
     0
102
RTVSPost2010PropOp45
 70
     1
102
RTVSPost2010Prop46
 90
       50
102
RTVSPost2010PropOp46
 70
     1
102
RTVSPost2010Prop47
 90
       50
102
RTVSPost2010PropOp47
 70
     1
102
RTVSPost2010Prop48
 90
       50
102
RTVSPost2010PropOp48
 70
     1
102
RTVSPost2010Prop49
280
     0
102
RTVSPost2010PropOp49
 70
     1
102
RTVSPost2010Prop50
 90
       50
102
RTVSPost2010PropOp50
 70
     1
102
RTVSPost2010Prop51ColorIndex
 90
      256
102
RTVSPost2010Prop51ColorRGB
 90
-16777216
102
RTVSPost2010PropOp51
 70
     0
102
RTVSPost2010Prop52
140
1.0
102
RTVSPost2010PropOp52
 70
     0
102
RTVSPost2010Prop53
 90
        2
102
RTVSPost2010PropOp53
 70
     1
102
RTVSPost2010Prop54
  1
strokes_ogs.tif
102
RTVSPost2010PropOp54
 70
     1
102
RTVSPost2010Prop55
280
     0
102
RTVSPost2010PropOp55
 70
     1
102
RTVSPost2010Prop56
140
1.0
102
RTVSPost2010PropOp56
 70
     1
102
RTVSPost2010Prop57
140
1.0
102
RTVSPost2010PropOp57
 70
     1
102
RTVSPropertyOp0
 70
     0
102
RTVSPropertyOp1
 70
     0
102
RTVSPropertyOp2
 70
     0
102
RTVSPropertyOp3
 70
     0
102
RTVSPropertyOp4
 70
     0
102
RTVSPropertyOp5
 70
     0
102
RTVSPropertyOp6
 70
     0
102
RTVSPropertyOp7
 70
     0
102
RTVSPropertyOp8
 70
     0
102
RTVSPropertyOp9
 70
     0
102
RTVSPropertyOp10
 70
     0
102
RTVSPropertyOp11
 70
     0
102
RTVSPropertyOp12
 70
     0
102
RTVSPropertyOp13
 70
     0
102
RTVSPropertyOp14
 70
     2
102
RTVSPropertyOp15
 70
     0
102
RTVSPropertyOp16
 70
     0
102
RTVSPropertyOp17
 70
     0
102
RTVSPropertyOp18
 70
     0
102
RTVSPropertyOp19
 70
     0
102
RTVSPropertyOp20
 70
     0
102
RTVSPropertyOp21
 70
     0
102
RTVSPropertyOp22
 70
     0
102
RTVSPropertyOp23
 70
     0
102
RTVSPropertyOp24
 70
     0
102
RTVSPropertyOp25
 70
     0
102
RTVSPropertyOp26
 70
     0
102
RTVSPropertyOp27
 70
     0
102
RTVSPropertyOp28
 70
     0
102
RTVSPropertyOp29
 70
     0
102
RTVSPropertyOp30
 70
     0
102
RTVSPropertyOp31
 70
     0
102
RTVSPropertyOp32
 70
     0
102
RTVSPropertyOp33
 70
     1
102
RTVSPropertyOp34
 70
     1
102
RTVSPropertyOp35
 70
     1
102
RTVSPropertyOp36
 70
     1
102
RTVSPropertyOp37
 70
     1
102
RTVSPropertyOp38
 70
     1
102
RTVSPropertyOp39
 70
     1
102
RTVSPropertyOp40
 70
     1
102
RTVSPropertyOp41
 70
     1
102
RTVSPropertyOp42
 70
     1
102
RTVSPropertyOp43
 70
     1
102
RTVSPropertyOp44
 70
     1
102
RTVSPropertyOp45
 70
     1
102
RTVSPropertyOp46
 70
     1
102
RTVSPropertyOp47
 70
     1
102
RTVSPropertyOp48
 70
     1
102
RTVSPropertyOp49
 70
     1
102
RTVSPropertyOp50
 70
     1
102
RTVSPropertyOp51
 70
     0
102
RTVSPropertyOp52
 70
     0
102
RTVSPropertyOp53
 70
     1
102
RTVSPropertyOp54
 70
     1
102
RTVSPropertyOp55
 70
     1
102
RTVSPropertyOp56
 70
     1
102
RTVSPropertyOp57
 70
     1
102
RTVSPropertyOp58
 70
     1
102
RTVSPropertyOp59
 70
     1
102
RTVSPropertyOp60
 70
     1
102
RTVSPropertyOp61
 70
     1
102
RTVSPropertyOp62
 70
     1
  0
XRECORD
  5
BFBA
102
{ACAD_REACTORS
330
BFB9
102
}
330
BFB9
100
AcDbXrecord
280
     1
102
RTVSPost2010Prop28
280
     0
102
RTVSPost2010PropOp28
 70
     1
102
RTVSPost2010Prop29
280
     1
102
RTVSPost2010PropOp29
 70
     1
102
RTVSPost2010Prop30
280
     1
102
RTVSPost2010PropOp30
 70
     1
102
RTVSPost2010Prop31
280
     0
102
RTVSPost2010PropOp31
 70
     1
102
RTVSPost2010Prop32
280
     0
102
RTVSPost2010PropOp32
 70
     1
102
RTVSPost2010Prop33
280
     0
102
RTVSPost2010PropOp33
 70
     1
102
RTVSPost2010Prop34
280
     0
102
RTVSPost2010PropOp34
 70
     1
102
RTVSPost2010Prop35
280
     0
102
RTVSPost2010PropOp35
 70
     1
102
RTVSPost2010Prop36
280
     0
102
RTVSPost2010PropOp36
 70
     1
102
RTVSPost2010Prop37
 90
       50
102
RTVSPost2010PropOp37
 70
     1
102
RTVSPost2010Prop38
140
0.0
102
RTVSPost2010PropOp38
 70
     1
102
RTVSPost2010Prop39
140
1.0
102
RTVSPost2010PropOp39
 70
     1
102
RTVSPost2010Prop40
 90
        0
102
RTVSPost2010PropOp40
 70
     1
102
RTVSPost2010Prop41ColorIndex
 90
       18
102
RTVSPost2010Prop41ColorRGB
 90
        0
102
RTVSPost2010PropOp41
 70
     1
102
RTVSPost2010Prop42
 90
       50
102
RTVSPost2010PropOp42
 70
     1
102
RTVSPost2010Prop43
 90
        3
102
RTVSPost2010PropOp43
 70
     1
102
RTVSPost2010Prop44ColorIndex
 90
        5
102
RTVSPost2010Prop44ColorRGB
 90
      255
102
RTVSPost2010PropOp44
 70
     1
102
RTVSPost2010Prop45
280
     0
102
RTVSPost2010PropOp45
 70
     1
102
RTVSPost2010Prop46
 90
       50
102
RTVSPost2010PropOp46
 70
     1
102
RTVSPost2010Prop47
 90
       50
102
RTVSPost2010PropOp47
 70
     1
102
RTVSPost2010Prop48
 90
       50
102
RTVSPost2010PropOp48
 70
     1
102
RTVSPost2010Prop49
280
     0
102
RTVSPost2010PropOp49
 70
     1
102
RTVSPost2010Prop50
 90
       50
102
RTVSPost2010PropOp50
 70
     1
102
RTVSPost2010Prop51ColorIndex
 90
      256
102
RTVSPost2010Prop51ColorRGB
 90
-16777216
102
RTVSPost2010PropOp51
 70
     0
102
RTVSPost2010Prop52
140
1.0
102
RTVSPost2010PropOp52
 70
     0
102
RTVSPost2010Prop53
 90
        2
102
RTVSPost2010PropOp53
 70
     1
102
RTVSPost2010Prop54
  1
strokes_ogs.tif
102
RTVSPost2010PropOp54
 70
     1
102
RTVSPost2010Prop55
280
     0
102
RTVSPost2010PropOp55
 70
     1
102
RTVSPost2010Prop56
140
1.0
102
RTVSPost2010PropOp56
 70
     1
102
RTVSPost2010Prop57
140
1.0
102
RTVSPost2010PropOp57
 70
     1
102
RTVSPropertyOp0
 70
     1
102
RTVSPropertyOp1
 70
     1
102
RTVSPropertyOp2
 70
     1
102
RTVSPropertyOp3
 70
     1
102
RTVSPropertyOp4
 70
     1
102
RTVSPropertyOp5
 70
     1
102
RTVSPropertyOp6
 70
     1
102
RTVSPropertyOp7
 70
     1
102
RTVSPropertyOp8
 70
     1
102
RTVSPropertyOp9
 70
     1
102
RTVSPropertyOp10
 70
     1
102
RTVSPropertyOp11
 70
     1
102
RTVSPropertyOp12
 70
     1
102
RTVSPropertyOp13
 70
     1
102
RTVSPropertyOp14
 70
     1
102
RTVSPropertyOp15
 70
     1
102
RTVSPropertyOp16
 70
     1
102
RTVSPropertyOp17
 70
     1
102
RTVSPropertyOp18
 70
     1
102
RTVSPropertyOp19
 70
     1
102
RTVSPropertyOp20
 70
     1
102
RTVSPropertyOp21
 70
     1
102
RTVSPropertyOp22
 70
     1
102
RTVSPropertyOp23
 70
     1
102
RTVSPropertyOp24
 70
     1
102
RTVSPropertyOp25
 70
     1
102
RTVSPropertyOp26
 70
     1
102
RTVSPropertyOp27
 70
     1
102
RTVSPropertyOp28
 70
     1
102
RTVSPropertyOp29
 70
     1
102
RTVSPropertyOp30
 70
     1
102
RTVSPropertyOp31
 70
     1
102
RTVSPropertyOp32
 70
     1
102
RTVSPropertyOp33
 70
     1
102
RTVSPropertyOp34
 70
     1
102
RTVSPropertyOp35
 70
     1
102
RTVSPropertyOp36
 70
     1
102
RTVSPropertyOp37
 70
     1
102
RTVSPropertyOp38
 70
     1
102
RTVSPropertyOp39
 70
     1
102
RTVSPropertyOp40
 70
     1
102
RTVSPropertyOp41
 70
     1
102
RTVSPropertyOp42
 70
     1
102
RTVSPropertyOp43
 70
     1
102
RTVSPropertyOp44
 70
     1
102
RTVSPropertyOp45
 70
     1
102
RTVSPropertyOp46
 70
     1
102
RTVSPropertyOp47
 70
     1
102
RTVSPropertyOp48
 70
     1
102
RTVSPropertyOp49
 70
     1
102
RTVSPropertyOp50
 70
     1
102
RTVSPropertyOp51
 70
     0
102
RTVSPropertyOp52
 70
     0
102
RTVSPropertyOp53
 70
     1
102
RTVSPropertyOp54
 70
     1
102
RTVSPropertyOp55
 70
     1
102
RTVSPropertyOp56
 70
     1
102
RTVSPropertyOp57
 70
     1
102
RTVSPropertyOp58
 70
     1
102
RTVSPropertyOp59
 70
     1
102
RTVSPropertyOp60
 70
     1
102
RTVSPropertyOp61
 70
     1
102
RTVSPropertyOp62
 70
     1
  0
XRECORD
  5
BF9E
102
{ACAD_REACTORS
330
BF9D
102
}
330
BF9D
100
AcDbXrecord
280
     1
102
RTVSPost2010Prop28
280
     0
102
RTVSPost2010PropOp28
 70
     1
102
RTVSPost2010Prop29
280
     1
102
RTVSPost2010PropOp29
 70
     1
102
RTVSPost2010Prop30
280
     1
102
RTVSPost2010PropOp30
 70
     1
102
RTVSPost2010Prop31
280
     0
102
RTVSPost2010PropOp31
 70
     1
102
RTVSPost2010Prop32
280
     0
102
RTVSPost2010PropOp32
 70
     1
102
RTVSPost2010Prop33
280
     0
102
RTVSPost2010PropOp33
 70
     1
102
RTVSPost2010Prop34
280
     0
102
RTVSPost2010PropOp34
 70
     1
102
RTVSPost2010Prop35
280
     0
102
RTVSPost2010PropOp35
 70
     1
102
RTVSPost2010Prop36
280
     0
102
RTVSPost2010PropOp36
 70
     1
102
RTVSPost2010Prop37
 90
       50
102
RTVSPost2010PropOp37
 70
     1
102
RTVSPost2010Prop38
140
0.0
102
RTVSPost2010PropOp38
 70
     1
102
RTVSPost2010Prop39
140
1.0
102
RTVSPost2010PropOp39
 70
     1
102
RTVSPost2010Prop40
 90
        0
102
RTVSPost2010PropOp40
 70
     1
102
RTVSPost2010Prop41ColorIndex
 90
       18
102
RTVSPost2010Prop41ColorRGB
 90
        0
102
RTVSPost2010PropOp41
 70
     1
102
RTVSPost2010Prop42
 90
       50
102
RTVSPost2010PropOp42
 70
     1
102
RTVSPost2010Prop43
 90
        3
102
RTVSPost2010PropOp43
 70
     1
102
RTVSPost2010Prop44ColorIndex
 90
        5
102
RTVSPost2010Prop44ColorRGB
 90
      255
102
RTVSPost2010PropOp44
 70
     1
102
RTVSPost2010Prop45
280
     0
102
RTVSPost2010PropOp45
 70
     1
102
RTVSPost2010Prop46
 90
       50
102
RTVSPost2010PropOp46
 70
     1
102
RTVSPost2010Prop47
 90
       50
102
RTVSPost2010PropOp47
 70
     1
102
RTVSPost2010Prop48
 90
       50
102
RTVSPost2010PropOp48
 70
     1
102
RTVSPost2010Prop49
280
     0
102
RTVSPost2010PropOp49
 70
     1
102
RTVSPost2010Prop50
 90
       50
102
RTVSPost2010PropOp50
 70
     1
102
RTVSPost2010Prop51ColorIndex
 90
      256
102
RTVSPost2010Prop51ColorRGB
 90
-16777216
102
RTVSPost2010PropOp51
 70
     0
102
RTVSPost2010Prop52
140
1.0
102
RTVSPost2010PropOp52
 70
     0
102
RTVSPost2010Prop53
 90
        2
102
RTVSPost2010PropOp53
 70
     1
102
RTVSPost2010Prop54
  1
strokes_ogs.tif
102
RTVSPost2010PropOp54
 70
     1
102
RTVSPost2010Prop55
280
     0
102
RTVSPost2010PropOp55
 70
     1
102
RTVSPost2010Prop56
140
1.0
102
RTVSPost2010PropOp56
 70
     1
102
RTVSPost2010Prop57
140
1.0
102
RTVSPost2010PropOp57
 70
     1
102
RTVSPropertyOp0
 70
     1
102
RTVSPropertyOp1
 70
     1
102
RTVSPropertyOp2
 70
     1
102
RTVSPropertyOp3
 70
     1
102
RTVSPropertyOp4
 70
     1
102
RTVSPropertyOp5
 70
     1
102
RTVSPropertyOp6
 70
     1
102
RTVSPropertyOp7
 70
     1
102
RTVSPropertyOp8
 70
     1
102
RTVSPropertyOp9
 70
     1
102
RTVSPropertyOp10
 70
     1
102
RTVSPropertyOp11
 70
     1
102
RTVSPropertyOp12
 70
     1
102
RTVSPropertyOp13
 70
     1
102
RTVSPropertyOp14
 70
     1
102
RTVSPropertyOp15
 70
     1
102
RTVSPropertyOp16
 70
     1
102
RTVSPropertyOp17
 70
     1
102
RTVSPropertyOp18
 70
     1
102
RTVSPropertyOp19
 70
     1
102
RTVSPropertyOp20
 70
     1
102
RTVSPropertyOp21
 70
     1
102
RTVSPropertyOp22
 70
     1
102
RTVSPropertyOp23
 70
     1
102
RTVSPropertyOp24
 70
     1
102
RTVSPropertyOp25
 70
     1
102
RTVSPropertyOp26
 70
     1
102
RTVSPropertyOp27
 70
     1
102
RTVSPropertyOp28
 70
     1
102
RTVSPropertyOp29
 70
     1
102
RTVSPropertyOp30
 70
     1
102
RTVSPropertyOp31
 70
     1
102
RTVSPropertyOp32
 70
     1
102
RTVSPropertyOp33
 70
     1
102
RTVSPropertyOp34
 70
     1
102
RTVSPropertyOp35
 70
     1
102
RTVSPropertyOp36
 70
     1
102
RTVSPropertyOp37
 70
     1
102
RTVSPropertyOp38
 70
     1
102
RTVSPropertyOp39
 70
     1
102
RTVSPropertyOp40
 70
     1
102
RTVSPropertyOp41
 70
     1
102
RTVSPropertyOp42
 70
     1
102
RTVSPropertyOp43
 70
     1
102
RTVSPropertyOp44
 70
     1
102
RTVSPropertyOp45
 70
     1
102
RTVSPropertyOp46
 70
     1
102
RTVSPropertyOp47
 70
     1
102
RTVSPropertyOp48
 70
     1
102
RTVSPropertyOp49
 70
     1
102
RTVSPropertyOp50
 70
     1
102
RTVSPropertyOp51
 70
     0
102
RTVSPropertyOp52
 70
     0
102
RTVSPropertyOp53
 70
     1
102
RTVSPropertyOp54
 70
     1
102
RTVSPropertyOp55
 70
     1
102
RTVSPropertyOp56
 70
     1
102
RTVSPropertyOp57
 70
     1
102
RTVSPropertyOp58
 70
     1
102
RTVSPropertyOp59
 70
     1
102
RTVSPropertyOp60
 70
     1
102
RTVSPropertyOp61
 70
     1
102
RTVSPropertyOp62
 70
     1
  0
XRECORD
  5
BFA0
102
{ACAD_REACTORS
330
BF9F
102
}
330
BF9F
100
AcDbXrecord
280
     1
102
RTVSPost2010Prop28
280
     0
102
RTVSPost2010PropOp28
 70
     1
102
RTVSPost2010Prop29
280
     1
102
RTVSPost2010PropOp29
 70
     1
102
RTVSPost2010Prop30
280
     1
102
RTVSPost2010PropOp30
 70
     1
102
RTVSPost2010Prop31
280
     0
102
RTVSPost2010PropOp31
 70
     1
102
RTVSPost2010Prop32
280
     0
102
RTVSPost2010PropOp32
 70
     1
102
RTVSPost2010Prop33
280
     0
102
RTVSPost2010PropOp33
 70
     1
102
RTVSPost2010Prop34
280
     0
102
RTVSPost2010PropOp34
 70
     1
102
RTVSPost2010Prop35
280
     0
102
RTVSPost2010PropOp35
 70
     1
102
RTVSPost2010Prop36
280
     0
102
RTVSPost2010PropOp36
 70
     1
102
RTVSPost2010Prop37
 90
       50
102
RTVSPost2010PropOp37
 70
     1
102
RTVSPost2010Prop38
140
0.0
102
RTVSPost2010PropOp38
 70
     1
102
RTVSPost2010Prop39
140
1.0
102
RTVSPost2010PropOp39
 70
     1
102
RTVSPost2010Prop40
 90
        0
102
RTVSPost2010PropOp40
 70
     1
102
RTVSPost2010Prop41ColorIndex
 90
       18
102
RTVSPost2010Prop41ColorRGB
 90
        0
102
RTVSPost2010PropOp41
 70
     1
102
RTVSPost2010Prop42
 90
       50
102
RTVSPost2010PropOp42
 70
     1
102
RTVSPost2010Prop43
 90
        3
102
RTVSPost2010PropOp43
 70
     1
102
RTVSPost2010Prop44ColorIndex
 90
        5
102
RTVSPost2010Prop44ColorRGB
 90
      255
102
RTVSPost2010PropOp44
 70
     1
102
RTVSPost2010Prop45
280
     0
102
RTVSPost2010PropOp45
 70
     1
102
RTVSPost2010Prop46
 90
       50
102
RTVSPost2010PropOp46
 70
     1
102
RTVSPost2010Prop47
 90
       50
102
RTVSPost2010PropOp47
 70
     1
102
RTVSPost2010Prop48
 90
       50
102
RTVSPost2010PropOp48
 70
     1
102
RTVSPost2010Prop49
280
     0
102
RTVSPost2010PropOp49
 70
     1
102
RTVSPost2010Prop50
 90
       50
102
RTVSPost2010PropOp50
 70
     1
102
RTVSPost2010Prop51ColorIndex
 90
      256
102
RTVSPost2010Prop51ColorRGB
 90
-16777216
102
RTVSPost2010PropOp51
 70
     0
102
RTVSPost2010Prop52
140
1.0
102
RTVSPost2010PropOp52
 70
     0
102
RTVSPost2010Prop53
 90
        2
102
RTVSPost2010PropOp53
 70
     1
102
RTVSPost2010Prop54
  1
strokes_ogs.tif
102
RTVSPost2010PropOp54
 70
     1
102
RTVSPost2010Prop55
280
     0
102
RTVSPost2010PropOp55
 70
     1
102
RTVSPost2010Prop56
140
1.0
102
RTVSPost2010PropOp56
 70
     1
102
RTVSPost2010Prop57
140
1.0
102
RTVSPost2010PropOp57
 70
     1
102
RTVSPropertyOp0
 70
     1
102
RTVSPropertyOp1
 70
     1
102
RTVSPropertyOp2
 70
     1
102
RTVSPropertyOp3
 70
     1
102
RTVSPropertyOp4
 70
     1
102
RTVSPropertyOp5
 70
     1
102
RTVSPropertyOp6
 70
     1
102
RTVSPropertyOp7
 70
     1
102
RTVSPropertyOp8
 70
     1
102
RTVSPropertyOp9
 70
     1
102
RTVSPropertyOp10
 70
     1
102
RTVSPropertyOp11
 70
     1
102
RTVSPropertyOp12
 70
     1
102
RTVSPropertyOp13
 70
     1
102
RTVSPropertyOp14
 70
     1
102
RTVSPropertyOp15
 70
     1
102
RTVSPropertyOp16
 70
     1
102
RTVSPropertyOp17
 70
     1
102
RTVSPropertyOp18
 70
     1
102
RTVSPropertyOp19
 70
     1
102
RTVSPropertyOp20
 70
     1
102
RTVSPropertyOp21
 70
     1
102
RTVSPropertyOp22
 70
     1
102
RTVSPropertyOp23
 70
     1
102
RTVSPropertyOp24
 70
     1
102
RTVSPropertyOp25
 70
     1
102
RTVSPropertyOp26
 70
     1
102
RTVSPropertyOp27
 70
     1
102
RTVSPropertyOp28
 70
     1
102
RTVSPropertyOp29
 70
     1
102
RTVSPropertyOp30
 70
     1
102
RTVSPropertyOp31
 70
     1
102
RTVSPropertyOp32
 70
     1
102
RTVSPropertyOp33
 70
     1
102
RTVSPropertyOp34
 70
     1
102
RTVSPropertyOp35
 70
     1
102
RTVSPropertyOp36
 70
     1
102
RTVSPropertyOp37
 70
     1
102
RTVSPropertyOp38
 70
     1
102
RTVSPropertyOp39
 70
     1
102
RTVSPropertyOp40
 70
     1
102
RTVSPropertyOp41
 70
     1
102
RTVSPropertyOp42
 70
     1
102
RTVSPropertyOp43
 70
     1
102
RTVSPropertyOp44
 70
     1
102
RTVSPropertyOp45
 70
     1
102
RTVSPropertyOp46
 70
     1
102
RTVSPropertyOp47
 70
     1
102
RTVSPropertyOp48
 70
     1
102
RTVSPropertyOp49
 70
     1
102
RTVSPropertyOp50
 70
     1
102
RTVSPropertyOp51
 70
     0
102
RTVSPropertyOp52
 70
     0
102
RTVSPropertyOp53
 70
     1
102
RTVSPropertyOp54
 70
     1
102
RTVSPropertyOp55
 70
     1
102
RTVSPropertyOp56
 70
     1
102
RTVSPropertyOp57
 70
     1
102
RTVSPropertyOp58
 70
     1
102
RTVSPropertyOp59
 70
     1
102
RTVSPropertyOp60
 70
     1
102
RTVSPropertyOp61
 70
     1
102
RTVSPropertyOp62
 70
     1
  0
XRECORD
  5
BFA2
102
{ACAD_REACTORS
330
BFA1
102
}
330
BFA1
100
AcDbXrecord
280
     1
102
RTVSPost2010Prop28
280
     0
102
RTVSPost2010PropOp28
 70
     1
102
RTVSPost2010Prop29
280
     1
102
RTVSPost2010PropOp29
 70
     1
102
RTVSPost2010Prop30
280
     1
102
RTVSPost2010PropOp30
 70
     1
102
RTVSPost2010Prop31
280
     0
102
RTVSPost2010PropOp31
 70
     1
102
RTVSPost2010Prop32
280
     0
102
RTVSPost2010PropOp32
 70
     1
102
RTVSPost2010Prop33
280
     0
102
RTVSPost2010PropOp33
 70
     1
102
RTVSPost2010Prop34
280
     0
102
RTVSPost2010PropOp34
 70
     1
102
RTVSPost2010Prop35
280
     0
102
RTVSPost2010PropOp35
 70
     1
102
RTVSPost2010Prop36
280
     0
102
RTVSPost2010PropOp36
 70
     1
102
RTVSPost2010Prop37
 90
       50
102
RTVSPost2010PropOp37
 70
     1
102
RTVSPost2010Prop38
140
0.0
102
RTVSPost2010PropOp38
 70
     1
102
RTVSPost2010Prop39
140
1.0
102
RTVSPost2010PropOp39
 70
     1
102
RTVSPost2010Prop40
 90
        0
102
RTVSPost2010PropOp40
 70
     1
102
RTVSPost2010Prop41ColorIndex
 90
       18
102
RTVSPost2010Prop41ColorRGB
 90
        0
102
RTVSPost2010PropOp41
 70
     1
102
RTVSPost2010Prop42
 90
       50
102
RTVSPost2010PropOp42
 70
     1
102
RTVSPost2010Prop43
 90
        3
102
RTVSPost2010PropOp43
 70
     1
102
RTVSPost2010Prop44ColorIndex
 90
        5
102
RTVSPost2010Prop44ColorRGB
 90
      255
102
RTVSPost2010PropOp44
 70
     1
102
RTVSPost2010Prop45
280
     0
102
RTVSPost2010PropOp45
 70
     1
102
RTVSPost2010Prop46
 90
       50
102
RTVSPost2010PropOp46
 70
     1
102
RTVSPost2010Prop47
 90
       50
102
RTVSPost2010PropOp47
 70
     1
102
RTVSPost2010Prop48
 90
       50
102
RTVSPost2010PropOp48
 70
     1
102
RTVSPost2010Prop49
280
     0
102
RTVSPost2010PropOp49
 70
     1
102
RTVSPost2010Prop50
 90
       50
102
RTVSPost2010PropOp50
 70
     1
102
RTVSPost2010Prop51ColorIndex
 90
      256
102
RTVSPost2010Prop51ColorRGB
 90
-16777216
102
RTVSPost2010PropOp51
 70
     0
102
RTVSPost2010Prop52
140
1.0
102
RTVSPost2010PropOp52
 70
     0
102
RTVSPost2010Prop53
 90
        2
102
RTVSPost2010PropOp53
 70
     1
102
RTVSPost2010Prop54
  1
strokes_ogs.tif
102
RTVSPost2010PropOp54
 70
     1
102
RTVSPost2010Prop55
280
     0
102
RTVSPost2010PropOp55
 70
     1
102
RTVSPost2010Prop56
140
1.0
102
RTVSPost2010PropOp56
 70
     1
102
RTVSPost2010Prop57
140
1.0
102
RTVSPost2010PropOp57
 70
     1
102
RTVSPropertyOp0
 70
     1
102
RTVSPropertyOp1
 70
     1
102
RTVSPropertyOp2
 70
     1
102
RTVSPropertyOp3
 70
     1
102
RTVSPropertyOp4
 70
     1
102
RTVSPropertyOp5
 70
     1
102
RTVSPropertyOp6
 70
     1
102
RTVSPropertyOp7
 70
     1
102
RTVSPropertyOp8
 70
     1
102
RTVSPropertyOp9
 70
     1
102
RTVSPropertyOp10
 70
     1
102
RTVSPropertyOp11
 70
     1
102
RTVSPropertyOp12
 70
     1
102
RTVSPropertyOp13
 70
     1
102
RTVSPropertyOp14
 70
     1
102
RTVSPropertyOp15
 70
     1
102
RTVSPropertyOp16
 70
     1
102
RTVSPropertyOp17
 70
     1
102
RTVSPropertyOp18
 70
     1
102
RTVSPropertyOp19
 70
     1
102
RTVSPropertyOp20
 70
     1
102
RTVSPropertyOp21
 70
     1
102
RTVSPropertyOp22
 70
     1
102
RTVSPropertyOp23
 70
     1
102
RTVSPropertyOp24
 70
     1
102
RTVSPropertyOp25
 70
     1
102
RTVSPropertyOp26
 70
     1
102
RTVSPropertyOp27
 70
     1
102
RTVSPropertyOp28
 70
     1
102
RTVSPropertyOp29
 70
     1
102
RTVSPropertyOp30
 70
     1
102
RTVSPropertyOp31
 70
     1
102
RTVSPropertyOp32
 70
     1
102
RTVSPropertyOp33
 70
     1
102
RTVSPropertyOp34
 70
     1
102
RTVSPropertyOp35
 70
     1
102
RTVSPropertyOp36
 70
     1
102
RTVSPropertyOp37
 70
     1
102
RTVSPropertyOp38
 70
     1
102
RTVSPropertyOp39
 70
     1
102
RTVSPropertyOp40
 70
     1
102
RTVSPropertyOp41
 70
     1
102
RTVSPropertyOp42
 70
     1
102
RTVSPropertyOp43
 70
     1
102
RTVSPropertyOp44
 70
     1
102
RTVSPropertyOp45
 70
     1
102
RTVSPropertyOp46
 70
     1
102
RTVSPropertyOp47
 70
     1
102
RTVSPropertyOp48
 70
     1
102
RTVSPropertyOp49
 70
     1
102
RTVSPropertyOp50
 70
     1
102
RTVSPropertyOp51
 70
     0
102
RTVSPropertyOp52
 70
     0
102
RTVSPropertyOp53
 70
     1
102
RTVSPropertyOp54
 70
     1
102
RTVSPropertyOp55
 70
     1
102
RTVSPropertyOp56
 70
     1
102
RTVSPropertyOp57
 70
     1
102
RTVSPropertyOp58
 70
     1
102
RTVSPropertyOp59
 70
     1
102
RTVSPropertyOp60
 70
     1
102
RTVSPropertyOp61
 70
     1
102
RTVSPropertyOp62
 70
     1
  0
XRECORD
  5
BFA4
102
{ACAD_REACTORS
330
BFA3
102
}
330
BFA3
100
AcDbXrecord
280
     1
102
RTVSPost2010Prop28
280
     0
102
RTVSPost2010PropOp28
 70
     1
102
RTVSPost2010Prop29
280
     1
102
RTVSPost2010PropOp29
 70
     1
102
RTVSPost2010Prop30
280
     1
102
RTVSPost2010PropOp30
 70
     1
102
RTVSPost2010Prop31
280
     0
102
RTVSPost2010PropOp31
 70
     1
102
RTVSPost2010Prop32
280
     0
102
RTVSPost2010PropOp32
 70
     1
102
RTVSPost2010Prop33
280
     0
102
RTVSPost2010PropOp33
 70
     1
102
RTVSPost2010Prop34
280
     0
102
RTVSPost2010PropOp34
 70
     1
102
RTVSPost2010Prop35
280
     0
102
RTVSPost2010PropOp35
 70
     1
102
RTVSPost2010Prop36
280
     0
102
RTVSPost2010PropOp36
 70
     1
102
RTVSPost2010Prop37
 90
       50
102
RTVSPost2010PropOp37
 70
     1
102
RTVSPost2010Prop38
140
0.0
102
RTVSPost2010PropOp38
 70
     1
102
RTVSPost2010Prop39
140
1.0
102
RTVSPost2010PropOp39
 70
     1
102
RTVSPost2010Prop40
 90
        0
102
RTVSPost2010PropOp40
 70
     1
102
RTVSPost2010Prop41ColorIndex
 90
       18
102
RTVSPost2010Prop41ColorRGB
 90
        0
102
RTVSPost2010PropOp41
 70
     1
102
RTVSPost2010Prop42
 90
       50
102
RTVSPost2010PropOp42
 70
     1
102
RTVSPost2010Prop43
 90
        3
102
RTVSPost2010PropOp43
 70
     1
102
RTVSPost2010Prop44ColorIndex
 90
        5
102
RTVSPost2010Prop44ColorRGB
 90
      255
102
RTVSPost2010PropOp44
 70
     1
102
RTVSPost2010Prop45
280
     0
102
RTVSPost2010PropOp45
 70
     1
102
RTVSPost2010Prop46
 90
       50
102
RTVSPost2010PropOp46
 70
     1
102
RTVSPost2010Prop47
 90
       50
102
RTVSPost2010PropOp47
 70
     1
102
RTVSPost2010Prop48
 90
       50
102
RTVSPost2010PropOp48
 70
     1
102
RTVSPost2010Prop49
280
     0
102
RTVSPost2010PropOp49
 70
     1
102
RTVSPost2010Prop50
 90
       50
102
RTVSPost2010PropOp50
 70
     1
102
RTVSPost2010Prop51ColorIndex
 90
      256
102
RTVSPost2010Prop51ColorRGB
 90
-16777216
102
RTVSPost2010PropOp51
 70
     0
102
RTVSPost2010Prop52
140
1.0
102
RTVSPost2010PropOp52
 70
     0
102
RTVSPost2010Prop53
 90
        2
102
RTVSPost2010PropOp53
 70
     1
102
RTVSPost2010Prop54
  1
strokes_ogs.tif
102
RTVSPost2010PropOp54
 70
     1
102
RTVSPost2010Prop55
280
     0
102
RTVSPost2010PropOp55
 70
     1
102
RTVSPost2010Prop56
140
1.0
102
RTVSPost2010PropOp56
 70
     1
102
RTVSPost2010Prop57
140
1.0
102
RTVSPost2010PropOp57
 70
     1
102
RTVSPropertyOp0
 70
     1
102
RTVSPropertyOp1
 70
     1
102
RTVSPropertyOp2
 70
     1
102
RTVSPropertyOp3
 70
     1
102
RTVSPropertyOp4
 70
     1
102
RTVSPropertyOp5
 70
     1
102
RTVSPropertyOp6
 70
     1
102
RTVSPropertyOp7
 70
     1
102
RTVSPropertyOp8
 70
     1
102
RTVSPropertyOp9
 70
     1
102
RTVSPropertyOp10
 70
     1
102
RTVSPropertyOp11
 70
     1
102
RTVSPropertyOp12
 70
     1
102
RTVSPropertyOp13
 70
     1
102
RTVSPropertyOp14
 70
     1
102
RTVSPropertyOp15
 70
     1
102
RTVSPropertyOp16
 70
     1
102
RTVSPropertyOp17
 70
     1
102
RTVSPropertyOp18
 70
     1
102
RTVSPropertyOp19
 70
     1
102
RTVSPropertyOp20
 70
     1
102
RTVSPropertyOp21
 70
     1
102
RTVSPropertyOp22
 70
     1
102
RTVSPropertyOp23
 70
     1
102
RTVSPropertyOp24
 70
     1
102
RTVSPropertyOp25
 70
     1
102
RTVSPropertyOp26
 70
     1
102
RTVSPropertyOp27
 70
     1
102
RTVSPropertyOp28
 70
     1
102
RTVSPropertyOp29
 70
     1
102
RTVSPropertyOp30
 70
     1
102
RTVSPropertyOp31
 70
     1
102
RTVSPropertyOp32
 70
     1
102
RTVSPropertyOp33
 70
     1
102
RTVSPropertyOp34
 70
     1
102
RTVSPropertyOp35
 70
     1
102
RTVSPropertyOp36
 70
     1
102
RTVSPropertyOp37
 70
     1
102
RTVSPropertyOp38
 70
     1
102
RTVSPropertyOp39
 70
     1
102
RTVSPropertyOp40
 70
     1
102
RTVSPropertyOp41
 70
     1
102
RTVSPropertyOp42
 70
     1
102
RTVSPropertyOp43
 70
     1
102
RTVSPropertyOp44
 70
     1
102
RTVSPropertyOp45
 70
     1
102
RTVSPropertyOp46
 70
     1
102
RTVSPropertyOp47
 70
     1
102
RTVSPropertyOp48
 70
     1
102
RTVSPropertyOp49
 70
     1
102
RTVSPropertyOp50
 70
     1
102
RTVSPropertyOp51
 70
     0
102
RTVSPropertyOp52
 70
     0
102
RTVSPropertyOp53
 70
     1
102
RTVSPropertyOp54
 70
     1
102
RTVSPropertyOp55
 70
     1
102
RTVSPropertyOp56
 70
     1
102
RTVSPropertyOp57
 70
     1
102
RTVSPropertyOp58
 70
     1
102
RTVSPropertyOp59
 70
     1
102
RTVSPropertyOp60
 70
     1
102
RTVSPropertyOp61
 70
     1
102
RTVSPropertyOp62
 70
     1
  0
XRECORD
  5
BFAC
102
{ACAD_REACTORS
330
BFAB
102
}
330
BFAB
100
AcDbXrecord
280
     1
102
RTVSPost2010Prop28
280
     0
102
RTVSPost2010PropOp28
 70
     1
102
RTVSPost2010Prop29
280
     1
102
RTVSPost2010PropOp29
 70
     1
102
RTVSPost2010Prop30
280
     1
102
RTVSPost2010PropOp30
 70
     1
102
RTVSPost2010Prop31
280
     0
102
RTVSPost2010PropOp31
 70
     1
102
RTVSPost2010Prop32
280
     0
102
RTVSPost2010PropOp32
 70
     1
102
RTVSPost2010Prop33
280
     0
102
RTVSPost2010PropOp33
 70
     1
102
RTVSPost2010Prop34
280
     0
102
RTVSPost2010PropOp34
 70
     1
102
RTVSPost2010Prop35
280
     0
102
RTVSPost2010PropOp35
 70
     1
102
RTVSPost2010Prop36
280
     0
102
RTVSPost2010PropOp36
 70
     1
102
RTVSPost2010Prop37
 90
       50
102
RTVSPost2010PropOp37
 70
     1
102
RTVSPost2010Prop38
140
0.0
102
RTVSPost2010PropOp38
 70
     1
102
RTVSPost2010Prop39
140
1.0
102
RTVSPost2010PropOp39
 70
     1
102
RTVSPost2010Prop40
 90
        0
102
RTVSPost2010PropOp40
 70
     1
102
RTVSPost2010Prop41ColorIndex
 90
       18
102
RTVSPost2010Prop41ColorRGB
 90
        0
102
RTVSPost2010PropOp41
 70
     1
102
RTVSPost2010Prop42
 90
       50
102
RTVSPost2010PropOp42
 70
     1
102
RTVSPost2010Prop43
 90
        3
102
RTVSPost2010PropOp43
 70
     1
102
RTVSPost2010Prop44ColorIndex
 90
        5
102
RTVSPost2010Prop44ColorRGB
 90
      255
102
RTVSPost2010PropOp44
 70
     1
102
RTVSPost2010Prop45
280
     0
102
RTVSPost2010PropOp45
 70
     1
102
RTVSPost2010Prop46
 90
       50
102
RTVSPost2010PropOp46
 70
     1
102
RTVSPost2010Prop47
 90
       50
102
RTVSPost2010PropOp47
 70
     1
102
RTVSPost2010Prop48
 90
       50
102
RTVSPost2010PropOp48
 70
     1
102
RTVSPost2010Prop49
280
     0
102
RTVSPost2010PropOp49
 70
     1
102
RTVSPost2010Prop50
 90
       50
102
RTVSPost2010PropOp50
 70
     1
102
RTVSPost2010Prop51ColorIndex
 90
      256
102
RTVSPost2010Prop51ColorRGB
 90
-16777216
102
RTVSPost2010PropOp51
 70
     0
102
RTVSPost2010Prop52
140
1.0
102
RTVSPost2010PropOp52
 70
     0
102
RTVSPost2010Prop53
 90
        2
102
RTVSPost2010PropOp53
 70
     1
102
RTVSPost2010Prop54
  1
strokes_ogs.tif
102
RTVSPost2010PropOp54
 70
     1
102
RTVSPost2010Prop55
280
     0
102
RTVSPost2010PropOp55
 70
     1
102
RTVSPost2010Prop56
140
1.0
102
RTVSPost2010PropOp56
 70
     1
102
RTVSPost2010Prop57
140
1.0
102
RTVSPost2010PropOp57
 70
     1
102
RTVSPropertyOp0
 70
     1
102
RTVSPropertyOp1
 70
     1
102
RTVSPropertyOp2
 70
     1
102
RTVSPropertyOp3
 70
     1
102
RTVSPropertyOp4
 70
     1
102
RTVSPropertyOp5
 70
     1
102
RTVSPropertyOp6
 70
     1
102
RTVSPropertyOp7
 70
     1
102
RTVSPropertyOp8
 70
     1
102
RTVSPropertyOp9
 70
     1
102
RTVSPropertyOp10
 70
     1
102
RTVSPropertyOp11
 70
     1
102
RTVSPropertyOp12
 70
     1
102
RTVSPropertyOp13
 70
     1
102
RTVSPropertyOp14
 70
     1
102
RTVSPropertyOp15
 70
     1
102
RTVSPropertyOp16
 70
     1
102
RTVSPropertyOp17
 70
     1
102
RTVSPropertyOp18
 70
     1
102
RTVSPropertyOp19
 70
     1
102
RTVSPropertyOp20
 70
     1
102
RTVSPropertyOp21
 70
     1
102
RTVSPropertyOp22
 70
     1
102
RTVSPropertyOp23
 70
     1
102
RTVSPropertyOp24
 70
     1
102
RTVSPropertyOp25
 70
     1
102
RTVSPropertyOp26
 70
     1
102
RTVSPropertyOp27
 70
     1
102
RTVSPropertyOp28
 70
     1
102
RTVSPropertyOp29
 70
     1
102
RTVSPropertyOp30
 70
     1
102
RTVSPropertyOp31
 70
     1
102
RTVSPropertyOp32
 70
     1
102
RTVSPropertyOp33
 70
     1
102
RTVSPropertyOp34
 70
     1
102
RTVSPropertyOp35
 70
     1
102
RTVSPropertyOp36
 70
     1
102
RTVSPropertyOp37
 70
     1
102
RTVSPropertyOp38
 70
     1
102
RTVSPropertyOp39
 70
     1
102
RTVSPropertyOp40
 70
     1
102
RTVSPropertyOp41
 70
     1
102
RTVSPropertyOp42
 70
     1
102
RTVSPropertyOp43
 70
     1
102
RTVSPropertyOp44
 70
     1
102
RTVSPropertyOp45
 70
     1
102
RTVSPropertyOp46
 70
     1
102
RTVSPropertyOp47
 70
     1
102
RTVSPropertyOp48
 70
     1
102
RTVSPropertyOp49
 70
     1
102
RTVSPropertyOp50
 70
     1
102
RTVSPropertyOp51
 70
     0
102
RTVSPropertyOp52
 70
     0
102
RTVSPropertyOp53
 70
     1
102
RTVSPropertyOp54
 70
     1
102
RTVSPropertyOp55
 70
     1
102
RTVSPropertyOp56
 70
     1
102
RTVSPropertyOp57
 70
     1
102
RTVSPropertyOp58
 70
     1
102
RTVSPropertyOp59
 70
     1
102
RTVSPropertyOp60
 70
     1
102
RTVSPropertyOp61
 70
     1
102
RTVSPropertyOp62
 70
     1
  0
XRECORD
  5
BFC8
102
{ACAD_REACTORS
330
BFC7
102
}
330
BFC7
100
AcDbXrecord
280
     1
102
RTVSPost2010Prop28
280
     0
102
RTVSPost2010PropOp28
 70
     0
102
RTVSPost2010Prop29
280
     1
102
RTVSPost2010PropOp29
 70
     0
102
RTVSPost2010Prop30
280
     1
102
RTVSPost2010PropOp30
 70
     0
102
RTVSPost2010Prop31
280
     0
102
RTVSPost2010PropOp31
 70
     0
102
RTVSPost2010Prop32
280
     0
102
RTVSPost2010PropOp32
 70
     0
102
RTVSPost2010Prop33
280
     0
102
RTVSPost2010PropOp33
 70
     1
102
RTVSPost2010Prop34
280
     0
102
RTVSPost2010PropOp34
 70
     1
102
RTVSPost2010Prop35
280
     0
102
RTVSPost2010PropOp35
 70
     1
102
RTVSPost2010Prop36
280
     0
102
RTVSPost2010PropOp36
 70
     1
102
RTVSPost2010Prop37
 90
       50
102
RTVSPost2010PropOp37
 70
     1
102
RTVSPost2010Prop38
140
0.0
102
RTVSPost2010PropOp38
 70
     1
102
RTVSPost2010Prop39
140
1.0
102
RTVSPost2010PropOp39
 70
     1
102
RTVSPost2010Prop40
 90
        0
102
RTVSPost2010PropOp40
 70
     1
102
RTVSPost2010Prop41ColorIndex
 90
       18
102
RTVSPost2010Prop41ColorRGB
 90
        0
102
RTVSPost2010PropOp41
 70
     1
102
RTVSPost2010Prop42
 90
       50
102
RTVSPost2010PropOp42
 70
     1
102
RTVSPost2010Prop43
 90
        3
102
RTVSPost2010PropOp43
 70
     1
102
RTVSPost2010Prop44ColorIndex
 90
        5
102
RTVSPost2010Prop44ColorRGB
 90
      255
102
RTVSPost2010PropOp44
 70
     1
102
RTVSPost2010Prop45
280
     0
102
RTVSPost2010PropOp45
 70
     1
102
RTVSPost2010Prop46
 90
       50
102
RTVSPost2010PropOp46
 70
     1
102
RTVSPost2010Prop47
 90
       50
102
RTVSPost2010PropOp47
 70
     1
102
RTVSPost2010Prop48
 90
       50
102
RTVSPost2010PropOp48
 70
     1
102
RTVSPost2010Prop49
280
     0
102
RTVSPost2010PropOp49
 70
     1
102
RTVSPost2010Prop50
 90
       50
102
RTVSPost2010PropOp50
 70
     1
102
RTVSPost2010Prop51ColorIndex
 90
      256
102
RTVSPost2010Prop51ColorRGB
 90
-16777216
102
RTVSPost2010PropOp51
 70
     0
102
RTVSPost2010Prop52
140
1.0
102
RTVSPost2010PropOp52
 70
     0
102
RTVSPost2010Prop53
 90
        2
102
RTVSPost2010PropOp53
 70
     1
102
RTVSPost2010Prop54
  1
strokes_ogs.tif
102
RTVSPost2010PropOp54
 70
     1
102
RTVSPost2010Prop55
280
     0
102
RTVSPost2010PropOp55
 70
     1
102
RTVSPost2010Prop56
140
1.0
102
RTVSPost2010PropOp56
 70
     1
102
RTVSPost2010Prop57
140
1.0
102
RTVSPost2010PropOp57
 70
     1
102
RTVSPropertyOp0
 70
     0
102
RTVSPropertyOp1
 70
     0
102
RTVSPropertyOp2
 70
     0
102
RTVSPropertyOp3
 70
     0
102
RTVSPropertyOp4
 70
     0
102
RTVSPropertyOp5
 70
     0
102
RTVSPropertyOp6
 70
     0
102
RTVSPropertyOp7
 70
     0
102
RTVSPropertyOp8
 70
     0
102
RTVSPropertyOp9
 70
     0
102
RTVSPropertyOp10
 70
     0
102
RTVSPropertyOp11
 70
     0
102
RTVSPropertyOp12
 70
     0
102
RTVSPropertyOp13
 70
     0
102
RTVSPropertyOp14
 70
     2
102
RTVSPropertyOp15
 70
     0
102
RTVSPropertyOp16
 70
     0
102
RTVSPropertyOp17
 70
     0
102
RTVSPropertyOp18
 70
     0
102
RTVSPropertyOp19
 70
     0
102
RTVSPropertyOp20
 70
     0
102
RTVSPropertyOp21
 70
     0
102
RTVSPropertyOp22
 70
     0
102
RTVSPropertyOp23
 70
     0
102
RTVSPropertyOp24
 70
     0
102
RTVSPropertyOp25
 70
     0
102
RTVSPropertyOp26
 70
     0
102
RTVSPropertyOp27
 70
     0
102
RTVSPropertyOp28
 70
     0
102
RTVSPropertyOp29
 70
     0
102
RTVSPropertyOp30
 70
     0
102
RTVSPropertyOp31
 70
     0
102
RTVSPropertyOp32
 70
     0
102
RTVSPropertyOp33
 70
     1
102
RTVSPropertyOp34
 70
     1
102
RTVSPropertyOp35
 70
     1
102
RTVSPropertyOp36
 70
     1
102
RTVSPropertyOp37
 70
     1
102
RTVSPropertyOp38
 70
     1
102
RTVSPropertyOp39
 70
     1
102
RTVSPropertyOp40
 70
     1
102
RTVSPropertyOp41
 70
     1
102
RTVSPropertyOp42
 70
     1
102
RTVSPropertyOp43
 70
     1
102
RTVSPropertyOp44
 70
     1
102
RTVSPropertyOp45
 70
     1
102
RTVSPropertyOp46
 70
     1
102
RTVSPropertyOp47
 70
     1
102
RTVSPropertyOp48
 70
     1
102
RTVSPropertyOp49
 70
     1
102
RTVSPropertyOp50
 70
     1
102
RTVSPropertyOp51
 70
     0
102
RTVSPropertyOp52
 70
     0
102
RTVSPropertyOp53
 70
     1
102
RTVSPropertyOp54
 70
     1
102
RTVSPropertyOp55
 70
     1
102
RTVSPropertyOp56
 70
     1
102
RTVSPropertyOp57
 70
     1
102
RTVSPropertyOp58
 70
     1
102
RTVSPropertyOp59
 70
     1
102
RTVSPropertyOp60
 70
     1
102
RTVSPropertyOp61
 70
     1
102
RTVSPropertyOp62
 70
     1
  0
XRECORD
  5
BFB8
102
{ACAD_REACTORS
330
BFB7
102
}
330
BFB7
100
AcDbXrecord
280
     1
102
RTVSPost2010Prop28
280
     0
102
RTVSPost2010PropOp28
 70
     1
102
RTVSPost2010Prop29
280
     1
102
RTVSPost2010PropOp29
 70
     1
102
RTVSPost2010Prop30
280
     1
102
RTVSPost2010PropOp30
 70
     1
102
RTVSPost2010Prop31
280
     0
102
RTVSPost2010PropOp31
 70
     1
102
RTVSPost2010Prop32
280
     0
102
RTVSPost2010PropOp32
 70
     1
102
RTVSPost2010Prop33
280
     0
102
RTVSPost2010PropOp33
 70
     1
102
RTVSPost2010Prop34
280
     0
102
RTVSPost2010PropOp34
 70
     1
102
RTVSPost2010Prop35
280
     0
102
RTVSPost2010PropOp35
 70
     1
102
RTVSPost2010Prop36
280
     0
102
RTVSPost2010PropOp36
 70
     1
102
RTVSPost2010Prop37
 90
       50
102
RTVSPost2010PropOp37
 70
     1
102
RTVSPost2010Prop38
140
0.0
102
RTVSPost2010PropOp38
 70
     1
102
RTVSPost2010Prop39
140
1.0
102
RTVSPost2010PropOp39
 70
     1
102
RTVSPost2010Prop40
 90
        0
102
RTVSPost2010PropOp40
 70
     1
102
RTVSPost2010Prop41ColorIndex
 90
       18
102
RTVSPost2010Prop41ColorRGB
 90
        0
102
RTVSPost2010PropOp41
 70
     1
102
RTVSPost2010Prop42
 90
       50
102
RTVSPost2010PropOp42
 70
     1
102
RTVSPost2010Prop43
 90
        3
102
RTVSPost2010PropOp43
 70
     1
102
RTVSPost2010Prop44ColorIndex
 90
        5
102
RTVSPost2010Prop44ColorRGB
 90
      255
102
RTVSPost2010PropOp44
 70
     1
102
RTVSPost2010Prop45
280
     0
102
RTVSPost2010PropOp45
 70
     1
102
RTVSPost2010Prop46
 90
       50
102
RTVSPost2010PropOp46
 70
     1
102
RTVSPost2010Prop47
 90
       50
102
RTVSPost2010PropOp47
 70
     1
102
RTVSPost2010Prop48
 90
       50
102
RTVSPost2010PropOp48
 70
     1
102
RTVSPost2010Prop49
280
     0
102
RTVSPost2010PropOp49
 70
     1
102
RTVSPost2010Prop50
 90
       50
102
RTVSPost2010PropOp50
 70
     1
102
RTVSPost2010Prop51ColorIndex
 90
      256
102
RTVSPost2010Prop51ColorRGB
 90
-16777216
102
RTVSPost2010PropOp51
 70
     0
102
RTVSPost2010Prop52
140
1.0
102
RTVSPost2010PropOp52
 70
     0
102
RTVSPost2010Prop53
 90
        2
102
RTVSPost2010PropOp53
 70
     1
102
RTVSPost2010Prop54
  1
strokes_ogs.tif
102
RTVSPost2010PropOp54
 70
     1
102
RTVSPost2010Prop55
280
     0
102
RTVSPost2010PropOp55
 70
     1
102
RTVSPost2010Prop56
140
1.0
102
RTVSPost2010PropOp56
 70
     1
102
RTVSPost2010Prop57
140
1.0
102
RTVSPost2010PropOp57
 70
     1
102
RTVSPropertyOp0
 70
     1
102
RTVSPropertyOp1
 70
     1
102
RTVSPropertyOp2
 70
     1
102
RTVSPropertyOp3
 70
     1
102
RTVSPropertyOp4
 70
     1
102
RTVSPropertyOp5
 70
     1
102
RTVSPropertyOp6
 70
     1
102
RTVSPropertyOp7
 70
     1
102
RTVSPropertyOp8
 70
     1
102
RTVSPropertyOp9
 70
     1
102
RTVSPropertyOp10
 70
     1
102
RTVSPropertyOp11
 70
     1
102
RTVSPropertyOp12
 70
     1
102
RTVSPropertyOp13
 70
     1
102
RTVSPropertyOp14
 70
     1
102
RTVSPropertyOp15
 70
     1
102
RTVSPropertyOp16
 70
     1
102
RTVSPropertyOp17
 70
     1
102
RTVSPropertyOp18
 70
     1
102
RTVSPropertyOp19
 70
     1
102
RTVSPropertyOp20
 70
     1
102
RTVSPropertyOp21
 70
     1
102
RTVSPropertyOp22
 70
     1
102
RTVSPropertyOp23
 70
     1
102
RTVSPropertyOp24
 70
     1
102
RTVSPropertyOp25
 70
     1
102
RTVSPropertyOp26
 70
     1
102
RTVSPropertyOp27
 70
     1
102
RTVSPropertyOp28
 70
     1
102
RTVSPropertyOp29
 70
     1
102
RTVSPropertyOp30
 70
     1
102
RTVSPropertyOp31
 70
     1
102
RTVSPropertyOp32
 70
     1
102
RTVSPropertyOp33
 70
     1
102
RTVSPropertyOp34
 70
     1
102
RTVSPropertyOp35
 70
     1
102
RTVSPropertyOp36
 70
     1
102
RTVSPropertyOp37
 70
     1
102
RTVSPropertyOp38
 70
     1
102
RTVSPropertyOp39
 70
     1
102
RTVSPropertyOp40
 70
     1
102
RTVSPropertyOp41
 70
     1
102
RTVSPropertyOp42
 70
     1
102
RTVSPropertyOp43
 70
     1
102
RTVSPropertyOp44
 70
     1
102
RTVSPropertyOp45
 70
     1
102
RTVSPropertyOp46
 70
     1
102
RTVSPropertyOp47
 70
     1
102
RTVSPropertyOp48
 70
     1
102
RTVSPropertyOp49
 70
     1
102
RTVSPropertyOp50
 70
     1
102
RTVSPropertyOp51
 70
     0
102
RTVSPropertyOp52
 70
     0
102
RTVSPropertyOp53
 70
     1
102
RTVSPropertyOp54
 70
     1
102
RTVSPropertyOp55
 70
     1
102
RTVSPropertyOp56
 70
     1
102
RTVSPropertyOp57
 70
     1
102
RTVSPropertyOp58
 70
     1
102
RTVSPropertyOp59
 70
     1
102
RTVSPropertyOp60
 70
     1
102
RTVSPropertyOp61
 70
     1
102
RTVSPropertyOp62
 70
     1
  0
XRECORD
  5
BFCA
102
{ACAD_REACTORS
330
BFC9
102
}
330
BFC9
100
AcDbXrecord
280
     1
102
RTVSPost2010Prop28
280
     0
102
RTVSPost2010PropOp28
 70
     0
102
RTVSPost2010Prop29
280
     1
102
RTVSPost2010PropOp29
 70
     0
102
RTVSPost2010Prop30
280
     1
102
RTVSPost2010PropOp30
 70
     0
102
RTVSPost2010Prop31
280
     0
102
RTVSPost2010PropOp31
 70
     0
102
RTVSPost2010Prop32
280
     0
102
RTVSPost2010PropOp32
 70
     0
102
RTVSPost2010Prop33
280
     0
102
RTVSPost2010PropOp33
 70
     1
102
RTVSPost2010Prop34
280
     0
102
RTVSPost2010PropOp34
 70
     1
102
RTVSPost2010Prop35
280
     0
102
RTVSPost2010PropOp35
 70
     1
102
RTVSPost2010Prop36
280
     0
102
RTVSPost2010PropOp36
 70
     1
102
RTVSPost2010Prop37
 90
       50
102
RTVSPost2010PropOp37
 70
     1
102
RTVSPost2010Prop38
140
0.0
102
RTVSPost2010PropOp38
 70
     1
102
RTVSPost2010Prop39
140
1.0
102
RTVSPost2010PropOp39
 70
     1
102
RTVSPost2010Prop40
 90
        0
102
RTVSPost2010PropOp40
 70
     1
102
RTVSPost2010Prop41ColorIndex
 90
       18
102
RTVSPost2010Prop41ColorRGB
 90
        0
102
RTVSPost2010PropOp41
 70
     1
102
RTVSPost2010Prop42
 90
       50
102
RTVSPost2010PropOp42
 70
     1
102
RTVSPost2010Prop43
 90
        3
102
RTVSPost2010PropOp43
 70
     1
102
RTVSPost2010Prop44ColorIndex
 90
        5
102
RTVSPost2010Prop44ColorRGB
 90
      255
102
RTVSPost2010PropOp44
 70
     1
102
RTVSPost2010Prop45
280
     0
102
RTVSPost2010PropOp45
 70
     1
102
RTVSPost2010Prop46
 90
       50
102
RTVSPost2010PropOp46
 70
     1
102
RTVSPost2010Prop47
 90
       50
102
RTVSPost2010PropOp47
 70
     1
102
RTVSPost2010Prop48
 90
       50
102
RTVSPost2010PropOp48
 70
     1
102
RTVSPost2010Prop49
280
     0
102
RTVSPost2010PropOp49
 70
     1
102
RTVSPost2010Prop50
 90
       50
102
RTVSPost2010PropOp50
 70
     1
102
RTVSPost2010Prop51ColorIndex
 90
      256
102
RTVSPost2010Prop51ColorRGB
 90
-16777216
102
RTVSPost2010PropOp51
 70
     0
102
RTVSPost2010Prop52
140
1.0
102
RTVSPost2010PropOp52
 70
     0
102
RTVSPost2010Prop53
 90
        2
102
RTVSPost2010PropOp53
 70
     1
102
RTVSPost2010Prop54
  1
strokes_ogs.tif
102
RTVSPost2010PropOp54
 70
     1
102
RTVSPost2010Prop55
280
     0
102
RTVSPost2010PropOp55
 70
     1
102
RTVSPost2010Prop56
140
1.0
102
RTVSPost2010PropOp56
 70
     1
102
RTVSPost2010Prop57
140
1.0
102
RTVSPost2010PropOp57
 70
     1
102
RTVSPropertyOp0
 70
     0
102
RTVSPropertyOp1
 70
     0
102
RTVSPropertyOp2
 70
     0
102
RTVSPropertyOp3
 70
     0
102
RTVSPropertyOp4
 70
     0
102
RTVSPropertyOp5
 70
     0
102
RTVSPropertyOp6
 70
     0
102
RTVSPropertyOp7
 70
     0
102
RTVSPropertyOp8
 70
     0
102
RTVSPropertyOp9
 70
     0
102
RTVSPropertyOp10
 70
     0
102
RTVSPropertyOp11
 70
     0
102
RTVSPropertyOp12
 70
     0
102
RTVSPropertyOp13
 70
     0
102
RTVSPropertyOp14
 70
     2
102
RTVSPropertyOp15
 70
     0
102
RTVSPropertyOp16
 70
     0
102
RTVSPropertyOp17
 70
     0
102
RTVSPropertyOp18
 70
     0
102
RTVSPropertyOp19
 70
     0
102
RTVSPropertyOp20
 70
     0
102
RTVSPropertyOp21
 70
     0
102
RTVSPropertyOp22
 70
     0
102
RTVSPropertyOp23
 70
     0
102
RTVSPropertyOp24
 70
     0
102
RTVSPropertyOp25
 70
     0
102
RTVSPropertyOp26
 70
     0
102
RTVSPropertyOp27
 70
     0
102
RTVSPropertyOp28
 70
     0
102
RTVSPropertyOp29
 70
     0
102
RTVSPropertyOp30
 70
     0
102
RTVSPropertyOp31
 70
     0
102
RTVSPropertyOp32
 70
     0
102
RTVSPropertyOp33
 70
     1
102
RTVSPropertyOp34
 70
     1
102
RTVSPropertyOp35
 70
     1
102
RTVSPropertyOp36
 70
     1
102
RTVSPropertyOp37
 70
     1
102
RTVSPropertyOp38
 70
     1
102
RTVSPropertyOp39
 70
     1
102
RTVSPropertyOp40
 70
     1
102
RTVSPropertyOp41
 70
     1
102
RTVSPropertyOp42
 70
     1
102
RTVSPropertyOp43
 70
     1
102
RTVSPropertyOp44
 70
     1
102
RTVSPropertyOp45
 70
     1
102
RTVSPropertyOp46
 70
     1
102
RTVSPropertyOp47
 70
     1
102
RTVSPropertyOp48
 70
     1
102
RTVSPropertyOp49
 70
     1
102
RTVSPropertyOp50
 70
     1
102
RTVSPropertyOp51
 70
     0
102
RTVSPropertyOp52
 70
     0
102
RTVSPropertyOp53
 70
     1
102
RTVSPropertyOp54
 70
     1
102
RTVSPropertyOp55
 70
     1
102
RTVSPropertyOp56
 70
     1
102
RTVSPropertyOp57
 70
     1
102
RTVSPropertyOp58
 70
     1
102
RTVSPropertyOp59
 70
     1
102
RTVSPropertyOp60
 70
     1
102
RTVSPropertyOp61
 70
     1
102
RTVSPropertyOp62
 70
     1
  0
XRECORD
  5
BFB0
102
{ACAD_REACTORS
330
BFAF
102
}
330
BFAF
100
AcDbXrecord
280
     1
102
RTVSPost2010Prop28
280
     0
102
RTVSPost2010PropOp28
 70
     1
102
RTVSPost2010Prop29
280
     1
102
RTVSPost2010PropOp29
 70
     1
102
RTVSPost2010Prop30
280
     1
102
RTVSPost2010PropOp30
 70
     1
102
RTVSPost2010Prop31
280
     0
102
RTVSPost2010PropOp31
 70
     1
102
RTVSPost2010Prop32
280
     0
102
RTVSPost2010PropOp32
 70
     1
102
RTVSPost2010Prop33
280
     0
102
RTVSPost2010PropOp33
 70
     1
102
RTVSPost2010Prop34
280
     0
102
RTVSPost2010PropOp34
 70
     1
102
RTVSPost2010Prop35
280
     0
102
RTVSPost2010PropOp35
 70
     1
102
RTVSPost2010Prop36
280
     0
102
RTVSPost2010PropOp36
 70
     1
102
RTVSPost2010Prop37
 90
       50
102
RTVSPost2010PropOp37
 70
     1
102
RTVSPost2010Prop38
140
0.0
102
RTVSPost2010PropOp38
 70
     1
102
RTVSPost2010Prop39
140
1.0
102
RTVSPost2010PropOp39
 70
     1
102
RTVSPost2010Prop40
 90
        0
102
RTVSPost2010PropOp40
 70
     1
102
RTVSPost2010Prop41ColorIndex
 90
       18
102
RTVSPost2010Prop41ColorRGB
 90
        0
102
RTVSPost2010PropOp41
 70
     1
102
RTVSPost2010Prop42
 90
       50
102
RTVSPost2010PropOp42
 70
     1
102
RTVSPost2010Prop43
 90
        3
102
RTVSPost2010PropOp43
 70
     1
102
RTVSPost2010Prop44ColorIndex
 90
        5
102
RTVSPost2010Prop44ColorRGB
 90
      255
102
RTVSPost2010PropOp44
 70
     1
102
RTVSPost2010Prop45
280
     0
102
RTVSPost2010PropOp45
 70
     1
102
RTVSPost2010Prop46
 90
       50
102
RTVSPost2010PropOp46
 70
     1
102
RTVSPost2010Prop47
 90
       50
102
RTVSPost2010PropOp47
 70
     1
102
RTVSPost2010Prop48
 90
       50
102
RTVSPost2010PropOp48
 70
     1
102
RTVSPost2010Prop49
280
     0
102
RTVSPost2010PropOp49
 70
     1
102
RTVSPost2010Prop50
 90
       50
102
RTVSPost2010PropOp50
 70
     1
102
RTVSPost2010Prop51ColorIndex
 90
      256
102
RTVSPost2010Prop51ColorRGB
 90
-16777216
102
RTVSPost2010PropOp51
 70
     0
102
RTVSPost2010Prop52
140
1.0
102
RTVSPost2010PropOp52
 70
     0
102
RTVSPost2010Prop53
 90
        2
102
RTVSPost2010PropOp53
 70
     1
102
RTVSPost2010Prop54
  1
strokes_ogs.tif
102
RTVSPost2010PropOp54
 70
     1
102
RTVSPost2010Prop55
280
     0
102
RTVSPost2010PropOp55
 70
     1
102
RTVSPost2010Prop56
140
1.0
102
RTVSPost2010PropOp56
 70
     1
102
RTVSPost2010Prop57
140
1.0
102
RTVSPost2010PropOp57
 70
     1
102
RTVSPropertyOp0
 70
     1
102
RTVSPropertyOp1
 70
     1
102
RTVSPropertyOp2
 70
     1
102
RTVSPropertyOp3
 70
     1
102
RTVSPropertyOp4
 70
     1
102
RTVSPropertyOp5
 70
     1
102
RTVSPropertyOp6
 70
     1
102
RTVSPropertyOp7
 70
     1
102
RTVSPropertyOp8
 70
     1
102
RTVSPropertyOp9
 70
     1
102
RTVSPropertyOp10
 70
     1
102
RTVSPropertyOp11
 70
     1
102
RTVSPropertyOp12
 70
     1
102
RTVSPropertyOp13
 70
     1
102
RTVSPropertyOp14
 70
     1
102
RTVSPropertyOp15
 70
     1
102
RTVSPropertyOp16
 70
     1
102
RTVSPropertyOp17
 70
     1
102
RTVSPropertyOp18
 70
     1
102
RTVSPropertyOp19
 70
     1
102
RTVSPropertyOp20
 70
     1
102
RTVSPropertyOp21
 70
     1
102
RTVSPropertyOp22
 70
     1
102
RTVSPropertyOp23
 70
     1
102
RTVSPropertyOp24
 70
     1
102
RTVSPropertyOp25
 70
     1
102
RTVSPropertyOp26
 70
     1
102
RTVSPropertyOp27
 70
     1
102
RTVSPropertyOp28
 70
     1
102
RTVSPropertyOp29
 70
     1
102
RTVSPropertyOp30
 70
     1
102
RTVSPropertyOp31
 70
     1
102
RTVSPropertyOp32
 70
     1
102
RTVSPropertyOp33
 70
     1
102
RTVSPropertyOp34
 70
     1
102
RTVSPropertyOp35
 70
     1
102
RTVSPropertyOp36
 70
     1
102
RTVSPropertyOp37
 70
     1
102
RTVSPropertyOp38
 70
     1
102
RTVSPropertyOp39
 70
     1
102
RTVSPropertyOp40
 70
     1
102
RTVSPropertyOp41
 70
     1
102
RTVSPropertyOp42
 70
     1
102
RTVSPropertyOp43
 70
     1
102
RTVSPropertyOp44
 70
     1
102
RTVSPropertyOp45
 70
     1
102
RTVSPropertyOp46
 70
     1
102
RTVSPropertyOp47
 70
     1
102
RTVSPropertyOp48
 70
     1
102
RTVSPropertyOp49
 70
     1
102
RTVSPropertyOp50
 70
     1
102
RTVSPropertyOp51
 70
     0
102
RTVSPropertyOp52
 70
     0
102
RTVSPropertyOp53
 70
     1
102
RTVSPropertyOp54
 70
     1
102
RTVSPropertyOp55
 70
     1
102
RTVSPropertyOp56
 70
     1
102
RTVSPropertyOp57
 70
     1
102
RTVSPropertyOp58
 70
     1
102
RTVSPropertyOp59
 70
     1
102
RTVSPropertyOp60
 70
     1
102
RTVSPropertyOp61
 70
     1
102
RTVSPropertyOp62
 70
     1
  0
XRECORD
  5
BFC6
102
{ACAD_REACTORS
330
BFC5
102
}
330
BFC5
100
AcDbXrecord
280
     1
102
RTVSPost2010Prop28
280
     0
102
RTVSPost2010PropOp28
 70
     1
102
RTVSPost2010Prop29
280
     1
102
RTVSPost2010PropOp29
 70
     1
102
RTVSPost2010Prop30
280
     1
102
RTVSPost2010PropOp30
 70
     1
102
RTVSPost2010Prop31
280
     0
102
RTVSPost2010PropOp31
 70
     1
102
RTVSPost2010Prop32
280
     0
102
RTVSPost2010PropOp32
 70
     1
102
RTVSPost2010Prop33
280
     0
102
RTVSPost2010PropOp33
 70
     1
102
RTVSPost2010Prop34
280
     0
102
RTVSPost2010PropOp34
 70
     1
102
RTVSPost2010Prop35
280
     0
102
RTVSPost2010PropOp35
 70
     1
102
RTVSPost2010Prop36
280
     0
102
RTVSPost2010PropOp36
 70
     1
102
RTVSPost2010Prop37
 90
       50
102
RTVSPost2010PropOp37
 70
     1
102
RTVSPost2010Prop38
140
0.0
102
RTVSPost2010PropOp38
 70
     1
102
RTVSPost2010Prop39
140
1.0
102
RTVSPost2010PropOp39
 70
     1
102
RTVSPost2010Prop40
 90
        0
102
RTVSPost2010PropOp40
 70
     1
102
RTVSPost2010Prop41ColorIndex
 90
       18
102
RTVSPost2010Prop41ColorRGB
 90
        0
102
RTVSPost2010PropOp41
 70
     1
102
RTVSPost2010Prop42
 90
       50
102
RTVSPost2010PropOp42
 70
     1
102
RTVSPost2010Prop43
 90
        3
102
RTVSPost2010PropOp43
 70
     1
102
RTVSPost2010Prop44ColorIndex
 90
        5
102
RTVSPost2010Prop44ColorRGB
 90
      255
102
RTVSPost2010PropOp44
 70
     1
102
RTVSPost2010Prop45
280
     0
102
RTVSPost2010PropOp45
 70
     1
102
RTVSPost2010Prop46
 90
       50
102
RTVSPost2010PropOp46
 70
     1
102
RTVSPost2010Prop47
 90
       50
102
RTVSPost2010PropOp47
 70
     1
102
RTVSPost2010Prop48
 90
       50
102
RTVSPost2010PropOp48
 70
     1
102
RTVSPost2010Prop49
280
     0
102
RTVSPost2010PropOp49
 70
     1
102
RTVSPost2010Prop50
 90
       50
102
RTVSPost2010PropOp50
 70
     1
102
RTVSPost2010Prop51ColorIndex
 90
      256
102
RTVSPost2010Prop51ColorRGB
 90
-16777216
102
RTVSPost2010PropOp51
 70
     0
102
RTVSPost2010Prop52
140
1.0
102
RTVSPost2010PropOp52
 70
     0
102
RTVSPost2010Prop53
 90
        2
102
RTVSPost2010PropOp53
 70
     1
102
RTVSPost2010Prop54
  1
strokes_ogs.tif
102
RTVSPost2010PropOp54
 70
     1
102
RTVSPost2010Prop55
280
     0
102
RTVSPost2010PropOp55
 70
     1
102
RTVSPost2010Prop56
140
1.0
102
RTVSPost2010PropOp56
 70
     1
102
RTVSPost2010Prop57
140
1.0
102
RTVSPost2010PropOp57
 70
     1
102
RTVSPropertyOp0
 70
     1
102
RTVSPropertyOp1
 70
     1
102
RTVSPropertyOp2
 70
     1
102
RTVSPropertyOp3
 70
     1
102
RTVSPropertyOp4
 70
     1
102
RTVSPropertyOp5
 70
     1
102
RTVSPropertyOp6
 70
     1
102
RTVSPropertyOp7
 70
     1
102
RTVSPropertyOp8
 70
     1
102
RTVSPropertyOp9
 70
     1
102
RTVSPropertyOp10
 70
     1
102
RTVSPropertyOp11
 70
     1
102
RTVSPropertyOp12
 70
     1
102
RTVSPropertyOp13
 70
     1
102
RTVSPropertyOp14
 70
     1
102
RTVSPropertyOp15
 70
     1
102
RTVSPropertyOp16
 70
     1
102
RTVSPropertyOp17
 70
     1
102
RTVSPropertyOp18
 70
     1
102
RTVSPropertyOp19
 70
     1
102
RTVSPropertyOp20
 70
     1
102
RTVSPropertyOp21
 70
     1
102
RTVSPropertyOp22
 70
     1
102
RTVSPropertyOp23
 70
     1
102
RTVSPropertyOp24
 70
     1
102
RTVSPropertyOp25
 70
     1
102
RTVSPropertyOp26
 70
     1
102
RTVSPropertyOp27
 70
     1
102
RTVSPropertyOp28
 70
     1
102
RTVSPropertyOp29
 70
     1
102
RTVSPropertyOp30
 70
     1
102
RTVSPropertyOp31
 70
     1
102
RTVSPropertyOp32
 70
     1
102
RTVSPropertyOp33
 70
     1
102
RTVSPropertyOp34
 70
     1
102
RTVSPropertyOp35
 70
     1
102
RTVSPropertyOp36
 70
     1
102
RTVSPropertyOp37
 70
     1
102
RTVSPropertyOp38
 70
     1
102
RTVSPropertyOp39
 70
     1
102
RTVSPropertyOp40
 70
     1
102
RTVSPropertyOp41
 70
     1
102
RTVSPropertyOp42
 70
     1
102
RTVSPropertyOp43
 70
     1
102
RTVSPropertyOp44
 70
     1
102
RTVSPropertyOp45
 70
     1
102
RTVSPropertyOp46
 70
     1
102
RTVSPropertyOp47
 70
     1
102
RTVSPropertyOp48
 70
     1
102
RTVSPropertyOp49
 70
     1
102
RTVSPropertyOp50
 70
     1
102
RTVSPropertyOp51
 70
     0
102
RTVSPropertyOp52
 70
     0
102
RTVSPropertyOp53
 70
     1
102
RTVSPropertyOp54
 70
     1
102
RTVSPropertyOp55
 70
     1
102
RTVSPropertyOp56
 70
     1
102
RTVSPropertyOp57
 70
     1
102
RTVSPropertyOp58
 70
     1
102
RTVSPropertyOp59
 70
     1
102
RTVSPropertyOp60
 70
     1
102
RTVSPropertyOp61
 70
     1
102
RTVSPropertyOp62
 70
     1
  0
XRECORD
  5
BFC4
102
{ACAD_REACTORS
330
BFC3
102
}
330
BFC3
100
AcDbXrecord
280
     1
102
RTVSPost2010Prop28
280
     0
102
RTVSPost2010PropOp28
 70
     1
102
RTVSPost2010Prop29
280
     1
102
RTVSPost2010PropOp29
 70
     1
102
RTVSPost2010Prop30
280
     1
102
RTVSPost2010PropOp30
 70
     1
102
RTVSPost2010Prop31
280
     0
102
RTVSPost2010PropOp31
 70
     1
102
RTVSPost2010Prop32
280
     0
102
RTVSPost2010PropOp32
 70
     1
102
RTVSPost2010Prop33
280
     0
102
RTVSPost2010PropOp33
 70
     1
102
RTVSPost2010Prop34
280
     0
102
RTVSPost2010PropOp34
 70
     1
102
RTVSPost2010Prop35
280
     0
102
RTVSPost2010PropOp35
 70
     1
102
RTVSPost2010Prop36
280
     0
102
RTVSPost2010PropOp36
 70
     1
102
RTVSPost2010Prop37
 90
       50
102
RTVSPost2010PropOp37
 70
     1
102
RTVSPost2010Prop38
140
0.0
102
RTVSPost2010PropOp38
 70
     1
102
RTVSPost2010Prop39
140
1.0
102
RTVSPost2010PropOp39
 70
     1
102
RTVSPost2010Prop40
 90
        0
102
RTVSPost2010PropOp40
 70
     1
102
RTVSPost2010Prop41ColorIndex
 90
       18
102
RTVSPost2010Prop41ColorRGB
 90
        0
102
RTVSPost2010PropOp41
 70
     1
102
RTVSPost2010Prop42
 90
       50
102
RTVSPost2010PropOp42
 70
     1
102
RTVSPost2010Prop43
 90
        3
102
RTVSPost2010PropOp43
 70
     1
102
RTVSPost2010Prop44ColorIndex
 90
        5
102
RTVSPost2010Prop44ColorRGB
 90
      255
102
RTVSPost2010PropOp44
 70
     1
102
RTVSPost2010Prop45
280
     0
102
RTVSPost2010PropOp45
 70
     1
102
RTVSPost2010Prop46
 90
       50
102
RTVSPost2010PropOp46
 70
     1
102
RTVSPost2010Prop47
 90
       50
102
RTVSPost2010PropOp47
 70
     1
102
RTVSPost2010Prop48
 90
       50
102
RTVSPost2010PropOp48
 70
     1
102
RTVSPost2010Prop49
280
     0
102
RTVSPost2010PropOp49
 70
     1
102
RTVSPost2010Prop50
 90
       50
102
RTVSPost2010PropOp50
 70
     1
102
RTVSPost2010Prop51ColorIndex
 90
      256
102
RTVSPost2010Prop51ColorRGB
 90
-16777216
102
RTVSPost2010PropOp51
 70
     0
102
RTVSPost2010Prop52
140
1.0
102
RTVSPost2010PropOp52
 70
     0
102
RTVSPost2010Prop53
 90
        2
102
RTVSPost2010PropOp53
 70
     1
102
RTVSPost2010Prop54
  1
strokes_ogs.tif
102
RTVSPost2010PropOp54
 70
     1
102
RTVSPost2010Prop55
280
     0
102
RTVSPost2010PropOp55
 70
     1
102
RTVSPost2010Prop56
140
1.0
102
RTVSPost2010PropOp56
 70
     1
102
RTVSPost2010Prop57
140
1.0
102
RTVSPost2010PropOp57
 70
     1
102
RTVSPropertyOp0
 70
     1
102
RTVSPropertyOp1
 70
     1
102
RTVSPropertyOp2
 70
     1
102
RTVSPropertyOp3
 70
     1
102
RTVSPropertyOp4
 70
     1
102
RTVSPropertyOp5
 70
     1
102
RTVSPropertyOp6
 70
     1
102
RTVSPropertyOp7
 70
     1
102
RTVSPropertyOp8
 70
     1
102
RTVSPropertyOp9
 70
     1
102
RTVSPropertyOp10
 70
     1
102
RTVSPropertyOp11
 70
     1
102
RTVSPropertyOp12
 70
     1
102
RTVSPropertyOp13
 70
     1
102
RTVSPropertyOp14
 70
     1
102
RTVSPropertyOp15
 70
     1
102
RTVSPropertyOp16
 70
     1
102
RTVSPropertyOp17
 70
     1
102
RTVSPropertyOp18
 70
     1
102
RTVSPropertyOp19
 70
     1
102
RTVSPropertyOp20
 70
     1
102
RTVSPropertyOp21
 70
     1
102
RTVSPropertyOp22
 70
     1
102
RTVSPropertyOp23
 70
     1
102
RTVSPropertyOp24
 70
     1
102
RTVSPropertyOp25
 70
     1
102
RTVSPropertyOp26
 70
     1
102
RTVSPropertyOp27
 70
     1
102
RTVSPropertyOp28
 70
     1
102
RTVSPropertyOp29
 70
     1
102
RTVSPropertyOp30
 70
     1
102
RTVSPropertyOp31
 70
     1
102
RTVSPropertyOp32
 70
     1
102
RTVSPropertyOp33
 70
     1
102
RTVSPropertyOp34
 70
     1
102
RTVSPropertyOp35
 70
     1
102
RTVSPropertyOp36
 70
     1
102
RTVSPropertyOp37
 70
     1
102
RTVSPropertyOp38
 70
     1
102
RTVSPropertyOp39
 70
     1
102
RTVSPropertyOp40
 70
     1
102
RTVSPropertyOp41
 70
     1
102
RTVSPropertyOp42
 70
     1
102
RTVSPropertyOp43
 70
     1
102
RTVSPropertyOp44
 70
     1
102
RTVSPropertyOp45
 70
     1
102
RTVSPropertyOp46
 70
     1
102
RTVSPropertyOp47
 70
     1
102
RTVSPropertyOp48
 70
     1
102
RTVSPropertyOp49
 70
     1
102
RTVSPropertyOp50
 70
     1
102
RTVSPropertyOp51
 70
     0
102
RTVSPropertyOp52
 70
     0
102
RTVSPropertyOp53
 70
     1
102
RTVSPropertyOp54
 70
     1
102
RTVSPropertyOp55
 70
     1
102
RTVSPropertyOp56
 70
     1
102
RTVSPropertyOp57
 70
     1
102
RTVSPropertyOp58
 70
     1
102
RTVSPropertyOp59
 70
     1
102
RTVSPropertyOp60
 70
     1
102
RTVSPropertyOp61
 70
     1
102
RTVSPropertyOp62
 70
     1
  0
XRECORD
  5
BFBE
102
{ACAD_REACTORS
330
BFBD
102
}
330
BFBD
100
AcDbXrecord
280
     1
102
RTVSPost2010Prop28
280
     0
102
RTVSPost2010PropOp28
 70
     1
102
RTVSPost2010Prop29
280
     1
102
RTVSPost2010PropOp29
 70
     1
102
RTVSPost2010Prop30
280
     1
102
RTVSPost2010PropOp30
 70
     1
102
RTVSPost2010Prop31
280
     0
102
RTVSPost2010PropOp31
 70
     1
102
RTVSPost2010Prop32
280
     0
102
RTVSPost2010PropOp32
 70
     1
102
RTVSPost2010Prop33
280
     0
102
RTVSPost2010PropOp33
 70
     1
102
RTVSPost2010Prop34
280
     0
102
RTVSPost2010PropOp34
 70
     1
102
RTVSPost2010Prop35
280
     0
102
RTVSPost2010PropOp35
 70
     1
102
RTVSPost2010Prop36
280
     0
102
RTVSPost2010PropOp36
 70
     1
102
RTVSPost2010Prop37
 90
       50
102
RTVSPost2010PropOp37
 70
     1
102
RTVSPost2010Prop38
140
0.0
102
RTVSPost2010PropOp38
 70
     1
102
RTVSPost2010Prop39
140
1.0
102
RTVSPost2010PropOp39
 70
     1
102
RTVSPost2010Prop40
 90
        0
102
RTVSPost2010PropOp40
 70
     1
102
RTVSPost2010Prop41ColorIndex
 90
       18
102
RTVSPost2010Prop41ColorRGB
 90
        0
102
RTVSPost2010PropOp41
 70
     1
102
RTVSPost2010Prop42
 90
       50
102
RTVSPost2010PropOp42
 70
     1
102
RTVSPost2010Prop43
 90
        3
102
RTVSPost2010PropOp43
 70
     1
102
RTVSPost2010Prop44ColorIndex
 90
        5
102
RTVSPost2010Prop44ColorRGB
 90
      255
102
RTVSPost2010PropOp44
 70
     1
102
RTVSPost2010Prop45
280
     0
102
RTVSPost2010PropOp45
 70
     1
102
RTVSPost2010Prop46
 90
       50
102
RTVSPost2010PropOp46
 70
     1
102
RTVSPost2010Prop47
 90
       50
102
RTVSPost2010PropOp47
 70
     1
102
RTVSPost2010Prop48
 90
       50
102
RTVSPost2010PropOp48
 70
     1
102
RTVSPost2010Prop49
280
     0
102
RTVSPost2010PropOp49
 70
     1
102
RTVSPost2010Prop50
 90
       50
102
RTVSPost2010PropOp50
 70
     1
102
RTVSPost2010Prop51ColorIndex
 90
      256
102
RTVSPost2010Prop51ColorRGB
 90
-16777216
102
RTVSPost2010PropOp51
 70
     0
102
RTVSPost2010Prop52
140
1.0
102
RTVSPost2010PropOp52
 70
     0
102
RTVSPost2010Prop53
 90
        2
102
RTVSPost2010PropOp53
 70
     1
102
RTVSPost2010Prop54
  1
strokes_ogs.tif
102
RTVSPost2010PropOp54
 70
     1
102
RTVSPost2010Prop55
280
     0
102
RTVSPost2010PropOp55
 70
     1
102
RTVSPost2010Prop56
140
1.0
102
RTVSPost2010PropOp56
 70
     1
102
RTVSPost2010Prop57
140
1.0
102
RTVSPost2010PropOp57
 70
     1
102
RTVSPropertyOp0
 70
     1
102
RTVSPropertyOp1
 70
     1
102
RTVSPropertyOp2
 70
     1
102
RTVSPropertyOp3
 70
     1
102
RTVSPropertyOp4
 70
     1
102
RTVSPropertyOp5
 70
     1
102
RTVSPropertyOp6
 70
     1
102
RTVSPropertyOp7
 70
     1
102
RTVSPropertyOp8
 70
     1
102
RTVSPropertyOp9
 70
     1
102
RTVSPropertyOp10
 70
     1
102
RTVSPropertyOp11
 70
     1
102
RTVSPropertyOp12
 70
     1
102
RTVSPropertyOp13
 70
     1
102
RTVSPropertyOp14
 70
     1
102
RTVSPropertyOp15
 70
     1
102
RTVSPropertyOp16
 70
     1
102
RTVSPropertyOp17
 70
     1
102
RTVSPropertyOp18
 70
     1
102
RTVSPropertyOp19
 70
     1
102
RTVSPropertyOp20
 70
     1
102
RTVSPropertyOp21
 70
     1
102
RTVSPropertyOp22
 70
     1
102
RTVSPropertyOp23
 70
     1
102
RTVSPropertyOp24
 70
     1
102
RTVSPropertyOp25
 70
     1
102
RTVSPropertyOp26
 70
     1
102
RTVSPropertyOp27
 70
     1
102
RTVSPropertyOp28
 70
     1
102
RTVSPropertyOp29
 70
     1
102
RTVSPropertyOp30
 70
     1
102
RTVSPropertyOp31
 70
     1
102
RTVSPropertyOp32
 70
     1
102
RTVSPropertyOp33
 70
     1
102
RTVSPropertyOp34
 70
     1
102
RTVSPropertyOp35
 70
     1
102
RTVSPropertyOp36
 70
     1
102
RTVSPropertyOp37
 70
     1
102
RTVSPropertyOp38
 70
     1
102
RTVSPropertyOp39
 70
     1
102
RTVSPropertyOp40
 70
     1
102
RTVSPropertyOp41
 70
     1
102
RTVSPropertyOp42
 70
     1
102
RTVSPropertyOp43
 70
     1
102
RTVSPropertyOp44
 70
     1
102
RTVSPropertyOp45
 70
     1
102
RTVSPropertyOp46
 70
     1
102
RTVSPropertyOp47
 70
     1
102
RTVSPropertyOp48
 70
     1
102
RTVSPropertyOp49
 70
     1
102
RTVSPropertyOp50
 70
     1
102
RTVSPropertyOp51
 70
     0
102
RTVSPropertyOp52
 70
     0
102
RTVSPropertyOp53
 70
     1
102
RTVSPropertyOp54
 70
     1
102
RTVSPropertyOp55
 70
     1
102
RTVSPropertyOp56
 70
     1
102
RTVSPropertyOp57
 70
     1
102
RTVSPropertyOp58
 70
     1
102
RTVSPropertyOp59
 70
     1
102
RTVSPropertyOp60
 70
     1
102
RTVSPropertyOp61
 70
     1
102
RTVSPropertyOp62
 70
     1
  0
XRECORD
  5
BFC0
102
{ACAD_REACTORS
330
BFBF
102
}
330
BFBF
100
AcDbXrecord
280
     1
102
RTVSPost2010Prop28
280
     0
102
RTVSPost2010PropOp28
 70
     1
102
RTVSPost2010Prop29
280
     1
102
RTVSPost2010PropOp29
 70
     1
102
RTVSPost2010Prop30
280
     1
102
RTVSPost2010PropOp30
 70
     1
102
RTVSPost2010Prop31
280
     0
102
RTVSPost2010PropOp31
 70
     1
102
RTVSPost2010Prop32
280
     0
102
RTVSPost2010PropOp32
 70
     1
102
RTVSPost2010Prop33
280
     0
102
RTVSPost2010PropOp33
 70
     1
102
RTVSPost2010Prop34
280
     0
102
RTVSPost2010PropOp34
 70
     1
102
RTVSPost2010Prop35
280
     0
102
RTVSPost2010PropOp35
 70
     1
102
RTVSPost2010Prop36
280
     0
102
RTVSPost2010PropOp36
 70
     1
102
RTVSPost2010Prop37
 90
       50
102
RTVSPost2010PropOp37
 70
     1
102
RTVSPost2010Prop38
140
0.0
102
RTVSPost2010PropOp38
 70
     1
102
RTVSPost2010Prop39
140
1.0
102
RTVSPost2010PropOp39
 70
     1
102
RTVSPost2010Prop40
 90
        0
102
RTVSPost2010PropOp40
 70
     1
102
RTVSPost2010Prop41ColorIndex
 90
       18
102
RTVSPost2010Prop41ColorRGB
 90
        0
102
RTVSPost2010PropOp41
 70
     1
102
RTVSPost2010Prop42
 90
       50
102
RTVSPost2010PropOp42
 70
     1
102
RTVSPost2010Prop43
 90
        3
102
RTVSPost2010PropOp43
 70
     1
102
RTVSPost2010Prop44ColorIndex
 90
        5
102
RTVSPost2010Prop44ColorRGB
 90
      255
102
RTVSPost2010PropOp44
 70
     1
102
RTVSPost2010Prop45
280
     0
102
RTVSPost2010PropOp45
 70
     1
102
RTVSPost2010Prop46
 90
       50
102
RTVSPost2010PropOp46
 70
     1
102
RTVSPost2010Prop47
 90
       50
102
RTVSPost2010PropOp47
 70
     1
102
RTVSPost2010Prop48
 90
       50
102
RTVSPost2010PropOp48
 70
     1
102
RTVSPost2010Prop49
280
     0
102
RTVSPost2010PropOp49
 70
     1
102
RTVSPost2010Prop50
 90
       50
102
RTVSPost2010PropOp50
 70
     1
102
RTVSPost2010Prop51ColorIndex
 90
      256
102
RTVSPost2010Prop51ColorRGB
 90
-16777216
102
RTVSPost2010PropOp51
 70
     0
102
RTVSPost2010Prop52
140
1.0
102
RTVSPost2010PropOp52
 70
     0
102
RTVSPost2010Prop53
 90
        2
102
RTVSPost2010PropOp53
 70
     1
102
RTVSPost2010Prop54
  1
strokes_ogs.tif
102
RTVSPost2010PropOp54
 70
     1
102
RTVSPost2010Prop55
280
     0
102
RTVSPost2010PropOp55
 70
     1
102
RTVSPost2010Prop56
140
1.0
102
RTVSPost2010PropOp56
 70
     1
102
RTVSPost2010Prop57
140
1.0
102
RTVSPost2010PropOp57
 70
     1
102
RTVSPropertyOp0
 70
     1
102
RTVSPropertyOp1
 70
     1
102
RTVSPropertyOp2
 70
     1
102
RTVSPropertyOp3
 70
     1
102
RTVSPropertyOp4
 70
     1
102
RTVSPropertyOp5
 70
     1
102
RTVSPropertyOp6
 70
     1
102
RTVSPropertyOp7
 70
     1
102
RTVSPropertyOp8
 70
     1
102
RTVSPropertyOp9
 70
     1
102
RTVSPropertyOp10
 70
     1
102
RTVSPropertyOp11
 70
     1
102
RTVSPropertyOp12
 70
     1
102
RTVSPropertyOp13
 70
     1
102
RTVSPropertyOp14
 70
     1
102
RTVSPropertyOp15
 70
     1
102
RTVSPropertyOp16
 70
     1
102
RTVSPropertyOp17
 70
     1
102
RTVSPropertyOp18
 70
     1
102
RTVSPropertyOp19
 70
     1
102
RTVSPropertyOp20
 70
     1
102
RTVSPropertyOp21
 70
     1
102
RTVSPropertyOp22
 70
     1
102
RTVSPropertyOp23
 70
     1
102
RTVSPropertyOp24
 70
     1
102
RTVSPropertyOp25
 70
     1
102
RTVSPropertyOp26
 70
     1
102
RTVSPropertyOp27
 70
     1
102
RTVSPropertyOp28
 70
     1
102
RTVSPropertyOp29
 70
     1
102
RTVSPropertyOp30
 70
     1
102
RTVSPropertyOp31
 70
     1
102
RTVSPropertyOp32
 70
     1
102
RTVSPropertyOp33
 70
     1
102
RTVSPropertyOp34
 70
     1
102
RTVSPropertyOp35
 70
     1
102
RTVSPropertyOp36
 70
     1
102
RTVSPropertyOp37
 70
     1
102
RTVSPropertyOp38
 70
     1
102
RTVSPropertyOp39
 70
     1
102
RTVSPropertyOp40
 70
     1
102
RTVSPropertyOp41
 70
     1
102
RTVSPropertyOp42
 70
     1
102
RTVSPropertyOp43
 70
     1
102
RTVSPropertyOp44
 70
     1
102
RTVSPropertyOp45
 70
     1
102
RTVSPropertyOp46
 70
     1
102
RTVSPropertyOp47
 70
     1
102
RTVSPropertyOp48
 70
     1
102
RTVSPropertyOp49
 70
     1
102
RTVSPropertyOp50
 70
     1
102
RTVSPropertyOp51
 70
     0
102
RTVSPropertyOp52
 70
     0
102
RTVSPropertyOp53
 70
     1
102
RTVSPropertyOp54
 70
     1
102
RTVSPropertyOp55
 70
     1
102
RTVSPropertyOp56
 70
     1
102
RTVSPropertyOp57
 70
     1
102
RTVSPropertyOp58
 70
     1
102
RTVSPropertyOp59
 70
     1
102
RTVSPropertyOp60
 70
     1
102
RTVSPropertyOp61
 70
     1
102
RTVSPropertyOp62
 70
     1
  0
XRECORD
  5
BFB6
102
{ACAD_REACTORS
330
BFB5
102
}
330
BFB5
100
AcDbXrecord
280
     1
102
RTVSPost2010Prop28
280
     0
102
RTVSPost2010PropOp28
 70
     1
102
RTVSPost2010Prop29
280
     1
102
RTVSPost2010PropOp29
 70
     1
102
RTVSPost2010Prop30
280
     1
102
RTVSPost2010PropOp30
 70
     1
102
RTVSPost2010Prop31
280
     0
102
RTVSPost2010PropOp31
 70
     1
102
RTVSPost2010Prop32
280
     0
102
RTVSPost2010PropOp32
 70
     1
102
RTVSPost2010Prop33
280
     0
102
RTVSPost2010PropOp33
 70
     1
102
RTVSPost2010Prop34
280
     0
102
RTVSPost2010PropOp34
 70
     1
102
RTVSPost2010Prop35
280
     0
102
RTVSPost2010PropOp35
 70
     1
102
RTVSPost2010Prop36
280
     0
102
RTVSPost2010PropOp36
 70
     1
102
RTVSPost2010Prop37
 90
       50
102
RTVSPost2010PropOp37
 70
     1
102
RTVSPost2010Prop38
140
0.0
102
RTVSPost2010PropOp38
 70
     1
102
RTVSPost2010Prop39
140
1.0
102
RTVSPost2010PropOp39
 70
     1
102
RTVSPost2010Prop40
 90
        0
102
RTVSPost2010PropOp40
 70
     1
102
RTVSPost2010Prop41ColorIndex
 90
       18
102
RTVSPost2010Prop41ColorRGB
 90
        0
102
RTVSPost2010PropOp41
 70
     1
102
RTVSPost2010Prop42
 90
       50
102
RTVSPost2010PropOp42
 70
     1
102
RTVSPost2010Prop43
 90
        3
102
RTVSPost2010PropOp43
 70
     1
102
RTVSPost2010Prop44ColorIndex
 90
        5
102
RTVSPost2010Prop44ColorRGB
 90
      255
102
RTVSPost2010PropOp44
 70
     1
102
RTVSPost2010Prop45
280
     0
102
RTVSPost2010PropOp45
 70
     1
102
RTVSPost2010Prop46
 90
       50
102
RTVSPost2010PropOp46
 70
     1
102
RTVSPost2010Prop47
 90
       50
102
RTVSPost2010PropOp47
 70
     1
102
RTVSPost2010Prop48
 90
       50
102
RTVSPost2010PropOp48
 70
     1
102
RTVSPost2010Prop49
280
     0
102
RTVSPost2010PropOp49
 70
     1
102
RTVSPost2010Prop50
 90
       50
102
RTVSPost2010PropOp50
 70
     1
102
RTVSPost2010Prop51ColorIndex
 90
      256
102
RTVSPost2010Prop51ColorRGB
 90
-16777216
102
RTVSPost2010PropOp51
 70
     0
102
RTVSPost2010Prop52
140
1.0
102
RTVSPost2010PropOp52
 70
     0
102
RTVSPost2010Prop53
 90
        2
102
RTVSPost2010PropOp53
 70
     1
102
RTVSPost2010Prop54
  1
strokes_ogs.tif
102
RTVSPost2010PropOp54
 70
     1
102
RTVSPost2010Prop55
280
     0
102
RTVSPost2010PropOp55
 70
     1
102
RTVSPost2010Prop56
140
1.0
102
RTVSPost2010PropOp56
 70
     1
102
RTVSPost2010Prop57
140
1.0
102
RTVSPost2010PropOp57
 70
     1
102
RTVSPropertyOp0
 70
     1
102
RTVSPropertyOp1
 70
     1
102
RTVSPropertyOp2
 70
     1
102
RTVSPropertyOp3
 70
     1
102
RTVSPropertyOp4
 70
     1
102
RTVSPropertyOp5
 70
     1
102
RTVSPropertyOp6
 70
     1
102
RTVSPropertyOp7
 70
     1
102
RTVSPropertyOp8
 70
     1
102
RTVSPropertyOp9
 70
     1
102
RTVSPropertyOp10
 70
     1
102
RTVSPropertyOp11
 70
     1
102
RTVSPropertyOp12
 70
     1
102
RTVSPropertyOp13
 70
     1
102
RTVSPropertyOp14
 70
     1
102
RTVSPropertyOp15
 70
     1
102
RTVSPropertyOp16
 70
     1
102
RTVSPropertyOp17
 70
     1
102
RTVSPropertyOp18
 70
     1
102
RTVSPropertyOp19
 70
     1
102
RTVSPropertyOp20
 70
     1
102
RTVSPropertyOp21
 70
     1
102
RTVSPropertyOp22
 70
     1
102
RTVSPropertyOp23
 70
     1
102
RTVSPropertyOp24
 70
     1
102
RTVSPropertyOp25
 70
     1
102
RTVSPropertyOp26
 70
     1
102
RTVSPropertyOp27
 70
     1
102
RTVSPropertyOp28
 70
     1
102
RTVSPropertyOp29
 70
     1
102
RTVSPropertyOp30
 70
     1
102
RTVSPropertyOp31
 70
     1
102
RTVSPropertyOp32
 70
     1
102
RTVSPropertyOp33
 70
     1
102
RTVSPropertyOp34
 70
     1
102
RTVSPropertyOp35
 70
     1
102
RTVSPropertyOp36
 70
     1
102
RTVSPropertyOp37
 70
     1
102
RTVSPropertyOp38
 70
     1
102
RTVSPropertyOp39
 70
     1
102
RTVSPropertyOp40
 70
     1
102
RTVSPropertyOp41
 70
     1
102
RTVSPropertyOp42
 70
     1
102
RTVSPropertyOp43
 70
     1
102
RTVSPropertyOp44
 70
     1
102
RTVSPropertyOp45
 70
     1
102
RTVSPropertyOp46
 70
     1
102
RTVSPropertyOp47
 70
     1
102
RTVSPropertyOp48
 70
     1
102
RTVSPropertyOp49
 70
     1
102
RTVSPropertyOp50
 70
     1
102
RTVSPropertyOp51
 70
     0
102
RTVSPropertyOp52
 70
     0
102
RTVSPropertyOp53
 70
     1
102
RTVSPropertyOp54
 70
     1
102
RTVSPropertyOp55
 70
     1
102
RTVSPropertyOp56
 70
     1
102
RTVSPropertyOp57
 70
     1
102
RTVSPropertyOp58
 70
     1
102
RTVSPropertyOp59
 70
     1
102
RTVSPropertyOp60
 70
     1
102
RTVSPropertyOp61
 70
     1
102
RTVSPropertyOp62
 70
     1
  0
XRECORD
  5
BFAA
102
{ACAD_REACTORS
330
BFA9
102
}
330
BFA9
100
AcDbXrecord
280
     1
102
RTVSPost2010Prop28
280
     0
102
RTVSPost2010PropOp28
 70
     1
102
RTVSPost2010Prop29
280
     1
102
RTVSPost2010PropOp29
 70
     1
102
RTVSPost2010Prop30
280
     1
102
RTVSPost2010PropOp30
 70
     1
102
RTVSPost2010Prop31
280
     0
102
RTVSPost2010PropOp31
 70
     1
102
RTVSPost2010Prop32
280
     0
102
RTVSPost2010PropOp32
 70
     1
102
RTVSPost2010Prop33
280
     0
102
RTVSPost2010PropOp33
 70
     1
102
RTVSPost2010Prop34
280
     0
102
RTVSPost2010PropOp34
 70
     1
102
RTVSPost2010Prop35
280
     0
102
RTVSPost2010PropOp35
 70
     1
102
RTVSPost2010Prop36
280
     0
102
RTVSPost2010PropOp36
 70
     1
102
RTVSPost2010Prop37
 90
       50
102
RTVSPost2010PropOp37
 70
     1
102
RTVSPost2010Prop38
140
0.0
102
RTVSPost2010PropOp38
 70
     1
102
RTVSPost2010Prop39
140
1.0
102
RTVSPost2010PropOp39
 70
     1
102
RTVSPost2010Prop40
 90
        0
102
RTVSPost2010PropOp40
 70
     1
102
RTVSPost2010Prop41ColorIndex
 90
       18
102
RTVSPost2010Prop41ColorRGB
 90
        0
102
RTVSPost2010PropOp41
 70
     1
102
RTVSPost2010Prop42
 90
       50
102
RTVSPost2010PropOp42
 70
     1
102
RTVSPost2010Prop43
 90
        3
102
RTVSPost2010PropOp43
 70
     1
102
RTVSPost2010Prop44ColorIndex
 90
        5
102
RTVSPost2010Prop44ColorRGB
 90
      255
102
RTVSPost2010PropOp44
 70
     1
102
RTVSPost2010Prop45
280
     0
102
RTVSPost2010PropOp45
 70
     1
102
RTVSPost2010Prop46
 90
       50
102
RTVSPost2010PropOp46
 70
     1
102
RTVSPost2010Prop47
 90
       50
102
RTVSPost2010PropOp47
 70
     1
102
RTVSPost2010Prop48
 90
       50
102
RTVSPost2010PropOp48
 70
     1
102
RTVSPost2010Prop49
280
     0
102
RTVSPost2010PropOp49
 70
     1
102
RTVSPost2010Prop50
 90
       50
102
RTVSPost2010PropOp50
 70
     1
102
RTVSPost2010Prop51ColorIndex
 90
      256
102
RTVSPost2010Prop51ColorRGB
 90
-16777216
102
RTVSPost2010PropOp51
 70
     0
102
RTVSPost2010Prop52
140
1.0
102
RTVSPost2010PropOp52
 70
     0
102
RTVSPost2010Prop53
 90
        2
102
RTVSPost2010PropOp53
 70
     1
102
RTVSPost2010Prop54
  1
strokes_ogs.tif
102
RTVSPost2010PropOp54
 70
     1
102
RTVSPost2010Prop55
280
     0
102
RTVSPost2010PropOp55
 70
     1
102
RTVSPost2010Prop56
140
1.0
102
RTVSPost2010PropOp56
 70
     1
102
RTVSPost2010Prop57
140
1.0
102
RTVSPost2010PropOp57
 70
     1
102
RTVSPropertyOp0
 70
     1
102
RTVSPropertyOp1
 70
     1
102
RTVSPropertyOp2
 70
     1
102
RTVSPropertyOp3
 70
     1
102
RTVSPropertyOp4
 70
     1
102
RTVSPropertyOp5
 70
     1
102
RTVSPropertyOp6
 70
     1
102
RTVSPropertyOp7
 70
     1
102
RTVSPropertyOp8
 70
     1
102
RTVSPropertyOp9
 70
     1
102
RTVSPropertyOp10
 70
     1
102
RTVSPropertyOp11
 70
     1
102
RTVSPropertyOp12
 70
     1
102
RTVSPropertyOp13
 70
     1
102
RTVSPropertyOp14
 70
     1
102
RTVSPropertyOp15
 70
     1
102
RTVSPropertyOp16
 70
     1
102
RTVSPropertyOp17
 70
     1
102
RTVSPropertyOp18
 70
     1
102
RTVSPropertyOp19
 70
     1
102
RTVSPropertyOp20
 70
     1
102
RTVSPropertyOp21
 70
     1
102
RTVSPropertyOp22
 70
     1
102
RTVSPropertyOp23
 70
     1
102
RTVSPropertyOp24
 70
     1
102
RTVSPropertyOp25
 70
     1
102
RTVSPropertyOp26
 70
     1
102
RTVSPropertyOp27
 70
     1
102
RTVSPropertyOp28
 70
     1
102
RTVSPropertyOp29
 70
     1
102
RTVSPropertyOp30
 70
     1
102
RTVSPropertyOp31
 70
     1
102
RTVSPropertyOp32
 70
     1
102
RTVSPropertyOp33
 70
     1
102
RTVSPropertyOp34
 70
     1
102
RTVSPropertyOp35
 70
     1
102
RTVSPropertyOp36
 70
     1
102
RTVSPropertyOp37
 70
     1
102
RTVSPropertyOp38
 70
     1
102
RTVSPropertyOp39
 70
     1
102
RTVSPropertyOp40
 70
     1
102
RTVSPropertyOp41
 70
     1
102
RTVSPropertyOp42
 70
     1
102
RTVSPropertyOp43
 70
     1
102
RTVSPropertyOp44
 70
     1
102
RTVSPropertyOp45
 70
     1
102
RTVSPropertyOp46
 70
     1
102
RTVSPropertyOp47
 70
     1
102
RTVSPropertyOp48
 70
     1
102
RTVSPropertyOp49
 70
     1
102
RTVSPropertyOp50
 70
     1
102
RTVSPropertyOp51
 70
     0
102
RTVSPropertyOp52
 70
     0
102
RTVSPropertyOp53
 70
     1
102
RTVSPropertyOp54
 70
     1
102
RTVSPropertyOp55
 70
     1
102
RTVSPropertyOp56
 70
     1
102
RTVSPropertyOp57
 70
     1
102
RTVSPropertyOp58
 70
     1
102
RTVSPropertyOp59
 70
     1
102
RTVSPropertyOp60
 70
     1
102
RTVSPropertyOp61
 70
     1
102
RTVSPropertyOp62
 70
     1
  0
XRECORD
  5
BFC2
102
{ACAD_REACTORS
330
BFC1
102
}
330
BFC1
100
AcDbXrecord
280
     1
102
RTVSPost2010Prop28
280
     0
102
RTVSPost2010PropOp28
 70
     1
102
RTVSPost2010Prop29
280
     1
102
RTVSPost2010PropOp29
 70
     1
102
RTVSPost2010Prop30
280
     1
102
RTVSPost2010PropOp30
 70
     1
102
RTVSPost2010Prop31
280
     0
102
RTVSPost2010PropOp31
 70
     1
102
RTVSPost2010Prop32
280
     0
102
RTVSPost2010PropOp32
 70
     1
102
RTVSPost2010Prop33
280
     0
102
RTVSPost2010PropOp33
 70
     1
102
RTVSPost2010Prop34
280
     0
102
RTVSPost2010PropOp34
 70
     1
102
RTVSPost2010Prop35
280
     0
102
RTVSPost2010PropOp35
 70
     1
102
RTVSPost2010Prop36
280
     0
102
RTVSPost2010PropOp36
 70
     1
102
RTVSPost2010Prop37
 90
       50
102
RTVSPost2010PropOp37
 70
     1
102
RTVSPost2010Prop38
140
0.0
102
RTVSPost2010PropOp38
 70
     1
102
RTVSPost2010Prop39
140
1.0
102
RTVSPost2010PropOp39
 70
     1
102
RTVSPost2010Prop40
 90
        0
102
RTVSPost2010PropOp40
 70
     1
102
RTVSPost2010Prop41ColorIndex
 90
       18
102
RTVSPost2010Prop41ColorRGB
 90
        0
102
RTVSPost2010PropOp41
 70
     1
102
RTVSPost2010Prop42
 90
       50
102
RTVSPost2010PropOp42
 70
     1
102
RTVSPost2010Prop43
 90
        3
102
RTVSPost2010PropOp43
 70
     1
102
RTVSPost2010Prop44ColorIndex
 90
        5
102
RTVSPost2010Prop44ColorRGB
 90
      255
102
RTVSPost2010PropOp44
 70
     1
102
RTVSPost2010Prop45
280
     0
102
RTVSPost2010PropOp45
 70
     1
102
RTVSPost2010Prop46
 90
       50
102
RTVSPost2010PropOp46
 70
     1
102
RTVSPost2010Prop47
 90
       50
102
RTVSPost2010PropOp47
 70
     1
102
RTVSPost2010Prop48
 90
       50
102
RTVSPost2010PropOp48
 70
     1
102
RTVSPost2010Prop49
280
     0
102
RTVSPost2010PropOp49
 70
     1
102
RTVSPost2010Prop50
 90
       50
102
RTVSPost2010PropOp50
 70
     1
102
RTVSPost2010Prop51ColorIndex
 90
      256
102
RTVSPost2010Prop51ColorRGB
 90
-16777216
102
RTVSPost2010PropOp51
 70
     0
102
RTVSPost2010Prop52
140
1.0
102
RTVSPost2010PropOp52
 70
     0
102
RTVSPost2010Prop53
 90
        2
102
RTVSPost2010PropOp53
 70
     1
102
RTVSPost2010Prop54
  1
strokes_ogs.tif
102
RTVSPost2010PropOp54
 70
     1
102
RTVSPost2010Prop55
280
     0
102
RTVSPost2010PropOp55
 70
     1
102
RTVSPost2010Prop56
140
1.0
102
RTVSPost2010PropOp56
 70
     1
102
RTVSPost2010Prop57
140
1.0
102
RTVSPost2010PropOp57
 70
     1
102
RTVSPropertyOp0
 70
     1
102
RTVSPropertyOp1
 70
     1
102
RTVSPropertyOp2
 70
     1
102
RTVSPropertyOp3
 70
     1
102
RTVSPropertyOp4
 70
     1
102
RTVSPropertyOp5
 70
     1
102
RTVSPropertyOp6
 70
     1
102
RTVSPropertyOp7
 70
     1
102
RTVSPropertyOp8
 70
     1
102
RTVSPropertyOp9
 70
     1
102
RTVSPropertyOp10
 70
     1
102
RTVSPropertyOp11
 70
     1
102
RTVSPropertyOp12
 70
     1
102
RTVSPropertyOp13
 70
     1
102
RTVSPropertyOp14
 70
     1
102
RTVSPropertyOp15
 70
     1
102
RTVSPropertyOp16
 70
     1
102
RTVSPropertyOp17
 70
     1
102
RTVSPropertyOp18
 70
     1
102
RTVSPropertyOp19
 70
     1
102
RTVSPropertyOp20
 70
     1
102
RTVSPropertyOp21
 70
     1
102
RTVSPropertyOp22
 70
     1
102
RTVSPropertyOp23
 70
     1
102
RTVSPropertyOp24
 70
     1
102
RTVSPropertyOp25
 70
     1
102
RTVSPropertyOp26
 70
     1
102
RTVSPropertyOp27
 70
     1
102
RTVSPropertyOp28
 70
     1
102
RTVSPropertyOp29
 70
     1
102
RTVSPropertyOp30
 70
     1
102
RTVSPropertyOp31
 70
     1
102
RTVSPropertyOp32
 70
     1
102
RTVSPropertyOp33
 70
     1
102
RTVSPropertyOp34
 70
     1
102
RTVSPropertyOp35
 70
     1
102
RTVSPropertyOp36
 70
     1
102
RTVSPropertyOp37
 70
     1
102
RTVSPropertyOp38
 70
     1
102
RTVSPropertyOp39
 70
     1
102
RTVSPropertyOp40
 70
     1
102
RTVSPropertyOp41
 70
     1
102
RTVSPropertyOp42
 70
     1
102
RTVSPropertyOp43
 70
     1
102
RTVSPropertyOp44
 70
     1
102
RTVSPropertyOp45
 70
     1
102
RTVSPropertyOp46
 70
     1
102
RTVSPropertyOp47
 70
     1
102
RTVSPropertyOp48
 70
     1
102
RTVSPropertyOp49
 70
     1
102
RTVSPropertyOp50
 70
     1
102
RTVSPropertyOp51
 70
     0
102
RTVSPropertyOp52
 70
     0
102
RTVSPropertyOp53
 70
     1
102
RTVSPropertyOp54
 70
     1
102
RTVSPropertyOp55
 70
     1
102
RTVSPropertyOp56
 70
     1
102
RTVSPropertyOp57
 70
     1
102
RTVSPropertyOp58
 70
     1
102
RTVSPropertyOp59
 70
     1
102
RTVSPropertyOp60
 70
     1
102
RTVSPropertyOp61
 70
     1
102
RTVSPropertyOp62
 70
     1
  0
ENDSEC
  0
EOF
