  0
SECTION
  2
HEADER
  9
$ACADVER
  1
AC1015
  9
$ACADMAINTVER
 70
    20
  9
$DWGCODEPAGE
  3
ANSI_932
  9
$INSBASE
 10
0.0
 20
0.0
 30
0.0
  9
$EXTMIN
 10
-0.0000000000002274
 20
-0.0000000000000568
 30
0.0
  9
$EXTMAX
 10
197.9999999999997
 20
290.0
 30
4.0
  9
$LIMMIN
 10
0.0
 20
0.0
  9
$LIMMAX
 10
420.0
 20
297.0
  9
$ORTHOMODE
 70
     0
  9
$REGENMODE
 70
     1
  9
$FILLMODE
 70
     1
  9
$QTEXTMODE
 70
     0
  9
$MIRRTEXT
 70
     1
  9
$LTSCALE
 40
1.0
  9
$ATTMODE
 70
     1
  9
$TEXTSIZE
 40
2.5
  9
$TRACEWID
 40
1.0
  9
$TEXTSTYLE
  7
TXT
  9
$CLAYER
  8
DIM
  9
$CELTYPE
  6
BYLAYER
  9
$CECOLOR
 62
   256
  9
$CELTSCALE
 40
1.0
  9
$DISPSILH
 70
     0
  9
$DIMSCALE
 40
1.0
  9
$DIMASZ
 40
2.5
  9
$DIMEXO
 40
1.0
  9
$DIMDLI
 40
6.0
  9
$DIMRND
 40
0.0
  9
$DIMDLE
 40
0.0
  9
$DIMEXE
 40
1.0
  9
$DIMTP
 40
0.0
  9
$DIMTM
 40
0.0
  9
$DIMTXT
 40
3.0
  9
$DIMCEN
 40
0.0
  9
$DIMTSZ
 40
0.0
  9
$DIMTOL
 70
     0
  9
$DIMLIM
 70
     0
  9
$DIMTIH
 70
     0
  9
$DIMTOH
 70
     0
  9
$DIMSE1
 70
     0
  9
$DIMSE2
 70
     0
  9
$DIMTAD
 70
     3
  9
$DIMZIN
 70
     8
  9
$DIMBLK
  1

  9
$DIMASO
 70
     1
  9
$DIMSHO
 70
     1
  9
$DIMPOST
  1

  9
$DIMAPOST
  1

  9
$DIMALT
 70
     0
  9
$DIMALTD
 70
     2
  9
$DIMALTF
 40
25.4
  9
$DIMLFAC
 40
1.0
  9
$DIMTOFL
 70
     0
  9
$DIMTVP
 40
0.0
  9
$DIMTIX
 70
     0
  9
$DIMSOXD
 70
     0
  9
$DIMSAH
 70
     0
  9
$DIMBLK1
  1

  9
$DIMBLK2
  1

  9
$DIMSTYLE
  2
A
  9
$DIMCLRD
 70
     6
  9
$DIMCLRE
 70
     6
  9
$DIMCLRT
 70
     3
  9
$DIMTFAC
 40
1.0
  9
$DIMGAP
 40
1.0
  9
$DIMJUST
 70
     0
  9
$DIMSD1
 70
     0
  9
$DIMSD2
 70
     0
  9
$DIMTOLJ
 70
     1
  9
$DIMTZIN
 70
     0
  9
$DIMALTZ
 70
     0
  9
$DIMALTTZ
 70
     0
  9
$DIMUPT
 70
     0
  9
$DIMDEC
 70
     1
  9
$DIMTDEC
 70
     1
  9
$DIMALTU
 70
     2
  9
$DIMALTTD
 70
     2
  9
$DIMTXSTY
  7
TXT
  9
$DIMAUNIT
 70
     0
  9
$DIMADEC
 70
     0
  9
$DIMALTRND
 40
0.0
  9
$DIMAZIN
 70
     0
  9
$DIMDSEP
 70
    46
  9
$DIMATFIT
 70
     3
  9
$DIMFRAC
 70
     0
  9
$DIMLDRBLK
  1

  9
$DIMLUNIT
 70
     2
  9
$DIMLWD
 70
    -2
  9
$DIMLWE
 70
    -2
  9
$DIMTMOVE
 70
     1
  9
$LUNITS
 70
     2
  9
$LUPREC
 70
     2
  9
$SKETCHINC
 40
1.0
  9
$FILLETRAD
 40
1.5
  9
$AUNITS
 70
     0
  9
$AUPREC
 70
     2
  9
$MENU
  1
.
  9
$ELEVATION
 40
0.0
  9
$PELEVATION
 40
0.0
  9
$THICKNESS
 40
0.0
  9
$LIMCHECK
 70
     0
  9
$CHAMFERA
 40
0.0
  9
$CHAMFERB
 40
0.0
  9
$CHAMFERC
 40
1.75
  9
$CHAMFERD
 40
0.0174532925199433
  9
$SKPOLY
 70
     0
  9
$TDCREATE
 40
2451555.620234838
  9
$TDUCREATE
 40
2451555.245234838
  9
$TDUPDATE
 40
2457828.477089421
  9
$TDUUPDATE
 40
2457828.102089421
  9
$TDINDWG
 40
2.8369701042
  9
$TDUSRTIMER
 40
2.8369701042
  9
$USRTIMER
 70
     1
  9
$ANGBASE
 50
0.0
  9
$ANGDIR
 70
     0
  9
$PDMODE
 70
     0
  9
$PDSIZE
 40
0.0
  9
$PLINEWID
 40
0.0
  9
$SPLFRAME
 70
     0
  9
$SPLINETYPE
 70
     6
  9
$SPLINESEGS
 70
     8
  9
$HANDSEED
  5
9300
  9
$SURFTAB1
 70
     6
  9
$SURFTAB2
 70
     6
  9
$SURFTYPE
 70
     6
  9
$SURFU
 70
     6
  9
$SURFV
 70
     6
  9
$UCSBASE
  2

  9
$UCSNAME
  2

  9
$UCSORG
 10
0.0
 20
0.0
 30
0.0
  9
$UCSXDIR
 10
1.0
 20
0.0
 30
0.0
  9
$UCSYDIR
 10
0.0
 20
1.0
 30
0.0
  9
$UCSORTHOREF
  2

  9
$UCSORTHOVIEW
 70
     0
  9
$UCSORGTOP
 10
0.0
 20
0.0
 30
0.0
  9
$UCSORGBOTTOM
 10
0.0
 20
0.0
 30
0.0
  9
$UCSORGLEFT
 10
0.0
 20
0.0
 30
0.0
  9
$UCSORGRIGHT
 10
0.0
 20
0.0
 30
0.0
  9
$UCSORGFRONT
 10
0.0
 20
0.0
 30
0.0
  9
$UCSORGBACK
 10
0.0
 20
0.0
 30
0.0
  9
$PUCSBASE
  2

  9
$PUCSNAME
  2

  9
$PUCSORG
 10
0.0
 20
0.0
 30
0.0
  9
$PUCSXDIR
 10
1.0
 20
0.0
 30
0.0
  9
$PUCSYDIR
 10
0.0
 20
1.0
 30
0.0
  9
$PUCSORTHOREF
  2

  9
$PUCSORTHOVIEW
 70
     0
  9
$PUCSORGTOP
 10
0.0
 20
0.0
 30
0.0
  9
$PUCSORGBOTTOM
 10
0.0
 20
0.0
 30
0.0
  9
$PUCSORGLEFT
 10
0.0
 20
0.0
 30
0.0
  9
$PUCSORGRIGHT
 10
0.0
 20
0.0
 30
0.0
  9
$PUCSORGFRONT
 10
0.0
 20
0.0
 30
0.0
  9
$PUCSORGBACK
 10
0.0
 20
0.0
 30
0.0
  9
$USERI1
 70
     0
  9
$USERI2
 70
     0
  9
$USERI3
 70
     0
  9
$USERI4
 70
     0
  9
$USERI5
 70
     0
  9
$USERR1
 40
0.0
  9
$USERR2
 40
0.0
  9
$USERR3
 40
0.0
  9
$USERR4
 40
0.0
  9
$USERR5
 40
0.0
  9
$WORLDVIEW
 70
     1
  9
$SHADEDGE
 70
     3
  9
$SHADEDIF
 70
    70
  9
$TILEMODE
 70
     1
  9
$MAXACTVP
 70
    48
  9
$PINSBASE
 10
0.0
 20
0.0
 30
0.0
  9
$PLIMCHECK
 70
     0
  9
$PEXTMIN
 10
1.000000000000000E+20
 20
1.000000000000000E+20
 30
1.000000000000000E+20
  9
$PEXTMAX
 10
-1.000000000000000E+20
 20
-1.000000000000000E+20
 30
-1.000000000000000E+20
  9
$PLIMMIN
 10
0.0
 20
0.0
  9
$PLIMMAX
 10
420.0
 20
297.0
  9
$UNITMODE
 70
     0
  9
$VISRETAIN
 70
     1
  9
$PLINEGEN
 70
     0
  9
$PSLTSCALE
 70
     1
  9
$TREEDEPTH
 70
  3020
  9
$CMLSTYLE
  2
STANDARD
  9
$CMLJUST
 70
     0
  9
$CMLSCALE
 40
20.0
  9
$PROXYGRAPHICS
 70
     1
  9
$MEASUREMENT
 70
     1
  9
$CELWEIGHT
370
    -1
  9
$ENDCAPS
280
     0
  9
$JOINSTYLE
280
     0
  9
$LWDISPLAY
290
     0
  9
$INSUNITS
 70
     0
  9
$HYPERLINKBASE
  1

  9
$STYLESHEET
  1

  9
$XEDIT
290
     1
  9
$CEPSNTYPE
380
     0
  9
$PSTYLEMODE
290
     1
  9
$FINGERPRINTGUID
  2
{1CF51E8A-A506-11D4-A7D9-AF69F5C20846}
  9
$VERSIONGUID
  2
{5BBAA8C9-6802-4AD4-BD3D-53B3BD14B2D4}
  9
$EXTNAMES
290
     1
  9
$PSVPSCALE
 40
0.0
  9
$OLESTARTUP
290
     0
  0
ENDSEC
  0
SECTION
  2
CLASSES
  0
CLASS
  1
DICTIONARYVAR
  2
AcDbDictionaryVar
  3
ObjectDBX Classes
 90
        0
280
     0
281
     0
  0
CLASS
  1
SORTENTSTABLE
  2
AcDbSortentsTable
  3
ObjectDBX Classes
 90
        0
280
     0
281
     0
  0
CLASS
  1
ACDBDICTIONARYWDFLT
  2
AcDbDictionaryWithDefault
  3
ObjectDBX Classes
 90
        0
280
     0
281
     0
  0
CLASS
  1
ACDBPLACEHOLDER
  2
AcDbPlaceHolder
  3
ObjectDBX Classes
 90
        0
280
     0
281
     0
  0
CLASS
  1
LAYOUT
  2
AcDbLayout
  3
ObjectDBX Classes
 90
        0
280
     0
281
     0
  0
CLASS
  1
TABLESTYLE
  2
AcDbTableStyle
  3
ObjectDBX Classes
 90
     2047
280
     0
281
     0
  0
ENDSEC
  0
SECTION
  2
TABLES
  0
TABLE
  2
VPORT
  5
8
330
0
100
AcDbSymbolTable
 70
     2
  0
VPORT
  5
92FA
330
8
100
AcDbSymbolTableRecord
100
AcDbViewportTableRecord
  2
*Active
 70
     0
 10
0.0
 20
0.0
 11
1.0
 21
1.0
 12
318.2190357540019
 22
142.9838674264329
 13
0.0
 23
0.0
 14
10.0
 24
10.0
 15
10.0
 25
10.0
 16
0.0
 26
0.0
 36
1.0
 17
0.0
 27
0.0
 37
0.0
 40
314.4882837896663
 41
2.647181628392484
 42
50.0
 43
0.0
 44
0.0
 50
0.0
 51
0.0
 71
     0
 72
   100
 73
     1
 74
     1
 75
     0
 76
     0
 77
     0
 78
     0
281
     0
 65
     1
110
0.0
120
0.0
130
0.0
111
1.0
121
0.0
131
0.0
112
0.0
122
1.0
132
0.0
 79
     0
146
0.0
  0
ENDTAB
  0
TABLE
  2
LTYPE
  5
5
330
0
100
AcDbSymbolTable
 70
     7
  0
LTYPE
  5
12
330
5
100
AcDbSymbolTableRecord
100
AcDbLinetypeTableRecord
  2
BYBLOCK
 70
     0
  3

 72
    65
 73
     0
 40
0.0
  0
LTYPE
  5
13
330
5
100
AcDbSymbolTableRecord
100
AcDbLinetypeTableRecord
  2
BYLAYER
 70
     0
  3

 72
    65
 73
     0
 40
0.0
  0
LTYPE
  5
14
330
5
100
AcDbSymbolTableRecord
100
AcDbLinetypeTableRecord
  2
CONTINUOUS
 70
     0
  3
Solid line
 72
    65
 73
     0
 40
0.0
  0
LTYPE
  5
9D
330
5
100
AcDbSymbolTableRecord
100
AcDbLinetypeTableRecord
  2
CENTERX2
 70
     0
  3
Center (2x) ________  __  ________  __  _____
 72
    65
 73
     4
 40
101.6
 49
63.5
 74
     0
 49
-12.7
 74
     0
 49
12.7
 74
     0
 49
-12.7
 74
     0
  0
LTYPE
  5
A1
330
5
100
AcDbSymbolTableRecord
100
AcDbLinetypeTableRecord
  2
DASHED
 70
     0
  3
Dashed __ __ __ __ __ __ __ __ __ __ __ __ __ _
 72
    65
 73
     2
 40
19.05
 49
12.7
 74
     0
 49
-6.349999999999999
 74
     0
  0
LTYPE
  5
A2
330
5
100
AcDbSymbolTableRecord
100
AcDbLinetypeTableRecord
  2
DASHED2
 70
     0
  3
Dashed (.5x) _ _ _ _ _ _ _ _ _ _ _ _ _ _ _ _ _
 72
    65
 73
     2
 40
9.524999999999998
 49
6.349999999999999
 74
     0
 49
-3.174999999999999
 74
     0
  0
LTYPE
  5
A5
330
5
100
AcDbSymbolTableRecord
100
AcDbLinetypeTableRecord
  2
DIVIDE2
 70
     0
  3
Divide (.5x) __..__..__..__..__..__..__..__.._
 72
    65
 73
     6
 40
15.875
 49
6.349999999999999
 74
     0
 49
-3.174999999999999
 74
     0
 49
0.0
 74
     0
 49
-3.174999999999999
 74
     0
 49
0.0
 74
     0
 49
-3.174999999999999
 74
     0
  0
LTYPE
  5
650B
330
5
100
AcDbSymbolTableRecord
100
AcDbLinetypeTableRecord
  2
CENTER
 70
     0
  3
Center ____ _ ____ _ ____ _ ____ _ ____ _ ____
 72
    65
 73
     4
 40
50.8
 49
31.75
 74
     0
 49
-6.349999999999999
 74
     0
 49
6.349999999999999
 74
     0
 49
-6.349999999999999
 74
     0
  0
LTYPE
  5
650C
330
5
100
AcDbSymbolTableRecord
100
AcDbLinetypeTableRecord
  2
HIDDEN
 70
     0
  3
Hidden __ __ __ __ __ __ __ __ __ __ __ __ __ _
 72
    65
 73
     2
 40
9.524999999999998
 49
6.349999999999999
 74
     0
 49
-3.174999999999999
 74
     0
  0
ENDTAB
  0
TABLE
  2
LAYER
  5
2
330
0
100
AcDbSymbolTable
 70
     9
  0
LAYER
  5
E
330
2
100
AcDbSymbolTableRecord
100
AcDbLayerTableRecord
  2
0
 70
     0
 62
     7
  6
CONTINUOUS
370
    -3
390
5CF2
  0
LAYER
  5
B9
330
2
100
AcDbSymbolTableRecord
100
AcDbLayerTableRecord
  2
DIM
 70
     0
 62
     3
  6
CONTINUOUS
370
    -3
390
5CF2
  0
LAYER
  5
F2
330
2
100
AcDbSymbolTableRecord
100
AcDbLayerTableRecord
  2
DEFPOINTS
 70
     0
 62
     4
  6
CONTINUOUS
290
     0
370
    -3
390
5CF2
  0
LAYER
  5
5F8B
330
2
100
AcDbSymbolTableRecord
100
AcDbLayerTableRecord
  2
公差
 70
     0
 62
     6
  6
CONTINUOUS
370
    -3
390
5CF2
  0
LAYER
  5
644E
330
2
100
AcDbSymbolTableRecord
100
AcDbLayerTableRecord
  2
図框線
 70
     0
 62
     9
  6
CONTINUOUS
370
    -3
390
5CF2
  0
LAYER
  5
650D
330
2
100
AcDbSymbolTableRecord
100
AcDbLayerTableRecord
  2
中心線
 70
     0
 62
     1
  6
CENTER
370
    -3
390
5CF2
  0
LAYER
  5
650E
330
2
100
AcDbSymbolTableRecord
100
AcDbLayerTableRecord
  2
本体内線
 70
     0
 62
     4
  6
HIDDEN
370
    -3
390
5CF2
  0
LAYER
  5
650F
330
2
100
AcDbSymbolTableRecord
100
AcDbLayerTableRecord
  2
本体外線
 70
     0
 62
     2
  6
CONTINUOUS
370
    -3
390
5CF2
  0
LAYER
  5
6510
330
2
100
AcDbSymbolTableRecord
100
AcDbLayerTableRecord
  2
剖面線
 70
     0
 62
     5
  6
CONTINUOUS
370
    -3
390
5CF2
  0
ENDTAB
  0
TABLE
  2
STYLE
  5
3
330
0
100
AcDbSymbolTable
 70
     5
  0
STYLE
  5
F
330
3
100
AcDbSymbolTableRecord
100
AcDbTextStyleTableRecord
  2
STANDARD
 70
     0
 40
0.0
 41
1.0
 50
0.0
 71
     0
 42
2.5
  3
txt
  4

  0
STYLE
  5
BE
330
3
100
AcDbSymbolTableRecord
100
AcDbTextStyleTableRecord
  2
ISOCP3
 70
     0
 40
0.0
 41
1.0
 50
0.0
 71
     0
 42
2.5
  3
isocp3.shx
  4

  0
STYLE
  5
2A37
330
3
100
AcDbSymbolTableRecord
100
AcDbTextStyleTableRecord
  2
TXT
 70
     0
 40
0.0
 41
1.0
 50
0.0
 71
     0
 42
2.5
  3
txt.shx
  4
bigfont.shx
  0
STYLE
  5
5DCB
330
3
100
AcDbSymbolTableRecord
100
AcDbTextStyleTableRecord
  2
LKK
 70
     0
 40
50.0
 41
1.5
 50
0.0
 71
     0
 42
50.0
  3
MS PGothic.ttf
  4

1001
ACAD
1000
MS PGothic
1071
    32818
  0
STYLE
  5
5DCC
330
3
100
AcDbSymbolTableRecord
100
AcDbTextStyleTableRecord
  2
JL
 70
     0
 40
10.0
 41
0.5
 50
0.0
 71
     0
 42
5.0
  3
MS Mincho.ttf
  4

1001
ACAD
1000
MS Mincho
1071
    32785
  0
ENDTAB
  0
TABLE
  2
VIEW
  5
6
330
0
100
AcDbSymbolTable
 70
     0
  0
ENDTAB
  0
TABLE
  2
UCS
  5
7
330
0
100
AcDbSymbolTable
 70
     0
  0
ENDTAB
  0
TABLE
  2
APPID
  5
9
330
0
100
AcDbSymbolTable
 70
     1
  0
APPID
  5
10
330
9
100
AcDbSymbolTableRecord
100
AcDbRegAppTableRecord
  2
ACAD
 70
     0
  0
ENDTAB
  0
TABLE
  2
DIMSTYLE
  5
A
330
0
100
AcDbSymbolTable
 70
     3
100
AcDbDimStyleTable
 71
     0
  0
DIMSTYLE
105
1D
330
A
100
AcDbSymbolTableRecord
100
AcDbDimStyleTableRecord
  2
STANDARD
 70
     0
 41
3.0
 42
0.06
 77
     3
140
4.0
144
0.3333333333333333
172
     1
340
F
  0
DIMSTYLE
105
1A4
102
{ACAD_REACTORS
330
792D
330
792E
330
7931
330
7940
330
79B5
330
7C41
330
8091
102
}
330
A
100
AcDbSymbolTableRecord
100
AcDbDimStyleTableRecord
  2
A
 70
     0
 41
2.5
 42
1.0
 43
6.0
 44
1.0
 73
     0
 74
     0
 77
     3
 78
     8
140
3.0
141
0.0
147
1.0
176
     6
177
     6
178
     3
271
     1
272
     1
279
     1
340
2A37
  0
DIMSTYLE
105
6006
330
A
100
AcDbSymbolTableRecord
100
AcDbDimStyleTableRecord
  2
ISO-25
 70
     0
 40
0.0
 41
2.0
 42
0.3
 43
1.0
 44
0.3
 73
     0
 74
     0
 77
     1
 78
     8
140
3.0
147
1.0
172
     1
176
     6
177
     6
178
     3
271
     1
272
     2
284
     8
288
     1
289
     2
340
F
  0
ENDTAB
  0
TABLE
  2
BLOCK_RECORD
  5
1
330
0
100
AcDbSymbolTable
 70
     8
  0
BLOCK_RECORD
  5
18
102
{ACAD_XDICTIONARY
360
45F
102
}
330
1
100
AcDbSymbolTableRecord
100
AcDbBlockTableRecord
  2
*MODEL_SPACE
340
5CF5
  0
BLOCK_RECORD
  5
15
102
{ACAD_XDICTIONARY
360
5D89
102
}
330
1
100
AcDbSymbolTableRecord
100
AcDbBlockTableRecord
  2
*PAPER_SPACE
340
5CF6
  0
BLOCK_RECORD
  5
79D5
330
1
100
AcDbSymbolTableRecord
100
AcDbBlockTableRecord
  2
*D0
340
0
  0
BLOCK_RECORD
  5
79E1
330
1
100
AcDbSymbolTableRecord
100
AcDbBlockTableRecord
  2
*D1
340
0
  0
BLOCK_RECORD
  5
79ED
330
1
100
AcDbSymbolTableRecord
100
AcDbBlockTableRecord
  2
*D2
340
0
  0
BLOCK_RECORD
  5
7A05
330
1
100
AcDbSymbolTableRecord
100
AcDbBlockTableRecord
  2
*D3
340
0
  0
BLOCK_RECORD
  5
7A11
330
1
100
AcDbSymbolTableRecord
100
AcDbBlockTableRecord
  2
*D4
340
0
  0
BLOCK_RECORD
  5
7C35
330
1
100
AcDbSymbolTableRecord
100
AcDbBlockTableRecord
  2
*D5
340
0
  0
BLOCK_RECORD
  5
8078
330
1
100
AcDbSymbolTableRecord
100
AcDbBlockTableRecord
  2
_DOTSMALL
340
0
  0
BLOCK_RECORD
  5
8081
330
1
100
AcDbSymbolTableRecord
100
AcDbBlockTableRecord
  2
*D7
340
0
  0
ENDTAB
  0
ENDSEC
  0
SECTION
  2
BLOCKS
  0
BLOCK
  5
19
330
18
100
AcDbEntity
  8
0
100
AcDbBlockBegin
  2
*MODEL_SPACE
 70
     0
 10
0.0
 20
0.0
 30
0.0
  3
*MODEL_SPACE
  1

  0
ENDBLK
  5
1A
330
18
100
AcDbEntity
  8
0
100
AcDbBlockEnd
  0
BLOCK
  5
16
330
15
100
AcDbEntity
 67
     1
  8
0
100
AcDbBlockBegin
  2
*PAPER_SPACE
 70
     0
 10
0.0
 20
0.0
 30
0.0
  3
*PAPER_SPACE
  1

  0
ENDBLK
  5
17
330
15
100
AcDbEntity
 67
     1
  8
0
100
AcDbBlockEnd
  0
BLOCK
  5
91CF
330
79D5
100
AcDbEntity
  8
0
100
AcDbBlockBegin
  2
*D0
 70
     1
 10
0.0
 20
0.0
 30
0.0
  3
*D0
  1

  0
LINE
  5
91D0
330
79D5
100
AcDbEntity
  8
0
  6
ByBlock
 62
     6
100
AcDbLine
 10
274.7966542831469
 20
83.45903627212754
 30
0.0
 11
274.7966542831469
 21
58.57206911451813
 31
0.0
  0
LINE
  5
91D1
330
79D5
100
AcDbEntity
  8
0
  6
ByBlock
 62
     6
100
AcDbLine
 10
344.7966542831468
 20
83.45903627212752
 30
0.0
 11
344.7966542831468
 21
58.57206911451813
 31
0.0
  0
LINE
  5
91D2
330
79D5
100
AcDbEntity
  8
0
  6
ByBlock
 62
     6
100
AcDbLine
 10
277.2966542831468
 20
59.57206911451812
 30
0.0
 11
342.2966542831468
 21
59.57206911451812
 31
0.0
  0
MTEXT
  5
91D3
330
79D5
100
AcDbEntity
  8
0
  6
ByBlock
 62
     3
100
AcDbMText
 10
309.7966542831468
 20
62.07206911451812
 30
0.0
 40
3.0
 41
0.0
 71
     5
 72
     1
  1
\A1;\U+220570±0.5
  7
TXT
 73
     1
 44
1.0
1001
ACAD
1000
MTEXTBEGIN
1070
    73
1070
     1
1070
    44
1040
1.0
1070
    74
1070
     0
1000
MTEXTEND
  0
SOLID
  5
91D4
330
79D5
100
AcDbEntity
  8
0
  6
ByBlock
 62
     6
100
AcDbTrace
 10
277.2966542831468
 20
59.98873578118479
 30
0.0
 11
277.2966542831468
 21
59.15540244785146
 31
0.0
 12
274.7966542831469
 22
59.57206911451812
 32
0.0
 13
274.7966542831469
 23
59.57206911451812
 33
0.0
  0
SOLID
  5
91D5
330
79D5
100
AcDbEntity
  8
0
  6
ByBlock
 62
     6
100
AcDbTrace
 10
342.2966542831468
 20
59.98873578118479
 30
0.0
 11
342.2966542831468
 21
59.15540244785146
 31
0.0
 12
344.7966542831468
 22
59.57206911451812
 32
0.0
 13
344.7966542831468
 23
59.57206911451812
 33
0.0
  0
POINT
  5
91D6
330
79D5
100
AcDbEntity
  8
DEFPOINTS
  6
ByBlock
 62
     0
100
AcDbPoint
 10
274.7966542831469
 20
84.45903627212755
 30
0.0
  0
POINT
  5
91D7
330
79D5
100
AcDbEntity
  8
DEFPOINTS
  6
ByBlock
 62
     0
100
AcDbPoint
 10
344.7966542831468
 20
84.45903627212752
 30
0.0
  0
POINT
  5
91D8
330
79D5
100
AcDbEntity
  8
DEFPOINTS
  6
ByBlock
 62
     0
100
AcDbPoint
 10
344.7966542831468
 20
59.57206911451812
 30
0.0
  0
ENDBLK
  5
91D9
330
79D5
100
AcDbEntity
  8
0
100
AcDbBlockEnd
  0
BLOCK
  5
91DA
330
79E1
100
AcDbEntity
  8
0
100
AcDbBlockBegin
  2
*D1
 70
     1
 10
0.0
 20
0.0
 30
0.0
  3
*D1
  1

  0
LINE
  5
91DB
330
79E1
100
AcDbEntity
  8
0
  6
ByBlock
 62
     6
100
AcDbLine
 10
281.7966542831468
 20
83.45903627212754
 30
0.0
 11
281.7966542831468
 21
65.78141638960831
 31
0.0
  0
LINE
  5
91DC
330
79E1
100
AcDbEntity
  8
0
  6
ByBlock
 62
     6
100
AcDbLine
 10
337.7966542831468
 20
83.45903627212752
 30
0.0
 11
337.7966542831468
 21
65.78141638960831
 31
0.0
  0
LINE
  5
91DD
330
79E1
100
AcDbEntity
  8
0
  6
ByBlock
 62
     6
100
AcDbLine
 10
284.2966542831468
 20
66.78141638960831
 30
0.0
 11
335.2966542831468
 21
66.78141638960831
 31
0.0
  0
SOLID
  5
91DE
330
79E1
100
AcDbEntity
  8
0
  6
ByBlock
 62
     6
100
AcDbTrace
 10
284.2966542831468
 20
67.19808305627498
 30
0.0
 11
284.2966542831468
 21
66.36474972294164
 31
0.0
 12
281.7966542831468
 22
66.78141638960831
 32
0.0
 13
281.7966542831468
 23
66.78141638960831
 33
0.0
  0
SOLID
  5
91DF
330
79E1
100
AcDbEntity
  8
0
  6
ByBlock
 62
     6
100
AcDbTrace
 10
335.2966542831468
 20
67.19808305627498
 30
0.0
 11
335.2966542831468
 21
66.36474972294164
 31
0.0
 12
337.7966542831468
 22
66.78141638960831
 32
0.0
 13
337.7966542831468
 23
66.78141638960831
 33
0.0
  0
MTEXT
  5
91E0
330
79E1
100
AcDbEntity
  8
0
  6
ByBlock
 62
     3
100
AcDbMText
 10
309.7966542831468
 20
69.28141638960831
 30
0.0
 40
3.0
 41
0.0
 71
     5
 72
     1
  1
\A1;\U+220556
  7
TXT
 73
     1
 44
1.0
1001
ACAD
1000
MTEXTBEGIN
1070
    73
1070
     1
1070
    44
1040
1.0
1070
    74
1070
     0
1000
MTEXTEND
  0
POINT
  5
91E1
330
79E1
100
AcDbEntity
  8
DEFPOINTS
  6
ByBlock
 62
     0
100
AcDbPoint
 10
281.7966542831468
 20
84.45903627212755
 30
0.0
  0
POINT
  5
91E2
330
79E1
100
AcDbEntity
  8
DEFPOINTS
  6
ByBlock
 62
     0
100
AcDbPoint
 10
337.7966542831468
 20
84.45903627212752
 30
0.0
  0
POINT
  5
91E3
330
79E1
100
AcDbEntity
  8
DEFPOINTS
  6
ByBlock
 62
     0
100
AcDbPoint
 10
337.7966542831468
 20
66.78141638960831
 30
0.0
  0
ENDBLK
  5
91E4
330
79E1
100
AcDbEntity
  8
0
100
AcDbBlockEnd
  0
BLOCK
  5
91AE
330
79ED
100
AcDbEntity
  8
0
100
AcDbBlockBegin
  2
*D2
 70
     1
 10
0.0
 20
0.0
 30
0.0
  3
*D2
  1

  0
LINE
  5
91AF
330
79ED
100
AcDbEntity
  8
0
  6
ByBlock
 62
     6
100
AcDbLine
 10
272.2966542831468
 20
88.95903627212758
 30
0.0
 11
272.2966542831468
 21
51.3627211398694
 31
0.0
  0
LINE
  5
91B0
330
79ED
100
AcDbEntity
  8
0
  6
ByBlock
 62
     6
100
AcDbLine
 10
347.2966542831468
 20
89.0190362721275
 30
0.0
 11
347.2966542831468
 21
51.3627211398694
 31
0.0
  0
LINE
  5
91B1
330
79ED
100
AcDbEntity
  8
0
  6
ByBlock
 62
     6
100
AcDbLine
 10
274.7966542831469
 20
52.36272113986941
 30
0.0
 11
344.7966542831468
 21
52.36272113986941
 31
0.0
  0
MTEXT
  5
91B2
330
79ED
100
AcDbEntity
  8
0
  6
ByBlock
 62
     3
100
AcDbMText
 10
309.3803054795856
 20
54.86272113986941
 30
0.0
 40
3.0
 41
0.0
 71
     5
 72
     1
  1
\A1;\U+220575±0.2
  7
TXT
 73
     1
 44
1.0
1001
ACAD
1000
MTEXTBEGIN
1070
    73
1070
     1
1070
    44
1040
1.0
1070
    74
1070
     0
1000
MTEXTEND
  0
SOLID
  5
91B3
330
79ED
100
AcDbEntity
  8
0
  6
ByBlock
 62
     6
100
AcDbTrace
 10
274.7966542831469
 20
52.77938780653607
 30
0.0
 11
274.7966542831469
 21
51.94605447320274
 31
0.0
 12
272.2966542831468
 22
52.36272113986941
 32
0.0
 13
272.2966542831468
 23
52.36272113986941
 33
0.0
  0
SOLID
  5
91B4
330
79ED
100
AcDbEntity
  8
0
  6
ByBlock
 62
     6
100
AcDbTrace
 10
344.7966542831468
 20
52.77938780653607
 30
0.0
 11
344.7966542831468
 21
51.94605447320274
 31
0.0
 12
347.2966542831468
 22
52.36272113986941
 32
0.0
 13
347.2966542831468
 23
52.36272113986941
 33
0.0
  0
POINT
  5
91B5
330
79ED
100
AcDbEntity
  8
DEFPOINTS
  6
ByBlock
 62
     0
100
AcDbPoint
 10
272.2966542831468
 20
89.95903627212758
 30
0.0
  0
POINT
  5
91B6
330
79ED
100
AcDbEntity
  8
DEFPOINTS
  6
ByBlock
 62
     0
100
AcDbPoint
 10
347.2966542831468
 20
90.01903627212749
 30
0.0
  0
POINT
  5
91B7
330
79ED
100
AcDbEntity
  8
DEFPOINTS
  6
ByBlock
 62
     0
100
AcDbPoint
 10
347.2966542831468
 20
52.36272113986941
 30
0.0
  0
ENDBLK
  5
91B8
330
79ED
100
AcDbEntity
  8
0
100
AcDbBlockEnd
  0
BLOCK
  5
91E6
330
7A05
100
AcDbEntity
  8
0
100
AcDbBlockBegin
  2
*D3
 70
     1
 10
0.0
 20
0.0
 30
0.0
  3
*D3
  1

  0
LINE
  5
91E7
330
7A05
100
AcDbEntity
  8
0
  6
ByBlock
 62
     6
100
AcDbLine
 10
273.7966542831468
 20
84.45903627212755
 30
0.0
 11
257.2662084948313
 21
84.45903627212755
 31
0.0
  0
LINE
  5
91E8
330
7A05
100
AcDbEntity
  8
0
  6
ByBlock
 62
     6
100
AcDbLine
 10
269.2966542831468
 20
97.45903627212754
 30
0.0
 11
257.2662084948313
 21
97.45903627212754
 31
0.0
  0
LINE
  5
91E9
330
7A05
100
AcDbEntity
  8
0
  6
ByBlock
 62
     6
100
AcDbLine
 10
258.2662084948313
 20
86.95903627212755
 30
0.0
 11
258.2662084948313
 21
94.95903627212753
 31
0.0
  0
SOLID
  5
91EA
330
7A05
100
AcDbEntity
  8
0
  6
ByBlock
 62
     6
100
AcDbTrace
 10
257.8495418281646
 20
86.95903627212755
 30
0.0
 11
258.682875161498
 21
86.95903627212755
 31
0.0
 12
258.2662084948313
 22
84.45903627212755
 32
0.0
 13
258.2662084948313
 23
84.45903627212755
 33
0.0
  0
SOLID
  5
91EB
330
7A05
100
AcDbEntity
  8
0
  6
ByBlock
 62
     6
100
AcDbTrace
 10
257.8495418281646
 20
94.95903627212753
 30
0.0
 11
258.682875161498
 21
94.95903627212753
 31
0.0
 12
258.2662084948313
 22
97.45903627212754
 32
0.0
 13
258.2662084948313
 23
97.45903627212754
 33
0.0
  0
MTEXT
  5
91EC
330
7A05
100
AcDbEntity
  8
0
  6
ByBlock
 62
     3
100
AcDbMText
 10
255.7662084948313
 20
90.95903627212754
 30
0.0
 40
3.0
 41
0.0
 71
     5
 72
     1
  1
\A1;13
  7
TXT
 11
0.0000000000000001
 21
1.0
 31
0.0
 73
     1
 44
1.0
1001
ACAD
1000
MTEXTBEGIN
1070
    73
1070
     1
1070
    44
1040
1.0
1070
    74
1070
     0
1000
MTEXTEND
  0
POINT
  5
91ED
330
7A05
100
AcDbEntity
  8
DEFPOINTS
  6
ByBlock
 62
     0
100
AcDbPoint
 10
274.7966542831469
 20
84.45903627212755
 30
0.0
  0
POINT
  5
91EE
330
7A05
100
AcDbEntity
  8
DEFPOINTS
  6
ByBlock
 62
     0
100
AcDbPoint
 10
270.2966542831468
 20
97.45903627212754
 30
0.0
  0
POINT
  5
91EF
330
7A05
100
AcDbEntity
  8
DEFPOINTS
  6
ByBlock
 62
     0
100
AcDbPoint
 10
258.2662084948313
 20
97.45903627212754
 30
0.0
  0
ENDBLK
  5
91F0
330
7A05
100
AcDbEntity
  8
0
100
AcDbBlockEnd
  0
BLOCK
  5
9136
330
7A11
100
AcDbEntity
  8
0
100
AcDbBlockBegin
  2
*D4
 70
     1
 10
0.0
 20
0.0
 30
0.0
  3
*D4
  1

  0
LINE
  5
9137
330
7A11
100
AcDbEntity
  8
0
  6
ByBlock
 62
     6
100
AcDbLine
 10
282.2966542831468
 20
108.8590362721275
 30
0.0
 11
282.2966542831468
 21
125.520075728591
 31
0.0
  0
LINE
  5
9138
330
7A11
100
AcDbEntity
  8
0
  6
ByBlock
 62
     6
100
AcDbLine
 10
337.2966542831468
 20
108.8590362721274
 30
0.0
 11
337.2966542831468
 21
125.520075728591
 31
0.0
  0
LINE
  5
9139
330
7A11
100
AcDbEntity
  8
0
  6
ByBlock
 62
     6
100
AcDbLine
 10
284.7966542831468
 20
124.520075728591
 30
0.0
 11
334.7966542831468
 21
124.520075728591
 31
0.0
  0
SOLID
  5
913A
330
7A11
100
AcDbEntity
  8
0
  6
ByBlock
 62
     6
100
AcDbTrace
 10
284.7966542831468
 20
124.9367423952577
 30
0.0
 11
284.7966542831468
 21
124.1034090619244
 31
0.0
 12
282.2966542831468
 22
124.520075728591
 32
0.0
 13
282.2966542831468
 23
124.520075728591
 33
0.0
  0
SOLID
  5
913B
330
7A11
100
AcDbEntity
  8
0
  6
ByBlock
 62
     6
100
AcDbTrace
 10
334.7966542831468
 20
124.9367423952577
 30
0.0
 11
334.7966542831468
 21
124.1034090619244
 31
0.0
 12
337.2966542831468
 22
124.520075728591
 32
0.0
 13
337.2966542831468
 23
124.520075728591
 33
0.0
  0
MTEXT
  5
913C
330
7A11
100
AcDbEntity
  8
0
  6
ByBlock
 62
     3
100
AcDbMText
 10
309.7966542831468
 20
127.020075728591
 30
0.0
 40
3.0
 41
0.0
 71
     5
 72
     1
  1
\A1;M55X1.5P
  7
TXT
 73
     1
 44
1.0
1001
ACAD
1000
MTEXTBEGIN
1070
    73
1070
     1
1070
    44
1040
1.0
1070
    74
1070
     0
1000
MTEXTEND
  0
POINT
  5
913D
330
7A11
100
AcDbEntity
  8
DEFPOINTS
  6
ByBlock
 62
     0
100
AcDbPoint
 10
282.2966542831468
 20
107.8590362721275
 30
0.0
  0
POINT
  5
913E
330
7A11
100
AcDbEntity
  8
DEFPOINTS
  6
ByBlock
 62
     0
100
AcDbPoint
 10
337.2966542831468
 20
107.8590362721274
 30
0.0
  0
POINT
  5
913F
330
7A11
100
AcDbEntity
  8
DEFPOINTS
  6
ByBlock
 62
     0
100
AcDbPoint
 10
337.2966542831468
 20
124.520075728591
 30
0.0
  0
ENDBLK
  5
9140
330
7A11
100
AcDbEntity
  8
0
100
AcDbBlockEnd
  0
BLOCK
  5
9150
330
7C35
100
AcDbEntity
  8
0
100
AcDbBlockBegin
  2
*D5
 70
     1
 10
0.0
 20
0.0
 30
0.0
  3
*D5
  1

  0
LINE
  5
9151
330
7C35
100
AcDbEntity
  8
0
  6
ByBlock
 62
     6
100
AcDbLine
 10
348.2966542831468
 20
108.4590362721274
 30
0.0
 11
363.1213160195702
 21
108.4590362721274
 31
0.0
  0
LINE
  5
9152
330
7C35
100
AcDbEntity
  8
0
  6
ByBlock
 62
     6
100
AcDbLine
 10
345.7966542831468
 20
84.45903627212754
 30
0.0
 11
363.1213160195702
 21
84.45903627212752
 31
0.0
  0
LINE
  5
9153
330
7C35
100
AcDbEntity
  8
0
  6
ByBlock
 62
     6
100
AcDbLine
 10
362.1213160195702
 20
105.9590362721274
 30
0.0
 11
362.1213160195702
 21
86.95903627212752
 31
0.0
  0
SOLID
  5
9154
330
7C35
100
AcDbEntity
  8
0
  6
ByBlock
 62
     6
100
AcDbTrace
 10
361.7046493529035
 20
105.9590362721274
 30
0.0
 11
362.5379826862369
 21
105.9590362721274
 31
0.0
 12
362.1213160195702
 22
108.4590362721274
 32
0.0
 13
362.1213160195702
 23
108.4590362721274
 33
0.0
  0
SOLID
  5
9155
330
7C35
100
AcDbEntity
  8
0
  6
ByBlock
 62
     6
100
AcDbTrace
 10
361.7046493529035
 20
86.95903627212752
 30
0.0
 11
362.5379826862369
 21
86.95903627212752
 31
0.0
 12
362.1213160195702
 22
84.45903627212752
 32
0.0
 13
362.1213160195702
 23
84.45903627212752
 33
0.0
  0
MTEXT
  5
9156
330
7C35
100
AcDbEntity
  8
0
  6
ByBlock
 62
     3
100
AcDbMText
 10
359.6213160195702
 20
96.45903627212749
 30
0.0
 40
3.0
 41
0.0
 71
     5
 72
     1
  1
\A1;24±0.2
  7
TXT
 11
0.0000000000000001
 21
1.0
 31
0.0
 73
     1
 44
1.0
1001
ACAD
1000
MTEXTBEGIN
1070
    73
1070
     1
1070
    44
1040
1.0
1070
    74
1070
     0
1000
MTEXTEND
  0
POINT
  5
9157
330
7C35
100
AcDbEntity
  8
DEFPOINTS
  6
ByBlock
 62
     0
100
AcDbPoint
 10
347.2966542831468
 20
108.4590362721274
 30
0.0
  0
POINT
  5
9158
330
7C35
100
AcDbEntity
  8
DEFPOINTS
  6
ByBlock
 62
     0
100
AcDbPoint
 10
344.7966542831468
 20
84.45903627212754
 30
0.0
  0
POINT
  5
9159
330
7C35
100
AcDbEntity
  8
DEFPOINTS
  6
ByBlock
 62
     0
100
AcDbPoint
 10
362.1213160195702
 20
84.45903627212752
 30
0.0
  0
ENDBLK
  5
915A
330
7C35
100
AcDbEntity
  8
0
100
AcDbBlockEnd
  0
BLOCK
  5
8079
330
8078
100
AcDbEntity
  8
0
100
AcDbBlockBegin
  2
_DOTSMALL
 70
     0
 10
0.0
 20
0.0
 30
0.0
  3
_DOTSMALL
  1

  0
LWPOLYLINE
  5
807A
330
8078
100
AcDbEntity
  8
0
  6
ByBlock
 62
     0
100
AcDbPolyline
 90
        2
 70
     1
 43
0.5
 10
-0.0625
 20
0.0
 42
1.0
 10
0.0625
 20
0.0
 42
1.0
  0
ENDBLK
  5
807E
330
8078
100
AcDbEntity
  8
0
100
AcDbBlockEnd
  0
BLOCK
  5
9143
330
8081
100
AcDbEntity
  8
0
100
AcDbBlockBegin
  2
*D7
 70
     1
 10
0.0
 20
0.0
 30
0.0
  3
*D7
  1

  0
LINE
  5
9144
330
8081
100
AcDbEntity
  8
0
  6
ByBlock
 62
     6
100
AcDbLine
 10
338.7966542831468
 20
87.45903627212753
 30
0.0
 11
356.2356356042949
 21
87.45903627212751
 31
0.0
  0
LINE
  5
9145
330
8081
100
AcDbEntity
  8
0
  6
ByBlock
 62
     6
100
AcDbLine
 10
345.7966542831468
 20
84.45903627212754
 30
0.0
 11
356.2356356042949
 21
84.45903627212752
 31
0.0
  0
LINE
  5
9146
330
8081
100
AcDbEntity
  8
0
  6
ByBlock
 62
     6
100
AcDbLine
 10
355.2356356042949
 20
89.95903627212751
 30
0.0
 11
355.2356356042949
 21
92.45903627212751
 31
0.0
  0
LINE
  5
9147
330
8081
100
AcDbEntity
  8
0
  6
ByBlock
 62
     6
100
AcDbLine
 10
355.2356356042949
 20
81.95903627212752
 30
0.0
 11
355.2356356042949
 21
79.45903627212752
 31
0.0
  0
MTEXT
  5
9148
330
8081
100
AcDbEntity
  8
0
  6
ByBlock
 62
     3
100
AcDbMText
 10
352.7356356042949
 20
85.95903627212752
 30
0.0
 40
3.0
 41
0.0
 71
     5
 72
     1
  1
\A1;3
  7
TXT
 11
0.0000000000000001
 21
1.0
 31
0.0
 73
     1
 44
1.0
1001
ACAD
1000
MTEXTBEGIN
1070
    73
1070
     1
1070
    44
1040
1.0
1070
    74
1070
     0
1000
MTEXTEND
  0
LINE
  5
9149
330
8081
100
AcDbEntity
  8
0
  6
ByBlock
 62
     6
100
AcDbLine
 10
355.2356356042949
 20
87.45903627212751
 30
0.0
 11
355.2356356042949
 21
84.45903627212752
 31
0.0
  0
SOLID
  5
914A
330
8081
100
AcDbEntity
  8
0
  6
ByBlock
 62
     6
100
AcDbTrace
 10
354.8189689376282
 20
89.95903627212751
 30
0.0
 11
355.6523022709616
 21
89.95903627212751
 31
0.0
 12
355.2356356042949
 22
87.45903627212751
 32
0.0
 13
355.2356356042949
 23
87.45903627212751
 33
0.0
  0
SOLID
  5
914B
330
8081
100
AcDbEntity
  8
0
  6
ByBlock
 62
     6
100
AcDbTrace
 10
354.8189689376282
 20
81.95903627212752
 30
0.0
 11
355.6523022709616
 21
81.95903627212752
 31
0.0
 12
355.2356356042949
 22
84.45903627212752
 32
0.0
 13
355.2356356042949
 23
84.45903627212752
 33
0.0
  0
POINT
  5
914C
330
8081
100
AcDbEntity
  8
DEFPOINTS
  6
ByBlock
 62
     0
100
AcDbPoint
 10
337.7966542831468
 20
87.45903627212753
 30
0.0
  0
POINT
  5
914D
330
8081
100
AcDbEntity
  8
DEFPOINTS
  6
ByBlock
 62
     0
100
AcDbPoint
 10
344.7966542831468
 20
84.45903627212754
 30
0.0
  0
POINT
  5
914E
330
8081
100
AcDbEntity
  8
DEFPOINTS
  6
ByBlock
 62
     0
100
AcDbPoint
 10
355.2356356042949
 20
84.45903627212752
 30
0.0
  0
ENDBLK
  5
914F
330
8081
100
AcDbEntity
  8
0
100
AcDbBlockEnd
  0
ENDSEC
  0
SECTION
  2
ENTITIES
  0
MTEXT
  5
C0
330
18
100
AcDbEntity
  8
0
100
AcDbMText
 10
41.26970765600413
 20
233.6950877649332
 30
0.0
 40
2.5
 41
0.0
 71
     1
 72
     5
  1

  7
ISOCP3
 73
     1
 44
1.0
1001
ACAD
1000
MTEXTBEGIN
1070
    73
1070
     1
1070
    44
1040
1.0
1070
    74
1070
     0
1000
MTEXTEND
  0
LINE
  5
5AD6
330
18
100
AcDbEntity
  8
DIM
100
AcDbLine
 10
145.1651727476281
 20
89.28691783479505
 30
0.0
 11
145.1651727476282
 21
101.1345987690537
 31
0.0
  0
LINE
  5
5AD7
330
18
100
AcDbEntity
  8
DIM
100
AcDbLine
 10
145.1651727476281
 20
89.28691783479505
 30
0.0
 11
153.1037919904674
 21
89.28691783479505
 31
0.0
  0
LINE
  5
5ADA
330
18
100
AcDbEntity
  8
DIM
100
AcDbLine
 10
65.34051101120486
 20
150.3376688063503
 30
0.0
 11
65.34051101120486
 21
141.1956382255172
 31
0.0
  0
TOLERANCE
  5
5E6E
330
18
100
AcDbEntity
  8
DIM
  6
ByBlock
100
AcDbFcf
  3
A
 10
153.1037919904674
 20
89.33785627092605
 30
0.0
  1
{\Fgdt;h}%%v0.005%%v%%vA%%v%%v
1001
ACAD
1000
DSTYLE
1002
{
1070
   140
1040
2.743999999999999
1070
   147
1040
0.6859999999999999
1002
}
  0
MTEXT
  5
608E
330
18
100
AcDbEntity
  8
0
100
AcDbMText
 10
17.81948278949767
 20
19.37399834316261
 30
0.0
 40
5.0
 41
0.0
 71
     1
 72
     5
  1
\Ftxt.shx,bigfont.shx|c128;呉銘宏
  7
JL
 73
     1
 44
1.0
1001
ACAD
1000
MTEXTBEGIN
1070
    73
1070
     1
1070
    44
1040
1.0
1070
    74
1070
     0
1000
MTEXTEND
  0
MTEXT
  5
6095
330
18
100
AcDbEntity
  8
0
100
AcDbMText
 10
81.23517665196368
 20
29.2278230533891
 30
0.0
 40
4.5
 41
0.0
 71
     1
 72
     5
  1
\Ftxt.shx,bigfont.shx|c128;1 : 1
  7
JL
 73
     1
 44
1.0
1001
ACAD
1000
MTEXTBEGIN
1070
    73
1070
     1
1070
    44
1040
1.0
1070
    74
1070
     0
1000
MTEXTEND
  0
MTEXT
  5
6098
330
18
100
AcDbEntity
  8
0
 48
2.0
370
    25
100
AcDbMText
 10
146.1234268906314
 20
3.636969934829039
 30
0.0
 40
4.5
 41
0.0
 71
     5
 72
     1
  1
\Ftxt.shx,bigfont.shx|c128;N L 4 0 0 7 2
 73
     1
 44
1.0
1001
ACAD
1000
MTEXTBEGIN
1070
    73
1070
     1
1070
    44
1040
1.0
1070
    74
1070
     0
1000
MTEXTEND
  0
MTEXT
  5
609C
330
18
100
AcDbEntity
  8
0
 48
2.0
100
AcDbMText
 10
178.1300746997774
 20
22.17550270047843
 30
0.0
 40
4.5
 41
0.0
 71
     5
 72
     1
  1
\P\Ftxt.shx,bigfont.shx|c128;TMF55X1.5P
 73
     1
 44
1.0
1001
ACAD
1000
MTEXTBEGIN
1070
    73
1070
     1
1070
    44
1040
1.0
1070
    74
1070
     0
1000
MTEXTEND
  0
MTEXT
  5
635A
330
18
100
AcDbEntity
  8
0
100
AcDbMText
 10
16.02348109109539
 20
28.64592585511957
 30
0.0
 40
4.5
 41
0.0
 71
     1
 72
     5
  1
\Ftxt.shx,bigfont.shx|c128;05.03.11
  7
JL
 73
     1
 44
1.0
1001
ACAD
1000
MTEXTBEGIN
1070
    73
1070
     1
1070
    44
1040
1.0
1070
    74
1070
     0
1000
MTEXTEND
  0
LEADER
  5
63C9
330
18
100
AcDbEntity
  8
DIM
 62
     6
100
AcDbLeader
  3
A
 76
     2
 10
128.4914575715596
 20
214.8158219419308
 30
0.0
 10
141.1417617398118
 20
226.0339715281128
 30
0.0
  0
MTEXT
  5
63CD
330
18
100
AcDbEntity
  8
DIM
100
AcDbMText
 10
143.2877902759227
 20
229.8894665640212
 30
0.0
 40
5.0
 41
1.0
 71
     1
 72
     5
  1
\Ftxt.shx,bigfont.shx|c128;1
 73
     1
 44
1.0
1001
ACAD
1000
MTEXTBEGIN
1070
    73
1070
     1
1070
    44
1040
1.0
1070
    74
1070
     0
1000
MTEXTEND
  0
LINE
  5
63CF
330
18
100
AcDbEntity
  8
DIM
100
AcDbLine
 10
65.34051101120486
 20
150.3376688063503
 30
0.0
 11
66.25296935943044
 21
149.3597947106253
 31
0.0
  0
HATCH
  5
63D0
330
18
100
AcDbEntity
  8
DIM
  6
Continuous
100
AcDbHatch
 10
0.0
 20
0.0
 30
0.0
210
0.0
220
0.0
230
1.0
  2
SOLID
 70
     1
 71
     0
 91
        1
 92
        7
 72
     0
 73
     1
 93
        3
 10
65.33938689675228
 20
148.3539804113698
 10
66.25811898535232
 20
149.3387882066135
 10
65.33938689675228
 20
150.3235960018573
 97
        0
 75
     0
 76
     1
 47
0.2359147607200769
 98
        1
 10
65.62720289298306
 20
149.5502642123051
  0
LINE
  5
63D1
330
18
100
AcDbEntity
  8
DIM
100
AcDbLine
 10
71.0000621661265
 20
147.5461409064658
 30
0.0
 11
71.0000621661265
 21
151.1924396964869
 31
0.0
  0
LINE
  5
63D2
330
18
100
AcDbEntity
  8
DIM
100
AcDbLine
 10
71.0000621661265
 20
151.1924396964869
 30
0.0
 11
74.80869741163719
 21
151.1924396964869
 31
0.0
  0
LINE
  5
63D3
330
18
100
AcDbEntity
  8
DIM
100
AcDbLine
 10
74.80869741163719
 20
147.5461409064658
 30
0.0
 11
74.80869741163719
 21
151.1924396964869
 31
0.0
  0
LINE
  5
63D4
330
18
100
AcDbEntity
  8
DIM
100
AcDbLine
 10
71.0000621661265
 20
147.5461409064658
 30
0.0
 11
74.80869741163719
 21
147.5461409064658
 31
0.0
  0
LINE
  5
63D5
330
18
100
AcDbEntity
  8
DIM
100
AcDbLine
 10
71.0000621661265
 20
149.3692903014763
 30
0.0
 11
66.23926833040343
 21
149.3692903014763
 31
0.0
  0
MTEXT
  5
63D6
330
18
100
AcDbEntity
  8
DIM
100
AcDbMText
 10
71.95729988856612
 20
150.8611079807133
 30
0.0
 40
3.0
 41
2.354875985554478
 71
     1
 72
     5
  1
A
  7
ISOCP3
 73
     1
 44
1.0
1001
ACAD
1000
MTEXTBEGIN
1070
    73
1070
     1
1070
    44
1040
1.0
1070
    74
1070
     0
1000
MTEXTEND
  0
LINE
  5
64AF
330
18
100
AcDbEntity
  8
図框線
100
AcDbLine
 10
197.9999999999997
 20
289.9999999999999
 30
0.0
 11
197.9999999999997
 21
-0.0000000000000568
 31
0.0
  0
LINE
  5
64B0
330
18
100
AcDbEntity
  8
図框線
370
    30
100
AcDbLine
 10
-0.0000000000002274
 20
0.0
 30
0.0
 11
-0.0000000000002274
 21
290.0
 31
0.0
  0
LINE
  5
64B1
330
18
100
AcDbEntity
  8
0
 62
     7
 48
5.0
100
AcDbLine
 39
4.0
 10
49.94750515634314
 20
27.8953239783782
 30
0.0
 11
55.27930887205229
 21
29.22827490730549
 31
0.0
  0
MTEXT
  5
64B2
330
18
100
AcDbEntity
  8
0
100
AcDbMText
 10
15.97866977158742
 20
9.63134010478825
 30
0.0
 40
6.0
 41
0.0
 71
     1
 72
     5
  1
\Ftxt.shx,bigfont.shx|c128;日機株式会社
  7
LKK
 73
     1
 44
1.0
1001
ACAD
1000
MTEXTBEGIN
1070
    73
1070
     1
1070
    44
1040
1.0
1070
    74
1070
     0
1000
MTEXTEND
  0
LINE
  5
64B3
330
18
100
AcDbEntity
  8
図框線
100
AcDbLine
 10
0.0
 20
0.0
 30
0.0
 11
197.9999999999997
 21
0.0
 31
0.0
  0
LINE
  5
64B7
330
18
100
AcDbEntity
  8
図框線
100
AcDbLine
 10
0.0
 20
12.0
 30
0.0
 11
197.9999999999997
 21
12.00000000000005
 31
0.0
  0
LINE
  5
64B8
330
18
100
AcDbEntity
  8
図框線
100
AcDbLine
 10
0.0
 20
22.0
 30
0.0
 11
96.0
 21
22.0
 31
0.0
  0
LINE
  5
64B9
330
18
100
AcDbEntity
  8
図框線
100
AcDbLine
 10
0.0
 20
32.0
 30
0.0
 11
197.9999999999997
 21
32.0
 31
0.0
  0
LINE
  5
64BA
330
18
100
AcDbEntity
  8
図框線
100
AcDbLine
 10
12.0
 20
32.0
 30
0.0
 11
12.0
 21
12.0
 31
0.0
  0
LINE
  5
64BB
330
18
100
AcDbEntity
  8
図框線
100
AcDbLine
 10
32.0
 20
32.0
 30
0.0
 11
32.0
 21
12.0
 31
0.0
  0
MTEXT
  5
64BC
330
18
100
AcDbEntity
  8
0
100
AcDbMText
 10
2.949444248820782
 20
29.04715033351227
 30
0.0
 40
4.5
 41
0.0
 71
     1
 72
     5
  1
\Ftxt.shx,bigfont.shx|c128;日 付
  7
JL
 73
     1
 44
1.0
1001
ACAD
1000
MTEXTBEGIN
1070
    73
1070
     1
1070
    44
1040
1.0
1070
    74
1070
     0
1000
MTEXTEND
  0
MTEXT
  5
64BD
330
18
100
AcDbEntity
  8
0
100
AcDbMText
 10
3.095712364910014
 20
19.83833899470915
 30
0.0
 40
4.5
 41
0.0
 71
     1
 72
     5
  1
\Ftxt.shx,bigfont.shx|c128;製 図
  7
JL
 73
     1
 44
1.0
1001
ACAD
1000
MTEXTBEGIN
1070
    73
1070
     1
1070
    44
1040
1.0
1070
    74
1070
     0
1000
MTEXTEND
  0
LINE
  5
64C0
330
18
100
AcDbEntity
  8
0
 62
     7
370
    25
100
AcDbLine
 10
55.27930887205229
 20
23.89647119159633
 30
0.0
 11
55.27930887205229
 21
29.22827490730549
 31
0.0
  0
MTEXT
  5
64C1
330
18
100
AcDbEntity
  8
0
100
AcDbMText
 10
66.70254067332553
 20
29.42231870267847
 30
0.0
 40
4.5
 41
0.0
 71
     1
 72
     5
  1
\Ftxt.shx,bigfont.shx|c128;尺 度
  7
JL
 73
     1
 44
1.0
1001
ACAD
1000
MTEXTBEGIN
1070
    73
1070
     1
1070
    44
1040
1.0
1070
    74
1070
     0
1000
MTEXTEND
  0
LINE
  5
64C2
330
18
100
AcDbEntity
  8
図框線
100
AcDbLine
 10
64.0
 20
32.0
 30
0.0
 11
64.0
 21
12.0
 31
0.0
  0
LINE
  5
64C3
330
18
100
AcDbEntity
  8
0
 62
     7
370
    25
100
AcDbLine
 10
41.2833241183157
 20
23.23894871736115
 30
0.0
 11
41.2833241183157
 21
29.67466750005656
 31
0.0
  0
CIRCLE
  5
64C4
330
18
100
AcDbEntity
  8
0
 62
     7
100
AcDbCircle
 10
41.2833241183157
 20
26.5623730494508
 30
0.0
 40
2.665901857854641
  0
LINE
  5
64C6
330
18
100
AcDbEntity
  8
0
 62
     7
370
    25
100
AcDbLine
 10
49.18030281106076
 20
26.56237304945091
 30
0.0
 11
55.75797321903156
 21
26.56237304945091
 31
0.0
  0
LINE
  5
64C7
330
18
100
AcDbEntity
  8
0
 62
     7
100
AcDbLine
 10
49.94750515634314
 20
25.22942212052362
 30
0.0
 11
55.27930887205229
 21
23.89647119159633
 31
0.0
  0
LINE
  5
64C8
330
18
100
AcDbEntity
  8
図框線
100
AcDbLine
 10
44.0
 20
21.99999999999989
 30
0.0
 11
44.0
 21
12.0
 31
0.0
  0
LINE
  5
64C9
330
18
100
AcDbEntity
  8
0
 62
     7
370
    25
100
AcDbLine
 10
37.95172532843935
 20
26.5623730494508
 30
0.0
 11
44.81391594676916
 21
26.56237304945091
 31
0.0
  0
CIRCLE
  5
64CA
330
18
100
AcDbEntity
  8
0
 62
     7
100
AcDbCircle
 10
41.2833241183157
 20
26.5623730494508
 30
0.0
 40
1.33295092892732
  0
MTEXT
  5
64CB
330
18
100
AcDbEntity
  8
0
100
AcDbMText
 10
35.12086518039769
 20
19.39982343168049
 30
0.0
 40
4.5
 41
0.0
 71
     1
 72
     5
  1
\Ftxt.shx,bigfont.shx|c128;検 図
  7
JL
 73
     1
 44
1.0
1001
ACAD
1000
MTEXTBEGIN
1070
    73
1070
     1
1070
    44
1040
1.0
1070
    74
1070
     0
1000
MTEXTEND
  0
LINE
  5
64CC
330
18
100
AcDbEntity
  8
0
 62
     7
370
    25
100
AcDbLine
 10
49.94750515634314
 20
25.22942212052362
 30
0.0
 11
49.94750515634314
 21
27.8953239783782
 31
0.0
  0
MTEXT
  5
64CD
330
18
100
AcDbEntity
  8
0
100
AcDbMText
 10
66.99507418337498
 20
19.62882052001464
 30
0.0
 40
4.5
 41
0.0
 71
     1
 72
     5
  1
\Ftxt.shx,bigfont.shx|c128;承 認
  7
JL
 73
     1
 44
1.0
1001
ACAD
1000
MTEXTBEGIN
1070
    73
1070
     1
1070
    44
1040
1.0
1070
    74
1070
     0
1000
MTEXTEND
  0
LINE
  5
64CE
330
18
100
AcDbEntity
  8
図框線
100
AcDbLine
 10
132.615790078639
 20
43.13491348924492
 30
0.0
 11
192.615790078639
 21
43.13491348924481
 31
0.0
  0
LINE
  5
64CF
330
18
100
AcDbEntity
  8
図框線
100
AcDbLine
 10
132.615790078639
 20
50.33491348924497
 30
0.0
 11
192.615790078639
 21
50.33491348924497
 31
0.0
  0
LINE
  5
64D0
330
18
100
AcDbEntity
  8
図框線
100
AcDbLine
 10
132.615790078639
 20
57.5349134892449
 30
0.0
 11
192.615790078639
 21
57.53491348924478
 31
0.0
  0
LINE
  5
64D1
330
18
100
AcDbEntity
  8
図框線
100
AcDbLine
 10
132.615790078639
 20
64.73491348924494
 30
0.0
 11
192.615790078639
 21
64.73491348924483
 31
0.0
  0
LINE
  5
64D2
330
18
100
AcDbEntity
  8
図框線
100
AcDbLine
 10
132.615790078639
 20
35.93491348924488
 30
0.0
 11
192.615790078639
 21
35.93491348924488
 31
0.0
  0
MTEXT
  5
64D3
330
18
100
AcDbEntity
  8
0
 62
     7
 48
2.0
100
AcDbMText
 10
162.5011900445104
 20
65.52808189982909
 30
0.0
 40
4.8
 41
0.0
 71
     5
 72
     1
  1
\P\Ftxt.shx,bigfont.shx|c128;諸　　　　元
 73
     1
 44
1.0
1001
ACAD
1000
MTEXTBEGIN
1070
    73
1070
     1
1070
    44
1040
1.0
1070
    74
1070
     0
1000
MTEXTEND
  0
LINE
  5
64D5
330
18
100
AcDbEntity
  8
図框線
100
AcDbLine
 10
132.615790078639
 20
64.73491348924483
 30
0.0
 11
132.615790078639
 21
35.93491348924488
 31
0.0
  0
MTEXT
  5
64D6
330
18
100
AcDbEntity
  8
0
100
AcDbMText
 10
136.1382258923192
 20
56.00840432212407
 30
0.0
 40
4.4
 41
163.916286842249
 71
     1
 72
     5
  1
\Ftxt.shx,bigfont.shx|c128;熱　処　理
  7
JL
 73
     1
 44
1.0
1001
ACAD
1000
MTEXTBEGIN
1070
    73
1070
     1
1070
    44
1040
1.0
1070
    74
1070
     0
1000
MTEXTEND
  0
LINE
  5
64D7
330
18
100
AcDbEntity
  8
図框線
100
AcDbLine
 10
156.615790078639
 20
57.53491348924478
 30
0.0
 11
156.615790078639
 21
35.93491348924488
 31
0.0
  0
MTEXT
  5
64D8
330
18
100
AcDbEntity
  8
0
100
AcDbMText
 10
97.65702556263818
 20
11.15332144655735
 30
0.0
 40
5.0
 41
0.0
 71
     1
 72
     5
  1
\Ftxt.shx,bigfont.shx|c128;図  面  番  号
  7
JL
 73
     1
 44
1.0
1001
ACAD
1000
MTEXTBEGIN
1070
    73
1070
     1
1070
    44
1040
1.0
1070
    74
1070
     0
1000
MTEXTEND
  0
MTEXT
  5
64D9
330
18
100
AcDbEntity
  8
0
 62
     7
 48
2.0
100
AcDbMText
 10
121.8260850653862
 20
22.29156825453561
 30
0.0
 40
4.5
 41
0.0
 71
     5
 72
     1
  1
\P\Ftxt.shx,bigfont.shx|c128;    精密ロックナット
 73
     1
 44
1.0
1001
ACAD
1000
MTEXTBEGIN
1070
    73
1070
     1
1070
    44
1040
1.0
1070
    74
1070
     0
1000
MTEXTEND
  0
MTEXT
  5
64DA
330
18
100
AcDbEntity
  8
0
370
    25
100
AcDbMText
 10
98.8002923053598
 20
29.80688815403971
 30
0.0
 40
5.0
 41
0.0
 71
     1
 72
     5
  1
\Ftxt.shx,bigfont.shx|c128;品  名
  7
JL
 73
     1
 44
1.0
1001
ACAD
1000
MTEXTBEGIN
1070
    73
1070
     1
1070
    44
1040
1.0
1070
    74
1070
     0
1000
MTEXTEND
  0
LINE
  5
64DB
330
18
100
AcDbEntity
  8
図框線
100
AcDbLine
 10
96.0
 20
32.0
 30
0.0
 11
96.0
 21
0.19104161092514
 31
0.0
  0
LINE
  5
64DC
330
18
100
AcDbEntity
  8
図框線
100
AcDbLine
 10
76.0
 20
32.0
 30
0.0
 11
76.0
 21
12.0
 31
0.0
  0
LINE
  5
64DE
330
18
100
AcDbEntity
  8
図框線
100
AcDbLine
 10
153.2235601908683
 20
32.0
 30
0.0
 11
153.2235601908683
 21
12.0
 31
0.0
  0
MTEXT
  5
64DF
330
18
100
AcDbEntity
  8
0
100
AcDbMText
 10
135.85795152494
 20
49.00617587486397
 30
0.0
 40
4.4
 41
163.6058628849672
 71
     1
 72
     5
  1
\Ftxt.shx,bigfont.shx|c128;表 面 処 理
  7
JL
 73
     1
 44
1.0
1001
ACAD
1000
MTEXTBEGIN
1070
    73
1070
     1
1070
    44
1040
1.0
1070
    74
1070
     0
1000
MTEXTEND
  0
MTEXT
  5
64E0
330
18
100
AcDbEntity
  8
0
100
AcDbMText
 10
136.148017373375
 20
41.71770302125605
 30
0.0
 40
4.4
 41
166.1718
 71
     1
 72
     5
  1
\Ftxt.shx,bigfont.shx|c128;等     　級
  7
JL
 73
     1
 44
1.0
1001
ACAD
1000
MTEXTBEGIN
1070
    73
1070
     1
1070
    44
1040
1.0
1070
    74
1070
     0
1000
MTEXTEND
  0
LINE
  5
64E1
330
18
100
AcDbEntity
  8
図框線
100
AcDbLine
 10
192.615790078639
 20
64.73491348924483
 30
0.0
 11
192.615790078639
 21
35.93491348924499
 31
0.0
  0
MTEXT
  5
64E2
330
18
100
AcDbEntity
  8
0
100
AcDbMText
 10
161.3627933880816
 20
55.83344641471445
 30
0.0
 40
4.4
 41
291.8960056857887
 71
     1
 72
     5
  1
\Ftxt.shx,bigfont.shx|c128;調質　HRC30%%d%%p２%%d
  7
JL
 73
     1
 44
1.0
1001
ACAD
1000
MTEXTBEGIN
1070
    73
1070
     1
1070
    44
1040
1.0
1070
    74
1070
     0
1000
MTEXTEND
  0
MTEXT
  5
64E4
330
18
100
AcDbEntity
  8
0
370
    25
100
AcDbMText
 10
157.2494735287423
 20
29.58569764093568
 30
0.0
 40
5.0
 41
0.0
 71
     1
 72
     5
  1
\Ftxt.shx,bigfont.shx|c128;型  番
  7
JL
 73
     1
 44
1.0
1001
ACAD
1000
MTEXTBEGIN
1070
    73
1070
     1
1070
    44
1040
1.0
1070
    74
1070
     0
1000
MTEXTEND
  0
MTEXT
  5
64E5
330
18
100
AcDbEntity
  8
0
100
AcDbMText
 10
172.787265122339
 20
11.23700203391422
 30
0.0
 40
5.0
 41
0.0
 71
     1
 72
     5
  1
\Ftxt.shx,bigfont.shx|c128;変更
  7
JL
 73
     1
 44
1.0
1001
ACAD
1000
MTEXTBEGIN
1070
    73
1070
     1
1070
    44
1040
1.0
1070
    74
1070
     0
1000
MTEXTEND
  0
LINE
  5
64E6
330
18
100
AcDbEntity
  8
図框線
100
AcDbLine
 10
171.0
 20
12.00907027842731
 30
0.0
 11
171.0
 21
0.0
 31
0.0
  0
MTEXT
  5
64E7
330
18
100
AcDbEntity
  8
0
100
AcDbMText
 10
161.623432389518
 20
41.7183135927072
 30
0.0
 40
4.4
 41
290.783364796891
 71
     1
 72
     5
  1
\Ftxt.shx,bigfont.shx|c128;ＩＳＯ - ４Ｈ
  7
JL
 73
     1
 44
1.0
1001
ACAD
1000
MTEXTBEGIN
1070
    73
1070
     1
1070
    44
1040
1.0
1070
    74
1070
     0
1000
MTEXTEND
  0
MTEXT
  5
64E8
330
18
100
AcDbEntity
  8
0
100
AcDbMText
 10
161.7978935876483
 20
48.65328293790913
 30
0.0
 40
4.4
 41
291.4548
 71
     1
 72
     5
  1
\Ftxt.shx,bigfont.shx|c128;黒  　    染
  7
JL
 73
     1
 44
1.0
1001
ACAD
1000
MTEXTBEGIN
1070
    73
1070
     1
1070
    44
1040
1.0
1070
    74
1070
     0
1000
MTEXTEND
  0
MTEXT
  5
64EA
330
18
100
AcDbEntity
  8
0
100
AcDbMText
 10
60.06318600759005
 20
270.095850257545
 30
0.0
 40
5.0
 41
0.0
 71
     1
 72
     5
  1
\Ftxt.shx,bigfont.shx|c128;M6X1.0P-8L
  7
JL
 73
     1
 44
1.0
1001
ACAD
1000
MTEXTBEGIN
1070
    73
1070
     1
1070
    44
1040
1.0
1070
    74
1070
     0
1000
MTEXTEND
  0
MTEXT
  5
64EB
330
18
100
AcDbEntity
  8
0
100
AcDbMText
 10
60.06318600759005
 20
262.095850257545
 30
0.0
 40
5.0
 41
0.0
 71
     1
 72
     5
  1
\Ftxt.shx,bigfont.shx|c128;%%c5.2X5L
  7
JL
 73
     1
 44
1.0
1001
ACAD
1000
MTEXTBEGIN
1070
    73
1070
     1
1070
    44
1040
1.0
1070
    74
1070
     0
1000
MTEXTEND
  0
LINE
  5
64EC
330
18
100
AcDbEntity
  8
図框線
100
AcDbLine
 10
-0.0000000000002274
 20
263.9999999999999
 30
0.0
 11
197.9999999999997
 21
263.9999999999999
 31
0.0
  0
LINE
  5
64ED
330
18
100
AcDbEntity
  8
図框線
100
AcDbLine
 10
-0.0000000000002274
 20
271.9999999999999
 30
0.0
 11
197.9999999999997
 21
271.9999999999999
 31
0.0
  0
LINE
  5
64EE
330
18
100
AcDbEntity
  8
図框線
 62
     9
100
AcDbLine
 10
-0.0000000000002274
 20
279.9999999999999
 30
0.0
 11
197.9999999999997
 21
279.9999999999999
 31
0.0
  0
LINE
  5
64EF
330
18
100
AcDbEntity
  8
図框線
100
AcDbLine
 10
-0.0000000000002274
 20
290.0
 30
0.0
 11
197.9999999999997
 21
290.0
 31
0.0
  0
MTEXT
  5
64F0
330
18
100
AcDbEntity
  8
0
100
AcDbMText
 10
59.41630259681733
 20
287.3155952051104
 30
0.0
 40
5.0
 41
0.0
 71
     1
 72
     5
  1
\Ftxt.shx,bigfont.shx|c128;図    番 / 規　　格
  7
JL
 73
     1
 44
1.0
1001
ACAD
1000
MTEXTBEGIN
1070
    73
1070
     1
1070
    44
1040
1.0
1070
    74
1070
     0
1000
MTEXTEND
  0
LINE
  5
64F1
330
18
100
AcDbEntity
  8
図框線
100
AcDbLine
 10
-0.0000000000002274
 20
263.9999999999999
 30
0.0
 11
197.9999999999997
 21
263.9999999999999
 31
0.0
  0
LINE
  5
64F2
330
18
100
AcDbEntity
  8
図框線
100
AcDbLine
 10
-0.0000000000002274
 20
255.9999999999999
 30
0.0
 11
197.9999999999997
 21
255.9999999999999
 31
0.0
  0
MTEXT
  5
64F3
330
18
100
AcDbEntity
  8
0
100
AcDbMText
 10
22.01434914141237
 20
286.7888025819827
 30
0.0
 40
5.0
 41
0.0
 71
     1
 72
     5
  1
\Ftxt.shx,bigfont.shx|c128;品　          名
  7
JL
 73
     1
 44
1.0
1001
ACAD
1000
MTEXTBEGIN
1070
    73
1070
     1
1070
    44
1040
1.0
1070
    74
1070
     0
1000
MTEXTEND
  0
MTEXT
  5
64F4
330
18
100
AcDbEntity
  8
0
100
AcDbMText
 10
18.8650376130422
 20
270.5298549795346
 30
0.0
 40
6.0
 41
0.0
 71
     1
 72
     5
  1
\Ftxt.shx,bigfont.shx|c128;セットスクリュ-
  7
JL
 73
     1
 44
1.0
1001
ACAD
1000
MTEXTBEGIN
1070
    73
1070
     1
1070
    44
1040
1.0
1070
    74
1070
     0
1000
MTEXTEND
  0
MTEXT
  5
64F5
330
18
100
AcDbEntity
  8
0
100
AcDbMText
 10
18.66941459004738
 20
278.3660650505403
 30
0.0
 40
6.0
 41
0.0
 71
     1
 72
     5
  1
\Ftxt.shx,bigfont.shx|c128;ロックナット　  
  7
JL
 73
     1
 44
1.0
1001
ACAD
1000
MTEXTBEGIN
1070
    73
1070
     1
1070
    44
1040
1.0
1070
    74
1070
     0
1000
MTEXTEND
  0
MTEXT
  5
64F6
330
18
100
AcDbEntity
  8
0
100
AcDbMText
 10
18.8650376130422
 20
262.5298549795346
 30
0.0
 40
6.0
 41
0.0
 71
     1
 72
     5
  1
\Ftxt.shx,bigfont.shx|c128;ロックピン 
  7
JL
 73
     1
 44
1.0
1001
ACAD
1000
MTEXTBEGIN
1070
    73
1070
     1
1070
    44
1040
1.0
1070
    74
1070
     0
1000
MTEXTEND
  0
LINE
  5
64F7
330
18
100
AcDbEntity
  8
図框線
100
AcDbLine
 10
14.99999999999977
 20
289.9999999999998
 30
0.0
 11
15.00000000000011
 21
255.9999999999999
 31
0.0
  0
LINE
  5
64F8
330
18
100
AcDbEntity
  8
0
100
AcDbLine
 10
14.99999999999977
 20
289.9999999999998
 30
0.0
 11
14.99999999999977
 21
263.9999999999999
 31
0.0
  0
MTEXT
  5
64F9
330
18
100
AcDbEntity
  8
0
100
AcDbMText
 10
6.215289087390488
 20
262.7436409356394
 30
0.0
 40
5.0
 41
0.0
 71
     1
 72
     5
  1
\Ftxt.shx,bigfont.shx|c128;3
  7
JL
 73
     1
 44
1.0
1001
ACAD
1000
MTEXTBEGIN
1070
    73
1070
     1
1070
    44
1040
1.0
1070
    74
1070
     0
1000
MTEXTEND
  0
MTEXT
  5
64FA
330
18
100
AcDbEntity
  8
0
100
AcDbMText
 10
7.101957026666809
 20
278.5798510066454
 30
0.0
 40
5.0
 41
0.0
 71
     1
 72
     5
  1
\Ftxt.shx,bigfont.shx|c128;1
  7
JL
 73
     1
 44
1.0
1001
ACAD
1000
MTEXTBEGIN
1070
    73
1070
     1
1070
    44
1040
1.0
1070
    74
1070
     0
1000
MTEXTEND
  0
MTEXT
  5
64FB
330
18
100
AcDbEntity
  8
0
100
AcDbMText
 10
6.215289087390488
 20
270.7436409356394
 30
0.0
 40
5.0
 41
0.0
 71
     1
 72
     5
  1
\Ftxt.shx,bigfont.shx|c128;2
  7
JL
 73
     1
 44
1.0
1001
ACAD
1000
MTEXTBEGIN
1070
    73
1070
     1
1070
    44
1040
1.0
1070
    74
1070
     0
1000
MTEXTEND
  0
MTEXT
  5
64FC
330
18
100
AcDbEntity
  8
0
100
AcDbMText
 10
2.209083991842362
 20
287.0885254164057
 30
0.0
 40
5.0
 41
0.0
 71
     1
 72
     5
  1
\Ftxt.shx,bigfont.shx|c128;照   号
  7
JL
 73
     1
 44
1.0
1001
ACAD
1000
MTEXTBEGIN
1070
    73
1070
     1
1070
    44
1040
1.0
1070
    74
1070
     0
1000
MTEXTEND
  0
LINE
  5
64FD
330
18
100
AcDbEntity
  8
図框線
 62
     9
100
AcDbLine
 10
54.99999999999977
 20
289.9999999999998
 30
0.0
 11
54.99999999999977
 21
256.0
 31
0.0
  0
MTEXT
  5
64FE
330
18
100
AcDbEntity
  8
0
100
AcDbMText
 10
146.3353765925378
 20
287.5804049742369
 30
0.0
 40
5.0
 41
0.0
 71
     1
 72
     5
  1
\Ftxt.shx,bigfont.shx|c128;備           考
  7
JL
 73
     1
 44
1.0
1001
ACAD
1000
MTEXTBEGIN
1070
    73
1070
     1
1070
    44
1040
1.0
1070
    74
1070
     0
1000
MTEXTEND
  0
LINE
  5
64FF
330
18
100
AcDbEntity
  8
図框線
 62
     9
100
AcDbLine
 10
94.99999999999976
 20
289.9999999999999
 30
0.0
 11
94.99999999999976
 21
255.9999999999999
 31
0.0
  0
MTEXT
  5
6500
330
18
100
AcDbEntity
  8
0
100
AcDbMText
 10
96.78387029776377
 20
262.3660650505403
 30
0.0
 40
5.0
 41
0.0
 71
     1
 72
     5
  1
\Ftxt.shx,bigfont.shx|c128;C3604
  7
JL
 73
     1
 44
1.0
1001
ACAD
1000
MTEXTBEGIN
1070
    73
1070
     1
1070
    44
1040
1.0
1070
    74
1070
     0
1000
MTEXTEND
  0
MTEXT
  5
6501
330
18
100
AcDbEntity
  8
0
100
AcDbMText
 10
96.78387029776377
 20
278.3660650505403
 30
0.0
 40
5.0
 41
0.0
 71
     1
 72
     5
  1
\Ftxt.shx,bigfont.shx|c128;SCM-440
  7
JL
 73
     1
 44
1.0
1001
ACAD
1000
MTEXTBEGIN
1070
    73
1070
     1
1070
    44
1040
1.0
1070
    74
1070
     0
1000
MTEXTEND
  0
MTEXT
  5
6502
330
18
100
AcDbEntity
  8
0
100
AcDbMText
 10
96.78387029776377
 20
270.3660650505403
 30
0.0
 40
5.0
 41
0.0
 71
     1
 72
     5
  1
\Ftxt.shx,bigfont.shx|c128;SCM435
  7
JL
 73
     1
 44
1.0
1001
ACAD
1000
MTEXTBEGIN
1070
    73
1070
     1
1070
    44
1040
1.0
1070
    74
1070
     0
1000
MTEXTEND
  0
MTEXT
  5
6503
330
18
100
AcDbEntity
  8
0
100
AcDbMText
 10
99.80032499445407
 20
287.5804049742369
 30
0.0
 40
5.0
 41
0.0
 71
     1
 72
     5
  1
\Ftxt.shx,bigfont.shx|c128;材　質
  7
JL
 73
     1
 44
1.0
1001
ACAD
1000
MTEXTBEGIN
1070
    73
1070
     1
1070
    44
1040
1.0
1070
    74
1070
     0
1000
MTEXTEND
  0
LINE
  5
6504
330
18
100
AcDbEntity
  8
図框線
 62
     9
100
AcDbLine
 10
114.9999999999997
 20
289.9999999999999
 30
0.0
 11
114.9999999999997
 21
255.9999999999999
 31
0.0
  0
LINE
  5
6505
330
18
100
AcDbEntity
  8
図框線
100
AcDbLine
 10
129.9999999999998
 20
289.9999999999999
 30
0.0
 11
129.9999999999998
 21
255.9999999999999
 31
0.0
  0
MTEXT
  5
6506
330
18
100
AcDbEntity
  8
0
100
AcDbMText
 10
121.2152890873904
 20
262.7436409356394
 30
0.0
 40
5.0
 41
0.0
 71
     1
 72
     5
  1
\Ftxt.shx,bigfont.shx|c128;3
  7
JL
 73
     1
 44
1.0
1001
ACAD
1000
MTEXTBEGIN
1070
    73
1070
     1
1070
    44
1040
1.0
1070
    74
1070
     0
1000
MTEXTEND
  0
MTEXT
  5
6507
330
18
100
AcDbEntity
  8
0
100
AcDbMText
 10
122.1019570266667
 20
278.5798510066454
 30
0.0
 40
5.0
 41
0.0
 71
     1
 72
     5
  1
\Ftxt.shx,bigfont.shx|c128;1
  7
JL
 73
     1
 44
1.0
1001
ACAD
1000
MTEXTBEGIN
1070
    73
1070
     1
1070
    44
1040
1.0
1070
    74
1070
     0
1000
MTEXTEND
  0
MTEXT
  5
6508
330
18
100
AcDbEntity
  8
0
100
AcDbMText
 10
121.2152890873904
 20
270.7436409356394
 30
0.0
 40
5.0
 41
0.0
 71
     1
 72
     5
  1
\Ftxt.shx,bigfont.shx|c128;3
  7
JL
 73
     1
 44
1.0
1001
ACAD
1000
MTEXTBEGIN
1070
    73
1070
     1
1070
    44
1040
1.0
1070
    74
1070
     0
1000
MTEXTEND
  0
MTEXT
  5
6509
330
18
100
AcDbEntity
  8
0
100
AcDbMText
 10
116.433740311917
 20
287.5804049742369
 30
0.0
 40
5.0
 41
0.0
 71
     1
 72
     5
  1
\Ftxt.shx,bigfont.shx|c128;数   量
  7
JL
 73
     1
 44
1.0
1001
ACAD
1000
MTEXTBEGIN
1070
    73
1070
     1
1070
    44
1040
1.0
1070
    74
1070
     0
1000
MTEXTEND
  0
DIMENSION
  5
792D
330
18
100
AcDbEntity
  8
0
100
AcDbDimension
  2
*D0
 10
127.8405110112048
 20
76.24763161144433
 30
0.0
 11
92.84051101120486
 21
76.24763161144433
 31
0.0
 12
-216.956143271942
 22
16.6755624969262
 32
0.0
 70
   160
  1
%%c<>%%p0.5
 71
     5
 42
-1.0
  3
A
100
AcDbAlignedDimension
 13
57.84051101120486
 23
101.1345987690537
 33
0.0
 14
127.8405110112048
 24
101.1345987690537
 34
0.0
100
AcDbRotatedDimension
  0
DIMENSION
  5
792E
330
18
100
AcDbEntity
  8
0
100
AcDbDimension
  2
*D1
 10
120.8405110112048
 20
83.45697888653452
 30
0.0
 11
92.84051101120486
 21
85.95697888653452
 31
0.0
 12
-216.956143271942
 22
16.6755624969262
 32
0.0
 70
    32
  1
%%C<>
 71
     5
 42
-1.0
  3
A
100
AcDbAlignedDimension
 13
64.84051101120485
 23
101.1345987690537
 33
0.0
 14
120.8405110112048
 24
101.1345987690537
 34
0.0
100
AcDbRotatedDimension
  0
DIMENSION
  5
7931
330
18
100
AcDbEntity
  8
0
100
AcDbDimension
  2
*D2
 10
130.3405110112048
 20
69.03828363679561
 30
0.0
 11
92.42416220764358
 21
69.03828363679561
 31
0.0
 12
-216.956143271942
 22
16.6755624969262
 32
0.0
 70
   160
  1
%%C<>%%p0.2
 71
     5
 42
-1.0
  3
A
100
AcDbAlignedDimension
 13
55.34051101120486
 23
106.6345987690538
 33
0.0
 14
130.3405110112048
 24
106.6945987690537
 34
0.0
100
AcDbRotatedDimension
  0
DIMENSION
  5
7940
330
18
100
AcDbEntity
  8
0
100
AcDbDimension
  2
*D3
 10
41.3100652228893
 20
114.1345987690537
 30
0.0
 11
38.81006522288931
 21
107.6345987690537
 31
0.0
 12
-216.956143271942
 22
16.6755624969262
 32
0.0
 70
    32
 71
     5
 42
-1.0
  3
A
100
AcDbAlignedDimension
 13
57.84051101120486
 23
101.1345987690537
 33
0.0
 14
53.34051101120485
 24
114.1345987690537
 34
0.0
 50
90.0
100
AcDbRotatedDimension
  0
MTEXT
  5
798E
330
18
100
AcDbEntity
  8
DIM
100
AcDbMText
 10
24.50209230805925
 20
128.3734401554801
 30
0.0
 40
3.0
 41
45.86832165126851
 71
     1
 72
     5
  1
(6等分)
  7
TXT
 73
     1
 44
1.0
1001
ACAD
1000
MTEXTBEGIN
1070
    73
1070
     1
1070
    44
1040
1.0
1070
    74
1070
     0
1000
MTEXTEND
  0
MTEXT
  5
79A3
330
18
100
AcDbEntity
  8
DIM
100
AcDbMText
 10
139.3603918527031
 20
161.2996803878495
 30
0.0
 40
5.0
 41
1.0
 71
     1
 72
     5
  1
\Ftxt.shx,bigfont.shx|c128;3
 73
     1
 44
1.0
1001
ACAD
1000
MTEXTBEGIN
1070
    73
1070
     1
1070
    44
1040
1.0
1070
    74
1070
     0
1000
MTEXTEND
  0
LEADER
  5
79A4
330
18
100
AcDbEntity
  8
DIM
 62
     6
100
AcDbLeader
  3
A
 74
     0
 40
4.0
 41
2.666666666666666
 76
     2
 10
128.8333616477544
 20
121.2643849169365
 30
0.0
 10
142.0712143493702
 20
138.9607528901686
 30
0.0
  0
MTEXT
  5
79A5
330
18
100
AcDbEntity
  8
DIM
100
AcDbMText
 10
142.0649250609452
 20
144.6541759834945
 30
0.0
 40
5.0
 41
1.0
 71
     1
 72
     5
  1
\Ftxt.shx,bigfont.shx|c128;2
 73
     1
 44
1.0
1001
ACAD
1000
MTEXTBEGIN
1070
    73
1070
     1
1070
    44
1040
1.0
1070
    74
1070
     0
1000
MTEXTEND
  0
LWPOLYLINE
  5
79A7
330
18
100
AcDbEntity
  8
0
100
AcDbPolyline
 90
        3
 70
     1
 43
0.0
 10
77.47180263110317
 20
101.1345987690537
 10
78.87476378523388
 20
98.70459876905368
 10
76.06884147697247
 20
98.70459876905368
  0
LWPOLYLINE
  5
79A8
330
18
100
AcDbEntity
  8
0
100
AcDbPolyline
 90
        3
 70
     1
 43
0.0
 10
74.66588032284153
 20
101.1345987690537
 10
76.06884147697247
 20
98.70459876905368
 10
73.2629191687106
 20
98.70459876905368
  0
LWPOLYLINE
  5
79A9
330
18
100
AcDbEntity
  8
0
100
AcDbPolyline
 90
        3
 70
     1
 43
0.0
 10
80.27772493936481
 20
101.1345987690537
 10
81.68068609349575
 20
98.70459876905368
 10
78.87476378523388
 20
98.70459876905368
  0
MTEXT
  5
79AA
330
18
100
AcDbEntity
  8
0
100
AcDbMText
 10
76.21447040737348
 20
97.91797383571095
 30
0.0
 40
3.0
 41
1.0
 71
     1
 72
     5
  1
\Ftxt.shx,bigfont.shx|c128;G
 73
     1
 44
1.0
1001
ACAD
1000
MTEXTBEGIN
1070
    73
1070
     1
1070
    44
1040
1.0
1070
    74
1070
     0
1000
MTEXTEND
  0
DIMENSION
  5
79B5
330
18
100
AcDbEntity
  8
0
100
AcDbDimension
  2
*D4
 10
120.3405110112048
 20
141.1956382255172
 30
0.0
 11
92.84051101120486
 21
143.6956382255172
 31
0.0
 12
-216.956143271942
 22
16.6755624969262
 32
0.0
 70
    32
  1
M<>X1.5P
 71
     5
 42
-1.0
  3
A
100
AcDbAlignedDimension
 13
65.34051101120486
 23
124.5345987690537
 33
0.0
 14
120.3405110112048
 24
124.5345987690537
 34
0.0
100
AcDbRotatedDimension
  0
LEADER
  5
7AF6
330
18
100
AcDbEntity
  8
DIM
 62
     6
100
AcDbLeader
  3
A
 73
     0
 75
     1
 40
3.0
 41
25.2
 76
     3
 10
58.18706565633454
 20
201.5569337908896
 30
0.0
 10
49.22109444740915
 20
191.1515655535444
 30
0.0
 10
46.72109444740914
 20
191.1515655535444
 30
0.0
340
7AF7
  0
MTEXT
  5
7AF7
102
{ACAD_REACTORS
330
7AF6
102
}
330
18
100
AcDbEntity
  8
DIM
 62
     3
100
AcDbMText
 10
45.72109444740914
 20
193.6515655535444
 30
0.0
 40
3.0
 41
0.0
 71
     6
 72
     1
  1
\A1;6-%%C4.3深さ4
  7
TXT
 73
     1
 44
1.0
1001
ACAD
1000
MTEXTBEGIN
1070
    73
1070
     1
1070
    44
1040
1.0
1070
    74
1070
     0
1000
MTEXTEND
  0
MTEXT
  5
7B19
330
18
100
AcDbEntity
  8
0
  6
ByBlock
 62
     3
100
AcDbMText
 10
90.54250381217526
 20
205.7554632990157
 30
0.0
 40
3.0
 41
0.0
 71
     5
 72
     1
  1
P.C.D 66.5±0.1
  7
TXT
 11
0.7899410193191406
 21
0.6131828324382845
 31
0.0
 73
     1
 44
1.0
1001
ACAD
1000
MTEXTBEGIN
1070
    73
1070
     1
1070
    44
1040
1.0
1070
    74
1070
     0
1000
MTEXTEND
  0
LINE
  5
7B1A
330
18
100
AcDbEntity
  8
0
  6
ByBlock
 62
     6
100
AcDbLine
 10
66.57326278368902
 20
182.7995613506715
 30
0.0
 11
119.1077592387203
 21
223.5718151786891
 31
0.0
  0
SOLID
  5
7B1B
330
18
100
AcDbEntity
  8
0
  6
ByBlock
 62
     6
100
AcDbTrace
 10
68.77437454730875
 20
183.9873593691098
 30
0.0
 11
68.26344404821077
 21
184.6456863923558
 31
0.0
 12
66.54392822802174
 22
182.7837313834389
 32
0.0
 13
66.54392822802174
 23
182.7837313834389
 33
0.0
  0
SOLID
  5
7B1C
330
18
100
AcDbEntity
  8
0
  6
ByBlock
 62
     6
100
AcDbTrace
 10
117.3928472854097
 20
221.7148454062522
 30
0.0
 11
116.8819167863117
 21
222.3731724294982
 31
0.0
 12
119.1123631055988
 22
223.5768004151691
 32
0.0
 13
119.1123631055988
 23
223.5768004151691
 33
0.0
  0
POINT
  5
7B1D
330
18
100
AcDbEntity
  8
DEFPOINTS
  6
ByBlock
 62
     0
100
AcDbPoint
 10
119.1123631055988
 20
223.5768004151691
 30
0.0
  0
POINT
  5
7B1E
330
18
100
AcDbEntity
  8
DEFPOINTS
  6
ByBlock
 62
     0
100
AcDbPoint
 10
66.54392822802174
 20
182.7837313834389
 30
0.0
  0
LEADER
  5
7C1C
330
18
100
AcDbEntity
  8
DIM
 62
     6
100
AcDbLeader
  3
A
 73
     0
 75
     1
 40
3.0
 41
21.2
 76
     3
 10
55.34051101120486
 20
114.1345987690537
 30
0.0
 10
47.09304299145697
 20
128.9504445130769
 30
0.0
 10
44.59304299145697
 20
128.9504445130769
 30
0.0
340
7C1D
  0
MTEXT
  5
7C1D
102
{ACAD_REACTORS
330
7C1C
102
}
330
18
100
AcDbEntity
  8
DIM
 62
     3
100
AcDbMText
 10
43.59304299145697
 20
131.4504445130769
 30
0.0
 40
3.0
 41
0.0
 71
     6
 72
     1
  1
\A1;6-%%c6深さ8
  7
TXT
 73
     1
 44
1.0
1001
ACAD
1000
MTEXTBEGIN
1070
    73
1070
     1
1070
    44
1040
1.0
1070
    74
1070
     0
1000
MTEXTEND
  0
DIMENSION
  5
7C41
330
18
100
AcDbEntity
  8
DIM
100
AcDbDimension
  2
*D5
 10
145.1651727476282
 20
101.1345987690537
 30
0.0
 11
142.6651727476282
 21
113.1345987690537
 31
0.0
 12
-216.956143271942
 22
16.6755624969262
 32
0.0
 70
    32
  1
<>%%p0.2
 71
     5
 42
-1.0
  3
A
100
AcDbAlignedDimension
 13
130.3405110112048
 23
125.1345987690536
 33
0.0
 14
127.8405110112048
 24
101.1345987690537
 34
0.0
 50
90.0
100
AcDbRotatedDimension
  0
LEADER
  5
8080
330
18
100
AcDbEntity
  8
0
 62
     6
100
AcDbLeader
  3
A
 76
     2
 10
120.1617469908895
 20
117.9357050917712
 30
0.0
 10
139.9371404422653
 20
155.9046217696049
 30
0.0
1001
ACAD
1000
DSTYLE
1002
{
1070
   341
1005
8078
1070
   173
1070
     1
1070
   343
1005
8078
1070
   344
1005
8078
1002
}
  0
DIMENSION
  5
8091
330
18
100
AcDbEntity
  8
DIM
100
AcDbDimension
  2
*D7
 10
138.2794923323529
 20
101.1345987690537
 30
0.0
 11
138.2794923323529
 21
102.6345987690537
 31
0.0
 12
-216.956143271942
 22
16.6755624969262
 32
0.0
 70
   160
 71
     5
 42
-1.0
  3
A
100
AcDbAlignedDimension
 13
120.8405110112048
 23
104.1345987690537
 33
0.0
 14
127.8405110112048
 24
101.1345987690537
 34
0.0
 50
90.0
100
AcDbRotatedDimension
  0
MTEXT
  5
825D
330
18
100
AcDbEntity
  8
DIM
100
AcDbMText
 10
344.4549937131133
 20
148.244530198793
 30
0.0
 40
4.0
 41
0.0
 71
     4
 72
     1
  1
\A1;
  7
TXT
 73
     1
 44
1.0
1001
ACAD
1000
MTEXTBEGIN
1070
    73
1070
     1
1070
    44
1040
1.0
1070
    74
1070
     0
1000
MTEXTEND
  0
MTEXT
  5
872C
330
18
100
AcDbEntity
  8
DIM
100
AcDbMText
 10
342.3185849030297
 20
145.2563795808798
 30
0.0
 40
4.0
 41
0.0
 71
     4
 72
     1
  1
\A1;
  7
TXT
 73
     1
 44
1.0
1001
ACAD
1000
MTEXTBEGIN
1070
    73
1070
     1
1070
    44
1040
1.0
1070
    74
1070
     0
1000
MTEXTEND
  0
LINE
  5
8F29
330
18
100
AcDbEntity
  8
中心線
  6
CENTER
 48
0.2
100
AcDbLine
 10
92.84051101120486
 20
242.7089347376052
 30
0.0
 11
92.84051101120462
 21
163.6624417917553
 31
0.0
  0
LINE
  5
8F2A
330
18
100
AcDbEntity
  8
中心線
  6
CENTER
 48
0.15
100
AcDbLine
 10
92.84051101120486
 20
98.13459876905374
 30
0.0
 11
92.84051101120486
 21
128.1345987690537
 31
0.0
  0
LINE
  5
8F30
102
{ACAD_REACTORS
330
929D
102
}
330
18
100
AcDbEntity
  8
本体外線
100
AcDbLine
 10
55.34051101120486
 20
125.1345987690537
 30
0.0
 11
130.3405110112048
 21
125.1345987690536
 31
0.0
  0
LINE
  5
8F31
102
{ACAD_REACTORS
330
929D
102
}
330
18
100
AcDbEntity
  8
本体外線
100
AcDbLine
 10
57.84051101120486
 20
101.1345987690537
 30
0.0
 11
127.8405110112048
 21
101.1345987690537
 31
0.0
  0
LINE
  5
8F32
102
{ACAD_REACTORS
330
929D
102
}
330
18
100
AcDbEntity
  8
本体外線
100
AcDbLine
 10
127.8405110112048
 20
101.1345987690537
 30
0.0
 11
127.8405110112048
 21
104.1945987690537
 31
0.0
  0
LINE
  5
8F36
102
{ACAD_REACTORS
330
929D
102
}
330
18
100
AcDbEntity
  8
本体外線
100
AcDbLine
 10
127.8405110112048
 20
104.1945987690537
 30
0.0
 11
130.3405110112048
 21
106.6945987690536
 31
0.0
  0
LINE
  5
8F37
102
{ACAD_REACTORS
330
929D
102
}
330
18
100
AcDbEntity
  8
本体外線
100
AcDbLine
 10
130.3405110112048
 20
106.6945987690537
 30
0.0
 11
130.3405110112048
 21
125.1345987690537
 31
0.0
  0
LINE
  5
8F38
102
{ACAD_REACTORS
330
929D
102
}
330
18
100
AcDbEntity
  8
本体外線
100
AcDbLine
 10
55.34051101120486
 20
106.6345987690538
 30
0.0
 11
55.34051101120486
 21
125.1345987690537
 31
0.0
  0
LINE
  5
8F39
330
18
100
AcDbEntity
  8
0
100
AcDbLine
 10
129.5913492551316
 20
118.1838602863452
 30
0.0
 11
126.6276980556263
 21
123.4008298633764
 31
0.0
  0
LINE
  5
8F3A
330
18
100
AcDbEntity
  8
本体内線
  6
HIDDEN
 48
0.2
100
AcDbLine
 10
126.1402096219414
 20
120.7012872153733
 30
0.0
 11
126.1332566933637
 21
119.7053697387048
 31
0.0
  0
LINE
  5
8F3B
330
18
100
AcDbEntity
  8
本体内線
  6
HIDDEN
 48
0.2
100
AcDbLine
 10
126.1332566933637
 20
119.7053697387048
 30
0.0
 11
127.0405544580607
 21
119.1730613018188
 31
0.0
  0
LINE
  5
8F3C
330
18
100
AcDbEntity
  8
0
100
AcDbLine
 10
121.1027739524571
 20
118.6764423202024
 30
0.0
 11
121.6206014211454
 21
120.556403088846
 31
0.0
  0
LINE
  5
8F3D
102
{ACAD_REACTORS
330
929D
102
}
330
18
100
AcDbEntity
  8
0
100
AcDbLine
 10
122.7010461682833
 20
115.8629744171066
 30
0.0
 11
124.5902796112721
 21
115.3425928283727
 31
0.0
  0
LINE
  5
8F3E
330
18
100
AcDbEntity
  8
0
100
AcDbLine
 10
129.656892010899
 20
119.8147093103723
 30
0.0
 11
122.7009325748573
 21
115.8631743776984
 31
0.0
  0
LWPOLYLINE
  5
8F3F
330
18
100
AcDbEntity
  8
0
100
AcDbPolyline
 90
        2
 70
     0
 43
0.0
 10
129.6832545387172
 20
119.7683028690123
 10
128.0587333884992
 20
122.6279772528758
  0
LINE
  5
8F40
330
18
100
AcDbEntity
  8
0
100
AcDbLine
 10
128.0587333884987
 20
122.6279772528761
 30
0.0
 11
126.6787115177674
 21
123.4376312754697
 31
0.0
  0
LINE
  5
8F41
330
18
100
AcDbEntity
  8
0
100
AcDbLine
 10
129.6832545387172
 20
119.7925548891305
 30
0.0
 11
129.6832545387174
 21
118.2360697539141
 31
0.0
  0
LINE
  5
8F42
330
18
100
AcDbEntity
  8
本体内線
  6
HIDDEN
 48
0.2
100
AcDbLine
 10
128.4181294461107
 20
121.9953257792551
 30
0.0
 11
126.1402096219414
 21
120.7012872153733
 31
0.0
  0
LINE
  5
8F43
330
18
100
AcDbEntity
  8
本体内線
  6
HIDDEN
 48
0.2
100
AcDbLine
 10
129.2941366761385
 20
120.4532741811874
 30
0.0
 11
127.0405544580606
 21
119.1730613018188
 31
0.0
  0
LINE
  5
8F44
330
18
100
AcDbEntity
  8
0
100
AcDbLine
 10
128.0587333884987
 20
122.6279772528761
 30
0.0
 11
121.1027739524571
 21
118.6764423202024
 31
0.0
  0
LINE
  5
8F45
102
{ACAD_REACTORS
330
929D
102
}
330
18
100
AcDbEntity
  8
0
100
AcDbLine
 10
129.6796832676615
 20
125.1345987690536
 30
0.0
 11
119.5913179380265
 21
119.4036096251157
 31
0.0
  0
LINE
  5
8F46
102
{ACAD_REACTORS
330
929D
102
}
330
18
100
AcDbEntity
  8
0
100
AcDbLine
 10
130.3413179380266
 20
118.6099017945109
 30
0.0
 11
119.5913179380265
 21
112.5030518456537
 31
0.0
  0
LINE
  5
8F48
330
18
100
AcDbEntity
  8
中心線
  6
CENTER
 48
0.15
100
AcDbLine
 10
129.9801155198935
 20
121.9265098056203
 30
0.0
 11
118.5905110112048
 21
115.350259399418
 31
0.0
  0
LINE
  5
8F49
330
18
100
AcDbEntity
  8
本体内線
  6
HIDDEN
 48
0.2
100
AcDbLine
 10
126.1402096219414
 20
120.7012872153733
 30
0.0
 11
127.0162168519687
 21
119.1592356173056
 31
0.0
  0
LWPOLYLINE
  5
8F4A
330
18
100
AcDbEntity
  8
0
100
AcDbPolyline
 90
        2
 70
     0
 43
0.0
 10
123.1383875686927
 20
115.0931143265896
 10
120.71220415659
 20
119.3639694971814
  0
LINE
  5
8F4B
330
18
100
AcDbEntity
  8
0
 48
0.05
100
AcDbLine
 10
121.9051090626636
 20
117.2640771062292
 30
0.0
 11
119.5913179380265
 21
115.9281158960166
 31
0.0
  0
LINE
  5
8F4C
102
{ACAD_REACTORS
330
929D
102
}
330
18
100
AcDbEntity
  8
0
100
AcDbLine
 10
121.6206014211454
 20
120.556403088846
 30
0.0
 11
124.5902796112721
 21
115.3425928283727
 31
0.0
  0
LINE
  5
8F4D
330
18
100
AcDbEntity
  8
0
100
AcDbLine
 10
123.1383875686927
 20
115.0931143265896
 30
0.0
 11
119.5913179380265
 21
113.0780983272756
 31
0.0
  0
LINE
  5
8F4E
330
18
100
AcDbEntity
  8
0
100
AcDbLine
 10
120.71220415659
 20
119.3639694971814
 30
0.0
 11
119.5913179380265
 21
118.7168255371628
 31
0.0
  0
HATCH
  5
8F4F
330
18
100
AcDbEntity
  8
0
100
AcDbHatch
 10
0.0
 20
0.0
 30
0.0
210
0.0
220
0.0
230
1.0
  2
AR-SAND
 70
     0
 71
     0
 91
        2
 92
        7
 72
     0
 73
     1
 93
        4
 10
120.71220415659
 20
119.3639694971814
 10
119.5913179380265
 20
118.7168255371628
 10
119.5913179380265
 20
115.9281158960166
 10
121.9051090626636
 20
117.2640771062292
 97
        0
 92
        7
 72
     0
 73
     1
 93
        4
 10
121.9051090626636
 20
117.2640771062292
 10
119.5913179380265
 20
115.9281158960166
 10
119.5913179380265
 20
113.0780983272756
 10
123.1383875686927
 20
115.0931143265896
 97
        0
 75
     0
 76
     1
 52
0.0
 41
0.02
 77
     0
 78
     4
 53
37.5
 43
-19.80968645907435
 44
-17.88287584001253
 45
-0.0320006259196809
 46
0.9788264746586847
 79
     6
 49
0.0
 49
-0.7721600000000001
 49
0.0
 49
-0.8636000000000001
 49
0.0
 49
-0.8255
 53
7.499999999999999
 43
-19.80968645907435
 44
-17.88287584001253
 45
0.8990465662760053
 46
1.433650201136708
 79
     6
 49
0.0
 49
-0.4165600000000001
 49
0.0
 49
-0.69596
 49
0.0
 49
-0.2667000000000001
 53
327.5
 43
-20.43452645907436
 44
-17.88287584001253
 45
1.581984740482915
 46
0.0028743693570914
 79
     6
 49
0.0
 49
-0.254
 49
0.0
 49
-0.9144
 49
0.0
 49
-1.193799999999999
 53
317.5
 43
-20.43452645907436
 44
-17.88287584001253
 45
1.527112904944594
 46
0.4458586465144325
 79
     6
 49
0.0
 49
-0.127
 49
0.0
 49
-0.59944
 49
0.0
 49
-0.6858
 47
0.0659527454994729
 98
        2
 10
120.8600874678468
 20
117.4914229308625
 10
120.7280525988233
 20
115.7106989033541
  0
LINE
  5
8F50
102
{ACAD_REACTORS
330
929D
102
}
330
18
100
AcDbEntity
  8
0
 48
0.2
100
AcDbLine
 10
65.34051101120486
 20
104.7345987690537
 30
0.0
 11
65.34051101120486
 21
124.5345987690537
 31
0.0
  0
LINE
  5
8F51
102
{ACAD_REACTORS
330
929D
102
}
330
18
100
AcDbEntity
  8
本体外線
100
AcDbLine
 10
66.09051101120485
 20
105.6345987690537
 30
0.0
 11
66.09051101120485
 21
123.6345987690537
 31
0.0
  0
LINE
  5
8F52
102
{ACAD_REACTORS
330
929D
102
}
330
18
100
AcDbEntity
  8
本体外線
100
AcDbLine
 10
119.5905110112048
 20
105.6345987690524
 30
0.0
 11
119.5905110112049
 21
123.6345987690525
 31
0.0
  0
LINE
  5
8F53
102
{ACAD_REACTORS
330
929D
102
}
330
18
100
AcDbEntity
  8
0
 48
0.2
100
AcDbLine
 10
120.3405110112048
 20
104.7345987690533
 30
0.0
 11
120.3405110112048
 21
112.9286527461768
 31
0.0
  0
LINE
  5
8F55
102
{ACAD_REACTORS
330
929D
102
}
330
18
100
AcDbEntity
  8
0
 48
0.2
100
AcDbLine
 10
120.3405110112048
 20
119.8292105256388
 30
0.0
 11
120.3405110112048
 21
124.5345987690541
 31
0.0
  0
LINE
  5
8F57
330
18
100
AcDbEntity
  8
中心線
  6
CENTER
 48
0.15
100
AcDbLine
 10
59.59051101120485
 20
119.1345987690537
 30
0.0
 11
59.59051101120485
 21
127.1345987690537
 31
0.0
  0
LINE
  5
8F58
330
18
100
AcDbEntity
  8
本体外線
100
AcDbLine
 10
57.44051101120482
 20
121.1345987690537
 30
0.0
 11
61.74051101120483
 21
121.1345987690537
 31
0.0
  0
LINE
  5
8F59
102
{ACAD_REACTORS
330
929D
102
}
330
18
100
AcDbEntity
  8
本体外線
100
AcDbLine
 10
61.74051101120483
 20
121.1345987690537
 30
0.0
 11
61.74051101120483
 21
125.1345987690537
 31
0.0
  0
LINE
  5
8F5A
102
{ACAD_REACTORS
330
929D
102
}
330
18
100
AcDbEntity
  8
本体外線
100
AcDbLine
 10
57.44051101120482
 20
121.1345987690537
 30
0.0
 11
57.44051101120482
 21
125.1345987690537
 31
0.0
  0
LINE
  5
8F5B
102
{ACAD_REACTORS
330
929D
102
}
330
18
100
AcDbEntity
  8
本体外線
100
AcDbLine
 10
57.44051101120482
 20
121.1345987690537
 30
0.0
 11
59.59051101120485
 21
120.1345987690537
 31
0.0
  0
LINE
  5
8F5C
102
{ACAD_REACTORS
330
929D
102
}
330
18
100
AcDbEntity
  8
本体外線
100
AcDbLine
 10
59.59051101120485
 20
120.1345987690537
 30
0.0
 11
61.74051101120483
 21
121.1345987690537
 31
0.0
  0
LINE
  5
8F5D
330
18
100
AcDbEntity
  8
中心線
  6
CENTER
 48
0.15
100
AcDbLine
 10
53.34051101120485
 20
114.1345987690537
 30
0.0
 11
64.92536149767875
 21
114.1345987690537
 31
0.0
  0
LINE
  5
8F5E
102
{ACAD_REACTORS
330
929D
102
}
330
18
100
AcDbEntity
  8
本体外線
100
AcDbLine
 10
55.34051101120486
 20
117.1345987690537
 30
0.0
 11
63.34051101120485
 21
117.1345987690538
 31
0.0
  0
LINE
  5
8F5F
102
{ACAD_REACTORS
330
929D
102
}
330
18
100
AcDbEntity
  8
本体外線
100
AcDbLine
 10
55.34051101120486
 20
111.1345987690537
 30
0.0
 11
63.34051101120485
 21
111.1345987690537
 31
0.0
  0
LINE
  5
8F75
102
{ACAD_REACTORS
330
929D
102
}
330
18
100
AcDbEntity
  8
本体外線
100
AcDbLine
 10
120.8405110112048
 20
101.1345987690537
 30
0.0
 11
120.8405110112048
 21
104.1345987690537
 31
0.0
  0
CIRCLE
  5
8F77
330
18
100
AcDbEntity
  8
本体外線
100
AcDbCircle
 10
92.84051101120473
 20
203.1856882646802
 30
0.0
 40
37.5
  0
ARC
  5
8F79
330
18
100
AcDbEntity
  8
0
 48
0.03
100
AcDbCircle
 10
92.84051101120473
 20
203.1856882646802
 30
0.0
 40
27.5
100
AcDbArc
 50
164.4561431714105
 51
102.9948771768934
  0
LINE
  5
8F7B
330
18
100
AcDbEntity
  8
本体内線
  6
HIDDEN
 48
0.2
100
AcDbLine
 10
55.46070362807341
 20
206.1856882646803
 30
0.0
 11
63.34051101120451
 21
206.1856882646804
 31
0.0
  0
CIRCLE
  5
8F7D
330
18
100
AcDbEntity
  8
本体外線
 48
0.03
100
AcDbCircle
 10
59.59051101120474
 20
203.1856882646803
 30
0.0
 40
2.149999999999999
  0
ARC
  5
8F7E
330
18
100
AcDbEntity
  8
本体外線
 48
0.03
100
AcDbCircle
 10
92.84051101120462
 20
165.6856882646802
 30
0.0
 40
3.0
100
AcDbArc
 50
2.29244277595543
 51
177.707557224044
  0
LINE
  5
8F84
330
18
100
AcDbEntity
  8
中心線
  6
CENTER
 48
0.15
100
AcDbLine
 10
71.40638226753987
 20
215.5606882646802
 30
0.0
 11
58.63250756171954
 21
222.9356882646804
 31
0.0
  0
LINE
  5
8F85
330
18
100
AcDbEntity
  8
本体内線
  6
HIDDEN
 48
0.2
100
AcDbLine
 10
63.34051101120462
 20
200.1856882646804
 30
0.0
 11
63.34051101120451
 21
206.1856882646803
 31
0.0
  0
LINE
  5
8F86
330
18
100
AcDbEntity
  8
本体内線
  6
HIDDEN
 48
0.2
100
AcDbLine
 10
63.34051101120451
 20
206.1856882646803
 30
0.0
 11
64.34051101120451
 21
203.1856882646802
 31
0.0
  0
LINE
  5
8F87
330
18
100
AcDbEntity
  8
本体内線
  6
HIDDEN
 48
0.2
100
AcDbLine
 10
64.34051101120451
 20
203.1856882646802
 30
0.0
 11
63.34051101120462
 21
200.1856882646804
 31
0.0
  0
LINE
  5
8F88
330
18
100
AcDbEntity
  8
中心線
  6
CENTER
 48
0.2
100
AcDbLine
 10
53.3172645382798
 20
203.1856882646803
 30
0.0
 11
132.3637574841296
 21
203.1856882646802
 31
0.0
  0
LINE
  5
8FAB
102
{ACAD_REACTORS
330
929D
102
}
330
18
100
AcDbEntity
  8
本体外線
100
AcDbLine
 10
63.34051101120485
 20
117.1345987690538
 30
0.0
 11
64.34051101120485
 21
114.1345987690537
 31
0.0
  0
LINE
  5
8FAC
102
{ACAD_REACTORS
330
929D
102
}
330
18
100
AcDbEntity
  8
本体外線
100
AcDbLine
 10
64.34051101120485
 20
114.1345987690537
 30
0.0
 11
63.34051101120485
 21
111.1345987690537
 31
0.0
  0
LINE
  5
8FAD
330
18
100
AcDbEntity
  8
本体外線
100
AcDbLine
 10
63.34051101120485
 20
111.1345987690537
 30
0.0
 11
63.34051101120485
 21
117.1345987690538
 31
0.0
  0
ARC
  5
8FB1
330
18
100
AcDbEntity
  8
本体外線
 48
0.03
100
AcDbCircle
 10
92.84051101120462
 20
165.6856882646802
 30
0.0
 40
3.0
100
AcDbArc
 50
2.292442775955972
 51
177.707557224044
  0
ARC
  5
8FB2
330
18
100
AcDbEntity
  8
本体外線
 48
0.03
100
AcDbCircle
 10
92.84051101120462
 20
168.1856882646802
 30
0.0
 40
1.5
100
AcDbArc
 50
176.1774462707259
 51
3.822553729273041
  0
ARC
  5
8FB3
330
18
100
AcDbEntity
  8
本体外線
 48
0.03
100
AcDbCircle
 10
125.3164636531213
 20
221.9356882646802
 30
0.0
 40
3.0
100
AcDbArc
 50
122.2924427759554
 51
297.707557224044
  0
ARC
  5
8FB4
330
18
100
AcDbEntity
  8
本体外線
 48
0.03
100
AcDbCircle
 10
125.3164636531213
 20
221.9356882646803
 30
0.0
 40
3.0
100
AcDbArc
 50
122.292442775956
 51
297.707557224044
  0
ARC
  5
8FB5
330
18
100
AcDbEntity
  8
本体外線
 48
0.03
100
AcDbCircle
 10
123.1514001436602
 20
220.6856882646802
 30
0.0
 40
1.5
100
AcDbArc
 50
296.1774462707259
 51
123.822553729273
  0
ARC
  5
8FB6
330
18
100
AcDbEntity
  8
本体外線
 48
0.03
100
AcDbCircle
 10
60.36455836928832
 20
221.9356882646804
 30
0.0
 40
3.0
100
AcDbArc
 50
242.2924427759554
 51
57.707557224044
  0
ARC
  5
8FB7
330
18
100
AcDbEntity
  8
本体外線
 48
0.03
100
AcDbCircle
 10
60.36455836928832
 20
221.9356882646804
 30
0.0
 40
3.0
100
AcDbArc
 50
242.292442775956
 51
57.707557224044
  0
ARC
  5
8FB8
330
18
100
AcDbEntity
  8
本体外線
 48
0.03
100
AcDbCircle
 10
62.52962187874948
 20
220.6856882646803
 30
0.0
 40
1.5
100
AcDbArc
 50
56.17744627072585
 51
243.822553729273
  0
POINT
  5
8FC1
330
18
100
AcDbEntity
  8
0
100
AcDbPoint
 10
59.59051101120485
 20
125.1345987690537
 30
0.0
  0
POINT
  5
8FC2
330
18
100
AcDbEntity
  8
0
100
AcDbPoint
 10
126.8405110112048
 20
125.1345987690537
 30
0.0
  0
LINE
  5
8FC4
330
18
100
AcDbEntity
  8
0
100
AcDbLine
 10
92.84051101120486
 20
104.1345987690537
 30
0.0
 11
120.8405110112048
 21
104.1345987690537
 31
0.0
  0
LINE
  5
8FC5
102
{ACAD_REACTORS
330
929D
102
}
330
18
100
AcDbEntity
  8
本体外線
100
AcDbLine
 10
57.84051101120486
 20
101.1345987690537
 30
0.0
 11
57.84051101120486
 21
104.1345987690537
 31
0.0
  0
LINE
  5
8FC6
102
{ACAD_REACTORS
330
929D
102
}
330
18
100
AcDbEntity
  8
本体外線
100
AcDbLine
 10
57.84051101120486
 20
104.1345987690537
 30
0.0
 11
55.34051101120486
 21
106.6345987690538
 31
0.0
  0
LINE
  5
8FC7
102
{ACAD_REACTORS
330
929D
102
}
330
18
100
AcDbEntity
  8
本体外線
100
AcDbLine
 10
64.84051101120485
 20
101.1345987690537
 30
0.0
 11
64.84051101120479
 21
104.1345987690537
 31
0.0
  0
LINE
  5
8FC8
330
18
100
AcDbEntity
  8
本体外線
100
AcDbLine
 10
120.5905110112061
 20
104.1345987690524
 30
0.0
 11
64.84051101120474
 21
104.1345987690537
 31
0.0
  0
LINE
  5
8FCE
102
{ACAD_REACTORS
330
929D
102
}
330
18
100
AcDbEntity
  8
本体外線
100
AcDbLine
 10
64.84051101120474
 20
104.1345987690537
 30
0.0
 11
66.09051101120485
 21
105.6345987690537
 31
0.0
  0
LINE
  5
8FD0
102
{ACAD_REACTORS
330
929D
102
}
330
18
100
AcDbEntity
  8
本体外線
100
AcDbLine
 10
120.8405110112048
 20
104.1345987690537
 30
0.0
 11
119.5905110112048
 21
105.6345987690524
 31
0.0
  0
LINE
  5
8FD1
330
18
100
AcDbEntity
  8
本体外線
100
AcDbLine
 10
119.5905110112048
 20
105.6345987690524
 30
0.0
 11
66.09051101120485
 21
105.6345987690537
 31
0.0
  0
LINE
  5
8FD2
330
18
100
AcDbEntity
  8
本体外線
100
AcDbLine
 10
119.5905110112049
 20
123.6345987690525
 30
0.0
 11
66.09051101120485
 21
123.6345987690537
 31
0.0
  0
CIRCLE
  5
90B9
330
18
100
AcDbEntity
  8
本体外線
 48
0.03
100
AcDbCircle
 10
92.84051101120473
 20
203.1856882646802
 30
0.0
 40
26.75
  0
CIRCLE
  5
90BA
330
18
100
AcDbEntity
  8
中心線
  6
CENTER
 48
0.15
100
AcDbCircle
 10
92.84051101120473
 20
203.1856882646802
 30
0.0
 40
33.25
  0
LINE
  5
90BB
330
18
100
AcDbEntity
  8
本体内線
  6
HIDDEN
 48
0.2
100
AcDbLine
 10
55.46070362807341
 20
200.1856882646802
 30
0.0
 11
63.34051101120462
 21
200.1856882646804
 31
0.0
  0
LINE
  5
90CB
330
18
100
AcDbEntity
  8
中心線
  6
CENTER
 48
0.15
100
AcDbLine
 10
73.09051101120485
 20
237.3936917141656
 30
0.0
 11
80.46551101120479
 21
224.6198170083451
 31
0.0
  0
LINE
  5
90CC
330
18
100
AcDbEntity
  8
中心線
  6
CENTER
 48
0.15
100
AcDbLine
 10
73.09051101120468
 20
168.9776848151949
 30
0.0
 11
80.46551101120474
 21
181.7515595210154
 31
0.0
  0
LINE
  5
90CD
330
18
100
AcDbEntity
  8
本体内線
  6
HIDDEN
 48
0.2
100
AcDbLine
 10
71.55253110828579
 20
172.3138254823193
 30
0.0
 11
75.49243479985119
 21
179.1379388530391
 31
0.0
  0
CIRCLE
  5
90CE
330
18
100
AcDbEntity
  8
本体外線
 48
0.03
100
AcDbCircle
 10
76.21551101120473
 20
174.3903435888476
 30
0.0
 40
2.149999999999999
  0
LINE
  5
90CF
330
18
100
AcDbEntity
  8
本体内線
  6
HIDDEN
 48
0.2
100
AcDbLine
 10
80.68858722255788
 20
176.1379388530392
 30
0.0
 11
75.49243479985131
 21
179.137938853039
 31
0.0
  0
LINE
  5
90D0
330
18
100
AcDbEntity
  8
本体内線
  6
HIDDEN
 48
0.2
100
AcDbLine
 10
75.49243479985131
 20
179.137938853039
 30
0.0
 11
78.59051101120474
 21
178.5039642568234
 31
0.0
  0
LINE
  5
90D1
330
18
100
AcDbEntity
  8
本体内線
  6
HIDDEN
 48
0.2
100
AcDbLine
 10
78.59051101120474
 20
178.5039642568234
 30
0.0
 11
80.68858722255788
 21
176.1379388530392
 31
0.0
  0
LINE
  5
90D2
330
18
100
AcDbEntity
  8
本体内線
  6
HIDDEN
 48
0.2
100
AcDbLine
 10
76.74868353099248
 20
169.3138254823193
 30
0.0
 11
80.68858722255788
 21
176.1379388530392
 31
0.0
  0
LINE
  5
90D3
330
18
100
AcDbEntity
  8
本体内線
  6
HIDDEN
 48
0.2
100
AcDbLine
 10
108.9323384914171
 20
169.3138254823193
 30
0.0
 11
104.9924347998514
 21
176.137938853039
 31
0.0
  0
CIRCLE
  5
90D4
330
18
100
AcDbEntity
  8
本体外線
 48
0.03
100
AcDbCircle
 10
109.4655110112048
 20
174.3903435888477
 30
0.0
 40
2.149999999999999
  0
LINE
  5
90D5
330
18
100
AcDbEntity
  8
本体内線
  6
HIDDEN
 48
0.2
100
AcDbLine
 10
110.188587222558
 20
179.1379388530391
 30
0.0
 11
104.9924347998515
 21
176.137938853039
 31
0.0
  0
LINE
  5
90D6
330
18
100
AcDbEntity
  8
本体内線
  6
HIDDEN
 48
0.2
100
AcDbLine
 10
104.9924347998515
 20
176.137938853039
 30
0.0
 11
107.0905110112049
 21
178.5039642568236
 31
0.0
  0
LINE
  5
90D7
330
18
100
AcDbEntity
  8
本体内線
  6
HIDDEN
 48
0.2
100
AcDbLine
 10
107.0905110112049
 20
178.5039642568236
 30
0.0
 11
110.188587222558
 21
179.1379388530391
 31
0.0
  0
LINE
  5
90D8
330
18
100
AcDbEntity
  8
本体内線
  6
HIDDEN
 48
0.2
100
AcDbLine
 10
114.1284909141237
 20
172.3138254823193
 30
0.0
 11
110.188587222558
 21
179.1379388530391
 31
0.0
  0
LINE
  5
90D9
330
18
100
AcDbEntity
  8
本体内線
  6
HIDDEN
 48
0.2
100
AcDbLine
 10
130.2203183943362
 20
200.1856882646803
 30
0.0
 11
122.3405110112051
 21
200.1856882646801
 31
0.0
  0
CIRCLE
  5
90DA
330
18
100
AcDbEntity
  8
本体外線
 48
0.03
100
AcDbCircle
 10
126.0905110112048
 20
203.1856882646803
 30
0.0
 40
2.149999999999999
  0
LINE
  5
90DB
330
18
100
AcDbEntity
  8
本体内線
  6
HIDDEN
 48
0.2
100
AcDbLine
 10
122.3405110112049
 20
206.1856882646802
 30
0.0
 11
122.3405110112051
 21
200.1856882646803
 31
0.0
  0
LINE
  5
90DC
330
18
100
AcDbEntity
  8
本体内線
  6
HIDDEN
 48
0.2
100
AcDbLine
 10
122.3405110112051
 20
200.1856882646803
 30
0.0
 11
121.3405110112051
 21
203.1856882646804
 31
0.0
  0
LINE
  5
90DD
330
18
100
AcDbEntity
  8
本体内線
  6
HIDDEN
 48
0.2
100
AcDbLine
 10
121.3405110112051
 20
203.1856882646804
 30
0.0
 11
122.3405110112049
 21
206.1856882646802
 31
0.0
  0
LINE
  5
90DE
330
18
100
AcDbEntity
  8
本体内線
  6
HIDDEN
 48
0.2
100
AcDbLine
 10
130.2203183943362
 20
206.1856882646803
 30
0.0
 11
122.3405110112049
 21
206.1856882646802
 31
0.0
  0
LINE
  5
90DF
330
18
100
AcDbEntity
  8
本体内線
  6
HIDDEN
 48
0.2
100
AcDbLine
 10
114.1284909141238
 20
234.0575510470411
 30
0.0
 11
110.1885872225583
 21
227.2334376763213
 31
0.0
  0
CIRCLE
  5
90E0
330
18
100
AcDbEntity
  8
本体外線
 48
0.03
100
AcDbCircle
 10
109.4655110112048
 20
231.9810329405128
 30
0.0
 40
2.149999999999999
  0
LINE
  5
90E1
330
18
100
AcDbEntity
  8
本体内線
  6
HIDDEN
 48
0.2
100
AcDbLine
 10
104.9924347998517
 20
230.2334376763212
 30
0.0
 11
110.1885872225583
 21
227.2334376763214
 31
0.0
  0
LINE
  5
90E2
330
18
100
AcDbEntity
  8
本体内線
  6
HIDDEN
 48
0.2
100
AcDbLine
 10
110.1885872225583
 20
227.2334376763214
 30
0.0
 11
107.0905110112048
 21
227.867412272537
 31
0.0
  0
LINE
  5
90E3
330
18
100
AcDbEntity
  8
本体内線
  6
HIDDEN
 48
0.2
100
AcDbLine
 10
107.0905110112048
 20
227.867412272537
 30
0.0
 11
104.9924347998517
 21
230.2334376763212
 31
0.0
  0
LINE
  5
90E4
330
18
100
AcDbEntity
  8
本体内線
  6
HIDDEN
 48
0.2
100
AcDbLine
 10
108.9323384914171
 20
237.0575510470411
 30
0.0
 11
104.9924347998517
 21
230.2334376763212
 31
0.0
  0
LINE
  5
90E5
330
18
100
AcDbEntity
  8
本体内線
  6
HIDDEN
 48
0.2
100
AcDbLine
 10
76.74868353099248
 20
237.0575510470412
 30
0.0
 11
80.68858722255816
 21
230.2334376763215
 31
0.0
  0
CIRCLE
  5
90E6
330
18
100
AcDbEntity
  8
本体外線
 48
0.03
100
AcDbCircle
 10
76.21551101120485
 20
231.9810329405129
 30
0.0
 40
2.149999999999999
  0
LINE
  5
90E7
330
18
100
AcDbEntity
  8
本体内線
  6
HIDDEN
 48
0.2
100
AcDbLine
 10
75.49243479985154
 20
227.2334376763214
 30
0.0
 11
80.68858722255805
 21
230.2334376763215
 31
0.0
  0
LINE
  5
90E8
330
18
100
AcDbEntity
  8
本体内線
  6
HIDDEN
 48
0.2
100
AcDbLine
 10
80.68858722255805
 20
230.2334376763215
 30
0.0
 11
78.59051101120463
 21
227.8674122725369
 31
0.0
  0
LINE
  5
90E9
330
18
100
AcDbEntity
  8
本体内線
  6
HIDDEN
 48
0.2
100
AcDbLine
 10
78.59051101120463
 20
227.8674122725369
 30
0.0
 11
75.49243479985154
 21
227.2334376763214
 31
0.0
  0
LINE
  5
90EA
330
18
100
AcDbEntity
  8
本体内線
  6
HIDDEN
 48
0.2
100
AcDbLine
 10
71.55253110828585
 20
234.0575510470412
 30
0.0
 11
75.49243479985154
 21
227.2334376763214
 31
0.0
  0
LINE
  5
90ED
330
18
100
AcDbEntity
  8
中心線
  6
CENTER
 48
0.15
100
AcDbLine
 10
105.2155110112048
 20
224.6198170083451
 30
0.0
 11
112.5905110112048
 21
237.3936917141655
 31
0.0
  0
LINE
  5
90EE
330
18
100
AcDbEntity
  8
中心線
  6
CENTER
 48
0.15
100
AcDbLine
 10
105.2155110112047
 20
181.7515595210154
 30
0.0
 11
112.5905110112047
 21
168.9776848151949
 31
0.0
  0
LINE
  5
90EF
330
18
100
AcDbEntity
  8
中心線
  6
CENTER
 48
0.15
100
AcDbLine
 10
114.2746397548696
 20
215.5606882646802
 30
0.0
 11
127.0485144606899
 21
222.9356882646804
 31
0.0
  0
LINE
  5
90F5
102
{ACAD_REACTORS
330
929D
102
}
330
18
100
AcDbEntity
  8
本体外線
100
AcDbLine
 10
64.84051101120474
 20
125.1345987690537
 30
0.0
 11
66.09051101120485
 21
123.6345987690537
 31
0.0
  0
LINE
  5
90F6
102
{ACAD_REACTORS
330
929D
102
}
330
18
100
AcDbEntity
  8
本体外線
100
AcDbLine
 10
120.8405110112048
 20
125.1345987690537
 30
0.0
 11
119.5905110112048
 21
123.6345987690549
 31
0.0
  0
LEADER
  5
9216
330
18
100
AcDbEntity
  8
DIM
 62
     6
100
AcDbLeader
  3
A
 40
3.0
 41
8.0
 76
     2
 10
120.2155110112048
 20
104.884598769053
 30
0.0
 10
108.2984926111665
 20
92.96758036901476
 30
0.0
  0
LEADER
  5
9217
330
18
100
AcDbEntity
  8
DIM
 62
     6
100
AcDbLeader
  3
A
 76
     2
 10
65.46551101120479
 20
124.3845987690537
 30
0.0
 10
75.38936680134554
 20
134.3115467315606
 30
0.0
  0
TEXT
  5
9218
330
18
100
AcDbEntity
  8
DIM
 62
     3
100
AcDbText
 10
68.78669793133091
 20
128.7149305658383
 30
0.0
 40
3.0
  1
C1.5
 50
45.0
  7
TXT
100
AcDbText
  0
TEXT
  5
9219
330
18
100
AcDbEntity
  8
DIM
 62
     3
100
AcDbText
 10
107.3848936413473
 20
92.98876175212409
 30
0.0
 40
3.0
  1
C1.5
 50
45.0
  7
TXT
100
AcDbText
  0
LINE
  5
921A
330
18
100
AcDbEntity
  8
0
  6
ByBlock
 62
     6
100
AcDbLine
 10
128.8405110112048
 20
101.1345987690537
 30
0.0
 11
161.04747091014
 21
101.1345987690536
 31
0.0
  0
LINE
  5
921B
330
18
100
AcDbEntity
  8
0
  6
ByBlock
 62
     6
100
AcDbLine
 10
130.8461258052484
 20
122.4265359905941
 30
0.0
 11
152.0597775462972
 21
134.6750987719165
 31
0.0
  0
ARC
  5
921C
330
18
100
AcDbEntity
  8
0
  6
ByBlock
 62
     6
100
AcDbCircle
 10
93.96998374890928
 20
101.1345987690537
 30
0.0
 40
66.07748716123076
100
AcDbArc
 50
2.16787894921162
 51
27.83385344983493
  0
SOLID
  5
921D
330
18
100
AcDbEntity
  8
0
  6
ByBlock
 62
     6
100
AcDbTrace
 10
160.4167700553505
 20
103.6420335643091
 30
0.0
 11
159.5835858436346
 21
103.6262692440933
 31
0.0
 12
160.04747091014
 22
101.1345987690536
 32
0.0
 13
160.04747091014
 23
101.1345987690536
 33
0.0
  0
SOLID
  5
921E
330
18
100
AcDbEntity
  8
0
  6
ByBlock
 62
     6
100
AcDbTrace
 10
152.0379385039721
 20
131.7853056477721
 30
0.0
 11
152.7673671738096
 21
132.1882675070883
 31
0.0
 12
151.1937672609422
 22
134.1750725869426
 32
0.0
 13
151.1937672609422
 23
134.1750725869426
 33
0.0
  0
MTEXT
  5
921F
330
18
100
AcDbEntity
  8
0
  6
ByBlock
 62
     3
100
AcDbMText
 10
155.2189960229688
 20
118.1890652708116
 30
0.0
 40
3.0
 41
0.0
 71
     5
 72
     1
  1
\A1;30°
  7
TXT
 11
-0.2588336479720994
 21
0.965921913343649
 31
0.0
 73
     1
 44
1.0
1001
ACAD
1000
MTEXTBEGIN
1070
    73
1070
     1
1070
    44
1040
1.0
1070
    74
1070
     0
1000
MTEXTEND
  0
POINT
  5
9220
330
18
100
AcDbEntity
  8
DEFPOINTS
  6
ByBlock
 62
     0
100
AcDbPoint
 10
159.0434897562992
 20
112.6094898556303
 30
0.0
  0
POINT
  5
9221
330
18
100
AcDbEntity
  8
DEFPOINTS
  6
ByBlock
 62
     0
100
AcDbPoint
 10
129.9801155198935
 20
121.9265098056203
 30
0.0
  0
POINT
  5
9222
330
18
100
AcDbEntity
  8
DEFPOINTS
  6
ByBlock
 62
     0
100
AcDbPoint
 10
57.84051101120486
 20
101.1345987690537
 30
0.0
  0
POINT
  5
9223
330
18
100
AcDbEntity
  8
DEFPOINTS
  6
ByBlock
 62
     0
100
AcDbPoint
 10
127.8405110112048
 20
101.1345987690537
 30
0.0
  0
POINT
  5
9224
330
18
100
AcDbEntity
  8
DEFPOINTS
  6
ByBlock
 62
     0
100
AcDbPoint
 10
118.5905110112048
 20
115.350259399418
 30
0.0
  0
HATCH
  5
929D
330
18
100
AcDbEntity
  8
剖面線
100
AcDbHatch
 10
0.0
 20
0.0
 30
0.0
210
0.0
220
0.0
230
1.0
  2
ANSI31
 70
     0
 71
     1
 91
        6
 92
        7
 72
     0
 73
     1
 93
       19
 10
65.34051101120486
 20
124.5345987690536
 10
64.8405110112047
 20
125.1345987690537
 10
61.74051101120483
 20
125.1345987690537
 10
61.74051101120483
 20
121.1345987690537
 10
59.59051101120484
 20
120.1345987690537
 10
57.44051101120482
 20
121.1345987690538
 10
57.44051101120483
 20
125.1345987690537
 10
55.34051101120486
 20
125.1345987690537
 10
55.34051101120486
 20
117.1345987690537
 10
63.34051101120484
 20
117.1345987690538
 10
64.34051101120485
 20
114.1345987690537
 10
63.34051101120485
 20
111.1345987690537
 10
55.34051101120486
 20
111.1345987690537
 10
55.34051101120486
 20
106.6345987690538
 10
57.84051101120486
 20
104.1345987690537
 10
57.84051101120486
 20
101.1345987690537
 10
64.84051101120485
 20
101.1345987690537
 10
64.84051101120479
 20
104.1345987690537
 10
65.34051101120486
 20
104.7345987690537
 97
       17
330
90F5
330
8F30
330
8F59
330
8F5C
330
8F5B
330
8F5A
330
8F38
330
8F5E
330
8FAB
330
8FAC
330
8F5F
330
8FC6
330
8FC5
330
8F31
330
8FC7
330
8FCE
330
8F50
 92
        7
 72
     0
 73
     1
 93
        4
 10
66.09051101120485
 20
123.6345987690537
 10
65.34051101120486
 20
124.5345987690536
 10
65.34051101120484
 20
104.7345987690537
 10
66.09051101120485
 20
105.6345987690537
 97
        4
330
90F5
330
8F50
330
8FCE
330
8F51
 92
        7
 72
     0
 73
     1
 93
       11
 10
120.3405110112048
 20
104.7345987690531
 10
120.8405110112048
 20
104.1345987690537
 10
120.8405110112048
 20
101.1345987690537
 10
127.8405110112048
 20
101.1345987690537
 10
127.8405110112048
 20
104.1945987690537
 10
130.3405110112047
 20
106.6945987690536
 10
130.3405110112048
 20
118.6094433962765
 10
124.5901657912008
 20
115.3427926602121
 10
124.5902796112721
 20
115.3425928283728
 10
124.5899660572543
 20
115.3426791955385
 10
120.3405110112048
 20
112.9286527461768
 97
       10
330
8F46
330
8F4C
330
8F3D
330
8F53
330
8FD0
330
8F75
330
8F31
330
8F32
330
8F36
330
8F37
 92
        7
 72
     0
 73
     1
 93
        4
 10
120.3405110112048
 20
112.9286527461768
 10
119.5905110112048
 20
112.5025934474193
 10
119.5905110112048
 20
105.6345987690524
 10
120.3405110112048
 20
104.7345987690531
 97
        4
330
8F46
330
8F52
330
8FD0
330
8F53
 92
        7
 72
     0
 73
     1
 93
        4
 10
120.8405110112048
 20
125.1345987690536
 10
120.3405110112048
 20
124.5345987690542
 10
120.3405110112048
 20
119.8292105256388
 10
129.6796832676616
 20
125.1345987690537
 97
        4
330
8F30
330
90F6
330
8F55
330
8F45
 92
        7
 72
     0
 73
     1
 93
        4
 10
120.3405110112048
 20
124.5345987690542
 10
119.5905110112049
 20
123.6345987690551
 10
119.5905110112049
 20
119.4031512268814
 10
120.3405110112048
 20
119.8292105256388
 97
        4
330
90F6
330
8F52
330
8F45
330
8F55
 75
     0
 76
     1
 52
0.0
 41
0.5
 77
     0
 78
     1
 53
45.0
 43
0.0
 44
0.0
 45
-1.122532015133643
 46
1.122532015133644
 79
     0
 47
0.0517497421454664
 98
        6
 10
64.34093751812497
 20
106.6966581265347
 10
65.71839393669097
 20
117.4572299746249
 10
123.9472133906763
 20
109.9498540063542
 10
120.065291298647
 20
110.0749770324332
 10
122.3193110010866
 20
124.2138684859803
 10
120.0611647459225
 20
122.1799176550621
  0
LINE
  5
92BC
330
18
100
AcDbEntity
  8
0
 62
     1
100
AcDbLine
 10
87.31603485625418
 20
86.57032824810324
 30
0.0
 11
98.27487000144742
 21
86.57032824810324
 31
0.0
  0
LINE
  5
92BD
330
18
100
AcDbEntity
  8
0
 62
     1
100
AcDbLine
 10
87.31603485625418
 20
85.29687127152318
 30
0.0
 11
98.27487000144742
 21
85.29687127152318
 31
0.0
  0
LWPOLYLINE
  5
92BE
330
18
100
AcDbEntity
  8
DIM
100
AcDbPolyline
 90
        3
 70
     1
 43
0.0
 10
72.1371971052082
 20
83.99889592836064
 10
77.33334952791484
 20
83.99889592836064
 10
74.73527331656152
 20
88.49889592836063
  0
MTEXT
  5
92BF
330
18
100
AcDbEntity
  8
DIM
100
AcDbMText
 10
74.4138333831853
 20
87.47215415812901
 30
0.0
 40
3.0
 41
0.0
 71
     1
 72
     5
  1
{\Ftxt,bigfont|c128;1}
  7
JL
 73
     1
 44
1.0
1001
ACAD
1000
ACAD_MTEXT_DEFINED_HEIGHT_BEGIN
1070
    46
1040
0.0
1000
ACAD_MTEXT_DEFINED_HEIGHT_END
1000
MTEXTBEGIN
1070
    73
1070
     1
1070
    44
1040
1.0
1070
    74
1070
     0
1000
MTEXTEND
  0
MTEXT
  5
92C0
330
18
100
AcDbEntity
  8
DIM
 62
     3
100
AcDbMText
 10
82.31942745530801
 20
85.972154158129
 30
0.0
 40
3.0
 41
0.0
 71
     5
 72
     1
  1
%%C58
  7
TXT
 73
     1
 44
1.0
1001
ACAD
1000
ACAD_MTEXT_DEFINED_HEIGHT_BEGIN
1070
    46
1040
0.0
1000
ACAD_MTEXT_DEFINED_HEIGHT_END
1000
MTEXTBEGIN
1070
    73
1070
     1
1070
    44
1040
1.0
1070
    74
1070
     0
1000
MTEXTEND
  0
MTEXT
  5
92CF
330
18
100
AcDbEntity
  8
DIM
100
AcDbMText
 10
9.03659250220835
 20
39.93154731347943
 30
0.0
 40
4.5
 41
0.0
 71
     1
 72
     5
  1
{\Ftxt,bigfont|c128;06.04.24外形寸法を変更する}
  7
JL
 73
     1
 44
1.0
1001
ACAD
1000
ACAD_MTEXT_DEFINED_HEIGHT_BEGIN
1070
    46
1040
0.0
1000
ACAD_MTEXT_DEFINED_HEIGHT_END
1000
MTEXTBEGIN
1070
    73
1070
     1
1070
    44
1040
1.0
1070
    74
1070
     0
1000
MTEXTEND
  0
LWPOLYLINE
  5
92D0
330
18
100
AcDbEntity
  8
DIM
100
AcDbPolyline
 90
        3
 70
     1
 43
0.0
 10
2.900484968525006
 20
35.21713240541169
 10
8.096637391231638
 20
35.21713240541169
 10
5.498561179878322
 20
39.71713240541169
  0
MTEXT
  5
92D1
330
18
100
AcDbEntity
  8
DIM
100
AcDbMText
 10
5.17712124650211
 20
38.69039063518005
 30
0.0
 40
3.0
 41
0.0
 71
     1
 72
     5
  1
{\Ftxt,bigfont|c128;1}
  7
JL
 73
     1
 44
1.0
1001
ACAD
1000
ACAD_MTEXT_DEFINED_HEIGHT_BEGIN
1070
    46
1040
0.0
1000
ACAD_MTEXT_DEFINED_HEIGHT_END
1000
MTEXTBEGIN
1070
    73
1070
     1
1070
    44
1040
1.0
1070
    74
1070
     0
1000
MTEXTEND
  0
MTEXT
  5
92D2
330
18
100
AcDbEntity
  8
DIM
100
AcDbMText
 10
49.52660639892861
 20
39.93154731347943
 30
0.0
 40
4.5
 41
0.0
 71
     1
 72
     5
  1
{\Ftxt,bigfont|c128;謝}
  7
JL
 73
     1
 44
1.0
1001
ACAD
1000
ACAD_MTEXT_DEFINED_HEIGHT_BEGIN
1070
    46
1040
0.0
1000
ACAD_MTEXT_DEFINED_HEIGHT_END
1000
MTEXTBEGIN
1070
    73
1070
     1
1070
    44
1040
1.0
1070
    74
1070
     0
1000
MTEXTEND
  0
CIRCLE
  5
92D3
330
18
100
AcDbEntity
  8
DIM
100
AcDbCircle
 10
50.6132024758208
 20
37.66392809629542
 30
0.0
 40
2.644201016044348
  0
LWPOLYLINE
  5
92E0
330
18
100
AcDbEntity
  8
DIM
100
AcDbPolyline
 90
        3
 70
     1
 43
0.0
 10
185.2783667929618
 20
2.745039369010214
 10
190.4745192156685
 20
2.745039369010214
 10
187.8764430043151
 20
7.245039369010214
  0
MTEXT
  5
92E1
330
18
100
AcDbEntity
  8
DIM
100
AcDbMText
 10
187.5550030709389
 20
6.218297598778576
 30
0.0
 40
3.0
 41
0.0
 71
     1
 72
     5
  1
{\Ftxt,bigfont|c128;1}
  7
JL
 73
     1
 44
1.0
1001
ACAD
1000
ACAD_MTEXT_DEFINED_HEIGHT_BEGIN
1070
    46
1040
0.0
1000
ACAD_MTEXT_DEFINED_HEIGHT_END
1000
MTEXTBEGIN
1070
    73
1070
     1
1070
    44
1040
1.0
1070
    74
1070
     0
1000
MTEXTEND
  0
MTEXT
  5
92E3
330
18
100
AcDbEntity
  8
0
100
AcDbMText
 10
49.81948278949767
 20
19.37399834316261
 30
0.0
 40
5.0
 41
0.0
 71
     1
 72
     5
  1
{\Ftxt,bigfont|c128;小\~柳}
  7
JL
 73
     1
 44
1.0
1001
ACAD
1000
ACAD_MTEXT_DEFINED_HEIGHT_BEGIN
1070
    46
1040
0.0
1000
ACAD_MTEXT_DEFINED_HEIGHT_END
1000
MTEXTBEGIN
1070
    73
1070
     1
1070
    44
1040
1.0
1070
    74
1070
     0
1000
MTEXTEND
  0
ENDSEC
  0
SECTION
  2
OBJECTS
  0
DICTIONARY
  5
C
330
0
100
AcDbDictionary
281
     1
  3
ACAD_COLOR
350
92A2
  3
ACAD_GROUP
350
D
  3
ACAD_LAYOUT
350
5CF3
  3
ACAD_MATERIAL
350
92A1
  3
ACAD_MLINESTYLE
350
1B
  3
ACAD_PLOTSETTINGS
350
5CF4
  3
ACAD_PLOTSTYLENAME
350
5CF1
  3
ACAD_TABLESTYLE
350
92A3
  3
ACDBHEADERROUNDTRIPXREC
350
92FB
  3
ACDBVARIABLEDICTIONARY
350
45D
  0
DICTIONARY
  5
45F
330
18
100
AcDbDictionary
280
     1
281
     1
  3
ACAD_LAYOUTSELFREF
360
5D8B
  3
ACAD_SORTENTS
360
460
  0
DICTIONARY
  5
5D89
330
15
100
AcDbDictionary
280
     1
281
     1
  3
ACAD_LAYOUTSELFREF
360
5D8A
  0
DICTIONARY
  5
92A2
102
{ACAD_REACTORS
330
C
102
}
330
C
100
AcDbDictionary
281
     1
  0
DICTIONARY
  5
D
102
{ACAD_REACTORS
330
C
102
}
330
C
100
AcDbDictionary
281
     1
  0
DICTIONARY
  5
5CF3
102
{ACAD_REACTORS
330
C
102
}
330
C
100
AcDbDictionary
281
     1
  3
Model
350
5CF5
  3
配置1
350
5CF6
  0
DICTIONARY
  5
92A1
102
{ACAD_REACTORS
330
C
102
}
330
C
100
AcDbDictionary
281
     1
  0
DICTIONARY
  5
1B
102
{ACAD_REACTORS
330
C
102
}
330
C
100
AcDbDictionary
281
     1
  3
STANDARD
350
1C
  0
DICTIONARY
  5
5CF4
102
{ACAD_REACTORS
330
C
102
}
330
C
100
AcDbDictionary
281
     1
  0
ACDBDICTIONARYWDFLT
  5
5CF1
102
{ACAD_REACTORS
330
C
102
}
330
C
100
AcDbDictionary
281
     1
  3
Normal
350
5CF2
100
AcDbDictionaryWithDefault
340
5CF2
  0
DICTIONARY
  5
92A3
102
{ACAD_REACTORS
330
C
102
}
330
C
100
AcDbDictionary
281
     1
  3
Standard
350
92A4
  0
DICTIONARY
  5
92FB
102
{ACAD_REACTORS
330
C
102
}
330
C
100
AcDbDictionary
281
     1
  0
DICTIONARY
  5
45D
102
{ACAD_REACTORS
330
C
102
}
330
C
100
AcDbDictionary
281
     1
  3
CTABLESTYLE
350
92D6
  3
DIMASSOC
350
92F8
  3
PROJECTNAME
350
92F9
  3
SORTENTS
350
45E
  0
XRECORD
  5
5D8B
102
{ACAD_REACTORS
330
45F
102
}
330
45F
100
AcDbXrecord
280
     1
340
18
  0
SORTENTSTABLE
  5
460
102
{ACAD_REACTORS
330
45F
102
}
330
45F
100
AcDbSortentsTable
330
18
331
C0
  5
CB
  0
XRECORD
  5
5D8A
102
{ACAD_REACTORS
330
5D89
102
}
330
5D89
100
AcDbXrecord
280
     1
340
15
  0
LAYOUT
  5
5CF5
102
{ACAD_XDICTIONARY
360
92FC
102
}
102
{ACAD_REACTORS
330
5CF3
102
}
330
5CF3
100
AcDbPlotSettings
  1

  2
EPSON STYLUS COLOR 440
  4

  6

 40
0.0
 41
0.0
 42
0.0
 43
0.0
 44
0.0
 45
0.0
 46
0.0
 47
0.0
 48
0.0
 49
0.0
140
0.0
141
0.0
142
1.0
143
1.0
 70
  1712
 72
     0
 73
     0
 74
     0
  7
a.ctb
 75
     0
147
1.0
148
0.0
149
0.0
100
AcDbLayout
  1
Model
 70
     1
 71
     0
 10
0.0
 20
0.0
 11
12.0
 21
9.0
 12
0.0
 22
0.0
 32
0.0
 14
0.0
 24
0.0
 34
0.0
 15
0.0
 25
0.0
 35
0.0
146
0.0
 13
0.0
 23
0.0
 33
0.0
 16
1.0
 26
0.0
 36
0.0
 17
0.0
 27
1.0
 37
0.0
 76
     0
330
18
  0
LAYOUT
  5
5CF6
102
{ACAD_XDICTIONARY
360
92FE
102
}
102
{ACAD_REACTORS
330
5CF3
102
}
330
5CF3
100
AcDbPlotSettings
  1

  2
EPSON STYLUS COLOR 440
  4

  6

 40
0.0
 41
0.0
 42
0.0
 43
0.0
 44
0.0
 45
0.0
 46
0.0
 47
0.0
 48
0.0
 49
0.0
140
0.0
141
0.0
142
1.0
143
1.0
 70
   688
 72
     0
 73
     0
 74
     5
  7
a.ctb
 75
    16
147
1.0
148
0.0
149
0.0
100
AcDbLayout
  1
ｰtｸm1
 70
     1
 71
     1
 10
0.0
 20
0.0
 11
420.0
 21
297.0
 12
0.0
 22
0.0
 32
0.0
 14
1.000000000000000E+20
 24
1.000000000000000E+20
 34
1.000000000000000E+20
 15
-1.000000000000000E+20
 25
-1.000000000000000E+20
 35
-1.000000000000000E+20
146
0.0
 13
0.0
 23
0.0
 33
0.0
 16
1.0
 26
0.0
 36
0.0
 17
0.0
 27
1.0
 37
0.0
 76
     0
330
15
  0
MLINESTYLE
  5
1C
102
{ACAD_REACTORS
330
1B
102
}
330
1B
100
AcDbMlineStyle
  2
STANDARD
 70
     0
  3

 62
   256
 51
90.0
 52
90.0
 71
     2
 49
0.5
 62
   256
  6
BYLAYER
 49
-0.5
 62
   256
  6
BYLAYER
  0
ACDBPLACEHOLDER
  5
5CF2
102
{ACAD_REACTORS
330
5CF1
102
}
330
5CF1
  0
TABLESTYLE
  5
92A4
102
{ACAD_REACTORS
330
92A3
102
}
330
92A3
100
AcDbTableStyle
  3
Standard
 70
     0
 71
     0
 40
1.5
 41
1.5
280
     0
281
     0
  7
STANDARD
140
4.5
170
     2
 62
     0
 63
     7
283
     0
274
    -2
284
     1
 64
     0
275
    -2
285
     1
 65
     0
276
    -2
286
     1
 66
     0
277
    -2
287
     1
 67
     0
278
    -2
288
     1
 68
     0
279
    -2
289
     1
 69
     0
  7
STANDARD
140
6.0
170
     5
 62
     0
 63
     7
283
     0
274
    -2
284
     1
 64
     0
275
    -2
285
     1
 65
     0
276
    -2
286
     1
 66
     0
277
    -2
287
     1
 67
     0
278
    -2
288
     1
 68
     0
279
    -2
289
     1
 69
     0
  7
STANDARD
140
4.5
170
     5
 62
     0
 63
     7
283
     0
274
    -2
284
     1
 64
     0
275
    -2
285
     1
 65
     0
276
    -2
286
     1
 66
     0
277
    -2
287
     1
 67
     0
278
    -2
288
     1
 68
     0
279
    -2
289
     1
 69
     0
  0
DICTIONARYVAR
  5
92D6
102
{ACAD_REACTORS
330
45D
102
}
330
45D
100
DictionaryVariables
280
     0
  1
STANDARD
  0
DICTIONARYVAR
  5
92F8
102
{ACAD_REACTORS
330
45D
102
}
330
45D
100
DictionaryVariables
280
     0
  1
1
  0
DICTIONARYVAR
  5
92F9
102
{ACAD_REACTORS
330
45D
102
}
330
45D
100
DictionaryVariables
280
     0
  1

  0
DICTIONARYVAR
  5
45E
102
{ACAD_REACTORS
330
45D
102
}
330
45D
100
DictionaryVariables
280
     0
  1
127
  0
DICTIONARY
  5
92FC
330
5CF5
100
AcDbDictionary
280
     1
281
     1
  3
ACAD_XREC_ROUNDTRIP
360
92FD
  0
DICTIONARY
  5
92FE
330
5CF6
100
AcDbDictionary
280
     1
281
     1
  3
ACAD_XREC_ROUNDTRIP
360
92FF
  0
XRECORD
  5
92FD
102
{ACAD_REACTORS
330
92FC
102
}
330
92FC
100
AcDbXrecord
280
     1
102
SHADEPLOT
 70
     0
102
SHADEPLOTRESLEVEL
 70
     2
102
SHADEPLOTCUSTOMDPI
 70
   300
  0
XRECORD
  5
92FF
102
{ACAD_REACTORS
330
92FE
102
}
330
92FE
100
AcDbXrecord
280
     1
102
SHADEPLOT
 70
     0
102
SHADEPLOTRESLEVEL
 70
     2
102
SHADEPLOTCUSTOMDPI
 70
   300
  0
ENDSEC
  0
EOF
