  0
SECTION
  2
HEADER
  9
$ACADVER
  1
AC1015
  9
$ACADMAINTVER
 70
    20
  9
$DWGCODEPAGE
  3
ANSI_932
  9
$INSBASE
 10
0.0
 20
0.0
 30
0.0
  9
$EXTMIN
 10
-0.0000000000002274
 20
-0.0000000000000568
 30
0.0
  9
$EXTMAX
 10
395.9999999999995
 20
290.0
 30
4.0
  9
$LIMMIN
 10
0.0
 20
0.0
  9
$LIMMAX
 10
420.0
 20
297.0
  9
$ORTHOMODE
 70
     1
  9
$REGENMODE
 70
     1
  9
$FILLMODE
 70
     1
  9
$QTEXTMODE
 70
     0
  9
$MIRRTEXT
 70
     1
  9
$LTSCALE
 40
1.0
  9
$ATTMODE
 70
     1
  9
$TEXTSIZE
 40
2.5
  9
$TRACEWID
 40
1.0
  9
$TEXTSTYLE
  7
TXT
  9
$CLAYER
  8
DIM
  9
$CELTYPE
  6
BYLAYER
  9
$CECOLOR
 62
   256
  9
$CELTSCALE
 40
1.0
  9
$DISPSILH
 70
     0
  9
$DIMSCALE
 40
1.0
  9
$DIMASZ
 40
2.5
  9
$DIMEXO
 40
1.0
  9
$DIMDLI
 40
6.0
  9
$DIMRND
 40
0.0
  9
$DIMDLE
 40
0.0
  9
$DIMEXE
 40
1.0
  9
$DIMTP
 40
0.0
  9
$DIMTM
 40
0.0
  9
$DIMTXT
 40
3.0
  9
$DIMCEN
 40
0.0
  9
$DIMTSZ
 40
0.0
  9
$DIMTOL
 70
     0
  9
$DIMLIM
 70
     0
  9
$DIMTIH
 70
     0
  9
$DIMTOH
 70
     0
  9
$DIMSE1
 70
     0
  9
$DIMSE2
 70
     0
  9
$DIMTAD
 70
     3
  9
$DIMZIN
 70
     8
  9
$DIMBLK
  1

  9
$DIMASO
 70
     1
  9
$DIMSHO
 70
     1
  9
$DIMPOST
  1

  9
$DIMAPOST
  1

  9
$DIMALT
 70
     0
  9
$DIMALTD
 70
     2
  9
$DIMALTF
 40
25.4
  9
$DIMLFAC
 40
1.0
  9
$DIMTOFL
 70
     0
  9
$DIMTVP
 40
0.0
  9
$DIMTIX
 70
     0
  9
$DIMSOXD
 70
     0
  9
$DIMSAH
 70
     0
  9
$DIMBLK1
  1

  9
$DIMBLK2
  1

  9
$DIMSTYLE
  2
A
  9
$DIMCLRD
 70
     6
  9
$DIMCLRE
 70
     6
  9
$DIMCLRT
 70
     3
  9
$DIMTFAC
 40
1.0
  9
$DIMGAP
 40
1.0
  9
$DIMJUST
 70
     0
  9
$DIMSD1
 70
     0
  9
$DIMSD2
 70
     0
  9
$DIMTOLJ
 70
     1
  9
$DIMTZIN
 70
     8
  9
$DIMALTZ
 70
     0
  9
$DIMALTTZ
 70
     0
  9
$DIMUPT
 70
     0
  9
$DIMDEC
 70
     1
  9
$DIMTDEC
 70
     1
  9
$DIMALTU
 70
     2
  9
$DIMALTTD
 70
     2
  9
$DIMTXSTY
  7
TXT
  9
$DIMAUNIT
 70
     0
  9
$DIMADEC
 70
     0
  9
$DIMALTRND
 40
0.0
  9
$DIMAZIN
 70
     0
  9
$DIMDSEP
 70
    46
  9
$DIMATFIT
 70
     3
  9
$DIMFRAC
 70
     0
  9
$DIMLDRBLK
  1

  9
$DIMLUNIT
 70
     2
  9
$DIMLWD
 70
    -2
  9
$DIMLWE
 70
    -2
  9
$DIMTMOVE
 70
     1
  9
$LUNITS
 70
     2
  9
$LUPREC
 70
     2
  9
$SKETCHINC
 40
1.0
  9
$FILLETRAD
 40
0.0
  9
$AUNITS
 70
     0
  9
$AUPREC
 70
     2
  9
$MENU
  1
.
  9
$ELEVATION
 40
0.0
  9
$PELEVATION
 40
0.0
  9
$THICKNESS
 40
0.0
  9
$LIMCHECK
 70
     0
  9
$CHAMFERA
 40
0.0
  9
$CHAMFERB
 40
0.0
  9
$CHAMFERC
 40
1.75
  9
$CHAMFERD
 40
0.0174532925199433
  9
$SKPOLY
 70
     0
  9
$TDCREATE
 40
2451555.620234838
  9
$TDUCREATE
 40
2451555.245234838
  9
$TDUPDATE
 40
2457828.689371528
  9
$TDUUPDATE
 40
2457828.314371528
  9
$TDINDWG
 40
2.7756067130
  9
$TDUSRTIMER
 40
2.7756067130
  9
$USRTIMER
 70
     1
  9
$ANGBASE
 50
0.0
  9
$ANGDIR
 70
     0
  9
$PDMODE
 70
     0
  9
$PDSIZE
 40
0.0
  9
$PLINEWID
 40
0.0
  9
$SPLFRAME
 70
     0
  9
$SPLINETYPE
 70
     6
  9
$SPLINESEGS
 70
     8
  9
$HANDSEED
  5
C765
  9
$SURFTAB1
 70
     6
  9
$SURFTAB2
 70
     6
  9
$SURFTYPE
 70
     6
  9
$SURFU
 70
     6
  9
$SURFV
 70
     6
  9
$UCSBASE
  2

  9
$UCSNAME
  2

  9
$UCSORG
 10
0.0
 20
0.0
 30
0.0
  9
$UCSXDIR
 10
1.0
 20
0.0
 30
0.0
  9
$UCSYDIR
 10
0.0
 20
1.0
 30
0.0
  9
$UCSORTHOREF
  2

  9
$UCSORTHOVIEW
 70
     0
  9
$UCSORGTOP
 10
0.0
 20
0.0
 30
0.0
  9
$UCSORGBOTTOM
 10
0.0
 20
0.0
 30
0.0
  9
$UCSORGLEFT
 10
0.0
 20
0.0
 30
0.0
  9
$UCSORGRIGHT
 10
0.0
 20
0.0
 30
0.0
  9
$UCSORGFRONT
 10
0.0
 20
0.0
 30
0.0
  9
$UCSORGBACK
 10
0.0
 20
0.0
 30
0.0
  9
$PUCSBASE
  2

  9
$PUCSNAME
  2

  9
$PUCSORG
 10
0.0
 20
0.0
 30
0.0
  9
$PUCSXDIR
 10
1.0
 20
0.0
 30
0.0
  9
$PUCSYDIR
 10
0.0
 20
1.0
 30
0.0
  9
$PUCSORTHOREF
  2

  9
$PUCSORTHOVIEW
 70
     0
  9
$PUCSORGTOP
 10
0.0
 20
0.0
 30
0.0
  9
$PUCSORGBOTTOM
 10
0.0
 20
0.0
 30
0.0
  9
$PUCSORGLEFT
 10
0.0
 20
0.0
 30
0.0
  9
$PUCSORGRIGHT
 10
0.0
 20
0.0
 30
0.0
  9
$PUCSORGFRONT
 10
0.0
 20
0.0
 30
0.0
  9
$PUCSORGBACK
 10
0.0
 20
0.0
 30
0.0
  9
$USERI1
 70
     0
  9
$USERI2
 70
     0
  9
$USERI3
 70
     0
  9
$USERI4
 70
     0
  9
$USERI5
 70
     0
  9
$USERR1
 40
0.0
  9
$USERR2
 40
0.0
  9
$USERR3
 40
0.0
  9
$USERR4
 40
0.0
  9
$USERR5
 40
0.0
  9
$WORLDVIEW
 70
     1
  9
$SHADEDGE
 70
     3
  9
$SHADEDIF
 70
    70
  9
$TILEMODE
 70
     1
  9
$MAXACTVP
 70
    48
  9
$PINSBASE
 10
0.0
 20
0.0
 30
0.0
  9
$PLIMCHECK
 70
     0
  9
$PEXTMIN
 10
1.000000000000000E+20
 20
1.000000000000000E+20
 30
1.000000000000000E+20
  9
$PEXTMAX
 10
-1.000000000000000E+20
 20
-1.000000000000000E+20
 30
-1.000000000000000E+20
  9
$PLIMMIN
 10
0.0
 20
0.0
  9
$PLIMMAX
 10
420.0
 20
297.0
  9
$UNITMODE
 70
     0
  9
$VISRETAIN
 70
     1
  9
$PLINEGEN
 70
     0
  9
$PSLTSCALE
 70
     1
  9
$TREEDEPTH
 70
  3020
  9
$CMLSTYLE
  2
STANDARD
  9
$CMLJUST
 70
     0
  9
$CMLSCALE
 40
20.0
  9
$PROXYGRAPHICS
 70
     1
  9
$MEASUREMENT
 70
     1
  9
$CELWEIGHT
370
    -1
  9
$ENDCAPS
280
     0
  9
$JOINSTYLE
280
     0
  9
$LWDISPLAY
290
     0
  9
$INSUNITS
 70
     0
  9
$HYPERLINKBASE
  1

  9
$STYLESHEET
  1

  9
$XEDIT
290
     1
  9
$CEPSNTYPE
380
     0
  9
$PSTYLEMODE
290
     1
  9
$FINGERPRINTGUID
  2
{1CF51E8A-A506-11D4-A7D9-AF69F5C20846}
  9
$VERSIONGUID
  2
{9F4C18A4-1E6F-4BA0-8E79-C1CCC30F56AC}
  9
$EXTNAMES
290
     1
  9
$PSVPSCALE
 40
0.0
  9
$OLESTARTUP
290
     0
  0
ENDSEC
  0
SECTION
  2
CLASSES
  0
CLASS
  1
DICTIONARYVAR
  2
AcDbDictionaryVar
  3
ObjectDBX Classes
 90
        0
280
     0
281
     0
  0
CLASS
  1
SORTENTSTABLE
  2
AcDbSortentsTable
  3
ObjectDBX Classes
 90
        0
280
     0
281
     0
  0
CLASS
  1
HATCH
  2
AcDbHatch
  3
ObjectDBX Classes
 90
        0
280
     0
281
     1
  0
CLASS
  1
LWPOLYLINE
  2
AcDbPolyline
  3
ObjectDBX Classes
 90
        0
280
     0
281
     1
  0
CLASS
  1
ACDBDICTIONARYWDFLT
  2
AcDbDictionaryWithDefault
  3
ObjectDBX Classes
 90
        0
280
     0
281
     0
  0
CLASS
  1
ACDBPLACEHOLDER
  2
AcDbPlaceHolder
  3
ObjectDBX Classes
 90
        0
280
     0
281
     0
  0
CLASS
  1
LAYOUT
  2
AcDbLayout
  3
ObjectDBX Classes
 90
        0
280
     0
281
     0
  0
CLASS
  1
LONG_TRANSACTION
  2
AcDbLongTransaction
  3
ObjectDBX Classes
 90
    32768
280
     0
281
     0
  0
CLASS
  1
LWPOLYLINE
  2
AcDbPolyline
  3
ObjectDBX Classes
 90
        0
280
     0
281
     1
  0
CLASS
  1
HATCH
  2
AcDbHatch
  3
ObjectDBX Classes
 90
        0
280
     0
281
     1
  0
CLASS
  1
XRECORD
  2
AcDbXrecord
  3
ObjectDBX Classes
 90
        0
280
     0
281
     0
  0
CLASS
  1
TABLESTYLE
  2
AcDbTableStyle
  3
ObjectDBX Classes
 90
     2047
280
     0
281
     0
  0
CLASS
  1
MATERIAL
  2
AcDbMaterial
  3
ObjectDBX Classes
 90
        0
280
     0
281
     0
  0
CLASS
  1
VISUALSTYLE
  2
AcDbVisualStyle
  3
ObjectDBX Classes
 90
     4095
280
     0
281
     0
  0
CLASS
  1
SCALE
  2
AcDbScale
  3
ObjectDBX Classes
 90
     1153
280
     0
281
     0
  0
CLASS
  1
MLEADERSTYLE
  2
AcDbMLeaderStyle
  3
ACDB_MLEADERSTYLE_CLASS
 90
     4095
280
     0
281
     0
  0
CLASS
  1
ACME_DOCUMENT
  2
AcMeDbDoc
  3
AcMeServices
 90
    33792
280
     0
281
     0
  0
CLASS
  1
AMGSETTINGSOBJ
  2
AmgSettingsObj
  3
"AcadM|Product Description: AutoCAD Mechanical|Company: Autodesk, Inc."
 90
    33792
280
     0
281
     0
  0
CLASS
  1
ACMESCOPE
  2
AcMeScope
  3
AcMeServices
 90
    33792
280
     0
281
     0
  0
CLASS
  1
ACMECOMMANDHISTORY
  2
AcMeCommandHistory
  3
AcMeServices
 90
    33792
280
     0
281
     0
  0
CLASS
  1
ACIMSYSVARMAN
  2
AcImSysVarManager
  3
AcMeServices
 90
    33792
280
     0
281
     0
  0
CLASS
  1
ACIMINTSYSVAR
  2
AcImIntSysVar
  3
AcMeServices
 90
    33792
280
     0
281
     0
  0
CLASS
  1
ACMESTATEMGR
  2
AcMeStateMgr
  3
AcMeServices
 90
    33792
280
     0
281
     0
  0
CLASS
  1
ACDBENTITYCACHE
  2
AcMeEntityCache
  3
AcMeServices
 90
    33792
280
     0
281
     0
  0
CLASS
  1
ACGREFMASTER
  2
AcGrefMaster
  3
AcAttribServices
 90
    33792
280
     0
281
     0
  0
CLASS
  1
AM_DRAWING_MGR
  2
AcDmDwgMgr
  3
AcMechDwgViewMgmt
 90
    33792
280
     0
281
     0
  0
CLASS
  1
AM_DWG_DOCUMENT
  2
AcDmDwgDocument
  3
AcMechDwgViewMgmt
 90
    33792
280
     0
281
     0
  0
CLASS
  1
AM_DWG_SHEET
  2
AcDmSheet
  3
AcMechDwgViewMgmt
 90
    33792
280
     0
281
     0
  0
CLASS
  1
AM_VIEWDIMPARMAP
  2
AcDmViewDimParMap
  3
AcMechDwgViewMgmt
 90
    33792
280
     0
281
     0
  0
CLASS
  1
AMDTINTERNALREACTOR
  2
AmdtInternalReactor
  3
AcMeServices
 90
    33792
280
     0
281
     0
  0
CLASS
  1
ACIMREALSYSVAR
  2
AcImRealSysVar
  3
AcMeServices
 90
    33792
280
     0
281
     0
  0
CLASS
  1
AM_DWGMGR_NAME
  2
AcDmDwgMgrName
  3
AcMechDwgViewMgmt
 90
    33792
280
     0
281
     0
  0
CLASS
  1
ACME_DATABASE
  2
AcMeDbDatabase
  3
AcMeServices
 90
    33792
280
     0
281
     0
  0
CLASS
  1
ACRFINSADJUSTERMGR
  2
AcRfInsAdjusterMgr
  3
AcMeServices
 90
    33792
280
     0
281
     0
  0
CLASS
  1
ACGREFACADMASTER
  2
AcGrefacadMaster
  3
AcGrefServices
 90
    33792
280
     0
281
     0
  0
CLASS
  1
AMDTMENUSTATEMGR
  2
AmdtMenuStateMgr
  3
McadcomServices
 90
    33792
280
     0
281
     0
  0
CLASS
  1
AMDTMCOMMENUSTATE
  2
AmdtMcomMenuState
  3
McadcomServices
 90
    33792
280
     0
281
     0
  0
CLASS
  1
AMIMASTER
  2
AmiMaster
  3
AmiServices
 90
    33792
280
     0
281
     0
  0
CLASS
  1
MAPIAMMOUDLE
  2
MApiAmModule
  3
MApiAmServices
 90
    33792
280
     0
281
     0
  0
CLASS
  1
ACIMSTRSYSVAR
  2
AcImStrSysVar
  3
AcMeServices
 90
    33792
280
     0
281
     0
  0
CLASS
  1
AMDTDMMENUSTATE
  2
AmdtDmMenuState
  3
AcMechDwgViewMgmt
 90
    33792
280
     0
281
     0
  0
CLASS
  1
AMDTAMMENUSTATE
  2
AmdtAmMenuState
  3
DesignerAssemblies
 90
    33792
280
     0
281
     0
  0
CLASS
  1
ACAMPROJECT
  2
AcAmProject
  3
DesignerAssemblies
 90
    33792
280
     0
281
     0
  0
CLASS
  1
ACAMGRCOMPDEF
  2
AcAmGrCompDef
  3
DesignerAssemblies
 90
    33792
280
     0
281
     0
  0
CLASS
  1
ACAMCOMPDEF
  2
AcAmCompDef
  3
DesignerAssemblies
 90
    33792
280
     0
281
     0
  0
CLASS
  1
ACAMCOMPDEFMGR
  2
AcAmCompDefMgr
  3
DesignerAssemblies
 90
    33792
280
     0
281
     0
  0
CLASS
  1
AMCONTEXTMGR
  2
AcAmContextMgr
  3
DesignerAssemblies
 90
    33792
280
     0
281
     0
  0
CLASS
  1
ACAMCONTEXTMODELER
  2
AcAmContextModeler
  3
DesignerAssemblies
 90
    33792
280
     0
281
     0
  0
CLASS
  1
ACMDATADICTIONARY
  2
AcmDataDictionary
  3
"AcmSymBB|Product Description: AutoCAD Mechanical|Company: Autodesk, Inc."
 90
    33792
280
     0
281
     0
  0
CLASS
  1
ACAMGRCOMPDEFSET
  2
AcAmGrCompDefSet
  3
DesignerAssemblies
 90
    33792
280
     0
281
     0
  0
CLASS
  1
AMDTBROWSERDBTAB
  2
AmdtBrowserDbTab
  3
McadcomServices
 90
    33792
280
     0
281
     0
  0
CLASS
  1
CBROWSERAPPOBJECT
  2
CBrowserAppObject
  3
McadcomServices
 90
    33792
280
     0
281
     0
  0
CLASS
  1
DM_PLACEHOLDER
  2
AcDmSelsetPlaceholder
  3
AcMechDwgViewMgmt
 90
    33792
280
     0
281
     0
  0
CLASS
  1
EXACXREFPANELOBJECT
  2
ExAcXREFPanelObject
  3
EXAC_ESW
 90
    33793
280
     0
281
     0
  0
CLASS
  1
NPOCOLLECTION
  2
AcDbImpNonPersistentObjectsCollection
  3
ObjectDBX Classes
 90
    33921
280
     0
281
     0
  0
CLASS
  1
ACMSTANDARDISO
  2
AcmStandardISO
  3
"Amdt_StdImp|Product Description: AutoCAD Mechanical|Company: Autodesk, Inc."
 90
    33792
280
     0
281
     0
  0
CLASS
  1
AMDTEDGESTANDARDISO13715
  2
AmdtEdgeStdISO13715
  3
"Amdt_StdImp|Product Description: AutoCAD Mechanical|Company: Autodesk, Inc."
 90
    33792
280
     0
281
     0
  0
CLASS
  1
ACMSURFSTANDARDISO2002
  2
AcmSurfTextStdISO2002
  3
"Amdt_StdImp|Product Description: AutoCAD Mechanical|Company: Autodesk, Inc."
 90
    33792
280
     0
281
     0
  0
CLASS
  1
ACMFCFSTANDARDISO
  2
AcmFCFStdISO
  3
"Amdt_StdImp|Product Description: AutoCAD Mechanical|Company: Autodesk, Inc."
 90
    33792
280
     0
281
     0
  0
CLASS
  1
ACMWELDSTANDARDISO
  2
AcmWeldingStdISO
  3
"Amdt_StdImp|Product Description: AutoCAD Mechanical|Company: Autodesk, Inc."
 90
    33792
280
     0
281
     0
  0
CLASS
  1
ACMIDSTANDARDISO
  2
AcmIdStdISO
  3
"Amdt_StdImp|Product Description: AutoCAD Mechanical|Company: Autodesk, Inc."
 90
    33792
280
     0
281
     0
  0
CLASS
  1
ACMDATUMSTANDARDISO
  2
AcmDatumStdISO
  3
"Amdt_StdImp|Product Description: AutoCAD Mechanical|Company: Autodesk, Inc."
 90
    33792
280
     0
281
     0
  0
CLASS
  1
ACMBOMSTANDARDISO
  2
AcmBOMStdISO
  3
"Amdt_StdImp|Product Description: AutoCAD Mechanical|Company: Autodesk, Inc."
 90
    33792
280
     0
281
     0
  0
CLASS
  1
ACMDETAILSTANDARDISO
  2
AmdtDetailSymStdISO
  3
"Amdt_StdImp|Product Description: AutoCAD Mechanical|Company: Autodesk, Inc."
 90
    33792
280
     0
281
     0
  0
CLASS
  1
ACMSECTIONSTANDARDISO2001
  2
AmdtSectionSymStdISO2001
  3
"Amdt_StdImp|Product Description: AutoCAD Mechanical|Company: Autodesk, Inc."
 90
    33792
280
     0
281
     0
  0
CLASS
  1
ACMCENTERLINESTANDARDISO
  2
AmdtCenterLineStdISO
  3
"Amdt_StdImp|Product Description: AutoCAD Mechanical|Company: Autodesk, Inc."
 90
    33792
280
     0
281
     0
  0
CLASS
  1
ACMTHREADLINESTANDARDISO
  2
AmdtThreadLineStdISO
  3
"Amdt_StdImp|Product Description: AutoCAD Mechanical|Company: Autodesk, Inc."
 90
    33792
280
     0
281
     0
  0
CLASS
  1
ACMNOTESTANDARDISO
  2
AmdtNoteStdISO
  3
"Amdt_StdImp|Product Description: AutoCAD Mechanical|Company: Autodesk, Inc."
 90
    33792
280
     0
281
     0
  0
CLASS
  1
ACMTAPERSTANDARDISO
  2
AcmTaperStdISO
  3
"Amdt_StdImp|Product Description: AutoCAD Mechanical|Company: Autodesk, Inc."
 90
    33792
280
     0
281
     0
  0
CLASS
  1
ACMANOOTATIONVIEWSTANDARDISO
  2
AmdtAnViewStdISO
  3
"Amdt_StdImp|Product Description: AutoCAD Mechanical|Company: Autodesk, Inc."
 90
    33792
280
     0
281
     0
  0
CLASS
  1
ACAMGLAYSTD
  2
AcAmgLayStd
  3
"AmgLay|Product Description: AutoCAD Mechanical|Company: Autodesk, Inc."
 90
    33792
280
     0
281
     0
  0
CLASS
  1
ACAMGDIMSTD
  2
AcAmgDimStd
  3
"AmgDim|Product Description: AutoCAD Mechanical|Company: Autodesk, Inc."
 90
    33792
280
     0
281
     0
  0
CLASS
  1
AMGOBJPROPCFG
  2
AmgObjPropCfg
  3
"AmgLay|Product Description: AutoCAD Mechanical|Company: Autodesk, Inc."
 90
    33793
280
     0
281
     0
  0
CLASS
  1
ACAMGHOLECHARTSTDISO
  2
AcAmgHoleChartStdISO
  3
AmgDim|Product Description: AutoCAD Mechanical|Company: Autodesk, Inc.
 90
    33792
280
     0
281
     0
  0
CLASS
  1
ACAMGTITLESTD
  2
AcAmgTitleStd
  3
"AmgTitle|Product Description: AutoCAD Mechanical|Company: Autodesk, Inc."
 90
    36863
280
     0
281
     0
  0
CLASS
  1
AMDTNOTETEMPLATEDB
  2
AmdtNoteTemplateDB
  3
AcmSymBB|Product Description: AutoCAD Mechanical|Company: Autodesk, Inc.
 90
    33792
280
     0
281
     0
  0
CLASS
  1
ACAMGFILTERDAT
  2
AcAmgFilterDat
  3
"AcadM|Product Description: AutoCAD Mechanical|Company: Autodesk, Inc."
 90
    33792
280
     0
281
     0
  0
CLASS
  1
CELLSTYLEMAP
  2
AcDbCellStyleMap
  3
ObjectDBX Classes
 90
     1152
280
     0
281
     0
  0
CLASS
  1
AEC_REFEDIT_STATUS_TRACKER
  2
AecDbRefEditStatusTracker
  3
AecArchBase60|Product Desc: Autodesk Architectural Desktop 2007 |Company: Autodesk,Inc. |WEB Address: www.autodesk.com
 90
    32897
280
     0
281
     0
  0
ENDSEC
  0
SECTION
  2
TABLES
  0
TABLE
  2
VPORT
  5
8
102
{ACAD_XDICTIONARY
360
C670
102
}
330
0
100
AcDbSymbolTable
 70
     2
  0
VPORT
  5
C75E
330
8
100
AcDbSymbolTableRecord
100
AcDbViewportTableRecord
  2
*Active
 70
     0
 10
0.0
 20
0.0
 11
1.0
 21
1.0
 12
369.0576848520586
 22
170.3351133055272
 13
0.0
 23
0.0
 14
10.0
 24
10.0
 15
10.0
 25
10.0
 16
0.0
 26
0.0
 36
1.0
 17
0.0
 27
0.0
 37
0.0
 40
467.156435077198
 41
2.647181628392484
 42
50.0
 43
0.0
 44
0.0
 50
0.0
 51
0.0
 71
     0
 72
   100
 73
     1
 74
     1
 75
     0
 76
     0
 77
     0
 78
     0
281
     0
 65
     1
110
0.0
120
0.0
130
0.0
111
1.0
121
0.0
131
0.0
112
0.0
122
1.0
132
0.0
 79
     0
146
0.0
  0
ENDTAB
  0
TABLE
  2
LTYPE
  5
5
330
0
100
AcDbSymbolTable
 70
    18
  0
LTYPE
  5
12
330
5
100
AcDbSymbolTableRecord
100
AcDbLinetypeTableRecord
  2
BYBLOCK
 70
     0
  3

 72
    65
 73
     0
 40
0.0
  0
LTYPE
  5
13
330
5
100
AcDbSymbolTableRecord
100
AcDbLinetypeTableRecord
  2
BYLAYER
 70
     0
  3

 72
    65
 73
     0
 40
0.0
  0
LTYPE
  5
14
330
5
100
AcDbSymbolTableRecord
100
AcDbLinetypeTableRecord
  2
CONTINUOUS
 70
     0
  3
Solid line
 72
    65
 73
     0
 40
0.0
  0
LTYPE
  5
9D
330
5
100
AcDbSymbolTableRecord
100
AcDbLinetypeTableRecord
  2
CENTERX2
 70
     0
  3
Center (2x) ________  __  ________  __  _____
 72
    65
 73
     4
 40
101.6
 49
63.5
 74
     0
 49
-12.7
 74
     0
 49
12.7
 74
     0
 49
-12.7
 74
     0
  0
LTYPE
  5
A1
330
5
100
AcDbSymbolTableRecord
100
AcDbLinetypeTableRecord
  2
DASHED
 70
     0
  3
Dashed __ __ __ __ __ __ __ __ __ __ __ __ __ _
 72
    65
 73
     2
 40
19.05
 49
12.7
 74
     0
 49
-6.349999999999999
 74
     0
  0
LTYPE
  5
A2
330
5
100
AcDbSymbolTableRecord
100
AcDbLinetypeTableRecord
  2
DASHED2
 70
     0
  3
Dashed (.5x) _ _ _ _ _ _ _ _ _ _ _ _ _ _ _ _ _
 72
    65
 73
     2
 40
9.524999999999998
 49
6.349999999999999
 74
     0
 49
-3.174999999999999
 74
     0
  0
LTYPE
  5
A5
330
5
100
AcDbSymbolTableRecord
100
AcDbLinetypeTableRecord
  2
DIVIDE2
 70
     0
  3
Divide (.5x) __..__..__..__..__..__..__..__.._
 72
    65
 73
     6
 40
15.875
 49
6.349999999999999
 74
     0
 49
-3.174999999999999
 74
     0
 49
0.0
 74
     0
 49
-3.174999999999999
 74
     0
 49
0.0
 74
     0
 49
-3.174999999999999
 74
     0
  0
LTYPE
  5
650B
330
5
100
AcDbSymbolTableRecord
100
AcDbLinetypeTableRecord
  2
CENTER
 70
     0
  3
Center ____ _ ____ _ ____ _ ____ _ ____ _ ____
 72
    65
 73
     4
 40
50.8
 49
31.75
 74
     0
 49
-6.349999999999999
 74
     0
 49
6.349999999999999
 74
     0
 49
-6.349999999999999
 74
     0
  0
LTYPE
  5
650C
330
5
100
AcDbSymbolTableRecord
100
AcDbLinetypeTableRecord
  2
HIDDEN
 70
     0
  3
Hidden __ __ __ __ __ __ __ __ __ __ __ __ __ _
 72
    65
 73
     2
 40
9.524999999999998
 49
6.349999999999999
 74
     0
 49
-3.174999999999999
 74
     0
  0
LTYPE
  5
C308
330
5
100
AcDbSymbolTableRecord
100
AcDbLinetypeTableRecord
  2
PHANTOM2
 70
     0
  3
Phantom (.5x) ___ _ _ ___ _ _ ___ _ _ ___ _ _
 72
    65
 73
     6
 40
31.75
 49
15.875
 74
     0
 49
-3.174999999999999
 74
     0
 49
3.174999999999999
 74
     0
 49
-3.174999999999999
 74
     0
 49
3.174999999999999
 74
     0
 49
-3.174999999999999
 74
     0
  0
LTYPE
  5
C348
330
5
100
AcDbSymbolTableRecord
100
AcDbLinetypeTableRecord
  2
AM_ISO02W050
 70
     0
  3
__ __ __ __ __ __ __ __ __ __ __ __ __ __ __
 72
    65
 73
     2
 40
7.5
 49
6.0
 74
     0
 49
-1.5
 74
     0
  0
LTYPE
  5
C349
330
5
100
AcDbSymbolTableRecord
100
AcDbLinetypeTableRecord
  2
AM_ISO08W050
 70
     0
  3
____ . ____ . ____ . ____ . ____ . ____ . ____
 72
    65
 73
     4
 40
18.0
 49
12.0
 74
     0
 49
-1.5
 74
     0
 49
3.0
 74
     0
 49
-1.5
 74
     0
  0
LTYPE
  5
C34A
330
5
100
AcDbSymbolTableRecord
100
AcDbLinetypeTableRecord
  2
AM_ISO09W050
 70
     0
  3
_____ . . _____ . . _____ . . ____ .. ____
 72
    65
 73
     6
 40
22.5
 49
12.0
 74
     0
 49
-1.5
 74
     0
 49
3.0
 74
     0
 49
-1.5
 74
     0
 49
3.0
 74
     0
 49
-1.5
 74
     0
  0
LTYPE
  5
C34B
330
5
100
AcDbSymbolTableRecord
100
AcDbLinetypeTableRecord
  2
Amconstr
 70
     0
  3
_______________________
 72
    65
 73
     2
 40
9999.0
 49
9999.0
 74
     0
 49
0.0
 74
     0
  0
LTYPE
  5
C34C
330
5
100
AcDbSymbolTableRecord
100
AcDbLinetypeTableRecord
  2
AM_ISO08W050x2
 70
     0
  3
__ . __ . __ . __ . __ . __
 72
    65
 73
     4
 40
9.0
 49
6.0
 74
     0
 49
-0.75
 74
     0
 49
1.5
 74
     0
 49
-0.75
 74
     0
  0
LTYPE
  5
C34D
330
5
100
AcDbSymbolTableRecord
100
AcDbLinetypeTableRecord
  2
AM_ISO02W050x2
 70
     0
  3
 _ _ _ _ _ _ _ _ _ _ _ _
 72
    65
 73
     2
 40
3.75
 49
3.0
 74
     0
 49
-0.75
 74
     0
  0
LTYPE
  5
C350
330
5
100
AcDbSymbolTableRecord
100
AcDbLinetypeTableRecord
  2
Amzigzag
 70
     0
  3
/\/-/\/-/\/-/\/-/\/-/\/
 72
    65
 73
     2
 40
11.0001
 49
0.0001
 74
     4
 75
   136
340
C34F
 46
0.04
 50
0.0
 44
0.0
 45
0.0
 49
-11.0
 74
     0
  0
LTYPE
  5
C35F
330
5
100
AcDbSymbolTableRecord
100
AcDbLinetypeTableRecord
  2
ACISOWELD
 70
     0
  3
_ _ _ _ _
 72
    65
 73
     2
 40
2.0
 49
2.0
 74
     0
 49
-1.0
 74
     0
  0
LTYPE
  5
C360
330
5
100
AcDbSymbolTableRecord
100
AcDbLinetypeTableRecord
  2
ACISOTGB
 70
     0
  3
__ . . __ . .
 72
    65
 73
     6
 40
9.0
 49
4.0
 74
     0
 49
-1.0
 74
     0
 49
1.0
 74
     0
 49
-1.0
 74
     0
 49
1.0
 74
     0
 49
-1.0
 74
     0
  0
LTYPE
  5
C361
330
5
100
AcDbSymbolTableRecord
100
AcDbLinetypeTableRecord
  2
ACISOTGL
 70
     0
  3
_ _ _ _ _
 72
    65
 73
     2
 40
3.0
 49
2.0
 74
     0
 49
-1.0
 74
     0
  0
ENDTAB
  0
TABLE
  2
LAYER
  5
2
330
0
100
AcDbSymbolTable
 70
    10
  0
LAYER
  5
E
102
{ACAD_XDICTIONARY
360
C65A
102
}
330
2
100
AcDbSymbolTableRecord
100
AcDbLayerTableRecord
  2
0
 70
     0
 62
     7
  6
CONTINUOUS
370
    -3
390
5CF2
  0
LAYER
  5
B9
102
{ACAD_XDICTIONARY
360
C65C
102
}
330
2
100
AcDbSymbolTableRecord
100
AcDbLayerTableRecord
  2
DIM
 70
     0
 62
     3
  6
CONTINUOUS
370
    -3
390
5CF2
  0
LAYER
  5
F2
330
2
100
AcDbSymbolTableRecord
100
AcDbLayerTableRecord
  2
DEFPOINTS
 70
     0
 62
     4
  6
CONTINUOUS
290
     0
370
    -3
390
5CF2
  0
LAYER
  5
5F8B
102
{ACAD_XDICTIONARY
360
C65E
102
}
330
2
100
AcDbSymbolTableRecord
100
AcDbLayerTableRecord
  2
公差
 70
     0
 62
     6
  6
CONTINUOUS
370
    -3
390
5CF2
1001
ACADSTRINGINFO
1000
MIFCodePage
1070
     1
  0
LAYER
  5
644E
102
{ACAD_XDICTIONARY
360
C660
102
}
330
2
100
AcDbSymbolTableRecord
100
AcDbLayerTableRecord
  2
図框線
 70
     0
 62
     9
  6
CONTINUOUS
370
    -3
390
5CF2
1001
ACADSTRINGINFO
1000
MIFCodePage
1070
     1
  0
LAYER
  5
650D
102
{ACAD_XDICTIONARY
360
C662
102
}
330
2
100
AcDbSymbolTableRecord
100
AcDbLayerTableRecord
  2
中心線
 70
     0
 62
     1
  6
CENTER
370
    -3
390
5CF2
1001
ACADSTRINGINFO
1000
MIFCodePage
1070
     1
  0
LAYER
  5
650E
102
{ACAD_XDICTIONARY
360
C664
102
}
330
2
100
AcDbSymbolTableRecord
100
AcDbLayerTableRecord
  2
本体内線
 70
     0
 62
     4
  6
HIDDEN
370
    -3
390
5CF2
1001
ACADSTRINGINFO
1000
MIFCodePage
1070
     1
  0
LAYER
  5
650F
102
{ACAD_XDICTIONARY
360
C666
102
}
330
2
100
AcDbSymbolTableRecord
100
AcDbLayerTableRecord
  2
本体外線
 70
     0
 62
     2
  6
CONTINUOUS
370
    -3
390
5CF2
1001
ACADSTRINGINFO
1000
MIFCodePage
1070
     1
  0
LAYER
  5
6510
102
{ACAD_XDICTIONARY
360
C668
102
}
330
2
100
AcDbSymbolTableRecord
100
AcDbLayerTableRecord
  2
剖面線
 70
     0
 62
     5
  6
CONTINUOUS
370
    -3
390
5CF2
1001
ACADSTRINGINFO
1000
MIFCodePage
1070
     1
  0
LAYER
  5
C23D
102
{ACAD_XDICTIONARY
360
C66A
102
}
330
2
100
AcDbSymbolTableRecord
100
AcDbLayerTableRecord
  2
mark
 70
     0
 62
     6
  6
CONTINUOUS
370
    -3
390
5CF2
  0
ENDTAB
  0
TABLE
  2
STYLE
  5
3
330
0
100
AcDbSymbolTable
 70
     8
  0
STYLE
  5
F
330
3
100
AcDbSymbolTableRecord
100
AcDbTextStyleTableRecord
  2
STANDARD
 70
     0
 40
0.0
 41
1.0
 50
0.0
 71
     0
 42
2.5
  3
txt
  4

  0
STYLE
  5
BE
330
3
100
AcDbSymbolTableRecord
100
AcDbTextStyleTableRecord
  2
ISOCP3
 70
     0
 40
0.0
 41
1.0
 50
0.0
 71
     0
 42
2.5
  3
isocp3.shx
  4

  0
STYLE
  5
2A37
330
3
100
AcDbSymbolTableRecord
100
AcDbTextStyleTableRecord
  2
TXT
 70
     0
 40
0.0
 41
1.0
 50
0.0
 71
     0
 42
2.5
  3
txt.shx
  4
bigfont.shx
  0
STYLE
  5
5DCB
330
3
100
AcDbSymbolTableRecord
100
AcDbTextStyleTableRecord
  2
LKK
 70
     0
 40
50.0
 41
1.5
 50
0.0
 71
     0
 42
50.0
  3
MS PGothic.ttf
  4

1001
ACAD
1000
MS PGothic
1071
    32818
  0
STYLE
  5
5DCC
330
3
100
AcDbSymbolTableRecord
100
AcDbTextStyleTableRecord
  2
JL
 70
     0
 40
10.0
 41
0.5
 50
0.0
 71
     0
 42
5.0
  3
MS Mincho.ttf
  4

1001
ACAD
1000
MS Mincho
1071
    32785
  0
STYLE
  5
C34F
330
3
100
AcDbSymbolTableRecord
100
AcDbTextStyleTableRecord
  2

 70
     1
 40
0.0
 41
1.0
 50
0.0
 71
     0
 42
2.5
  3
genltshp.shx
  4

  0
STYLE
  5
C35D
330
3
100
AcDbSymbolTableRecord
100
AcDbTextStyleTableRecord
  2
ACISOTS
 70
     0
 40
1.0
 41
1.0
 50
0.0
 71
     0
 42
2.5
  3
isocp.shx
  4
chineset.shx
  0
STYLE
  5
C35E
330
3
100
AcDbSymbolTableRecord
100
AcDbTextStyleTableRecord
  2
ACISOGDT
 70
     0
 40
0.0
 41
1.0
 50
0.0
 71
     0
 42
2.5
  3
amgdt.shx
  4

  0
ENDTAB
  0
TABLE
  2
VIEW
  5
6
330
0
100
AcDbSymbolTable
 70
     0
  0
ENDTAB
  0
TABLE
  2
UCS
  5
7
330
0
100
AcDbSymbolTable
 70
     0
  0
ENDTAB
  0
TABLE
  2
APPID
  5
9
330
0
100
AcDbSymbolTable
 70
    20
  0
APPID
  5
10
330
9
100
AcDbSymbolTableRecord
100
AcDbRegAppTableRecord
  2
ACAD
 70
     0
  0
APPID
  5
C266
330
9
100
AcDbSymbolTableRecord
100
AcDbRegAppTableRecord
  2
ACAD_DSTYLE_DIMEXT_LENGTH
 70
     0
  0
APPID
  5
C267
330
9
100
AcDbSymbolTableRecord
100
AcDbRegAppTableRecord
  2
ACAD_DSTYLE_DIMEXT_ENABLED
 70
     0
  0
APPID
  5
C268
330
9
100
AcDbSymbolTableRecord
100
AcDbRegAppTableRecord
  2
ACAD_DSTYLE_DIMJOGGED_JOGANGLE_SYMBOL
 70
     0
  0
APPID
  5
C269
330
9
100
AcDbSymbolTableRecord
100
AcDbRegAppTableRecord
  2
ACAD_DSTYLE_DIMARC_LENGTH_SYMBOL
 70
     0
  0
APPID
  5
C27D
330
9
100
AcDbSymbolTableRecord
100
AcDbRegAppTableRecord
  2
ACAD_EXEMPT_FROM_CAD_STANDARDS
 70
     0
  0
APPID
  5
C2CE
330
9
100
AcDbSymbolTableRecord
100
AcDbRegAppTableRecord
  2
ACADSTRINGINFO
 70
     0
  0
APPID
  5
C2DF
330
9
100
AcDbSymbolTableRecord
100
AcDbRegAppTableRecord
  2
MCAD_NO_VIS
 70
     0
  0
APPID
  5
C2E0
330
9
100
AcDbSymbolTableRecord
100
AcDbRegAppTableRecord
  2
ACAD_TEMP_GRAPHIC
 70
     0
  0
APPID
  5
C30A
330
9
100
AcDbSymbolTableRecord
100
AcDbRegAppTableRecord
  2
AD_DRAW
 70
     0
  0
APPID
  5
C30D
330
9
100
AcDbSymbolTableRecord
100
AcDbRegAppTableRecord
  2
ACATTRIBSERVICES
 70
     0
  0
APPID
  5
C326
330
9
100
AcDbSymbolTableRecord
100
AcDbRegAppTableRecord
  2
DESIGNERASSEMBLIES
 70
     0
  0
APPID
  5
C32B
330
9
100
AcDbSymbolTableRecord
100
AcDbRegAppTableRecord
  2
ACADM_DIM_EDIT
 70
     0
  0
APPID
  5
C32C
330
9
100
AcDbSymbolTableRecord
100
AcDbRegAppTableRecord
  2
AMDT_DM_ADJ
 70
     0
  0
APPID
  5
C345
330
9
100
AcDbSymbolTableRecord
100
AcDbRegAppTableRecord
  2
ACAD_DSTYLE_DIMJAG
 70
     0
  0
APPID
  5
C346
330
9
100
AcDbSymbolTableRecord
100
AcDbRegAppTableRecord
  2
ACAD_DSTYLE_DIMBREAK
 70
     0
  0
APPID
  5
C702
330
9
100
AcDbSymbolTableRecord
100
AcDbRegAppTableRecord
  2
ACAD_MLEADERVER
 70
     0
  0
APPID
  5
C703
330
9
100
AcDbSymbolTableRecord
100
AcDbRegAppTableRecord
  2
ACAD_DSTYLE_DIM_LINETYPE
 70
     0
  0
APPID
  5
C704
330
9
100
AcDbSymbolTableRecord
100
AcDbRegAppTableRecord
  2
ACAD_DSTYLE_DIM_EXT1_LINETYPE
 70
     0
  0
APPID
  5
C705
330
9
100
AcDbSymbolTableRecord
100
AcDbRegAppTableRecord
  2
ACAD_DSTYLE_DIM_EXT2_LINETYPE
 70
     0
  0
ENDTAB
  0
TABLE
  2
DIMSTYLE
  5
A
330
0
100
AcDbSymbolTable
 70
    10
100
AcDbDimStyleTable
 71
     1
340
1A4
  0
DIMSTYLE
105
1D
330
A
100
AcDbSymbolTableRecord
100
AcDbDimStyleTableRecord
  2
STANDARD
 70
     0
 41
3.0
 42
0.06
 77
     3
140
4.0
144
0.3333333333333333
172
     1
340
F
  0
DIMSTYLE
105
1A4
102
{ACAD_REACTORS
330
C50F
330
C520
330
C521
330
C522
330
C486
330
C488
330
C498
330
C499
330
C49A
330
C49F
330
C4A0
330
C485
102
}
330
A
100
AcDbSymbolTableRecord
100
AcDbDimStyleTableRecord
  2
A
 70
     0
 41
2.5
 42
1.0
 43
6.0
 44
1.0
 73
     0
 74
     0
 77
     3
 78
     8
140
3.0
141
0.0
147
1.0
176
     6
177
     6
178
     3
271
     1
272
     1
279
     1
340
2A37
  0
DIMSTYLE
105
6006
330
A
100
AcDbSymbolTableRecord
100
AcDbDimStyleTableRecord
  2
ISO-25
 70
     0
 40
0.0
 41
2.0
 42
0.3
 43
1.0
 44
0.3
 73
     0
 74
     0
 77
     1
 78
     8
140
3.0
147
1.0
172
     1
176
     6
177
     6
178
     3
271
     1
272
     2
284
     8
288
     1
289
     2
340
F
  0
DIMSTYLE
105
C344
330
A
100
AcDbSymbolTableRecord
100
AcDbDimStyleTableRecord
  2
AM_ISO
 70
     0
  4
"
 41
3.5
 42
1.0
 43
10.0
 44
1.0
 47
0.1
 48
0.1
 73
     0
 74
     0
 77
     1
 78
     8
 79
     2
140
3.5
141
0.0
143
0.0393701
146
0.71
147
1.5
172
     1
176
   256
177
   256
178
     2
271
     2
272
     3
274
     4
283
     0
284
     8
340
F
371
    -1
372
    -1
1001
ACAD_DSTYLE_DIMJAG
1070
   388
1040
1.5
1001
ACAD_DSTYLE_DIMBREAK
1070
   391
1040
3.75
1001
ACAD_DSTYLE_DIMARC_LENGTH_SYMBOL
1070
   379
1070
     1
1001
ACAD_DSTYLE_DIM_LINETYPE
1070
   380
1005
12
1001
ACAD_DSTYLE_DIM_EXT1_LINETYPE
1070
   381
1005
12
1001
ACAD_DSTYLE_DIM_EXT2_LINETYPE
1070
   382
1005
12
  0
DIMSTYLE
105
C351
330
A
100
AcDbSymbolTableRecord
100
AcDbDimStyleTableRecord
  2
AM_ISO$3
 70
     0
  4
"
 41
3.5
 42
1.0
 43
10.0
 44
1.0
 47
0.1
 48
0.1
 73
     0
 77
     1
 78
     8
 79
     2
140
3.5
141
0.0
143
0.0393701
146
0.71
147
1.5
176
   256
177
   256
178
     2
271
     2
272
     3
274
     4
283
     0
284
     8
288
     1
289
     0
340
F
371
    -1
372
    -1
1001
ACAD_DSTYLE_DIMBREAK
1070
   391
1040
3.75
1001
ACAD_DSTYLE_DIMJAG
1070
   388
1040
1.5
1001
ACAD_DSTYLE_DIMARC_LENGTH_SYMBOL
1070
   379
1070
     1
1001
ACAD_DSTYLE_DIM_LINETYPE
1070
   380
1005
12
1001
ACAD_DSTYLE_DIM_EXT1_LINETYPE
1070
   381
1005
12
1001
ACAD_DSTYLE_DIM_EXT2_LINETYPE
1070
   382
1005
12
  0
DIMSTYLE
105
C352
330
A
100
AcDbSymbolTableRecord
100
AcDbDimStyleTableRecord
  2
AM_ISO$4
 70
     0
  4
"
 41
3.5
 42
1.0
 43
10.0
 44
1.0
 47
0.1
 48
0.1
 73
     0
 77
     1
 78
     8
 79
     2
140
3.5
141
0.0
143
0.0393701
146
0.71
147
1.5
176
   256
177
   256
178
     2
271
     2
272
     3
274
     4
283
     0
284
     8
288
     1
289
     0
340
F
371
    -1
372
    -1
1001
ACAD_DSTYLE_DIMBREAK
1070
   391
1040
3.75
1001
ACAD_DSTYLE_DIMJAG
1070
   388
1040
1.5
1001
ACAD_DSTYLE_DIMARC_LENGTH_SYMBOL
1070
   379
1070
     1
1001
ACAD_DSTYLE_DIM_LINETYPE
1070
   380
1005
12
1001
ACAD_DSTYLE_DIM_EXT1_LINETYPE
1070
   381
1005
12
1001
ACAD_DSTYLE_DIM_EXT2_LINETYPE
1070
   382
1005
12
  0
DIMSTYLE
105
C353
330
A
100
AcDbSymbolTableRecord
100
AcDbDimStyleTableRecord
  2
AM_ISO$6
 70
     0
  4
"
 41
3.5
 42
1.0
 43
10.0
 44
1.0
 47
0.1
 48
0.1
 73
     0
 74
     0
 78
     8
 79
     2
140
3.5
141
0.0
143
0.0393701
146
0.71
147
1.5
172
     1
176
   256
177
   256
178
     2
271
     2
272
     3
274
     4
283
     0
284
     8
340
F
371
    -1
372
    -1
1001
ACAD_DSTYLE_DIMBREAK
1070
   391
1040
3.75
1001
ACAD_DSTYLE_DIMJAG
1070
   388
1040
1.5
1001
ACAD_DSTYLE_DIMARC_LENGTH_SYMBOL
1070
   379
1070
     1
1001
ACAD_DSTYLE_DIM_LINETYPE
1070
   380
1005
12
1001
ACAD_DSTYLE_DIM_EXT1_LINETYPE
1070
   381
1005
12
1001
ACAD_DSTYLE_DIM_EXT2_LINETYPE
1070
   382
1005
12
  0
DIMSTYLE
105
C354
330
A
100
AcDbSymbolTableRecord
100
AcDbDimStyleTableRecord
  2
AM_ISO$7
 70
     0
  4
"
 41
3.5
 42
1.0
 43
10.0
 44
1.0
 47
0.1
 48
0.1
 73
     0
 74
     0
 77
     1
 78
     8
 79
     2
140
3.5
141
0.0
143
0.0393701
146
0.71
147
1.5
172
     1
176
   256
177
   256
178
     2
271
     2
272
     3
274
     4
283
     0
284
     8
340
F
371
    -1
372
    -1
1001
ACAD_DSTYLE_DIMBREAK
1070
   391
1040
3.75
1001
ACAD_DSTYLE_DIMJAG
1070
   388
1040
1.5
1001
ACAD_DSTYLE_DIMARC_LENGTH_SYMBOL
1070
   379
1070
     1
1001
ACAD_DSTYLE_DIM_LINETYPE
1070
   380
1005
12
1001
ACAD_DSTYLE_DIM_EXT1_LINETYPE
1070
   381
1005
12
1001
ACAD_DSTYLE_DIM_EXT2_LINETYPE
1070
   382
1005
12
  0
DIMSTYLE
105
C355
330
A
100
AcDbSymbolTableRecord
100
AcDbDimStyleTableRecord
  2
AM_ISO$SF
 70
     0
  4
"
 41
3.5
 42
1.0
 43
10.0
 44
1.0
 47
0.1
 48
0.1
 73
     0
 74
     0
 75
     1
 76
     1
 77
     1
 78
     8
 79
     2
140
3.5
141
0.0
143
0.0393701
146
0.71
147
1.5
172
     1
176
   256
177
   256
178
     2
271
     2
272
     3
274
     4
283
     0
284
     8
340
F
371
    -1
372
    -1
1001
ACAD_DSTYLE_DIMBREAK
1070
   391
1040
3.75
1001
ACAD_DSTYLE_DIMJAG
1070
   388
1040
1.5
1001
ACAD_DSTYLE_DIMARC_LENGTH_SYMBOL
1070
   379
1070
     1
1001
ACAD_DSTYLE_DIM_LINETYPE
1070
   380
1005
12
1001
ACAD_DSTYLE_DIM_EXT1_LINETYPE
1070
   381
1005
12
1001
ACAD_DSTYLE_DIM_EXT2_LINETYPE
1070
   382
1005
12
  0
DIMSTYLE
105
C35A
330
A
100
AcDbSymbolTableRecord
100
AcDbDimStyleTableRecord
  2
AM_ISO$SH
 70
     0
  4
"
 41
3.5
 42
1.0
 43
10.0
 44
1.0
 47
0.1
 48
0.1
 73
     0
 74
     0
 75
     1
 76
     1
 77
     1
 78
     8
 79
     2
140
3.5
141
0.0
143
0.0393701
144
2.0
146
0.71
147
1.5
172
     1
173
     1
176
   256
177
   256
178
     2
271
     2
272
     3
274
     4
283
     0
284
     8
340
F
343
C356
371
    -1
372
    -1
1001
ACAD_DSTYLE_DIMBREAK
1070
   391
1040
3.75
1001
ACAD_DSTYLE_DIMJAG
1070
   388
1040
1.5
1001
ACAD_DSTYLE_DIMARC_LENGTH_SYMBOL
1070
   379
1070
     1
1001
ACAD_DSTYLE_DIM_LINETYPE
1070
   380
1005
12
1001
ACAD_DSTYLE_DIM_EXT1_LINETYPE
1070
   381
1005
12
1001
ACAD_DSTYLE_DIM_EXT2_LINETYPE
1070
   382
1005
12
  0
ENDTAB
  0
TABLE
  2
BLOCK_RECORD
  5
1
330
0
100
AcDbSymbolTable
 70
    29
  0
BLOCK_RECORD
  5
18
102
{ACAD_XDICTIONARY
360
45F
102
}
330
1
100
AcDbSymbolTableRecord
100
AcDbBlockTableRecord
  2
*MODEL_SPACE
340
5CF5
  0
BLOCK_RECORD
  5
15
102
{ACAD_XDICTIONARY
360
5D89
102
}
330
1
100
AcDbSymbolTableRecord
100
AcDbBlockTableRecord
  2
*PAPER_SPACE
340
5CF6
  0
BLOCK_RECORD
  5
639D
330
1
100
AcDbSymbolTableRecord
100
AcDbBlockTableRecord
  2
A$C255C26A2
340
0
102
{BLKREFS
331
C42F
102
}
  0
BLOCK_RECORD
  5
6C86
330
1
100
AcDbSymbolTableRecord
100
AcDbBlockTableRecord
  2
*D1
340
0
  0
BLOCK_RECORD
  5
6C9E
330
1
100
AcDbSymbolTableRecord
100
AcDbBlockTableRecord
  2
*D2
340
0
  0
BLOCK_RECORD
  5
7A5F
330
1
100
AcDbSymbolTableRecord
100
AcDbBlockTableRecord
  2
_DOTSMALL
340
0
  0
BLOCK_RECORD
  5
8FA3
330
1
100
AcDbSymbolTableRecord
100
AcDbBlockTableRecord
  2
*D4
340
0
  0
BLOCK_RECORD
  5
93DD
330
1
100
AcDbSymbolTableRecord
100
AcDbBlockTableRecord
  2
*D5
340
0
  0
BLOCK_RECORD
  5
93F5
330
1
100
AcDbSymbolTableRecord
100
AcDbBlockTableRecord
  2
*D6
340
0
  0
BLOCK_RECORD
  5
93FF
330
1
100
AcDbSymbolTableRecord
100
AcDbBlockTableRecord
  2
*D7
340
0
  0
BLOCK_RECORD
  5
9571
330
1
100
AcDbSymbolTableRecord
100
AcDbBlockTableRecord
  2
*D8
340
0
  0
BLOCK_RECORD
  5
A27B
330
1
100
AcDbSymbolTableRecord
100
AcDbBlockTableRecord
  2
*D9
340
0
  0
BLOCK_RECORD
  5
C09C
330
1
100
AcDbSymbolTableRecord
100
AcDbBlockTableRecord
  2
*D10
340
0
  0
BLOCK_RECORD
  5
C125
330
1
100
AcDbSymbolTableRecord
100
AcDbBlockTableRecord
  2
*D11
340
0
  0
BLOCK_RECORD
  5
C143
330
1
100
AcDbSymbolTableRecord
100
AcDbBlockTableRecord
  2
*D12
340
0
  0
BLOCK_RECORD
  5
C152
330
1
100
AcDbSymbolTableRecord
100
AcDbBlockTableRecord
  2
*D13
340
0
  0
BLOCK_RECORD
  5
C214
102
{ACAD_XDICTIONARY
360
C21A
102
}
330
1
100
AcDbSymbolTableRecord
100
AcDbBlockTableRecord
  2
A$C31461C66
340
0
  0
BLOCK_RECORD
  5
C260
330
1
100
AcDbSymbolTableRecord
100
AcDbBlockTableRecord
  2
_Open30
340
0
  0
BLOCK_RECORD
  5
C356
330
1
100
AcDbSymbolTableRecord
100
AcDbBlockTableRecord
  2
GENAXEH
340
0
  0
BLOCK_RECORD
  5
C543
330
1
100
AcDbSymbolTableRecord
100
AcDbBlockTableRecord
  2
*D17
340
0
  0
BLOCK_RECORD
  5
C551
330
1
100
AcDbSymbolTableRecord
100
AcDbBlockTableRecord
  2
*D18
340
0
  0
BLOCK_RECORD
  5
C55E
330
1
100
AcDbSymbolTableRecord
100
AcDbBlockTableRecord
  2
*D19
340
0
  0
BLOCK_RECORD
  5
C56C
330
1
100
AcDbSymbolTableRecord
100
AcDbBlockTableRecord
  2
*D20
340
0
  0
BLOCK_RECORD
  5
C57A
330
1
100
AcDbSymbolTableRecord
100
AcDbBlockTableRecord
  2
*D21
340
0
  0
BLOCK_RECORD
  5
C586
330
1
100
AcDbSymbolTableRecord
100
AcDbBlockTableRecord
  2
*D22
340
0
  0
BLOCK_RECORD
  5
C592
330
1
100
AcDbSymbolTableRecord
100
AcDbBlockTableRecord
  2
*D23
340
0
  0
BLOCK_RECORD
  5
C59E
330
1
100
AcDbSymbolTableRecord
100
AcDbBlockTableRecord
  2
*D24
340
0
  0
BLOCK_RECORD
  5
C5A9
330
1
100
AcDbSymbolTableRecord
100
AcDbBlockTableRecord
  2
*D25
340
0
  0
BLOCK_RECORD
  5
C5B4
330
1
100
AcDbSymbolTableRecord
100
AcDbBlockTableRecord
  2
*D26
340
0
  0
BLOCK_RECORD
  5
C5C0
330
1
100
AcDbSymbolTableRecord
100
AcDbBlockTableRecord
  2
*D27
340
0
  0
BLOCK_RECORD
  5
C5CD
330
1
100
AcDbSymbolTableRecord
100
AcDbBlockTableRecord
  2
*D28
340
0
  0
ENDTAB
  0
ENDSEC
  0
SECTION
  2
BLOCKS
  0
BLOCK
  5
19
330
18
100
AcDbEntity
  8
0
100
AcDbBlockBegin
  2
*MODEL_SPACE
 70
     0
 10
0.0
 20
0.0
 30
0.0
  3
*MODEL_SPACE
  1

  0
ENDBLK
  5
1A
330
18
100
AcDbEntity
  8
0
100
AcDbBlockEnd
  0
BLOCK
  5
16
330
15
100
AcDbEntity
 67
     1
  8
0
100
AcDbBlockBegin
  2
*PAPER_SPACE
 70
     0
 10
0.0
 20
0.0
 30
0.0
  3
*PAPER_SPACE
  1

  0
ENDBLK
  5
17
330
15
100
AcDbEntity
 67
     1
  8
0
100
AcDbBlockEnd
  0
BLOCK
  5
63A1
330
639D
100
AcDbEntity
  8
0
100
AcDbBlockBegin
  2
A$C255C26A2
 70
     0
 10
0.0
 20
0.0
 30
0.0
  3
A$C255C26A2
  1

  0
LWPOLYLINE
  5
639E
330
639D
100
AcDbEntity
  8
0
100
AcDbPolyline
 90
        3
 70
     1
 43
0.0
 10
7.014806023851633
 20
0.0000006939811783
 10
5.611844869720698
 20
2.430000693981241
 10
8.417767177982568
 20
2.430000693981241
  0
LWPOLYLINE
  5
639F
330
639D
100
AcDbEntity
  8
0
100
AcDbPolyline
 90
        3
 70
     1
 43
0.0
 10
4.20888371558999
 20
0.0000006939811783
 10
2.805922561459283
 20
2.430000693981241
 10
5.611844869720698
 20
2.430000693981241
  0
LWPOLYLINE
  5
63A0
330
639D
100
AcDbEntity
  8
0
100
AcDbPolyline
 90
        3
 70
     1
 43
0.0
 10
1.402961407328348
 20
0.0000006939811783
 10
0.0000002531974133
 20
2.430000693981241
 10
2.805922561459283
 20
2.430000693981241
  0
ENDBLK
  5
63A2
330
639D
100
AcDbEntity
  8
0
100
AcDbBlockEnd
  0
BLOCK
  5
C0FA
330
6C86
100
AcDbEntity
  8
0
100
AcDbBlockBegin
  2
*D1
 70
     1
 10
0.0
 20
0.0
 30
0.0
  3
*D1
  1

  0
LINE
  5
C0FB
330
6C86
100
AcDbEntity
  8
0
  6
ByBlock
 62
     6
100
AcDbLine
 10
313.2597253187449
 20
117.1774366163365
 30
0.0
 11
313.2597253187449
 21
134.7741255215394
 31
0.0
  0
LINE
  5
C0FC
330
6C86
100
AcDbEntity
  8
0
  6
ByBlock
 62
     6
100
AcDbLine
 10
405.2597253187449
 20
117.177436616337
 30
0.0
 11
405.2597253187449
 21
134.7741255215394
 31
0.0
  0
LINE
  5
C0FD
330
6C86
100
AcDbEntity
  8
0
  6
ByBlock
 62
     6
100
AcDbLine
 10
315.7597253187449
 20
133.7741255215394
 30
0.0
 11
402.7597253187449
 21
133.7741255215394
 31
0.0
  0
SOLID
  5
C0FE
330
6C86
100
AcDbEntity
  8
0
  6
ByBlock
 62
     6
100
AcDbTrace
 10
315.7597253187449
 20
134.1907921882061
 30
0.0
 11
315.7597253187449
 21
133.3574588548728
 31
0.0
 12
313.2597253187449
 22
133.7741255215394
 32
0.0
 13
313.2597253187449
 23
133.7741255215394
 33
0.0
  0
SOLID
  5
C0FF
330
6C86
100
AcDbEntity
  8
0
  6
ByBlock
 62
     6
100
AcDbTrace
 10
402.7597253187449
 20
134.1907921882061
 30
0.0
 11
402.7597253187449
 21
133.3574588548728
 31
0.0
 12
405.2597253187449
 22
133.7741255215394
 32
0.0
 13
405.2597253187449
 23
133.7741255215394
 33
0.0
  0
MTEXT
  5
C100
330
6C86
100
AcDbEntity
  8
0
  6
ByBlock
 62
     3
100
AcDbMText
 10
359.2597253187449
 20
136.2741255215395
 30
0.0
 40
3.0
 41
0.0
 71
     5
 72
     1
  1
\A1;\U+220592±0.5
  7
TXT
 73
     1
 44
1.0
1001
ACAD
1000
MTEXTBEGIN
1070
    73
1070
     1
1070
    44
1040
1.0
1070
    74
1070
     0
1000
MTEXTEND
  0
POINT
  5
C101
330
6C86
100
AcDbEntity
  8
DEFPOINTS
  6
ByBlock
 62
     0
100
AcDbPoint
 10
313.2597253187449
 20
116.1774366163365
 30
0.0
  0
POINT
  5
C102
330
6C86
100
AcDbEntity
  8
DEFPOINTS
  6
ByBlock
 62
     0
100
AcDbPoint
 10
405.2597253187449
 20
116.177436616337
 30
0.0
  0
POINT
  5
C103
330
6C86
100
AcDbEntity
  8
DEFPOINTS
  6
ByBlock
 62
     0
100
AcDbPoint
 10
405.2597253187449
 20
133.7741255215394
 30
0.0
  0
ENDBLK
  5
C104
330
6C86
100
AcDbEntity
  8
0
100
AcDbBlockEnd
  0
BLOCK
  5
C0EF
330
6C9E
100
AcDbEntity
  8
0
100
AcDbBlockBegin
  2
*D2
 70
     1
 10
0.0
 20
0.0
 30
0.0
  3
*D2
  1

  0
LINE
  5
C0F0
330
6C9E
100
AcDbEntity
  8
0
  6
ByBlock
 62
     6
100
AcDbLine
 10
309.2597253187449
 20
111.868035539578
 30
0.0
 11
309.2597253187449
 21
141.8537949454204
 31
0.0
  0
LINE
  5
C0F1
330
6C9E
100
AcDbEntity
  8
0
  6
ByBlock
 62
     6
100
AcDbLine
 10
409.2597253187449
 20
111.8680355395783
 30
0.0
 11
409.2597253187449
 21
141.8537949454204
 31
0.0
  0
LINE
  5
C0F2
330
6C9E
100
AcDbEntity
  8
0
  6
ByBlock
 62
     6
100
AcDbLine
 10
311.7597253187449
 20
140.8537949454204
 30
0.0
 11
406.7597253187448
 21
140.8537949454204
 31
0.0
  0
MTEXT
  5
C0F3
330
6C9E
100
AcDbEntity
  8
0
  6
ByBlock
 62
     3
100
AcDbMText
 10
353.7348119495683
 20
144.1662159695086
 30
0.0
 40
3.0
 41
0.0
 71
     5
 72
     1
  1
\A1;\U+2205100
  7
TXT
 73
     1
 44
1.0
1001
ACAD
1000
MTEXTBEGIN
1070
    73
1070
     1
1070
    44
1040
1.0
1070
    74
1070
     0
1000
MTEXTEND
  0
SOLID
  5
C0F4
330
6C9E
100
AcDbEntity
  8
0
  6
ByBlock
 62
     6
100
AcDbTrace
 10
311.7597253187449
 20
141.2704616120871
 30
0.0
 11
311.7597253187449
 21
140.4371282787538
 31
0.0
 12
309.2597253187449
 22
140.8537949454204
 32
0.0
 13
309.2597253187449
 23
140.8537949454204
 33
0.0
  0
SOLID
  5
C0F5
330
6C9E
100
AcDbEntity
  8
0
  6
ByBlock
 62
     6
100
AcDbTrace
 10
406.7597253187448
 20
141.2704616120871
 30
0.0
 11
406.7597253187448
 21
140.4371282787538
 31
0.0
 12
409.2597253187449
 22
140.8537949454204
 32
0.0
 13
409.2597253187449
 23
140.8537949454204
 33
0.0
  0
POINT
  5
C0F6
330
6C9E
100
AcDbEntity
  8
DEFPOINTS
  6
ByBlock
 62
     0
100
AcDbPoint
 10
309.2597253187449
 20
110.868035539578
 30
0.0
  0
POINT
  5
C0F7
330
6C9E
100
AcDbEntity
  8
DEFPOINTS
  6
ByBlock
 62
     0
100
AcDbPoint
 10
409.2597253187449
 20
110.8680355395783
 30
0.0
  0
POINT
  5
C0F8
330
6C9E
100
AcDbEntity
  8
DEFPOINTS
  6
ByBlock
 62
     0
100
AcDbPoint
 10
409.2597253187449
 20
140.8537949454204
 30
0.0
  0
ENDBLK
  5
C0F9
330
6C9E
100
AcDbEntity
  8
0
100
AcDbBlockEnd
  0
BLOCK
  5
7A64
330
7A5F
100
AcDbEntity
  8
0
100
AcDbBlockBegin
  2
_DOTSMALL
 70
     0
 10
0.0
 20
0.0
 30
0.0
  3
_DOTSMALL
  1

  0
LWPOLYLINE
  5
7A60
330
7A5F
100
AcDbEntity
  8
0
  6
ByBlock
 62
     0
100
AcDbPolyline
 90
        2
 70
     1
 43
0.5
 10
-0.0625
 20
0.0
 42
1.0
 10
0.0625
 20
0.0
 42
1.0
  0
ENDBLK
  5
7A65
330
7A5F
100
AcDbEntity
  8
0
100
AcDbBlockEnd
  0
BLOCK
  5
C018
330
8FA3
100
AcDbEntity
  8
0
100
AcDbBlockBegin
  2
*D4
 70
     1
 10
0.0
 20
0.0
 30
0.0
  3
*D4
  1

  0
LINE
  5
C019
330
8FA3
100
AcDbEntity
  8
0
  6
ByBlock
 62
     6
100
AcDbLine
 10
336.5376014125548
 20
306.6313610893457
 30
0.0
 11
283.4311988866434
 21
306.6313610893457
 31
0.0
  0
LINE
  5
C01A
330
8FA3
100
AcDbEntity
  8
0
  6
ByBlock
 62
     6
100
AcDbLine
 10
336.537601412557
 20
211.6313610893457
 30
0.0
 11
283.4311988866434
 21
211.6313610893457
 31
0.0
  0
LINE
  5
C01B
330
8FA3
100
AcDbEntity
  8
0
  6
ByBlock
 62
     6
100
AcDbLine
 10
284.4311988866434
 20
304.1313610893457
 30
0.0
 11
284.4311988866434
 21
214.1313610893456
 31
0.0
  0
MTEXT
  5
C01C
330
8FA3
100
AcDbEntity
  8
0
  6
ByBlock
 62
     3
100
AcDbMText
 10
280.4603870093965
 20
255.2559005292927
 30
0.0
 40
3.0
 41
0.0
 71
     5
 72
     1
  1
\A1;95
  7
TXT
 11
0.0000000000000001
 21
1.0
 31
0.0
 73
     1
 44
1.0
1001
ACAD
1000
MTEXTBEGIN
1070
    73
1070
     1
1070
    44
1040
1.0
1070
    74
1070
     0
1000
MTEXTEND
  0
SOLID
  5
C01D
330
8FA3
100
AcDbEntity
  8
0
  6
ByBlock
 62
     6
100
AcDbTrace
 10
284.0145322199767
 20
304.1313610893457
 30
0.0
 11
284.8478655533101
 21
304.1313610893457
 31
0.0
 12
284.4311988866434
 22
306.6313610893457
 32
0.0
 13
284.4311988866434
 23
306.6313610893457
 33
0.0
  0
SOLID
  5
C01E
330
8FA3
100
AcDbEntity
  8
0
  6
ByBlock
 62
     6
100
AcDbTrace
 10
284.0145322199767
 20
214.1313610893456
 30
0.0
 11
284.8478655533101
 21
214.1313610893456
 31
0.0
 12
284.4311988866434
 22
211.6313610893457
 32
0.0
 13
284.4311988866434
 23
211.6313610893457
 33
0.0
  0
POINT
  5
C01F
330
8FA3
100
AcDbEntity
  8
DEFPOINTS
  6
ByBlock
 62
     0
100
AcDbPoint
 10
337.5376014125547
 20
306.6313610893457
 30
0.0
  0
POINT
  5
C020
330
8FA3
100
AcDbEntity
  8
DEFPOINTS
  6
ByBlock
 62
     0
100
AcDbPoint
 10
337.537601412557
 20
211.6313610893457
 30
0.0
  0
POINT
  5
C021
330
8FA3
100
AcDbEntity
  8
DEFPOINTS
  6
ByBlock
 62
     0
100
AcDbPoint
 10
284.4311988866434
 20
211.6313610893457
 30
0.0
  0
ENDBLK
  5
C022
330
8FA3
100
AcDbEntity
  8
0
100
AcDbBlockEnd
  0
BLOCK
  5
C179
330
93DD
100
AcDbEntity
  8
0
100
AcDbBlockBegin
  2
*D5
 70
     1
 10
0.0
 20
0.0
 30
0.0
  3
*D5
  1

  0
LINE
  5
C17A
330
93DD
100
AcDbEntity
  8
0
  6
ByBlock
 62
     6
100
AcDbLine
 10
315.2597253187451
 20
87.17743661633665
 30
0.0
 11
315.2597253187451
 21
52.07969387359425
 31
0.0
  0
LINE
  5
C17B
330
93DD
100
AcDbEntity
  8
0
  6
ByBlock
 62
     6
100
AcDbLine
 10
403.259725318745
 20
87.17743661633676
 30
0.0
 11
403.259725318745
 21
52.07969387359425
 31
0.0
  0
LINE
  5
C17C
330
93DD
100
AcDbEntity
  8
0
  6
ByBlock
 62
     6
100
AcDbLine
 10
317.7597253187451
 20
53.07969387359425
 30
0.0
 11
400.759725318745
 21
53.07969387359425
 31
0.0
  0
SOLID
  5
C17D
330
93DD
100
AcDbEntity
  8
0
  6
ByBlock
 62
     6
100
AcDbTrace
 10
317.7597253187451
 20
53.49636054026092
 30
0.0
 11
317.7597253187451
 21
52.66302720692759
 31
0.0
 12
315.2597253187451
 22
53.07969387359425
 32
0.0
 13
315.2597253187451
 23
53.07969387359425
 33
0.0
  0
SOLID
  5
C17E
330
93DD
100
AcDbEntity
  8
0
  6
ByBlock
 62
     6
100
AcDbTrace
 10
400.759725318745
 20
53.49636054026092
 30
0.0
 11
400.759725318745
 21
52.66302720692759
 31
0.0
 12
403.259725318745
 22
53.07969387359425
 32
0.0
 13
403.259725318745
 23
53.07969387359425
 33
0.0
  0
MTEXT
  5
C17F
330
93DD
100
AcDbEntity
  8
0
  6
ByBlock
 62
     3
100
AcDbMText
 10
359.2597253187451
 20
55.57969387359425
 30
0.0
 40
3.0
 41
0.0
 71
     5
 72
     1
  1
\A1;\U+220588±0.5
  7
TXT
 73
     1
 44
1.0
1001
ACAD
1000
MTEXTBEGIN
1070
    73
1070
     1
1070
    44
1040
1.0
1070
    74
1070
     0
1000
MTEXTEND
  0
POINT
  5
C180
330
93DD
100
AcDbEntity
  8
DEFPOINTS
  6
ByBlock
 62
     0
100
AcDbPoint
 10
315.2597253187451
 20
88.17743661633665
 30
0.0
  0
POINT
  5
C181
330
93DD
100
AcDbEntity
  8
DEFPOINTS
  6
ByBlock
 62
     0
100
AcDbPoint
 10
403.259725318745
 20
88.17743661633675
 30
0.0
  0
POINT
  5
C182
330
93DD
100
AcDbEntity
  8
DEFPOINTS
  6
ByBlock
 62
     0
100
AcDbPoint
 10
403.259725318745
 20
53.07969387359425
 30
0.0
  0
ENDBLK
  5
C183
330
93DD
100
AcDbEntity
  8
0
100
AcDbBlockEnd
  0
BLOCK
  5
C11B
330
93F5
100
AcDbEntity
  8
0
100
AcDbBlockBegin
  2
*D6
 70
     1
 10
0.0
 20
0.0
 30
0.0
  3
*D6
  1

  0
LINE
  5
C11C
330
93F5
100
AcDbEntity
  8
0
  6
ByBlock
 62
     6
100
AcDbLine
 10
394.7597253187449
 20
117.1774366163369
 30
0.0
 11
394.7597253187449
 21
128.3381005267017
 31
0.0
  0
LINE
  5
C11D
330
93F5
100
AcDbEntity
  8
0
  6
ByBlock
 62
     6
100
AcDbLine
 10
392.2597253187449
 20
127.3381005267016
 30
0.0
 11
323.7597253187451
 21
127.3381005267016
 31
0.0
  0
SOLID
  5
C11E
330
93F5
100
AcDbEntity
  8
0
  6
ByBlock
 62
     6
100
AcDbTrace
 10
392.2597253187449
 20
127.7547671933683
 30
0.0
 11
392.2597253187449
 21
126.921433860035
 31
0.0
 12
394.7597253187449
 22
127.3381005267016
 32
0.0
 13
394.7597253187449
 23
127.3381005267016
 33
0.0
  0
MTEXT
  5
C11F
330
93F5
100
AcDbEntity
  8
0
  6
ByBlock
 62
     3
100
AcDbMText
 10
358.009725318745
 20
129.8381005267017
 30
0.0
 40
3.0
 41
0.0
 71
     5
 72
     1
  1
\A1;\U+220571
  7
TXT
 73
     1
 44
1.0
1001
ACAD
1000
MTEXTBEGIN
1070
    73
1070
     1
1070
    44
1040
1.0
1070
    74
1070
     0
1000
MTEXTEND
  0
POINT
  5
C120
330
93F5
100
AcDbEntity
  8
DEFPOINTS
  6
ByBlock
 62
     0
100
AcDbPoint
 10
394.7597253187449
 20
116.1774366163369
 30
0.0
  0
POINT
  5
C121
330
93F5
100
AcDbEntity
  8
DEFPOINTS
  6
ByBlock
 62
     0
100
AcDbPoint
 10
323.7597253187451
 20
116.1774366163362
 30
0.0
  0
POINT
  5
C122
330
93F5
100
AcDbEntity
  8
DEFPOINTS
  6
ByBlock
 62
     0
100
AcDbPoint
 10
323.7597253187451
 20
127.3381005267016
 30
0.0
  0
ENDBLK
  5
C123
330
93F5
100
AcDbEntity
  8
0
100
AcDbBlockEnd
  0
BLOCK
  5
C196
330
93FF
100
AcDbEntity
  8
0
100
AcDbBlockBegin
  2
*D7
 70
     1
 10
0.0
 20
0.0
 30
0.0
  3
*D7
  1

  0
LINE
  5
C197
330
93FF
100
AcDbEntity
  8
0
  6
ByBlock
 62
     6
100
AcDbLine
 10
396.7597253187451
 20
87.77743661633662
 30
0.0
 11
396.7597253187451
 21
66.73252776956736
 31
0.0
  0
LINE
  5
C198
330
93FF
100
AcDbEntity
  8
0
  6
ByBlock
 62
     6
100
AcDbLine
 10
394.2597253187451
 20
67.73252776956737
 30
0.0
 11
326.759725318745
 21
67.73252776956737
 31
0.0
  0
MTEXT
  5
C199
330
93FF
100
AcDbEntity
  8
0
  6
ByBlock
 62
     3
100
AcDbMText
 10
360.509725318745
 20
70.23252776956737
 30
0.0
 40
3.0
 41
0.0
 71
     5
 72
     1
  1
\A1;M70X2.0P
  7
TXT
 73
     1
 44
1.0
1001
ACAD
1000
MTEXTBEGIN
1070
    73
1070
     1
1070
    44
1040
1.0
1070
    74
1070
     0
1000
MTEXTEND
  0
SOLID
  5
C19A
330
93FF
100
AcDbEntity
  8
0
  6
ByBlock
 62
     6
100
AcDbTrace
 10
394.2597253187451
 20
68.14919443623404
 30
0.0
 11
394.2597253187451
 21
67.3158611029007
 31
0.0
 12
396.7597253187451
 22
67.73252776956737
 32
0.0
 13
396.7597253187451
 23
67.73252776956737
 33
0.0
  0
POINT
  5
C19B
330
93FF
100
AcDbEntity
  8
DEFPOINTS
  6
ByBlock
 62
     0
100
AcDbPoint
 10
396.7597253187451
 20
88.77743661633664
 30
0.0
  0
POINT
  5
C19C
330
93FF
100
AcDbEntity
  8
DEFPOINTS
  6
ByBlock
 62
     0
100
AcDbPoint
 10
326.759725318745
 20
88.27743661633666
 30
0.0
  0
POINT
  5
C19D
330
93FF
100
AcDbEntity
  8
DEFPOINTS
  6
ByBlock
 62
     0
100
AcDbPoint
 10
326.759725318745
 20
67.73252776956737
 30
0.0
  0
ENDBLK
  5
C19E
330
93FF
100
AcDbEntity
  8
0
100
AcDbBlockEnd
  0
BLOCK
  5
C19F
330
9571
100
AcDbEntity
  8
0
100
AcDbBlockBegin
  2
*D8
 70
     1
 10
0.0
 20
0.0
 30
0.0
  3
*D8
  1

  0
LINE
  5
C1A0
330
9571
100
AcDbEntity
  8
0
  6
ByBlock
 62
     6
100
AcDbLine
 10
312.2597253187449
 20
116.1774366163365
 30
0.0
 11
296.6944576657264
 21
116.1774366163365
 31
0.0
  0
LINE
  5
C1A1
330
9571
100
AcDbEntity
  8
0
  6
ByBlock
 62
     6
100
AcDbLine
 10
314.259725318745
 20
88.17743661633665
 30
0.0
 11
296.6944576657264
 21
88.17743661633665
 31
0.0
  0
LINE
  5
C1A2
330
9571
100
AcDbEntity
  8
0
  6
ByBlock
 62
     6
100
AcDbLine
 10
297.6944576657264
 20
113.6774366163365
 30
0.0
 11
297.6944576657264
 21
90.67743661633665
 31
0.0
  0
SOLID
  5
C1A3
330
9571
100
AcDbEntity
  8
0
  6
ByBlock
 62
     6
100
AcDbTrace
 10
297.2777909990597
 20
113.6774366163365
 30
0.0
 11
298.1111243323931
 21
113.6774366163365
 31
0.0
 12
297.6944576657264
 22
116.1774366163365
 32
0.0
 13
297.6944576657264
 23
116.1774366163365
 33
0.0
  0
SOLID
  5
C1A4
330
9571
100
AcDbEntity
  8
0
  6
ByBlock
 62
     6
100
AcDbTrace
 10
297.2777909990597
 20
90.67743661633665
 30
0.0
 11
298.1111243323931
 21
90.67743661633665
 31
0.0
 12
297.6944576657264
 22
88.17743661633665
 32
0.0
 13
297.6944576657264
 23
88.17743661633665
 33
0.0
  0
MTEXT
  5
C1A5
330
9571
100
AcDbEntity
  8
0
  6
ByBlock
 62
     3
100
AcDbMText
 10
295.1944576657264
 20
102.1774366163366
 30
0.0
 40
3.0
 41
0.0
 71
     5
 72
     1
  1
\A1;28±0.2
  7
TXT
 11
0.0000000000000001
 21
1.0
 31
0.0
 73
     1
 44
1.0
1001
ACAD
1000
MTEXTBEGIN
1070
    73
1070
     1
1070
    44
1040
1.0
1070
    74
1070
     0
1000
MTEXTEND
  0
POINT
  5
C1A6
330
9571
100
AcDbEntity
  8
DEFPOINTS
  6
ByBlock
 62
     0
100
AcDbPoint
 10
313.2597253187449
 20
116.1774366163365
 30
0.0
  0
POINT
  5
C1A7
330
9571
100
AcDbEntity
  8
DEFPOINTS
  6
ByBlock
 62
     0
100
AcDbPoint
 10
315.2597253187451
 20
88.17743661633665
 30
0.0
  0
POINT
  5
C1A8
330
9571
100
AcDbEntity
  8
DEFPOINTS
  6
ByBlock
 62
     0
100
AcDbPoint
 10
297.6944576657264
 20
88.17743661633665
 30
0.0
  0
ENDBLK
  5
C1A9
330
9571
100
AcDbEntity
  8
0
100
AcDbBlockEnd
  0
BLOCK
  5
C05D
330
A27B
100
AcDbEntity
  8
0
100
AcDbBlockBegin
  2
*D9
 70
     1
 10
0.0
 20
0.0
 30
0.0
  3
*D9
  1

  0
LINE
  5
C05E
330
A27B
100
AcDbEntity
  8
0
  6
ByBlock
 62
     6
100
AcDbLine
 10
390.7408587171266
 20
286.6056524706846
 30
0.0
 11
372.2144658041275
 21
314.5156568347849
 31
0.0
  0
LINE
  5
C05F
330
A27B
100
AcDbEntity
  8
0
  6
ByBlock
 62
     6
100
AcDbLine
 10
393.63571362232
 20
288.5272293611821
 30
0.0
 11
375.109320709321
 21
316.4372337252824
 31
0.0
  0
LINE
  5
C060
330
A27B
100
AcDbEntity
  8
0
  6
ByBlock
 62
     6
100
AcDbLine
 10
370.6846192172794
 20
312.2999020151559
 30
0.0
 11
368.6017325666762
 21
310.9173018557682
 31
0.0
  0
LINE
  5
C061
330
A27B
100
AcDbEntity
  8
0
  6
ByBlock
 62
     6
100
AcDbLine
 10
377.7452474236793
 20
316.9866792244287
 30
0.0
 11
379.8281340742825
 21
318.3692793838164
 31
0.0
  0
MTEXT
  5
C062
330
A27B
100
AcDbEntity
  8
0
  6
ByBlock
 62
     3
100
AcDbMText
 10
372.5883963692084
 20
318.1560179163508
 30
0.0
 40
3.0
 41
0.0
 71
     5
 72
     1
  1
\A1;3.5
  7
TXT
 11
0.8331546602412919
 21
0.5530400637550751
 31
0.0
 73
     1
 44
1.0
1001
ACAD
1000
MTEXTBEGIN
1070
    73
1070
     1
1070
    44
1040
1.0
1070
    74
1070
     0
1000
MTEXTEND
  0
LINE
  5
C063
330
A27B
100
AcDbEntity
  8
0
  6
ByBlock
 62
     6
100
AcDbLine
 10
372.7675058678826
 20
313.6825021745436
 30
0.0
 11
375.6623607730761
 21
315.604079065041
 31
0.0
  0
SOLID
  5
C064
330
A27B
100
AcDbEntity
  8
0
  6
ByBlock
 62
     6
100
AcDbTrace
 10
370.4541858573815
 20
312.6470497902565
 30
0.0
 11
370.9150525771773
 21
311.9527542400554
 31
0.0
 12
372.7675058678826
 22
313.6825021745436
 32
0.0
 13
372.7675058678826
 23
313.6825021745436
 33
0.0
  0
SOLID
  5
C065
330
A27B
100
AcDbEntity
  8
0
  6
ByBlock
 62
     6
100
AcDbTrace
 10
377.5148140637814
 20
317.3338269995292
 30
0.0
 11
377.9756807835772
 21
316.6395314493282
 31
0.0
 12
375.6623607730761
 22
315.604079065041
 32
0.0
 13
375.6623607730761
 23
315.604079065041
 33
0.0
  0
POINT
  5
C066
330
A27B
100
AcDbEntity
  8
DEFPOINTS
  6
ByBlock
 62
     0
100
AcDbPoint
 10
391.2938987808817
 20
285.7724978104433
 30
0.0
  0
POINT
  5
C067
330
A27B
100
AcDbEntity
  8
DEFPOINTS
  6
ByBlock
 62
     0
100
AcDbPoint
 10
394.1887536860751
 20
287.6940747009408
 30
0.0
  0
POINT
  5
C068
330
A27B
100
AcDbEntity
  8
DEFPOINTS
  6
ByBlock
 62
     0
100
AcDbPoint
 10
375.6623607730761
 20
315.604079065041
 30
0.0
  0
ENDBLK
  5
C069
330
A27B
100
AcDbEntity
  8
0
100
AcDbBlockEnd
  0
BLOCK
  5
C09D
330
C09C
100
AcDbEntity
  8
0
100
AcDbBlockBegin
  2
*D10
 70
     1
 10
0.0
 20
0.0
 30
0.0
  3
*D10
  1

  0
LINE
  5
C09E
330
C09C
100
AcDbEntity
  8
0
  6
ByBlock
 62
     6
100
AcDbLine
 10
399.0494428091267
 20
232.6313610893453
 30
0.0
 11
414.3666675808405
 21
223.7879572441584
 31
0.0
  0
LINE
  5
C09F
330
C09C
100
AcDbEntity
  8
0
  6
ByBlock
 62
     6
100
AcDbLine
 10
406.1500964085515
 20
259.1313610893458
 30
0.0
 11
423.8369040989255
 21
259.1313610893458
 31
0.0
  0
ARC
  5
C0A0
330
C09C
100
AcDbEntity
  8
0
  6
ByBlock
 62
     6
100
AcDbCircle
 10
353.1500964085513
 20
259.1313610893457
 30
0.0
 40
69.68680769037428
100
AcDbArc
 50
332.0555846345093
 51
357.9444153654908
  0
SOLID
  5
C0A1
330
C09C
100
AcDbEntity
  8
0
  6
ByBlock
 62
     6
100
AcDbTrace
 10
415.0761282819285
 20
226.2732669541193
 30
0.0
 11
414.3470826405968
 21
226.6769213821882
 31
0.0
 12
413.500642177056
 22
224.2879572441585
 32
0.0
 13
413.500642177056
 23
224.2879572441585
 33
0.0
  0
SOLID
  5
C0A2
330
C09C
100
AcDbEntity
  8
0
  6
ByBlock
 62
     6
100
AcDbTrace
 10
422.375460974128
 20
256.6392372253117
 30
0.0
 11
423.208660234074
 21
256.6242893937036
 31
0.0
 12
422.8369040989255
 22
259.1313610893458
 32
0.0
 13
422.8369040989255
 23
259.1313610893458
 33
0.0
  0
MTEXT
  5
C0A3
330
C09C
100
AcDbEntity
  8
0
  6
ByBlock
 62
     3
100
AcDbMText
 10
418.0475691426007
 20
241.7421356794364
 30
0.0
 40
3.0
 41
0.0
 71
     5
 72
     1
  1
\A1;30°
  7
TXT
 11
0.2588190451025214
 21
0.9659258262890681
 31
0.0
 73
     1
 44
1.0
1001
ACAD
1000
MTEXTBEGIN
1070
    73
1070
     1
1070
    44
1040
1.0
1070
    74
1070
     0
1000
MTEXTEND
  0
POINT
  5
C0A4
330
C09C
100
AcDbEntity
  8
DEFPOINTS
  6
ByBlock
 62
     0
100
AcDbPoint
 10
418.6342753613226
 20
235.2970691351755
 30
0.0
  0
POINT
  5
C0A5
330
C09C
100
AcDbEntity
  8
DEFPOINTS
  6
ByBlock
 62
     0
100
AcDbPoint
 10
301.1500964085517
 20
259.1313610893455
 30
0.0
  0
POINT
  5
C0A6
330
C09C
100
AcDbEntity
  8
DEFPOINTS
  6
ByBlock
 62
     0
100
AcDbPoint
 10
308.1167754117607
 20
285.1313610893456
 30
0.0
  0
POINT
  5
C0A7
330
C09C
100
AcDbEntity
  8
DEFPOINTS
  6
ByBlock
 62
     0
100
AcDbPoint
 10
398.1834174053422
 20
233.1313610893453
 30
0.0
  0
POINT
  5
C0A8
330
C09C
100
AcDbEntity
  8
DEFPOINTS
  6
ByBlock
 62
     0
100
AcDbPoint
 10
405.1500964085516
 20
259.1313610893457
 30
0.0
  0
ENDBLK
  5
C0A9
330
C09C
100
AcDbEntity
  8
0
100
AcDbBlockEnd
  0
BLOCK
  5
C136
330
C125
100
AcDbEntity
  8
0
100
AcDbBlockBegin
  2
*D11
 70
     1
 10
0.0
 20
0.0
 30
0.0
  3
*D11
  1

  0
LINE
  5
C137
330
C125
100
AcDbEntity
  8
0
  6
ByBlock
 62
     6
100
AcDbLine
 10
406.2597253187449
 20
116.177436616337
 30
0.0
 11
422.5504199260979
 21
116.177436616337
 31
0.0
  0
LINE
  5
C138
330
C125
100
AcDbEntity
  8
0
  6
ByBlock
 62
     6
100
AcDbLine
 10
395.759725318745
 20
113.1774366163367
 30
0.0
 11
422.5504199260979
 21
113.1774366163367
 31
0.0
  0
LINE
  5
C139
330
C125
100
AcDbEntity
  8
0
  6
ByBlock
 62
     6
100
AcDbLine
 10
421.5504199260979
 20
118.677436616337
 30
0.0
 11
421.5504199260979
 21
121.177436616337
 31
0.0
  0
LINE
  5
C13A
330
C125
100
AcDbEntity
  8
0
  6
ByBlock
 62
     6
100
AcDbLine
 10
421.5504199260979
 20
110.6774366163367
 30
0.0
 11
421.5504199260979
 21
108.1774366163367
 31
0.0
  0
MTEXT
  5
C13B
330
C125
100
AcDbEntity
  8
0
  6
ByBlock
 62
     3
100
AcDbMText
 10
419.0504199260979
 20
114.6774366163368
 30
0.0
 40
3.0
 41
0.0
 71
     5
 72
     1
  1
\A1;3
  7
TXT
 11
0.0000000000000001
 21
1.0
 31
0.0
 73
     1
 44
1.0
1001
ACAD
1000
MTEXTBEGIN
1070
    73
1070
     1
1070
    44
1040
1.0
1070
    74
1070
     0
1000
MTEXTEND
  0
LINE
  5
C13C
330
C125
100
AcDbEntity
  8
0
  6
ByBlock
 62
     6
100
AcDbLine
 10
421.5504199260979
 20
116.177436616337
 30
0.0
 11
421.5504199260979
 21
113.1774366163367
 31
0.0
  0
SOLID
  5
C13D
330
C125
100
AcDbEntity
  8
0
  6
ByBlock
 62
     6
100
AcDbTrace
 10
421.1337532594312
 20
118.677436616337
 30
0.0
 11
421.9670865927645
 21
118.677436616337
 31
0.0
 12
421.5504199260979
 22
116.177436616337
 32
0.0
 13
421.5504199260979
 23
116.177436616337
 33
0.0
  0
SOLID
  5
C13E
330
C125
100
AcDbEntity
  8
0
  6
ByBlock
 62
     6
100
AcDbTrace
 10
421.1337532594312
 20
110.6774366163367
 30
0.0
 11
421.9670865927645
 21
110.6774366163367
 31
0.0
 12
421.5504199260979
 22
113.1774366163367
 32
0.0
 13
421.5504199260979
 23
113.1774366163367
 33
0.0
  0
POINT
  5
C13F
330
C125
100
AcDbEntity
  8
DEFPOINTS
  6
ByBlock
 62
     0
100
AcDbPoint
 10
405.2597253187449
 20
116.177436616337
 30
0.0
  0
POINT
  5
C140
330
C125
100
AcDbEntity
  8
DEFPOINTS
  6
ByBlock
 62
     0
100
AcDbPoint
 10
394.759725318745
 20
113.1774366163367
 30
0.0
  0
POINT
  5
C141
330
C125
100
AcDbEntity
  8
DEFPOINTS
  6
ByBlock
 62
     0
100
AcDbPoint
 10
421.5504199260979
 20
113.1774366163367
 30
0.0
  0
ENDBLK
  5
C142
330
C125
100
AcDbEntity
  8
0
100
AcDbBlockEnd
  0
BLOCK
  5
C144
330
C143
100
AcDbEntity
  8
0
100
AcDbBlockBegin
  2
*D12
 70
     1
 10
0.0
 20
0.0
 30
0.0
  3
*D12
  1

  0
LINE
  5
C145
330
C143
100
AcDbEntity
  8
0
  6
ByBlock
 62
     6
100
AcDbLine
 10
410.1257507225293
 20
110.3680355395782
 30
0.0
 11
428.5704321394215
 21
99.71899375841829
 31
0.0
  0
LINE
  5
C146
330
C143
100
AcDbEntity
  8
0
  6
ByBlock
 62
     6
100
AcDbLine
 10
406.2597253187449
 20
116.177436616337
 30
0.0
 11
432.9804586118746
 21
116.177436616337
 31
0.0
  0
ARC
  5
C147
330
C143
100
AcDbEntity
  8
0
  6
ByBlock
 62
     6
100
AcDbCircle
 10
400.063572896038
 20
116.1774366163369
 30
0.0
 40
31.91688571583656
100
AcDbArc
 50
334.4890373390434
 51
355.510962660956
  0
SOLID
  5
C148
330
C143
100
AcDbEntity
  8
0
  6
ByBlock
 62
     6
100
AcDbTrace
 10
429.2373809792156
 20
102.2373101557247
 30
0.0
 11
428.4999284047606
 21
102.6253928078417
 31
0.0
 12
427.704406735637
 22
100.2189937584183
 32
0.0
 13
427.704406735637
 23
100.2189937584183
 33
0.0
  0
SOLID
  5
C149
330
C143
100
AcDbEntity
  8
0
  6
ByBlock
 62
     6
100
AcDbTrace
 10
431.466201061885
 20
113.6956730733318
 30
0.0
 11
432.2988950515077
 21
113.6630362216057
 31
0.0
 12
431.9804586118746
 22
116.177436616337
 32
0.0
 13
431.9804586118746
 23
116.177436616337
 33
0.0
  0
MTEXT
  5
C14A
330
C143
100
AcDbEntity
  8
0
  6
ByBlock
 62
     3
100
AcDbMText
 10
428.4781025379585
 20
108.563786345474
 30
0.0
 40
3.0
 41
0.0
 71
     5
 72
     1
  1
\A1;30°
  7
TXT
 11
0.2588190451025261
 21
0.9659258262890668
 31
0.0
 73
     1
 44
1.0
1001
ACAD
1000
MTEXTBEGIN
1070
    73
1070
     1
1070
    44
1040
1.0
1070
    74
1070
     0
1000
MTEXTEND
  0
POINT
  5
C14B
330
C143
100
AcDbEntity
  8
DEFPOINTS
  6
ByBlock
 62
     0
100
AcDbPoint
 10
430.0556348816768
 20
105.2612187892973
 30
0.0
  0
POINT
  5
C14C
330
C143
100
AcDbEntity
  8
DEFPOINTS
  6
ByBlock
 62
     0
100
AcDbPoint
 10
405.259725318745
 20
116.177436616337
 30
0.0
  0
POINT
  5
C14D
330
C143
100
AcDbEntity
  8
DEFPOINTS
  6
ByBlock
 62
     0
100
AcDbPoint
 10
405.2597253187449
 20
113.1774366163367
 30
0.0
  0
POINT
  5
C14E
330
C143
100
AcDbEntity
  8
DEFPOINTS
  6
ByBlock
 62
     0
100
AcDbPoint
 10
409.2597253187449
 20
110.8680355395782
 30
0.0
  0
POINT
  5
C14F
330
C143
100
AcDbEntity
  8
DEFPOINTS
  6
ByBlock
 62
     0
100
AcDbPoint
 10
313.2597253187449
 20
116.1774366163365
 30
0.0
  0
ENDBLK
  5
C150
330
C143
100
AcDbEntity
  8
0
100
AcDbBlockEnd
  0
BLOCK
  5
C161
330
C152
100
AcDbEntity
  8
0
100
AcDbBlockBegin
  2
*D13
 70
     1
 10
0.0
 20
0.0
 30
0.0
  3
*D13
  1

  0
LINE
  5
C162
330
C152
100
AcDbEntity
  8
0
  6
ByBlock
 62
     6
100
AcDbLine
 10
407.9983258667186
 20
92.38497666590546
 30
0.0
 11
428.9684309115719
 21
80.46084300707862
 31
0.0
  0
LINE
  5
C163
330
C152
100
AcDbEntity
  8
0
  6
ByBlock
 62
     6
100
AcDbLine
 10
406.2597253187449
 20
116.1774366163369
 30
0.0
 11
438.4130512108029
 21
116.1774366163371
 31
0.0
  0
ARC
  5
C164
330
C152
100
AcDbEntity
  8
0
  6
ByBlock
 62
     6
100
AcDbCircle
 10
366.1562601274876
 20
116.1774366163368
 30
0.0
 40
71.25679108331532
100
AcDbArc
 50
332.3866312592269
 51
357.9897102564463
  0
SOLID
  5
C165
330
C152
100
AcDbEntity
  8
0
  6
ByBlock
 62
     6
100
AcDbTrace
 10
429.6623406106667
 20
82.95014135711701
 30
0.0
 11
428.9308170664919
 21
83.34928763201183
 31
0.0
 12
428.0991400138948
 22
80.9551438620401
 32
0.0
 13
428.0991400138948
 23
80.9551438620401
 33
0.0
  0
SOLID
  5
C166
330
C152
100
AcDbEntity
  8
0
  6
ByBlock
 62
     6
100
AcDbTrace
 10
436.9525931900348
 20
113.6851305512196
 30
0.0
 11
437.7857982933576
 21
113.6705120615174
 31
0.0
 12
437.4130512108029
 22
116.1774366163371
 32
0.0
 13
437.4130512108029
 23
116.1774366163371
 33
0.0
  0
MTEXT
  5
C167
330
C152
100
AcDbEntity
  8
0
  6
ByBlock
 62
     3
100
AcDbMText
 10
432.6283062819341
 20
98.60008186325174
 30
0.0
 40
3.0
 41
0.0
 71
     5
 72
     1
  1
\A1;30°
  7
TXT
 11
0.2556453620964636
 21
0.9667706288663138
 31
0.0
 73
     1
 44
1.0
1001
ACAD
1000
MTEXTBEGIN
1070
    73
1070
     1
1070
    44
1040
1.0
1070
    74
1070
     0
1000
MTEXTEND
  0
POINT
  5
C168
330
C152
100
AcDbEntity
  8
DEFPOINTS
  6
ByBlock
 62
     0
100
AcDbPoint
 10
433.2218186638754
 20
92.09962247772395
 30
0.0
  0
POINT
  5
C169
330
C152
100
AcDbEntity
  8
DEFPOINTS
  6
ByBlock
 62
     0
100
AcDbPoint
 10
405.2597253187448
 20
116.1774366163369
 30
0.0
  0
POINT
  5
C16A
330
C152
100
AcDbEntity
  8
DEFPOINTS
  6
ByBlock
 62
     0
100
AcDbPoint
 10
407.1290349690414
 20
92.87927752086694
 30
0.0
  0
POINT
  5
C16B
330
C152
100
AcDbEntity
  8
DEFPOINTS
  6
ByBlock
 62
     0
100
AcDbPoint
 10
392.2597253187447
 20
101.3343441648052
 30
0.0
  0
POINT
  5
C16C
330
C152
100
AcDbEntity
  8
DEFPOINTS
  6
ByBlock
 62
     0
100
AcDbPoint
 10
313.2597253187449
 20
116.1774366163365
 30
0.0
  0
ENDBLK
  5
C16D
330
C152
100
AcDbEntity
  8
0
100
AcDbBlockEnd
  0
BLOCK
  5
C21C
330
C214
100
AcDbEntity
  8
0
100
AcDbBlockBegin
  2
A$C31461C66
 70
     0
 10
0.0
 20
0.0
 30
0.0
  3
A$C31461C66
  1

  0
MTEXT
  5
C215
330
C214
100
AcDbEntity
  8
DIM
100
AcDbMText
 10
6.136108003006711
 20
4.911820033039361
 30
0.0
 40
4.5
 41
0.0
 71
     1
 72
     5
  1
{\Ftxt,bigfont|c128;06.04.24外形寸法を変更する}
  7
JL
 73
     1
 44
1.0
1001
ACAD
1000
MTEXTBEGIN
1070
    73
1070
     1
1070
    44
1040
1.0
1070
    74
1070
     0
1000
MTEXTEND
  0
LWPOLYLINE
  5
C216
330
C214
100
AcDbEntity
  8
DIM
100
AcDbPolyline
 90
        3
 70
     1
 43
0.0
 10
0.0000004693233677
 20
0.197405124971624
 10
5.196152892029999
 20
0.197405124971624
 10
2.598076680676683
 20
4.697405124971623
  0
MTEXT
  5
C217
330
C214
100
AcDbEntity
  8
DIM
100
AcDbMText
 10
2.276636747300472
 20
3.670663354739986
 30
0.0
 40
3.0
 41
0.0
 71
     1
 72
     5
  1
{\Ftxt,bigfont|c128;1}
  7
JL
 73
     1
 44
1.0
1001
ACAD
1000
MTEXTBEGIN
1070
    73
1070
     1
1070
    44
1040
1.0
1070
    74
1070
     0
1000
MTEXTEND
  0
MTEXT
  5
C218
330
C214
100
AcDbEntity
  8
DIM
100
AcDbMText
 10
46.62612189972697
 20
4.911820033039361
 30
0.0
 40
4.5
 41
0.0
 71
     1
 72
     5
  1
{\Ftxt,bigfont|c128;謝}
  7
JL
 73
     1
 44
1.0
1001
ACAD
1000
MTEXTBEGIN
1070
    73
1070
     1
1070
    44
1040
1.0
1070
    74
1070
     0
1000
MTEXTEND
  0
CIRCLE
  5
C219
330
C214
100
AcDbEntity
  8
DIM
100
AcDbCircle
 10
47.71271797661916
 20
2.644200815855356
 30
0.0
 40
2.644201016044348
  0
ENDBLK
  5
C21D
330
C214
100
AcDbEntity
  8
0
100
AcDbBlockEnd
  0
BLOCK
  5
C261
330
C260
100
AcDbEntity
  8
0
100
AcDbBlockBegin
  2
_Open30
 70
     0
 10
0.0
 20
0.0
 30
0.0
  3
_Open30
  1

  0
LINE
  5
C262
330
C260
100
AcDbEntity
  8
0
  6
ByBlock
 62
     0
370
    -2
100
AcDbLine
 10
-1.0
 20
0.26794919
 30
0.0
 11
0.0
 21
0.0
 31
0.0
  0
LINE
  5
C263
330
C260
100
AcDbEntity
  8
0
  6
ByBlock
 62
     0
370
    -2
100
AcDbLine
 10
0.0
 20
0.0
 30
0.0
 11
-1.0
 21
-0.26794919
 31
0.0
  0
LINE
  5
C264
330
C260
100
AcDbEntity
  8
0
  6
ByBlock
 62
     0
370
    -2
100
AcDbLine
 10
0.0
 20
0.0
 30
0.0
 11
-1.0
 21
0.0
 31
0.0
  0
ENDBLK
  5
C265
330
C260
100
AcDbEntity
  8
0
100
AcDbBlockEnd
  0
BLOCK
  5
C358
330
C356
100
AcDbEntity
  8
0
100
AcDbBlockBegin
  2
GENAXEH
 70
     0
 10
0.0
 20
0.0
 30
0.0
  3
GENAXEH
  1

  0
LINE
  5
C357
330
C356
100
AcDbEntity
  8
0
100
AcDbLine
 10
-1.0
 20
0.0
 30
0.0
 11
1.0
 21
0.0
 31
0.0
  0
ENDBLK
  5
C359
330
C356
100
AcDbEntity
  8
0
100
AcDbBlockEnd
  0
BLOCK
  5
C544
330
C543
100
AcDbEntity
  8
0
100
AcDbBlockBegin
  2
*D17
 70
     1
 10
0.0
 20
0.0
 30
0.0
  3
*D17
  1

  0
LINE
  5
C5D9
330
C543
100
AcDbEntity
  8
DIM
 62
     6
370
    -2
100
AcDbLine
 10
357.1440662476194
 20
159.6899676298843
 30
0.0
 11
372.4612910193331
 21
150.8465637846973
 31
0.0
  0
LINE
  5
C5DA
330
C543
100
AcDbEntity
  8
DIM
 62
     6
370
    -2
100
AcDbLine
 10
364.2447198470443
 20
186.1899676298848
 30
0.0
 11
381.9315275374181
 21
186.1899676298848
 31
0.0
  0
ARC
  5
C5DB
330
C543
100
AcDbEntity
  8
DIM
 62
     6
370
    -2
100
AcDbCircle
 10
311.2447198470438
 20
186.1899676298847
 30
0.0
 40
69.68680769037432
100
AcDbArc
 50
332.0555846345092
 51
357.9444153654907
  0
SOLID
  5
C5DC
330
C543
100
AcDbEntity
  8
DIM
 62
     6
100
AcDbTrace
 10
373.1707517204211
 20
153.3318734946582
 30
0.0
 11
372.4417060790893
 21
153.735527922727
 31
0.0
 12
371.5952656155487
 22
151.3465637846973
 32
0.0
 13
371.5952656155487
 23
151.3465637846973
 33
0.0
  0
SOLID
  5
C5DD
330
C543
100
AcDbEntity
  8
DIM
 62
     6
100
AcDbTrace
 10
380.4700844126206
 20
183.6978437658506
 30
0.0
 11
381.3032836725666
 21
183.6828959342424
 31
0.0
 12
380.9315275374181
 22
186.1899676298848
 32
0.0
 13
380.9315275374181
 23
186.1899676298848
 33
0.0
  0
MTEXT
  5
C5DE
330
C543
100
AcDbEntity
  8
DIM
 62
     3
100
AcDbMText
 10
376.1421925810932
 20
168.8007422199752
 30
0.0
 40
3.0
 41
0.0
 71
     5
 72
     1
  1
\A1;30\U+00B0
  7
TXT
 11
0.2588190451025214
 21
0.9659258262890681
 31
0.0
 73
     1
 44
1.0
1001
ACAD
1000
MTEXTBEGIN
1070
    73
1070
     1
1070
    44
1040
1.0
1070
    74
1070
     0
1000
MTEXTEND
  0
POINT
  5
C5DF
330
C543
100
AcDbEntity
  8
DEFPOINTS
 62
     0
100
AcDbPoint
 10
376.7288987998152
 20
162.3556756757144
 30
0.0
  0
POINT
  5
C5E0
330
C543
100
AcDbEntity
  8
DEFPOINTS
 62
     0
100
AcDbPoint
 10
259.2447198470443
 20
186.1899676298846
 30
0.0
  0
POINT
  5
C5E1
330
C543
100
AcDbEntity
  8
DEFPOINTS
 62
     0
100
AcDbPoint
 10
266.2113988502534
 20
212.1899676298846
 30
0.0
  0
POINT
  5
C5E2
330
C543
100
AcDbEntity
  8
DEFPOINTS
 62
     0
100
AcDbPoint
 10
356.2780408438349
 20
160.1899676298843
 30
0.0
  0
POINT
  5
C5E3
330
C543
100
AcDbEntity
  8
DEFPOINTS
 62
     0
100
AcDbPoint
 10
363.2447198470443
 20
186.1899676298847
 30
0.0
  0
ENDBLK
  5
C545
330
C543
100
AcDbEntity
  8
0
100
AcDbBlockEnd
  0
BLOCK
  5
C552
330
C551
100
AcDbEntity
  8
0
100
AcDbBlockBegin
  2
*D18
 70
     1
 10
0.0
 20
0.0
 30
0.0
  3
*D18
  1

  0
LINE
  5
C5E4
330
C551
100
AcDbEntity
  8
DIM
 62
     6
370
    -2
100
AcDbLine
 10
358.2447198470442
 20
100.1726133680095
 30
0.0
 11
374.5354144543972
 21
100.1726133680095
 31
0.0
  0
LINE
  5
C5E5
330
C551
100
AcDbEntity
  8
DIM
 62
     6
370
    -2
100
AcDbLine
 10
347.7447198470443
 20
97.17261336800925
 30
0.0
 11
374.5354144543972
 21
97.17261336800923
 31
0.0
  0
LINE
  5
C5E6
330
C551
100
AcDbEntity
  8
DIM
 62
     6
370
    -2
100
AcDbLine
 10
373.5354144543972
 20
102.6726133680095
 30
0.0
 11
373.5354144543972
 21
105.1726133680094
 31
0.0
  0
LINE
  5
C5E7
330
C551
100
AcDbEntity
  8
DIM
 62
     6
370
    -2
100
AcDbLine
 10
373.5354144543972
 20
94.67261336800923
 30
0.0
 11
373.5354144543972
 21
92.17261336800923
 31
0.0
  0
MTEXT
  5
C5E8
330
C551
100
AcDbEntity
  8
DIM
 62
     3
100
AcDbMText
 10
371.0354144543972
 20
98.67261336800936
 30
0.0
 40
3.0
 41
0.0
 71
     5
 72
     1
  1
\A1;3
  7
TXT
 11
0.0000000000000001
 21
1.0
 31
0.0
 73
     1
 44
1.0
1001
ACAD
1000
MTEXTBEGIN
1070
    73
1070
     1
1070
    44
1040
1.0
1070
    74
1070
     0
1000
MTEXTEND
  0
SOLID
  5
C5E9
330
C551
100
AcDbEntity
  8
DIM
 62
     6
100
AcDbTrace
 10
373.1187477877305
 20
102.6726133680095
 30
0.0
 11
373.9520811210639
 21
102.6726133680095
 31
0.0
 12
373.5354144543972
 22
100.1726133680095
 32
0.0
 13
373.5354144543972
 23
100.1726133680095
 33
0.0
  0
SOLID
  5
C5EA
330
C551
100
AcDbEntity
  8
DIM
 62
     6
100
AcDbTrace
 10
373.1187477877305
 20
94.67261336800923
 30
0.0
 11
373.9520811210639
 21
94.67261336800923
 31
0.0
 12
373.5354144543972
 22
97.17261336800923
 32
0.0
 13
373.5354144543972
 23
97.17261336800923
 33
0.0
  0
POINT
  5
C5EB
330
C551
100
AcDbEntity
  8
DEFPOINTS
 62
     0
100
AcDbPoint
 10
357.2447198470442
 20
100.1726133680095
 30
0.0
  0
POINT
  5
C5EC
330
C551
100
AcDbEntity
  8
DEFPOINTS
 62
     0
100
AcDbPoint
 10
346.7447198470443
 20
97.17261336800925
 30
0.0
  0
POINT
  5
C5ED
330
C551
100
AcDbEntity
  8
DEFPOINTS
 62
     0
100
AcDbPoint
 10
373.5354144543972
 20
97.17261336800923
 30
0.0
  0
ENDBLK
  5
C553
330
C551
100
AcDbEntity
  8
0
100
AcDbBlockEnd
  0
BLOCK
  5
C55F
330
C55E
100
AcDbEntity
  8
0
100
AcDbBlockBegin
  2
*D19
 70
     1
 10
0.0
 20
0.0
 30
0.0
  3
*D19
  1

  0
LINE
  5
C5EE
330
C55E
100
AcDbEntity
  8
DIM
 62
     6
370
    -2
100
AcDbLine
 10
362.1107452508287
 20
94.36321229125068
 30
0.0
 11
380.5554266677207
 21
83.71417051009073
 31
0.0
  0
LINE
  5
C5EF
330
C55E
100
AcDbEntity
  8
DIM
 62
     6
370
    -2
100
AcDbLine
 10
358.2447198470443
 20
100.1726133680095
 30
0.0
 11
384.9654531401741
 21
100.1726133680097
 31
0.0
  0
ARC
  5
C5F0
330
C55E
100
AcDbEntity
  8
DIM
 62
     6
370
    -2
100
AcDbCircle
 10
352.0485674243374
 20
100.1726133680095
 30
0.0
 40
31.91688571583665
100
AcDbArc
 50
334.4890373390433
 51
355.5109626609562
  0
SOLID
  5
C5F1
330
C55E
100
AcDbEntity
  8
DIM
 62
     6
100
AcDbTrace
 10
381.2223755075149
 20
86.23248690739712
 30
0.0
 11
380.48492293306
 21
86.62056955951417
 31
0.0
 12
379.6894012639363
 22
84.21417051009077
 32
0.0
 13
379.6894012639363
 23
84.21417051009077
 33
0.0
  0
SOLID
  5
C5F2
330
C55E
100
AcDbEntity
  8
DIM
 62
     6
100
AcDbTrace
 10
383.4511955901843
 20
97.6908498250045
 30
0.0
 11
384.2838895798071
 21
97.65821297327839
 31
0.0
 12
383.965453140174
 22
100.1726133680097
 32
0.0
 13
383.965453140174
 23
100.1726133680097
 33
0.0
  0
MTEXT
  5
C5F3
330
C55E
100
AcDbEntity
  8
DIM
 62
     3
100
AcDbMText
 10
380.463097066258
 20
92.55896309714653
 30
0.0
 40
3.0
 41
0.0
 71
     5
 72
     1
  1
\A1;30\U+00B0
  7
TXT
 11
0.2588190451025218
 21
0.9659258262890679
 31
0.0
 73
     1
 44
1.0
1001
ACAD
1000
MTEXTBEGIN
1070
    73
1070
     1
1070
    44
1040
1.0
1070
    74
1070
     0
1000
MTEXTEND
  0
POINT
  5
C5F4
330
C55E
100
AcDbEntity
  8
DEFPOINTS
 62
     0
100
AcDbPoint
 10
382.0406294099761
 20
89.25639554096981
 30
0.0
  0
POINT
  5
C5F5
330
C55E
100
AcDbEntity
  8
DEFPOINTS
 62
     0
100
AcDbPoint
 10
357.2447198470443
 20
100.1726133680095
 30
0.0
  0
POINT
  5
C5F6
330
C55E
100
AcDbEntity
  8
DEFPOINTS
 62
     0
100
AcDbPoint
 10
357.2447198470442
 20
97.17261336800927
 30
0.0
  0
POINT
  5
C5F7
330
C55E
100
AcDbEntity
  8
DEFPOINTS
 62
     0
100
AcDbPoint
 10
361.2447198470442
 20
94.86321229125071
 30
0.0
  0
POINT
  5
C5F8
330
C55E
100
AcDbEntity
  8
DEFPOINTS
 62
     0
100
AcDbPoint
 10
265.2447198470442
 20
100.172613368009
 30
0.0
  0
ENDBLK
  5
C560
330
C55E
100
AcDbEntity
  8
0
100
AcDbBlockEnd
  0
BLOCK
  5
C56D
330
C56C
100
AcDbEntity
  8
0
100
AcDbBlockBegin
  2
*D20
 70
     1
 10
0.0
 20
0.0
 30
0.0
  3
*D20
  1

  0
LINE
  5
C5F9
330
C56C
100
AcDbEntity
  8
DIM
 62
     6
370
    -2
100
AcDbLine
 10
359.9833203950179
 20
76.38015341757792
 30
0.0
 11
380.9534254398713
 21
64.4560197587511
 31
0.0
  0
LINE
  5
C5FA
330
C56C
100
AcDbEntity
  8
DIM
 62
     6
370
    -2
100
AcDbLine
 10
358.2447198470441
 20
100.1726133680094
 30
0.0
 11
390.3980457391023
 21
100.1726133680096
 31
0.0
  0
ARC
  5
C5FB
330
C56C
100
AcDbEntity
  8
DIM
 62
     6
370
    -2
100
AcDbCircle
 10
318.1412546557869
 20
100.1726133680092
 30
0.0
 40
71.25679108331538
100
AcDbArc
 50
332.386631259227
 51
357.9897102564463
  0
SOLID
  5
C5FC
330
C56C
100
AcDbEntity
  8
DIM
 62
     6
100
AcDbTrace
 10
381.647335138966
 20
66.94531810878948
 30
0.0
 11
380.9158115947912
 21
67.34446438368434
 31
0.0
 12
380.0841345421941
 22
64.95032061371261
 32
0.0
 13
380.0841345421941
 23
64.95032061371261
 33
0.0
  0
SOLID
  5
C5FD
330
C56C
100
AcDbEntity
  8
DIM
 62
     6
100
AcDbTrace
 10
388.9375877183341
 20
97.68030730289215
 30
0.0
 11
389.770792821657
 21
97.66568881318992
 31
0.0
 12
389.3980457391023
 22
100.1726133680096
 32
0.0
 13
389.3980457391023
 23
100.1726133680096
 33
0.0
  0
MTEXT
  5
C5FE
330
C56C
100
AcDbEntity
  8
DIM
 62
     3
100
AcDbMText
 10
384.6133008102335
 20
82.59525861492432
 30
0.0
 40
3.0
 41
0.0
 71
     5
 72
     1
  1
\A1;30%%d
  7
TXT
 11
0.2556453620964636
 21
0.9667706288663138
 31
0.0
 73
     1
 44
1.0
1001
ACAD
1000
MTEXTBEGIN
1070
    73
1070
     1
1070
    44
1040
1.0
1070
    74
1070
     0
1000
MTEXTEND
  0
POINT
  5
C5FF
330
C56C
100
AcDbEntity
  8
DEFPOINTS
 62
     0
100
AcDbPoint
 10
385.2068131921748
 20
76.09479922939645
 30
0.0
  0
POINT
  5
C600
330
C56C
100
AcDbEntity
  8
DEFPOINTS
 62
     0
100
AcDbPoint
 10
357.2447198470441
 20
100.1726133680094
 30
0.0
  0
POINT
  5
C601
330
C56C
100
AcDbEntity
  8
DEFPOINTS
 62
     0
100
AcDbPoint
 10
359.1140294973408
 20
76.87445427253942
 30
0.0
  0
POINT
  5
C602
330
C56C
100
AcDbEntity
  8
DEFPOINTS
 62
     0
100
AcDbPoint
 10
344.2447198470441
 20
85.32952091647777
 30
0.0
  0
POINT
  5
C603
330
C56C
100
AcDbEntity
  8
DEFPOINTS
 62
     0
100
AcDbPoint
 10
265.2447198470442
 20
100.172613368009
 30
0.0
  0
ENDBLK
  5
C56E
330
C56C
100
AcDbEntity
  8
0
100
AcDbBlockEnd
  0
BLOCK
  5
C57B
330
C57A
100
AcDbEntity
  8
0
100
AcDbBlockBegin
  2
*D21
 70
     1
 10
0.0
 20
0.0
 30
0.0
  3
*D21
  1

  0
LINE
  5
C604
330
C57A
100
AcDbEntity
  8
DIM
 62
     6
370
    -2
100
AcDbLine
 10
261.2447198470442
 20
95.86321229125047
 30
0.0
 11
261.2447198470442
 21
125.8489716970929
 31
0.0
  0
LINE
  5
C605
330
C57A
100
AcDbEntity
  8
DIM
 62
     6
370
    -2
100
AcDbLine
 10
361.2447198470442
 20
95.86321229125077
 30
0.0
 11
361.2447198470442
 21
125.8489716970929
 31
0.0
  0
LINE
  5
C606
330
C57A
100
AcDbEntity
  8
DIM
 62
     6
370
    -2
100
AcDbLine
 10
263.7447198470442
 20
124.8489716970929
 30
0.0
 11
358.7447198470442
 21
124.8489716970929
 31
0.0
  0
MTEXT
  5
C607
330
C57A
100
AcDbEntity
  8
DIM
 62
     3
100
AcDbMText
 10
305.7198064778676
 20
128.1613927211811
 30
0.0
 40
3.0
 41
0.0
 71
     5
 72
     1
  1
\A1;%%c100
  7
TXT
 73
     1
 44
1.0
1001
ACAD
1000
MTEXTBEGIN
1070
    73
1070
     1
1070
    44
1040
1.0
1070
    74
1070
     0
1000
MTEXTEND
  0
SOLID
  5
C608
330
C57A
100
AcDbEntity
  8
DIM
 62
     6
100
AcDbTrace
 10
263.7447198470442
 20
125.2656383637596
 30
0.0
 11
263.7447198470442
 21
124.4323050304263
 31
0.0
 12
261.2447198470442
 22
124.8489716970929
 32
0.0
 13
261.2447198470442
 23
124.8489716970929
 33
0.0
  0
SOLID
  5
C609
330
C57A
100
AcDbEntity
  8
DIM
 62
     6
100
AcDbTrace
 10
358.7447198470442
 20
125.2656383637596
 30
0.0
 11
358.7447198470442
 21
124.4323050304263
 31
0.0
 12
361.2447198470442
 22
124.8489716970929
 32
0.0
 13
361.2447198470442
 23
124.8489716970929
 33
0.0
  0
POINT
  5
C60A
330
C57A
100
AcDbEntity
  8
DEFPOINTS
 62
     0
100
AcDbPoint
 10
261.2447198470442
 20
94.86321229125048
 30
0.0
  0
POINT
  5
C60B
330
C57A
100
AcDbEntity
  8
DEFPOINTS
 62
     0
100
AcDbPoint
 10
361.2447198470442
 20
94.86321229125078
 30
0.0
  0
POINT
  5
C60C
330
C57A
100
AcDbEntity
  8
DEFPOINTS
 62
     0
100
AcDbPoint
 10
361.2447198470442
 20
124.8489716970929
 30
0.0
  0
ENDBLK
  5
C57C
330
C57A
100
AcDbEntity
  8
0
100
AcDbBlockEnd
  0
BLOCK
  5
C587
330
C586
100
AcDbEntity
  8
0
100
AcDbBlockBegin
  2
*D22
 70
     1
 10
0.0
 20
0.0
 30
0.0
  3
*D22
  1

  0
LINE
  5
C60D
330
C586
100
AcDbEntity
  8
DIM
 62
     6
370
    -2
100
AcDbLine
 10
294.6322248510473
 20
233.6899676298847
 30
0.0
 11
241.525822325136
 21
233.6899676298847
 31
0.0
  0
LINE
  5
C60E
330
C586
100
AcDbEntity
  8
DIM
 62
     6
370
    -2
100
AcDbLine
 10
294.6322248510496
 20
138.6899676298847
 30
0.0
 11
241.525822325136
 21
138.6899676298847
 31
0.0
  0
LINE
  5
C60F
330
C586
100
AcDbEntity
  8
DIM
 62
     6
370
    -2
100
AcDbLine
 10
242.525822325136
 20
231.1899676298847
 30
0.0
 11
242.525822325136
 21
141.1899676298846
 31
0.0
  0
MTEXT
  5
C610
330
C586
100
AcDbEntity
  8
DIM
 62
     3
100
AcDbMText
 10
238.5550104478891
 20
182.3145070698317
 30
0.0
 40
3.0
 41
0.0
 71
     5
 72
     1
  1
\A1;95
  7
TXT
 11
0.0000000000000001
 21
1.0
 31
0.0
 73
     1
 44
1.0
1001
ACAD
1000
MTEXTBEGIN
1070
    73
1070
     1
1070
    44
1040
1.0
1070
    74
1070
     0
1000
MTEXTEND
  0
SOLID
  5
C611
330
C586
100
AcDbEntity
  8
DIM
 62
     6
100
AcDbTrace
 10
242.1091556584694
 20
231.1899676298847
 30
0.0
 11
242.9424889918027
 21
231.1899676298847
 31
0.0
 12
242.525822325136
 22
233.6899676298847
 32
0.0
 13
242.525822325136
 23
233.6899676298847
 33
0.0
  0
SOLID
  5
C612
330
C586
100
AcDbEntity
  8
DIM
 62
     6
100
AcDbTrace
 10
242.1091556584693
 20
141.1899676298846
 30
0.0
 11
242.9424889918027
 21
141.1899676298846
 31
0.0
 12
242.525822325136
 22
138.6899676298847
 32
0.0
 13
242.525822325136
 23
138.6899676298847
 33
0.0
  0
POINT
  5
C613
330
C586
100
AcDbEntity
  8
DEFPOINTS
 62
     0
100
AcDbPoint
 10
295.6322248510474
 20
233.6899676298847
 30
0.0
  0
POINT
  5
C614
330
C586
100
AcDbEntity
  8
DEFPOINTS
 62
     0
100
AcDbPoint
 10
295.6322248510496
 20
138.6899676298847
 30
0.0
  0
POINT
  5
C615
330
C586
100
AcDbEntity
  8
DEFPOINTS
 62
     0
100
AcDbPoint
 10
242.525822325136
 20
138.6899676298847
 30
0.0
  0
ENDBLK
  5
C588
330
C586
100
AcDbEntity
  8
0
100
AcDbBlockEnd
  0
BLOCK
  5
C593
330
C592
100
AcDbEntity
  8
0
100
AcDbBlockBegin
  2
*D23
 70
     1
 10
0.0
 20
0.0
 30
0.0
  3
*D23
  1

  0
LINE
  5
C616
330
C592
100
AcDbEntity
  8
DIM
 62
     6
370
    -2
100
AcDbLine
 10
267.2447198470443
 20
71.17261336800914
 30
0.0
 11
267.2447198470443
 21
36.07487062526674
 31
0.0
  0
LINE
  5
C617
330
C592
100
AcDbEntity
  8
DIM
 62
     6
370
    -2
100
AcDbLine
 10
355.2447198470443
 20
71.17261336800925
 30
0.0
 11
355.2447198470443
 21
36.07487062526674
 31
0.0
  0
LINE
  5
C618
330
C592
100
AcDbEntity
  8
DIM
 62
     6
370
    -2
100
AcDbLine
 10
269.7447198470444
 20
37.07487062526674
 30
0.0
 11
352.7447198470444
 21
37.07487062526674
 31
0.0
  0
SOLID
  5
C619
330
C592
100
AcDbEntity
  8
DIM
 62
     6
100
AcDbTrace
 10
269.7447198470444
 20
37.49153729193341
 30
0.0
 11
269.7447198470444
 21
36.65820395860008
 31
0.0
 12
267.2447198470443
 22
37.07487062526674
 32
0.0
 13
267.2447198470443
 23
37.07487062526674
 33
0.0
  0
SOLID
  5
C61A
330
C592
100
AcDbEntity
  8
DIM
 62
     6
100
AcDbTrace
 10
352.7447198470444
 20
37.49153729193341
 30
0.0
 11
352.7447198470444
 21
36.65820395860008
 31
0.0
 12
355.2447198470443
 22
37.07487062526674
 32
0.0
 13
355.2447198470443
 23
37.07487062526674
 33
0.0
  0
MTEXT
  5
C61B
330
C592
100
AcDbEntity
  8
DIM
 62
     3
100
AcDbMText
 10
311.2447198470444
 20
39.57487062526674
 30
0.0
 40
3.0
 41
0.0
 71
     5
 72
     1
  1
\A1;%%c88%%p0.5
  7
TXT
 73
     1
 44
1.0
1001
ACAD
1000
MTEXTBEGIN
1070
    73
1070
     1
1070
    44
1040
1.0
1070
    74
1070
     0
1000
MTEXTEND
  0
POINT
  5
C61C
330
C592
100
AcDbEntity
  8
DEFPOINTS
 62
     0
100
AcDbPoint
 10
267.2447198470443
 20
72.17261336800913
 30
0.0
  0
POINT
  5
C61D
330
C592
100
AcDbEntity
  8
DEFPOINTS
 62
     0
100
AcDbPoint
 10
355.2447198470443
 20
72.17261336800925
 30
0.0
  0
POINT
  5
C61E
330
C592
100
AcDbEntity
  8
DEFPOINTS
 62
     0
100
AcDbPoint
 10
355.2447198470443
 20
37.07487062526674
 30
0.0
  0
ENDBLK
  5
C594
330
C592
100
AcDbEntity
  8
0
100
AcDbBlockEnd
  0
BLOCK
  5
C59F
330
C59E
100
AcDbEntity
  8
0
100
AcDbBlockBegin
  2
*D24
 70
     1
 10
0.0
 20
0.0
 30
0.0
  3
*D24
  1

  0
LINE
  5
C61F
330
C59E
100
AcDbEntity
  8
DIM
 62
     6
370
    -2
100
AcDbLine
 10
346.7447198470442
 20
101.1726133680093
 30
0.0
 11
346.7447198470442
 21
112.3332772783741
 31
0.0
  0
LINE
  5
C620
330
C59E
100
AcDbEntity
  8
DIM
 62
     6
370
    -2
100
AcDbLine
 10
344.2447198470442
 20
111.3332772783741
 30
0.0
 11
278.2447198470443
 21
111.3332772783741
 31
0.0
  0
SOLID
  5
C621
330
C59E
100
AcDbEntity
  8
DIM
 62
     6
100
AcDbTrace
 10
344.2447198470442
 20
111.7499439450408
 30
0.0
 11
344.2447198470442
 21
110.9166106117075
 31
0.0
 12
346.7447198470442
 22
111.3332772783741
 32
0.0
 13
346.7447198470442
 23
111.3332772783741
 33
0.0
  0
SOLID
  5
C622
330
C59E
100
AcDbEntity
  8
DIM
 62
     6
100
AcDbTrace
 10
278.2447198470443
 20
111.7499439450408
 30
0.0
 11
278.2447198470443
 21
110.9166106117075
 31
0.0
 12
275.7447198470444
 22
111.3332772783741
 32
0.0
 13
275.7447198470444
 23
111.3332772783741
 33
0.0
  0
MTEXT
  5
C623
330
C59E
100
AcDbEntity
  8
DIM
 62
     3
100
AcDbMText
 10
311.2447198470443
 20
113.8332772783741
 30
0.0
 40
3.0
 41
0.0
 71
     5
 72
     1
  1
\A1;%%c71
  7
TXT
 73
     1
 44
1.0
1001
ACAD
1000
MTEXTBEGIN
1070
    73
1070
     1
1070
    44
1040
1.0
1070
    74
1070
     0
1000
MTEXTEND
  0
POINT
  5
C624
330
C59E
100
AcDbEntity
  8
DEFPOINTS
 62
     0
100
AcDbPoint
 10
346.7447198470442
 20
100.1726133680093
 30
0.0
  0
POINT
  5
C625
330
C59E
100
AcDbEntity
  8
DEFPOINTS
 62
     0
100
AcDbPoint
 10
275.7447198470444
 20
100.1726133680087
 30
0.0
  0
POINT
  5
C626
330
C59E
100
AcDbEntity
  8
DEFPOINTS
 62
     0
100
AcDbPoint
 10
275.7447198470444
 20
111.3332772783741
 30
0.0
  0
ENDBLK
  5
C5A0
330
C59E
100
AcDbEntity
  8
0
100
AcDbBlockEnd
  0
BLOCK
  5
C5AA
330
C5A9
100
AcDbEntity
  8
0
100
AcDbBlockBegin
  2
*D25
 70
     1
 10
0.0
 20
0.0
 30
0.0
  3
*D25
  1

  0
LINE
  5
C627
330
C5A9
100
AcDbEntity
  8
DIM
 62
     6
370
    -2
100
AcDbLine
 10
346.2447198470443
 20
71.77261336800912
 30
0.0
 11
346.2447198470443
 21
50.72770452123986
 31
0.0
  0
LINE
  5
C628
330
C5A9
100
AcDbEntity
  8
DIM
 62
     6
370
    -2
100
AcDbLine
 10
343.7447198470443
 20
51.72770452123986
 30
0.0
 11
278.7447198470443
 21
51.72770452123986
 31
0.0
  0
MTEXT
  5
C629
330
C5A9
100
AcDbEntity
  8
DIM
 62
     3
100
AcDbMText
 10
309.9947198470443
 20
54.22770452123986
 30
0.0
 40
3.0
 41
0.0
 71
     5
 72
     1
  1
\A1;M70X2.0P
  7
TXT
 73
     1
 44
1.0
1001
ACAD
1000
MTEXTBEGIN
1070
    73
1070
     1
1070
    44
1040
1.0
1070
    74
1070
     0
1000
MTEXTEND
  0
SOLID
  5
C62A
330
C5A9
100
AcDbEntity
  8
DIM
 62
     6
100
AcDbTrace
 10
343.7447198470443
 20
52.14437118790652
 30
0.0
 11
343.7447198470443
 21
51.3110378545732
 31
0.0
 12
346.2447198470443
 22
51.72770452123986
 32
0.0
 13
346.2447198470443
 23
51.72770452123986
 33
0.0
  0
SOLID
  5
C62B
330
C5A9
100
AcDbEntity
  8
DIM
 62
     6
100
AcDbTrace
 10
278.7447198470443
 20
52.14437118790652
 30
0.0
 11
278.7447198470443
 21
51.3110378545732
 31
0.0
 12
276.2447198470443
 22
51.72770452123986
 32
0.0
 13
276.2447198470443
 23
51.72770452123986
 33
0.0
  0
POINT
  5
C62C
330
C5A9
100
AcDbEntity
  8
DEFPOINTS
 62
     0
100
AcDbPoint
 10
346.2447198470443
 20
72.77261336800911
 30
0.0
  0
POINT
  5
C62D
330
C5A9
100
AcDbEntity
  8
DEFPOINTS
 62
     0
100
AcDbPoint
 10
276.2447198470443
 20
72.27261336800914
 30
0.0
  0
POINT
  5
C62E
330
C5A9
100
AcDbEntity
  8
DEFPOINTS
 62
     0
100
AcDbPoint
 10
276.2447198470443
 20
51.72770452123986
 30
0.0
  0
ENDBLK
  5
C5AB
330
C5A9
100
AcDbEntity
  8
0
100
AcDbBlockEnd
  0
BLOCK
  5
C5B5
330
C5B4
100
AcDbEntity
  8
0
100
AcDbBlockBegin
  2
*D26
 70
     1
 10
0.0
 20
0.0
 30
0.0
  3
*D26
  1

  0
LINE
  5
C62F
330
C5B4
100
AcDbEntity
  8
DIM
 62
     6
370
    -2
100
AcDbLine
 10
264.2447198470442
 20
100.172613368009
 30
0.0
 11
248.6794521940257
 21
100.172613368009
 31
0.0
  0
LINE
  5
C630
330
C5B4
100
AcDbEntity
  8
DIM
 62
     6
370
    -2
100
AcDbLine
 10
266.2447198470443
 20
72.17261336800913
 30
0.0
 11
248.6794521940257
 21
72.17261336800913
 31
0.0
  0
LINE
  5
C631
330
C5B4
100
AcDbEntity
  8
DIM
 62
     6
370
    -2
100
AcDbLine
 10
249.6794521940257
 20
97.67261336800903
 30
0.0
 11
249.6794521940257
 21
74.67261336800913
 31
0.0
  0
SOLID
  5
C632
330
C5B4
100
AcDbEntity
  8
DIM
 62
     6
100
AcDbTrace
 10
249.2627855273591
 20
97.67261336800903
 30
0.0
 11
250.0961188606924
 21
97.67261336800903
 31
0.0
 12
249.6794521940257
 22
100.172613368009
 32
0.0
 13
249.6794521940257
 23
100.172613368009
 33
0.0
  0
SOLID
  5
C633
330
C5B4
100
AcDbEntity
  8
DIM
 62
     6
100
AcDbTrace
 10
249.2627855273591
 20
74.67261336800913
 30
0.0
 11
250.0961188606924
 21
74.67261336800913
 31
0.0
 12
249.6794521940257
 22
72.17261336800913
 32
0.0
 13
249.6794521940257
 23
72.17261336800913
 33
0.0
  0
MTEXT
  5
C634
330
C5B4
100
AcDbEntity
  8
DIM
 62
     3
100
AcDbMText
 10
247.1794521940257
 20
86.17261336800913
 30
0.0
 40
3.0
 41
0.0
 71
     5
 72
     1
  1
\A1;28%%p0.2
  7
TXT
 11
0.0000000000000001
 21
1.0
 31
0.0
 73
     1
 44
1.0
1001
ACAD
1000
MTEXTBEGIN
1070
    73
1070
     1
1070
    44
1040
1.0
1070
    74
1070
     0
1000
MTEXTEND
  0
POINT
  5
C635
330
C5B4
100
AcDbEntity
  8
DEFPOINTS
 62
     0
100
AcDbPoint
 10
265.2447198470442
 20
100.172613368009
 30
0.0
  0
POINT
  5
C636
330
C5B4
100
AcDbEntity
  8
DEFPOINTS
 62
     0
100
AcDbPoint
 10
267.2447198470443
 20
72.17261336800913
 30
0.0
  0
POINT
  5
C637
330
C5B4
100
AcDbEntity
  8
DEFPOINTS
 62
     0
100
AcDbPoint
 10
249.6794521940257
 20
72.17261336800913
 30
0.0
  0
ENDBLK
  5
C5B6
330
C5B4
100
AcDbEntity
  8
0
100
AcDbBlockEnd
  0
BLOCK
  5
C5C1
330
C5C0
100
AcDbEntity
  8
0
100
AcDbBlockBegin
  2
*D27
 70
     1
 10
0.0
 20
0.0
 30
0.0
  3
*D27
  1

  0
LINE
  5
C638
330
C5C0
100
AcDbEntity
  8
DIM
 62
     6
370
    -2
100
AcDbLine
 10
348.835482155619
 20
213.6642590112236
 30
0.0
 11
330.30908924262
 21
241.5742633753238
 31
0.0
  0
LINE
  5
C639
330
C5C0
100
AcDbEntity
  8
DIM
 62
     6
370
    -2
100
AcDbLine
 10
351.7303370608126
 20
215.585835901721
 30
0.0
 11
333.2039441478136
 21
243.4958402658212
 31
0.0
  0
LINE
  5
C63A
330
C5C0
100
AcDbEntity
  8
DIM
 62
     6
370
    -2
100
AcDbLine
 10
328.7792426557719
 20
239.3585085556948
 30
0.0
 11
326.6963560051686
 21
237.9759083963072
 31
0.0
  0
LINE
  5
C63B
330
C5C0
100
AcDbEntity
  8
DIM
 62
     6
370
    -2
100
AcDbLine
 10
335.8398708621718
 20
244.0452857649677
 30
0.0
 11
337.9227575127751
 21
245.4278859243554
 31
0.0
  0
MTEXT
  5
C63C
330
C5C0
100
AcDbEntity
  8
DIM
 62
     3
100
AcDbMText
 10
330.683019807701
 20
245.2146244568898
 30
0.0
 40
3.0
 41
0.0
 71
     5
 72
     1
  1
\A1;3.5
  7
TXT
 11
0.8331546602412919
 21
0.5530400637550751
 31
0.0
 73
     1
 44
1.0
1001
ACAD
1000
MTEXTBEGIN
1070
    73
1070
     1
1070
    44
1040
1.0
1070
    74
1070
     0
1000
MTEXTEND
  0
SOLID
  5
C63D
330
C5C0
100
AcDbEntity
  8
DIM
 62
     6
100
AcDbTrace
 10
328.5488092958739
 20
239.7056563307954
 30
0.0
 11
329.0096760156698
 21
239.0113607805943
 31
0.0
 12
330.8621293063751
 22
240.7411087150825
 32
0.0
 13
330.8621293063751
 23
240.7411087150825
 33
0.0
  0
SOLID
  5
C63E
330
C5C0
100
AcDbEntity
  8
DIM
 62
     6
100
AcDbTrace
 10
335.6094375022739
 20
244.3924335400682
 30
0.0
 11
336.0703042220698
 21
243.6981379898671
 31
0.0
 12
333.7569842115686
 22
242.66268560558
 32
0.0
 13
333.7569842115686
 23
242.66268560558
 33
0.0
  0
POINT
  5
C63F
330
C5C0
100
AcDbEntity
  8
DEFPOINTS
 62
     0
100
AcDbPoint
 10
349.3885222193741
 20
212.8311043509823
 30
0.0
  0
POINT
  5
C640
330
C5C0
100
AcDbEntity
  8
DEFPOINTS
 62
     0
100
AcDbPoint
 10
352.2833771245676
 20
214.7526812414797
 30
0.0
  0
POINT
  5
C641
330
C5C0
100
AcDbEntity
  8
DEFPOINTS
 62
     0
100
AcDbPoint
 10
333.7569842115686
 20
242.66268560558
 30
0.0
  0
ENDBLK
  5
C5C2
330
C5C0
100
AcDbEntity
  8
0
100
AcDbBlockEnd
  0
BLOCK
  5
C5CE
330
C5CD
100
AcDbEntity
  8
0
100
AcDbBlockBegin
  2
*D28
 70
     1
 10
0.0
 20
0.0
 30
0.0
  3
*D28
  1

  0
LINE
  5
C642
330
C5CD
100
AcDbEntity
  8
DIM
 62
     6
370
    -2
100
AcDbLine
 10
265.2447198470442
 20
101.172613368009
 30
0.0
 11
265.2447198470442
 21
118.7693022732119
 31
0.0
  0
LINE
  5
C643
330
C5CD
100
AcDbEntity
  8
DIM
 62
     6
370
    -2
100
AcDbLine
 10
357.2447198470442
 20
101.1726133680095
 30
0.0
 11
357.2447198470442
 21
118.7693022732119
 31
0.0
  0
LINE
  5
C644
330
C5CD
100
AcDbEntity
  8
DIM
 62
     6
370
    -2
100
AcDbLine
 10
267.7447198470442
 20
117.7693022732119
 30
0.0
 11
354.7447198470442
 21
117.7693022732119
 31
0.0
  0
SOLID
  5
C645
330
C5CD
100
AcDbEntity
  8
DIM
 62
     6
100
AcDbTrace
 10
267.7447198470442
 20
118.1859689398786
 30
0.0
 11
267.7447198470442
 21
117.3526356065453
 31
0.0
 12
265.2447198470442
 22
117.7693022732119
 32
0.0
 13
265.2447198470442
 23
117.7693022732119
 33
0.0
  0
SOLID
  5
C646
330
C5CD
100
AcDbEntity
  8
DIM
 62
     6
100
AcDbTrace
 10
354.7447198470442
 20
118.1859689398786
 30
0.0
 11
354.7447198470442
 21
117.3526356065453
 31
0.0
 12
357.2447198470442
 22
117.7693022732119
 32
0.0
 13
357.2447198470442
 23
117.7693022732119
 33
0.0
  0
MTEXT
  5
C647
330
C5CD
100
AcDbEntity
  8
DIM
 62
     3
100
AcDbMText
 10
311.2447198470442
 20
120.2693022732119
 30
0.0
 40
3.0
 41
0.0
 71
     5
 72
     1
  1
\A1;%%c92%%p0.5
  7
TXT
 73
     1
 44
1.0
1001
ACAD
1000
MTEXTBEGIN
1070
    73
1070
     1
1070
    44
1040
1.0
1070
    74
1070
     0
1000
MTEXTEND
  0
POINT
  5
C648
330
C5CD
100
AcDbEntity
  8
DEFPOINTS
 62
     0
100
AcDbPoint
 10
265.2447198470442
 20
100.172613368009
 30
0.0
  0
POINT
  5
C649
330
C5CD
100
AcDbEntity
  8
DEFPOINTS
 62
     0
100
AcDbPoint
 10
357.2447198470442
 20
100.1726133680095
 30
0.0
  0
POINT
  5
C64A
330
C5CD
100
AcDbEntity
  8
DEFPOINTS
 62
     0
100
AcDbPoint
 10
357.2447198470442
 20
117.7693022732119
 30
0.0
  0
ENDBLK
  5
C5CF
330
C5CD
100
AcDbEntity
  8
0
100
AcDbBlockEnd
  0
ENDSEC
  0
SECTION
  2
ENTITIES
  0
MTEXT
  5
C0
330
18
100
AcDbEntity
  8
0
100
AcDbMText
 10
41.26970765600413
 20
233.6950877649332
 30
0.0
 40
2.5
 41
0.0
 71
     1
 72
     5
  1

  7
ISOCP3
 73
     1
 44
1.0
1001
ACAD
1000
MTEXTBEGIN
1070
    73
1070
     1
1070
    44
1040
1.0
1070
    74
1070
     0
1000
MTEXTEND
  0
LINE
  5
64AF
330
18
100
AcDbEntity
  8
図框線
100
AcDbLine
 10
197.9999999999997
 20
289.9999999999999
 30
0.0
 11
197.9999999999997
 21
-0.0000000000000568
 31
0.0
  0
MTEXT
  5
8100
330
18
100
AcDbEntity
  8
0
 62
     3
100
AcDbMText
 10
271.8936002556579
 20
231.0795154942946
 30
0.0
 40
4.0
 41
0.0
 71
     6
 72
     1
  1
\A1;
  7
TXT
 73
     1
 44
1.0
1001
ACAD
1000
MTEXTBEGIN
1070
    73
1070
     1
1070
    44
1040
1.0
1070
    74
1070
     0
1000
MTEXTEND
  0
MTEXT
  5
AB22
330
18
100
AcDbEntity
  8
DIM
 62
     3
100
AcDbMText
 10
274.6439051493778
 20
220.5586263190087
 30
0.0
 40
4.0
 41
0.0
 71
     9
 72
     1
  1

  7
TXT
 73
     1
 44
1.0
1001
ACAD
1000
MTEXTBEGIN
1070
    73
1070
     1
1070
    44
1040
1.0
1070
    74
1070
     0
1000
MTEXTEND
  0
MTEXT
  5
B4B8
330
18
100
AcDbEntity
  8
DIM
 62
     3
100
AcDbMText
 10
264.2284684645858
 20
244.4802463863192
 30
0.0
 40
4.0
 41
0.0
 71
     9
 72
     1
  1

  7
TXT
 73
     1
 44
1.0
1001
ACAD
1000
MTEXTBEGIN
1070
    73
1070
     1
1070
    44
1040
1.0
1070
    74
1070
     0
1000
MTEXTEND
  0
MTEXT
  5
B9AC
330
18
100
AcDbEntity
  8
DIM
 62
     3
100
AcDbMText
 10
288.4588964867189
 20
247.7087855455411
 30
0.0
 40
4.0
 41
0.0
 71
     9
 72
     1
  1

  7
TXT
 73
     1
 44
1.0
1001
ACAD
1000
MTEXTBEGIN
1070
    73
1070
     1
1070
    44
1040
1.0
1070
    74
1070
     0
1000
MTEXTEND
  0
MTEXT
  5
BE6F
330
18
100
AcDbEntity
  8
DIM
 62
     3
100
AcDbMText
 10
158.7566635797702
 20
104.381152182371
 30
0.0
 40
4.0
 41
0.0
 71
     9
 72
     1
  1

  7
TXT
 73
     1
 44
1.0
1001
ACAD
1000
MTEXTBEGIN
1070
    73
1070
     1
1070
    44
1040
1.0
1070
    74
1070
     0
1000
MTEXTEND
  0
MTEXT
  5
C427
330
18
100
AcDbEntity
  8
DIM
100
AcDbMText
 10
333.7732842449493
 20
250.3402338041378
 30
0.0
 40
2.0
 41
9.555074525974475
 71
     1
 72
     5
  1
+0.15\P+0
  7
TXT
 11
0.8660254037844387
 21
0.5
 31
0.0
 73
     1
 44
1.0
1001
ACAD
1000
MTEXTBEGIN
1070
    73
1070
     1
1070
    44
1040
1.0
1070
    74
1070
     0
1000
MTEXTEND
  0
MTEXT
  5
C428
330
18
100
AcDbEntity
  8
DIM
100
AcDbMText
 10
235.8092384256046
 20
187.5408442946693
 30
0.0
 40
2.0
 41
8.84945634767439
 71
     1
 72
     5
  1
+0\P-0.5
  7
TXT
 11
0.0000000000000001
 21
1.0
 31
0.0
 73
     1
 44
1.0
1001
ACAD
1000
MTEXTBEGIN
1070
    73
1070
     1
1070
    44
1040
1.0
1070
    74
1070
     0
1000
MTEXTEND
  0
MTEXT
  5
C429
330
18
100
AcDbEntity
  8
DIM
100
AcDbMText
 10
311.5463384516455
 20
131.1497805908991
 30
0.0
 40
2.0
 41
11.48459459716352
 71
     1
 72
     5
  1
+0\P-0.2
  7
TXT
 73
     1
 44
1.0
1001
ACAD
1000
MTEXTBEGIN
1070
    73
1070
     1
1070
    44
1040
1.0
1070
    74
1070
     0
1000
MTEXTEND
  0
MTEXT
  5
C42A
330
18
100
AcDbEntity
  8
0
100
AcDbMText
 10
215.8194827894974
 20
19.37399834316261
 30
0.0
 40
5.0
 41
0.0
 71
     1
 72
     5
  1
\Ftxt.shx,bigfont.shx|c128;呉銘宏
  7
JL
 73
     1
 44
1.0
1001
ACAD
1000
MTEXTBEGIN
1070
    73
1070
     1
1070
    44
1040
1.0
1070
    74
1070
     0
1000
MTEXTEND
  0
MTEXT
  5
C42B
330
18
100
AcDbEntity
  8
0
100
AcDbMText
 10
279.2351766519634
 20
29.2278230533891
 30
0.0
 40
4.5
 41
0.0
 71
     1
 72
     5
  1
\Ftxt.shx,bigfont.shx|c128;1 : 1
  7
JL
 73
     1
 44
1.0
1001
ACAD
1000
MTEXTBEGIN
1070
    73
1070
     1
1070
    44
1040
1.0
1070
    74
1070
     0
1000
MTEXTEND
  0
MTEXT
  5
C42C
330
18
100
AcDbEntity
  8
0
 48
2.0
370
    25
100
AcDbMText
 10
344.1234268906312
 20
3.636969934829039
 30
0.0
 40
4.5
 41
0.0
 71
     5
 72
     1
  1
\Ftxt.shx,bigfont.shx|c128;N L 4 0 1 9 5
 73
     1
 44
1.0
1001
ACAD
1000
MTEXTBEGIN
1070
    73
1070
     1
1070
    44
1040
1.0
1070
    74
1070
     0
1000
MTEXTEND
  0
MTEXT
  5
C42D
330
18
100
AcDbEntity
  8
0
 48
2.0
100
AcDbMText
 10
376.1300746997772
 20
22.17550270047843
 30
0.0
 40
4.5
 41
0.0
 71
     5
 72
     1
  1
\P\Ftxt.shx,bigfont.shx|c128;SFZ70X2.0P
 73
     1
 44
1.0
1001
ACAD
1000
MTEXTBEGIN
1070
    73
1070
     1
1070
    44
1040
1.0
1070
    74
1070
     0
1000
MTEXTEND
  0
MTEXT
  5
C42E
330
18
100
AcDbEntity
  8
0
100
AcDbMText
 10
214.0234810910952
 20
28.64592585511957
 30
0.0
 40
4.5
 41
0.0
 71
     1
 72
     5
  1
\Ftxt.shx,bigfont.shx|c128;05.03.09
  7
JL
 73
     1
 44
1.0
1001
ACAD
1000
MTEXTBEGIN
1070
    73
1070
     1
1070
    44
1040
1.0
1070
    74
1070
     0
1000
MTEXTEND
  0
INSERT
  5
C42F
330
18
100
AcDbEntity
  8
mark
100
AcDbBlockReference
  2
A$C255C26A2
 10
283.3361163495129
 20
100.172612674028
 30
0.0
  0
LEADER
  5
C430
330
18
100
AcDbEntity
  8
DIM
 62
     6
100
AcDbLeader
  3
A
 76
     2
 10
358.2447198470443
 20
77.36876579071605
 30
0.0
 10
371.010485546378
 20
64.0645689365345
 30
0.0
  0
MTEXT
  5
C431
330
18
100
AcDbEntity
  8
DIM
100
AcDbMText
 10
372.6502821842281
 20
116.3021367923317
 30
0.0
 40
5.0
 41
1.0
 71
     1
 72
     5
  1
\Ftxt.shx,bigfont.shx|c128;3
 73
     1
 44
1.0
1001
ACAD
1000
MTEXTBEGIN
1070
    73
1070
     1
1070
    44
1040
1.0
1070
    74
1070
     0
1000
MTEXTEND
  0
MTEXT
  5
C432
330
18
100
AcDbEntity
  8
DIM
100
AcDbMText
 10
371.0808866732179
 20
64.15691974192862
 30
0.0
 40
5.0
 41
1.0
 71
     1
 72
     5
  1
\Ftxt.shx,bigfont.shx|c128;2
 73
     1
 44
1.0
1001
ACAD
1000
MTEXTBEGIN
1070
    73
1070
     1
1070
    44
1040
1.0
1070
    74
1070
     0
1000
MTEXTEND
  0
LINE
  5
C433
330
18
100
AcDbEntity
  8
図框線
100
AcDbLine
 10
395.9999999999995
 20
289.9999999999999
 30
0.0
 11
395.9999999999995
 21
-0.0000000000000568
 31
0.0
  0
LINE
  5
C434
330
18
100
AcDbEntity
  8
図框線
370
    30
100
AcDbLine
 10
197.9999999999995
 20
0.0
 30
0.0
 11
197.9999999999995
 21
290.0
 31
0.0
  0
LINE
  5
C435
330
18
100
AcDbEntity
  8
0
 62
     7
 48
5.0
100
AcDbLine
 39
4.0
 10
247.9475051563429
 20
27.8953239783782
 30
0.0
 11
253.2793088720521
 21
29.22827490730549
 31
0.0
  0
MTEXT
  5
C436
330
18
100
AcDbEntity
  8
0
100
AcDbMText
 10
213.9786697715872
 20
9.63134010478825
 30
0.0
 40
6.0
 41
0.0
 71
     1
 72
     5
  1
\Ftxt.shx,bigfont.shx|c128;日機株式会社
  7
LKK
 73
     1
 44
1.0
1001
ACAD
1000
MTEXTBEGIN
1070
    73
1070
     1
1070
    44
1040
1.0
1070
    74
1070
     0
1000
MTEXTEND
  0
LINE
  5
C437
330
18
100
AcDbEntity
  8
図框線
100
AcDbLine
 10
197.9999999999997
 20
0.0
 30
0.0
 11
395.9999999999995
 21
0.0
 31
0.0
  0
LINE
  5
C438
330
18
100
AcDbEntity
  8
図框線
100
AcDbLine
 10
197.9999999999997
 20
12.0
 30
0.0
 11
395.9999999999995
 21
12.00000000000005
 31
0.0
  0
LINE
  5
C439
330
18
100
AcDbEntity
  8
図框線
100
AcDbLine
 10
197.9999999999997
 20
22.0
 30
0.0
 11
293.9999999999998
 21
22.0
 31
0.0
  0
LINE
  5
C43A
330
18
100
AcDbEntity
  8
図框線
100
AcDbLine
 10
197.9999999999997
 20
32.0
 30
0.0
 11
395.9999999999995
 21
32.0
 31
0.0
  0
LINE
  5
C43B
330
18
100
AcDbEntity
  8
図框線
100
AcDbLine
 10
209.9999999999998
 20
32.0
 30
0.0
 11
209.9999999999998
 21
12.0
 31
0.0
  0
LINE
  5
C43C
330
18
100
AcDbEntity
  8
図框線
100
AcDbLine
 10
229.9999999999998
 20
32.0
 30
0.0
 11
229.9999999999998
 21
12.0
 31
0.0
  0
MTEXT
  5
C43D
330
18
100
AcDbEntity
  8
0
100
AcDbMText
 10
200.9494442488206
 20
29.04715033351227
 30
0.0
 40
4.5
 41
0.0
 71
     1
 72
     5
  1
\Ftxt.shx,bigfont.shx|c128;日 付
  7
JL
 73
     1
 44
1.0
1001
ACAD
1000
MTEXTBEGIN
1070
    73
1070
     1
1070
    44
1040
1.0
1070
    74
1070
     0
1000
MTEXTEND
  0
MTEXT
  5
C43E
330
18
100
AcDbEntity
  8
0
100
AcDbMText
 10
201.0957123649098
 20
19.83833899470915
 30
0.0
 40
4.5
 41
0.0
 71
     1
 72
     5
  1
\Ftxt.shx,bigfont.shx|c128;製 図
  7
JL
 73
     1
 44
1.0
1001
ACAD
1000
MTEXTBEGIN
1070
    73
1070
     1
1070
    44
1040
1.0
1070
    74
1070
     0
1000
MTEXTEND
  0
LINE
  5
C43F
330
18
100
AcDbEntity
  8
0
 62
     7
370
    25
100
AcDbLine
 10
253.2793088720521
 20
23.89647119159633
 30
0.0
 11
253.2793088720521
 21
29.22827490730549
 31
0.0
  0
MTEXT
  5
C440
330
18
100
AcDbEntity
  8
0
100
AcDbMText
 10
264.7025406733253
 20
29.42231870267847
 30
0.0
 40
4.5
 41
0.0
 71
     1
 72
     5
  1
\Ftxt.shx,bigfont.shx|c128;尺 度
  7
JL
 73
     1
 44
1.0
1001
ACAD
1000
MTEXTBEGIN
1070
    73
1070
     1
1070
    44
1040
1.0
1070
    74
1070
     0
1000
MTEXTEND
  0
LINE
  5
C441
330
18
100
AcDbEntity
  8
図框線
100
AcDbLine
 10
261.9999999999998
 20
32.0
 30
0.0
 11
261.9999999999998
 21
12.0
 31
0.0
  0
LINE
  5
C442
330
18
100
AcDbEntity
  8
0
 62
     7
370
    25
100
AcDbLine
 10
239.2833241183155
 20
23.23894871736115
 30
0.0
 11
239.2833241183155
 21
29.67466750005656
 31
0.0
  0
CIRCLE
  5
C443
330
18
100
AcDbEntity
  8
0
 62
     7
100
AcDbCircle
 10
239.2833241183155
 20
26.5623730494508
 30
0.0
 40
2.665901857854641
  0
LINE
  5
C444
330
18
100
AcDbEntity
  8
0
 62
     7
370
    25
100
AcDbLine
 10
247.1803028110605
 20
26.56237304945091
 30
0.0
 11
253.7579732190313
 21
26.56237304945091
 31
0.0
  0
LINE
  5
C445
330
18
100
AcDbEntity
  8
0
 62
     7
100
AcDbLine
 10
247.9475051563429
 20
25.22942212052362
 30
0.0
 11
253.2793088720521
 21
23.89647119159633
 31
0.0
  0
LINE
  5
C446
330
18
100
AcDbEntity
  8
図框線
100
AcDbLine
 10
241.9999999999998
 20
21.99999999999989
 30
0.0
 11
241.9999999999998
 21
12.0
 31
0.0
  0
LINE
  5
C447
330
18
100
AcDbEntity
  8
0
 62
     7
370
    25
100
AcDbLine
 10
235.9517253284391
 20
26.5623730494508
 30
0.0
 11
242.8139159467689
 21
26.56237304945091
 31
0.0
  0
CIRCLE
  5
C448
330
18
100
AcDbEntity
  8
0
 62
     7
100
AcDbCircle
 10
239.2833241183155
 20
26.5623730494508
 30
0.0
 40
1.33295092892732
  0
MTEXT
  5
C449
330
18
100
AcDbEntity
  8
0
100
AcDbMText
 10
233.1208651803974
 20
19.39982343168049
 30
0.0
 40
4.5
 41
0.0
 71
     1
 72
     5
  1
\Ftxt.shx,bigfont.shx|c128;検 図
  7
JL
 73
     1
 44
1.0
1001
ACAD
1000
MTEXTBEGIN
1070
    73
1070
     1
1070
    44
1040
1.0
1070
    74
1070
     0
1000
MTEXTEND
  0
LINE
  5
C44A
330
18
100
AcDbEntity
  8
0
 62
     7
370
    25
100
AcDbLine
 10
247.9475051563429
 20
25.22942212052362
 30
0.0
 11
247.9475051563429
 21
27.8953239783782
 31
0.0
  0
MTEXT
  5
C44B
330
18
100
AcDbEntity
  8
0
100
AcDbMText
 10
264.9950741833748
 20
19.62882052001464
 30
0.0
 40
4.5
 41
0.0
 71
     1
 72
     5
  1
\Ftxt.shx,bigfont.shx|c128;承 認
  7
JL
 73
     1
 44
1.0
1001
ACAD
1000
MTEXTBEGIN
1070
    73
1070
     1
1070
    44
1040
1.0
1070
    74
1070
     0
1000
MTEXTEND
  0
LINE
  5
C44C
330
18
100
AcDbEntity
  8
図框線
100
AcDbLine
 10
201.400189893319
 20
43.13491348924492
 30
0.0
 11
261.4001898933191
 21
43.13491348924481
 31
0.0
  0
LINE
  5
C44D
330
18
100
AcDbEntity
  8
図框線
100
AcDbLine
 10
201.400189893319
 20
50.33491348924497
 30
0.0
 11
261.4001898933191
 21
50.33491348924497
 31
0.0
  0
LINE
  5
C44E
330
18
100
AcDbEntity
  8
図框線
100
AcDbLine
 10
201.400189893319
 20
57.5349134892449
 30
0.0
 11
261.4001898933191
 21
57.53491348924478
 31
0.0
  0
LINE
  5
C44F
330
18
100
AcDbEntity
  8
図框線
100
AcDbLine
 10
201.400189893319
 20
64.73491348924494
 30
0.0
 11
261.4001898933191
 21
64.73491348924483
 31
0.0
  0
LINE
  5
C450
330
18
100
AcDbEntity
  8
図框線
100
AcDbLine
 10
201.400189893319
 20
35.93491348924488
 30
0.0
 11
261.4001898933191
 21
35.93491348924488
 31
0.0
  0
MTEXT
  5
C451
330
18
100
AcDbEntity
  8
0
 62
     7
 48
2.0
100
AcDbMText
 10
231.2855898591904
 20
65.52808189982909
 30
0.0
 40
4.8
 41
0.0
 71
     5
 72
     1
  1
\P\Ftxt.shx,bigfont.shx|c128;諸　　　　元
 73
     1
 44
1.0
1001
ACAD
1000
MTEXTBEGIN
1070
    73
1070
     1
1070
    44
1040
1.0
1070
    74
1070
     0
1000
MTEXTEND
  0
LINE
  5
C452
330
18
100
AcDbEntity
  8
図框線
100
AcDbLine
 10
201.400189893319
 20
64.73491348924483
 30
0.0
 11
201.400189893319
 21
35.93491348924488
 31
0.0
  0
MTEXT
  5
C453
330
18
100
AcDbEntity
  8
0
100
AcDbMText
 10
204.9226257069993
 20
56.00840432212407
 30
0.0
 40
4.4
 41
163.916286842249
 71
     1
 72
     5
  1
\Ftxt.shx,bigfont.shx|c128;熱　処　理
  7
JL
 73
     1
 44
1.0
1001
ACAD
1000
MTEXTBEGIN
1070
    73
1070
     1
1070
    44
1040
1.0
1070
    74
1070
     0
1000
MTEXTEND
  0
LINE
  5
C454
330
18
100
AcDbEntity
  8
図框線
100
AcDbLine
 10
225.4001898933191
 20
57.53491348924478
 30
0.0
 11
225.4001898933191
 21
35.93491348924488
 31
0.0
  0
MTEXT
  5
C455
330
18
100
AcDbEntity
  8
0
100
AcDbMText
 10
295.657025562638
 20
11.15332144655735
 30
0.0
 40
5.0
 41
0.0
 71
     1
 72
     5
  1
\Ftxt.shx,bigfont.shx|c128;図  面  番  号
  7
JL
 73
     1
 44
1.0
1001
ACAD
1000
MTEXTBEGIN
1070
    73
1070
     1
1070
    44
1040
1.0
1070
    74
1070
     0
1000
MTEXTEND
  0
MTEXT
  5
C456
330
18
100
AcDbEntity
  8
0
 62
     7
 48
2.0
100
AcDbMText
 10
319.826085065386
 20
22.29156825453561
 30
0.0
 40
4.5
 41
0.0
 71
     5
 72
     1
  1
\P\Ftxt.shx,bigfont.shx|c128;    精密ロックナット
 73
     1
 44
1.0
1001
ACAD
1000
MTEXTBEGIN
1070
    73
1070
     1
1070
    44
1040
1.0
1070
    74
1070
     0
1000
MTEXTEND
  0
MTEXT
  5
C457
330
18
100
AcDbEntity
  8
0
370
    25
100
AcDbMText
 10
296.8002923053596
 20
29.80688815403971
 30
0.0
 40
5.0
 41
0.0
 71
     1
 72
     5
  1
\Ftxt.shx,bigfont.shx|c128;品  名
  7
JL
 73
     1
 44
1.0
1001
ACAD
1000
MTEXTBEGIN
1070
    73
1070
     1
1070
    44
1040
1.0
1070
    74
1070
     0
1000
MTEXTEND
  0
LINE
  5
C458
330
18
100
AcDbEntity
  8
図框線
100
AcDbLine
 10
293.9999999999998
 20
32.0
 30
0.0
 11
293.9999999999998
 21
0.19104161092514
 31
0.0
  0
LINE
  5
C459
330
18
100
AcDbEntity
  8
図框線
100
AcDbLine
 10
273.9999999999998
 20
32.0
 30
0.0
 11
273.9999999999998
 21
12.0
 31
0.0
  0
LINE
  5
C45A
330
18
100
AcDbEntity
  8
図框線
100
AcDbLine
 10
351.2235601908681
 20
32.0
 30
0.0
 11
351.2235601908681
 21
12.0
 31
0.0
  0
MTEXT
  5
C45B
330
18
100
AcDbEntity
  8
0
100
AcDbMText
 10
204.64235133962
 20
49.00617587486397
 30
0.0
 40
4.4
 41
163.6058628849672
 71
     1
 72
     5
  1
\Ftxt.shx,bigfont.shx|c128;表 面 処 理
  7
JL
 73
     1
 44
1.0
1001
ACAD
1000
MTEXTBEGIN
1070
    73
1070
     1
1070
    44
1040
1.0
1070
    74
1070
     0
1000
MTEXTEND
  0
MTEXT
  5
C45C
330
18
100
AcDbEntity
  8
0
100
AcDbMText
 10
204.9324171880551
 20
41.71770302125605
 30
0.0
 40
4.4
 41
166.1718
 71
     1
 72
     5
  1
\Ftxt.shx,bigfont.shx|c128;等     　級
  7
JL
 73
     1
 44
1.0
1001
ACAD
1000
MTEXTBEGIN
1070
    73
1070
     1
1070
    44
1040
1.0
1070
    74
1070
     0
1000
MTEXTEND
  0
LINE
  5
C45D
330
18
100
AcDbEntity
  8
図框線
100
AcDbLine
 10
261.4001898933191
 20
64.73491348924483
 30
0.0
 11
261.4001898933191
 21
35.93491348924499
 31
0.0
  0
MTEXT
  5
C45E
330
18
100
AcDbEntity
  8
0
100
AcDbMText
 10
230.1471932027616
 20
55.83344641471445
 30
0.0
 40
4.4
 41
291.8960056857887
 71
     1
 72
     5
  1
\Ftxt.shx,bigfont.shx|c128;調質　HRC30%%d%%p２%%d
  7
JL
 73
     1
 44
1.0
1001
ACAD
1000
MTEXTBEGIN
1070
    73
1070
     1
1070
    44
1040
1.0
1070
    74
1070
     0
1000
MTEXTEND
  0
MTEXT
  5
C45F
330
18
100
AcDbEntity
  8
0
370
    25
100
AcDbMText
 10
355.2494735287421
 20
29.58569764093568
 30
0.0
 40
5.0
 41
0.0
 71
     1
 72
     5
  1
\Ftxt.shx,bigfont.shx|c128;型  番
  7
JL
 73
     1
 44
1.0
1001
ACAD
1000
MTEXTBEGIN
1070
    73
1070
     1
1070
    44
1040
1.0
1070
    74
1070
     0
1000
MTEXTEND
  0
MTEXT
  5
C460
330
18
100
AcDbEntity
  8
0
100
AcDbMText
 10
370.7872651223388
 20
11.23700203391422
 30
0.0
 40
5.0
 41
0.0
 71
     1
 72
     5
  1
\Ftxt.shx,bigfont.shx|c128;変更
  7
JL
 73
     1
 44
1.0
1001
ACAD
1000
MTEXTBEGIN
1070
    73
1070
     1
1070
    44
1040
1.0
1070
    74
1070
     0
1000
MTEXTEND
  0
LINE
  5
C461
330
18
100
AcDbEntity
  8
図框線
100
AcDbLine
 10
368.9999999999998
 20
12.00907027842731
 30
0.0
 11
368.9999999999998
 21
0.0
 31
0.0
  0
MTEXT
  5
C462
330
18
100
AcDbEntity
  8
0
100
AcDbMText
 10
230.407832204198
 20
41.7183135927072
 30
0.0
 40
4.4
 41
290.783364796891
 71
     1
 72
     5
  1
\Ftxt.shx,bigfont.shx|c128;ＩＳＯ - ４Ｈ
  7
JL
 73
     1
 44
1.0
1001
ACAD
1000
MTEXTBEGIN
1070
    73
1070
     1
1070
    44
1040
1.0
1070
    74
1070
     0
1000
MTEXTEND
  0
MTEXT
  5
C463
330
18
100
AcDbEntity
  8
0
100
AcDbMText
 10
230.5822934023283
 20
48.65328293790913
 30
0.0
 40
4.4
 41
291.4548
 71
     1
 72
     5
  1
\Ftxt.shx,bigfont.shx|c128;黒  　    染
  7
JL
 73
     1
 44
1.0
1001
ACAD
1000
MTEXTBEGIN
1070
    73
1070
     1
1070
    44
1040
1.0
1070
    74
1070
     0
1000
MTEXTEND
  0
MTEXT
  5
C464
330
18
100
AcDbEntity
  8
0
100
AcDbMText
 10
258.0631860075898
 20
270.095850257545
 30
0.0
 40
5.0
 41
0.0
 71
     1
 72
     5
  1
\Ftxt.shx,bigfont.shx|c128;M8X1.25-12L
  7
JL
 73
     1
 44
1.0
1001
ACAD
1000
MTEXTBEGIN
1070
    73
1070
     1
1070
    44
1040
1.0
1070
    74
1070
     0
1000
MTEXTEND
  0
MTEXT
  5
C465
330
18
100
AcDbEntity
  8
0
100
AcDbMText
 10
258.0631860075898
 20
262.095850257545
 30
0.0
 40
5.0
 41
0.0
 71
     1
 72
     5
  1
\Ftxt.shx,bigfont.shx|c128;%%c7X7L
  7
JL
 73
     1
 44
1.0
1001
ACAD
1000
MTEXTBEGIN
1070
    73
1070
     1
1070
    44
1040
1.0
1070
    74
1070
     0
1000
MTEXTEND
  0
LINE
  5
C466
330
18
100
AcDbEntity
  8
図框線
100
AcDbLine
 10
197.9999999999995
 20
263.9999999999999
 30
0.0
 11
395.9999999999995
 21
263.9999999999999
 31
0.0
  0
LINE
  5
C467
330
18
100
AcDbEntity
  8
図框線
100
AcDbLine
 10
197.9999999999995
 20
271.9999999999999
 30
0.0
 11
395.9999999999995
 21
271.9999999999999
 31
0.0
  0
LINE
  5
C468
330
18
100
AcDbEntity
  8
図框線
 62
     9
100
AcDbLine
 10
197.9999999999995
 20
279.9999999999999
 30
0.0
 11
395.9999999999995
 21
279.9999999999999
 31
0.0
  0
LINE
  5
C469
330
18
100
AcDbEntity
  8
図框線
100
AcDbLine
 10
197.9999999999995
 20
290.0
 30
0.0
 11
395.9999999999995
 21
290.0
 31
0.0
  0
MTEXT
  5
C46A
330
18
100
AcDbEntity
  8
0
100
AcDbMText
 10
257.4163025968171
 20
287.3155952051104
 30
0.0
 40
5.0
 41
0.0
 71
     1
 72
     5
  1
\Ftxt.shx,bigfont.shx|c128;図    番 / 規　　格
  7
JL
 73
     1
 44
1.0
1001
ACAD
1000
MTEXTBEGIN
1070
    73
1070
     1
1070
    44
1040
1.0
1070
    74
1070
     0
1000
MTEXTEND
  0
LINE
  5
C46B
330
18
100
AcDbEntity
  8
図框線
100
AcDbLine
 10
197.9999999999995
 20
263.9999999999999
 30
0.0
 11
395.9999999999995
 21
263.9999999999999
 31
0.0
  0
LINE
  5
C46C
330
18
100
AcDbEntity
  8
図框線
100
AcDbLine
 10
197.9999999999995
 20
255.9999999999999
 30
0.0
 11
395.9999999999995
 21
255.9999999999999
 31
0.0
  0
MTEXT
  5
C46D
330
18
100
AcDbEntity
  8
0
100
AcDbMText
 10
220.0143491414122
 20
286.7888025819827
 30
0.0
 40
5.0
 41
0.0
 71
     1
 72
     5
  1
\Ftxt.shx,bigfont.shx|c128;品　          名
  7
JL
 73
     1
 44
1.0
1001
ACAD
1000
MTEXTBEGIN
1070
    73
1070
     1
1070
    44
1040
1.0
1070
    74
1070
     0
1000
MTEXTEND
  0
MTEXT
  5
C46E
330
18
100
AcDbEntity
  8
0
100
AcDbMText
 10
216.865037613042
 20
270.5298549795346
 30
0.0
 40
6.0
 41
0.0
 71
     1
 72
     5
  1
\Ftxt.shx,bigfont.shx|c128;セットスクリュ-
  7
JL
 73
     1
 44
1.0
1001
ACAD
1000
MTEXTBEGIN
1070
    73
1070
     1
1070
    44
1040
1.0
1070
    74
1070
     0
1000
MTEXTEND
  0
MTEXT
  5
C46F
330
18
100
AcDbEntity
  8
0
100
AcDbMText
 10
216.6694145900471
 20
278.3660650505403
 30
0.0
 40
6.0
 41
0.0
 71
     1
 72
     5
  1
\Ftxt.shx,bigfont.shx|c128;ロックナット　  
  7
JL
 73
     1
 44
1.0
1001
ACAD
1000
MTEXTBEGIN
1070
    73
1070
     1
1070
    44
1040
1.0
1070
    74
1070
     0
1000
MTEXTEND
  0
MTEXT
  5
C470
330
18
100
AcDbEntity
  8
0
100
AcDbMText
 10
216.865037613042
 20
262.5298549795346
 30
0.0
 40
6.0
 41
0.0
 71
     1
 72
     5
  1
\Ftxt.shx,bigfont.shx|c128;ロックピン 
  7
JL
 73
     1
 44
1.0
1001
ACAD
1000
MTEXTBEGIN
1070
    73
1070
     1
1070
    44
1040
1.0
1070
    74
1070
     0
1000
MTEXTEND
  0
LINE
  5
C471
330
18
100
AcDbEntity
  8
図框線
100
AcDbLine
 10
212.9999999999995
 20
289.9999999999998
 30
0.0
 11
212.9999999999999
 21
255.9999999999999
 31
0.0
  0
MTEXT
  5
C472
330
18
100
AcDbEntity
  8
0
100
AcDbMText
 10
204.2152890873903
 20
262.7436409356394
 30
0.0
 40
5.0
 41
0.0
 71
     1
 72
     5
  1
\Ftxt.shx,bigfont.shx|c128;3
  7
JL
 73
     1
 44
1.0
1001
ACAD
1000
MTEXTBEGIN
1070
    73
1070
     1
1070
    44
1040
1.0
1070
    74
1070
     0
1000
MTEXTEND
  0
MTEXT
  5
C473
330
18
100
AcDbEntity
  8
0
100
AcDbMText
 10
205.1019570266666
 20
278.5798510066454
 30
0.0
 40
5.0
 41
0.0
 71
     1
 72
     5
  1
\Ftxt.shx,bigfont.shx|c128;1
  7
JL
 73
     1
 44
1.0
1001
ACAD
1000
MTEXTBEGIN
1070
    73
1070
     1
1070
    44
1040
1.0
1070
    74
1070
     0
1000
MTEXTEND
  0
MTEXT
  5
C474
330
18
100
AcDbEntity
  8
0
100
AcDbMText
 10
204.2152890873903
 20
270.7436409356394
 30
0.0
 40
5.0
 41
0.0
 71
     1
 72
     5
  1
\Ftxt.shx,bigfont.shx|c128;2
  7
JL
 73
     1
 44
1.0
1001
ACAD
1000
MTEXTBEGIN
1070
    73
1070
     1
1070
    44
1040
1.0
1070
    74
1070
     0
1000
MTEXTEND
  0
MTEXT
  5
C475
330
18
100
AcDbEntity
  8
0
100
AcDbMText
 10
200.2090839918421
 20
287.0885254164057
 30
0.0
 40
5.0
 41
0.0
 71
     1
 72
     5
  1
\Ftxt.shx,bigfont.shx|c128;照   号
  7
JL
 73
     1
 44
1.0
1001
ACAD
1000
MTEXTBEGIN
1070
    73
1070
     1
1070
    44
1040
1.0
1070
    74
1070
     0
1000
MTEXTEND
  0
LINE
  5
C476
330
18
100
AcDbEntity
  8
図框線
 62
     9
100
AcDbLine
 10
252.9999999999995
 20
289.9999999999998
 30
0.0
 11
252.9999999999995
 21
256.0
 31
0.0
  0
MTEXT
  5
C477
330
18
100
AcDbEntity
  8
0
100
AcDbMText
 10
344.3353765925376
 20
287.5804049742369
 30
0.0
 40
5.0
 41
0.0
 71
     1
 72
     5
  1
\Ftxt.shx,bigfont.shx|c128;備           考
  7
JL
 73
     1
 44
1.0
1001
ACAD
1000
MTEXTBEGIN
1070
    73
1070
     1
1070
    44
1040
1.0
1070
    74
1070
     0
1000
MTEXTEND
  0
LINE
  5
C478
330
18
100
AcDbEntity
  8
図框線
 62
     9
100
AcDbLine
 10
292.9999999999996
 20
289.9999999999999
 30
0.0
 11
292.9999999999996
 21
255.9999999999999
 31
0.0
  0
MTEXT
  5
C479
330
18
100
AcDbEntity
  8
0
100
AcDbMText
 10
294.7838702977636
 20
262.3660650505403
 30
0.0
 40
5.0
 41
0.0
 71
     1
 72
     5
  1
\Ftxt.shx,bigfont.shx|c128;C3604
  7
JL
 73
     1
 44
1.0
1001
ACAD
1000
MTEXTBEGIN
1070
    73
1070
     1
1070
    44
1040
1.0
1070
    74
1070
     0
1000
MTEXTEND
  0
MTEXT
  5
C47A
330
18
100
AcDbEntity
  8
0
100
AcDbMText
 10
294.7838702977636
 20
278.3660650505403
 30
0.0
 40
5.0
 41
0.0
 71
     1
 72
     5
  1
\Ftxt.shx,bigfont.shx|c128;SCM-440
  7
JL
 73
     1
 44
1.0
1001
ACAD
1000
MTEXTBEGIN
1070
    73
1070
     1
1070
    44
1040
1.0
1070
    74
1070
     0
1000
MTEXTEND
  0
MTEXT
  5
C47B
330
18
100
AcDbEntity
  8
0
100
AcDbMText
 10
294.7838702977636
 20
270.3660650505403
 30
0.0
 40
5.0
 41
0.0
 71
     1
 72
     5
  1
\Ftxt.shx,bigfont.shx|c128;SCM435
  7
JL
 73
     1
 44
1.0
1001
ACAD
1000
MTEXTBEGIN
1070
    73
1070
     1
1070
    44
1040
1.0
1070
    74
1070
     0
1000
MTEXTEND
  0
MTEXT
  5
C47C
330
18
100
AcDbEntity
  8
0
100
AcDbMText
 10
297.8003249944539
 20
287.5804049742369
 30
0.0
 40
5.0
 41
0.0
 71
     1
 72
     5
  1
\Ftxt.shx,bigfont.shx|c128;材　質
  7
JL
 73
     1
 44
1.0
1001
ACAD
1000
MTEXTBEGIN
1070
    73
1070
     1
1070
    44
1040
1.0
1070
    74
1070
     0
1000
MTEXTEND
  0
LINE
  5
C47D
330
18
100
AcDbEntity
  8
図框線
 62
     9
100
AcDbLine
 10
312.9999999999995
 20
289.9999999999999
 30
0.0
 11
312.9999999999995
 21
255.9999999999999
 31
0.0
  0
LINE
  5
C47E
330
18
100
AcDbEntity
  8
図框線
100
AcDbLine
 10
327.9999999999995
 20
289.9999999999999
 30
0.0
 11
327.9999999999995
 21
255.9999999999999
 31
0.0
  0
MTEXT
  5
C47F
330
18
100
AcDbEntity
  8
0
100
AcDbMText
 10
319.2152890873901
 20
262.7436409356394
 30
0.0
 40
5.0
 41
0.0
 71
     1
 72
     5
  1
\Ftxt.shx,bigfont.shx|c128;3
  7
JL
 73
     1
 44
1.0
1001
ACAD
1000
MTEXTBEGIN
1070
    73
1070
     1
1070
    44
1040
1.0
1070
    74
1070
     0
1000
MTEXTEND
  0
MTEXT
  5
C480
330
18
100
AcDbEntity
  8
0
100
AcDbMText
 10
320.1019570266665
 20
278.5798510066454
 30
0.0
 40
5.0
 41
0.0
 71
     1
 72
     5
  1
\Ftxt.shx,bigfont.shx|c128;1
  7
JL
 73
     1
 44
1.0
1001
ACAD
1000
MTEXTBEGIN
1070
    73
1070
     1
1070
    44
1040
1.0
1070
    74
1070
     0
1000
MTEXTEND
  0
MTEXT
  5
C481
330
18
100
AcDbEntity
  8
0
100
AcDbMText
 10
319.2152890873901
 20
270.7436409356394
 30
0.0
 40
5.0
 41
0.0
 71
     1
 72
     5
  1
\Ftxt.shx,bigfont.shx|c128;3
  7
JL
 73
     1
 44
1.0
1001
ACAD
1000
MTEXTBEGIN
1070
    73
1070
     1
1070
    44
1040
1.0
1070
    74
1070
     0
1000
MTEXTEND
  0
MTEXT
  5
C482
330
18
100
AcDbEntity
  8
0
100
AcDbMText
 10
314.4337403119168
 20
287.5804049742369
 30
0.0
 40
5.0
 41
0.0
 71
     1
 72
     5
  1
\Ftxt.shx,bigfont.shx|c128;数   量
  7
JL
 73
     1
 44
1.0
1001
ACAD
1000
MTEXTBEGIN
1070
    73
1070
     1
1070
    44
1040
1.0
1070
    74
1070
     0
1000
MTEXTEND
  0
LEADER
  5
C483
330
18
100
AcDbEntity
  8
DIM
 62
     6
100
AcDbLeader
  3
A
 73
     0
 75
     1
 40
3.0
 41
5.0
 76
     3
 10
345.9947198470442
 20
96.17261336800925
 30
0.0
 10
338.2054824421409
 20
105.1617809609203
 30
0.0
 10
335.7054824421409
 20
105.1617809609203
 30
0.0
340
C484
  0
MTEXT
  5
C484
102
{ACAD_REACTORS
330
C483
102
}
330
18
100
AcDbEntity
  8
DIM
 62
     3
100
AcDbMText
 10
334.7054824421409
 20
107.6617809609203
 30
0.0
 40
3.0
 41
0.0
 71
     6
 72
     1
  1
\A1;C2
  7
TXT
 73
     1
 44
1.0
1001
ACAD
1000
MTEXTBEGIN
1070
    73
1070
     1
1070
    44
1040
1.0
1070
    74
1070
     0
1000
MTEXTEND
  0
DIMENSION
  5
C485
330
18
100
AcDbEntity
  8
DIM
100
AcDbDimension
  2
*D28
 10
357.2447198470442
 20
117.7693022732119
 30
0.0
 11
311.2447198470442
 21
120.2693022732119
 31
0.0
 70
    32
  1
%%c<>%%p0.5
 71
     5
 42
92.0
  3
A
100
AcDbAlignedDimension
 13
265.2447198470442
 23
100.172613368009
 33
0.0
 14
357.2447198470442
 24
100.1726133680095
 34
0.0
100
AcDbRotatedDimension
  0
DIMENSION
  5
C486
330
18
100
AcDbEntity
  8
DIM
100
AcDbDimension
  2
*D21
 10
361.2447198470442
 20
124.8489716970929
 30
0.0
 11
305.7198064778676
 21
125.6613927211811
 31
0.0
 70
   160
  1
%%c<>
 71
     5
 42
100.0
  3
A
100
AcDbAlignedDimension
 13
261.2447198470442
 23
94.86321229125048
 33
0.0
 14
361.2447198470442
 24
94.86321229125078
 34
0.0
100
AcDbRotatedDimension
  0
LEADER
  5
C487
330
18
100
AcDbEntity
  8
DIM
 62
     6
100
AcDbLeader
  3
A
 76
     2
 10
348.6699849655368
 20
85.10327609758153
 30
0.0
 10
373.1398456056496
 20
111.1465657292021
 30
0.0
1001
ACAD
1000
DSTYLE
1002
{
1070
   341
1005
7A5F
1070
   173
1070
     1
1070
   343
1005
7A5F
1070
   344
1005
7A5F
1002
}
  0
DIMENSION
  5
C488
330
18
100
AcDbEntity
  8
DIM
100
AcDbDimension
  2
*D22
 10
242.525822325136
 20
138.6899676298847
 30
0.0
 11
241.0550104478891
 21
182.3145070698317
 31
0.0
 70
   160
 71
     5
 42
95.0
  3
A
100
AcDbAlignedDimension
 13
295.6322248510474
 23
233.6899676298847
 33
0.0
 14
295.6322248510496
 24
138.6899676298847
 34
0.0
 50
90.0
100
AcDbRotatedDimension
  0
LINE
  5
C489
330
18
100
AcDbEntity
  8
DIM
 62
     6
100
AcDbLine
 10
337.9227575127751
 20
245.4278859243554
 30
0.0
 11
342.9004725413447
 21
248.3017710360495
 31
0.0
  0
MTEXT
  5
C48A
330
18
100
AcDbEntity
  8
DIM
100
AcDbMText
 10
354.9542787049046
 20
221.8349543298343
 30
0.0
 40
2.0
 41
9.555074525974475
 71
     1
 72
     5
  1
+0.15\P+0
  7
TXT
 11
-0.5
 21
0.8660254037844389
 31
0.0
 73
     1
 44
1.0
1001
ACAD
1000
MTEXTBEGIN
1070
    73
1070
     1
1070
    44
1040
1.0
1070
    74
1070
     0
1000
MTEXTEND
  0
LINE
  5
C48B
330
18
100
AcDbEntity
  8
0
 62
     6
100
AcDbLine
 10
249.6794521940257
 20
100.172613368009
 30
0.0
 11
249.6794521940257
 21
113.7866951576228
 31
0.0
  0
LINE
  5
C48C
330
18
100
AcDbEntity
  8
0
 62
     6
100
AcDbLine
 10
249.6794521940257
 20
113.7866951576228
 30
0.0
 11
247.4415094102131
 21
113.7866951576228
 31
0.0
  0
TOLERANCE
  5
C48D
330
18
100
AcDbEntity
  8
0
  6
ByBlock
100
AcDbFcf
  3
A
 10
223.6928427435465
 20
113.8470803542264
 30
0.0
  1
{\Fgdt;h}%%v0.005%%v%%vA%%v%%v
1001
ACAD
1000
DSTYLE
1002
{
1070
   140
1040
2.743999999999999
1070
   147
1040
0.6859999999999999
1002
}
  0
LINE
  5
C48E
330
18
100
AcDbEntity
  8
mark
100
AcDbLine
 10
346.2447198470443
 20
44.8281588083437
 30
0.0
 11
348.0696365434955
 21
42.87241061689356
 31
0.0
  0
HATCH
  5
C48F
330
18
100
AcDbEntity
  8
mark
100
AcDbHatch
 10
0.0
 20
0.0
 30
0.0
210
0.0
220
0.0
230
1.0
  2
SOLID
 70
     1
 71
     0
 91
        1
 92
        7
 72
     0
 73
     1
 93
        3
 10
346.2424716181392
 20
40.86078201838263
 10
348.0799357953393
 20
42.83039760887011
 10
346.2424716181392
 20
44.80001319935759
 97
        0
 75
     0
 76
     1
 47
0.2359147607200769
 98
        1
 10
346.8181036106009
 20
43.25334962025318
  0
LINE
  5
C490
330
18
100
AcDbEntity
  8
mark
100
AcDbLine
 10
361.2685419003583
 20
39.24510300857453
 30
0.0
 11
361.2685419003583
 21
46.53770058861683
 31
0.0
  0
LINE
  5
C491
330
18
100
AcDbEntity
  8
mark
100
AcDbLine
 10
361.2685419003583
 20
46.53770058861683
 30
0.0
 11
368.8858123913797
 21
46.53770058861683
 31
0.0
  0
LINE
  5
C492
330
18
100
AcDbEntity
  8
mark
100
AcDbLine
 10
368.8858123913797
 20
39.24510300857453
 30
0.0
 11
368.8858123913797
 21
46.53770058861683
 31
0.0
  0
LINE
  5
C493
330
18
100
AcDbEntity
  8
mark
100
AcDbLine
 10
361.2685419003583
 20
39.24510300857453
 30
0.0
 11
368.8858123913797
 21
39.24510300857453
 31
0.0
  0
LINE
  5
C494
330
18
100
AcDbEntity
  8
mark
100
AcDbLine
 10
361.2685419003583
 20
42.89140179859565
 30
0.0
 11
348.0422344854415
 21
42.89140179859567
 31
0.0
  0
MTEXT
  5
C495
330
18
100
AcDbEntity
  8
DIM
100
AcDbMText
 10
363.3932029853264
 20
45.88405425658858
 30
0.0
 40
6.0
 41
4.709751971108957
 71
     1
 72
     5
  1
A
  7
ISOCP3
 73
     1
 44
1.0
1001
ACAD
1000
MTEXTBEGIN
1070
    73
1070
     1
1070
    44
1040
1.0
1070
    74
1070
     0
1000
MTEXTEND
  0
MTEXT
  5
C496
102
{ACAD_REACTORS
330
C497
102
}
330
18
100
AcDbEntity
  8
DIM
 62
     3
100
AcDbMText
 10
334.5642579913127
 20
64.14995960383548
 30
0.0
 40
3.0
 41
0.0
 71
     6
 72
     1
  1
\A1;C2
  7
TXT
 73
     1
 44
1.0
1001
ACAD
1000
MTEXTBEGIN
1070
    73
1070
     1
1070
    44
1040
1.0
1070
    74
1070
     0
1000
MTEXTEND
  0
LEADER
  5
C497
330
18
100
AcDbEntity
  8
DIM
 62
     6
100
AcDbLeader
  3
A
 73
     0
 75
     1
 40
3.0
 41
5.0
 76
     3
 10
345.9947198470442
 20
73.17261336800925
 30
0.0
 10
338.0642579913127
 20
61.64995960383548
 30
0.0
 10
335.5642579913127
 20
61.64995960383548
 30
0.0
340
C496
  0
DIMENSION
  5
C498
330
18
100
AcDbEntity
  8
DIM
100
AcDbDimension
  2
*D23
 10
355.2447198470443
 20
37.07487062526674
 30
0.0
 11
311.2447198470444
 21
39.57487062526674
 31
0.0
 70
    32
  1
%%c<>%%p0.5
 71
     5
 42
88.0
  3
A
100
AcDbAlignedDimension
 13
267.2447198470443
 23
72.17261336800913
 33
0.0
 14
355.2447198470443
 24
72.17261336800925
 34
0.0
100
AcDbRotatedDimension
  0
DIMENSION
  5
C499
330
18
100
AcDbEntity
  8
DIM
100
AcDbDimension
  2
*D24
 10
275.7447198470444
 20
111.3332772783741
 30
0.0
 11
311.2447198470443
 21
113.8332772783741
 31
0.0
 70
    32
  1
%%c<>
 71
     5
 42
70.99999999999988
  3
A
100
AcDbAlignedDimension
 13
346.7447198470442
 23
100.1726133680093
 33
0.0
 14
275.7447198470444
 24
100.1726133680087
 34
0.0
100
AcDbRotatedDimension
1001
ACAD
1000
DSTYLE
1002
{
1070
    76
1070
     1
1070
   173
1070
     1
1070
     7
1000
_NONE
1002
}
  0
DIMENSION
  5
C49A
330
18
100
AcDbEntity
  8
DIM
100
AcDbDimension
  2
*D25
 10
276.2447198470443
 20
51.72770452123986
 30
0.0
 11
309.9947198470443
 21
51.72770452123986
 31
0.0
 70
   160
  1
M<>X2.0P
 71
     5
 42
70.00000000000006
  3
A
100
AcDbAlignedDimension
 13
346.2447198470443
 23
72.77261336800911
 33
0.0
 14
276.2447198470443
 24
72.27261336800914
 34
0.0
100
AcDbRotatedDimension
1001
ACAD
1000
DSTYLE
1002
{
1070
    76
1070
     1
1070
   173
1070
     1
1070
     7
1000
_NONE
1002
}
  0
LINE
  5
C49B
330
18
100
AcDbEntity
  8
DIM
 62
     6
100
AcDbLine
 10
275.7447198470444
 20
111.3332772783741
 30
0.0
 11
277.5157251642997
 21
112.2632089875824
 31
0.0
  0
LINE
  5
C49C
330
18
100
AcDbEntity
  8
DIM
 62
     6
100
AcDbLine
 10
275.7447198470444
 20
111.3332772783741
 30
0.0
 11
277.5157251642997
 21
110.4033455691659
 31
0.0
  0
LINE
  5
C49D
330
18
100
AcDbEntity
  8
DIM
 62
     6
100
AcDbLine
 10
275.0099664780303
 20
111.3332772783741
 30
0.0
 11
276.7809717952857
 21
112.2632089875824
 31
0.0
  0
LINE
  5
C49E
330
18
100
AcDbEntity
  8
DIM
 62
     6
100
AcDbLine
 10
275.0099664780303
 20
111.3332772783741
 30
0.0
 11
276.7809717952857
 21
110.4033455691659
 31
0.0
  0
DIMENSION
  5
C49F
330
18
100
AcDbEntity
  8
DIM
100
AcDbDimension
  2
*D26
 10
249.6794521940257
 20
72.17261336800913
 30
0.0
 11
247.1794521940257
 21
86.17261336800913
 31
0.0
 70
    32
  1
<>%%p0.2
 71
     5
 42
27.99999999999989
  3
A
100
AcDbAlignedDimension
 13
265.2447198470442
 23
100.172613368009
 33
0.0
 14
267.2447198470443
 24
72.17261336800913
 34
0.0
 50
90.0
100
AcDbRotatedDimension
  0
DIMENSION
  5
C4A0
330
18
100
AcDbEntity
  8
DIM
100
AcDbDimension
  2
*D27
 10
333.7569842115686
 20
242.66268560558
 30
0.0
 11
332.0656199670887
 21
243.1317378062866
 31
0.0
 70
   161
 71
     5
 42
3.474570861015308
  3
A
100
AcDbAlignedDimension
 13
349.3885222193742
 23
212.8311043509823
 33
0.0
 14
352.2833771245676
 24
214.7526812414798
 34
0.0
  0
LINE
  5
C4A1
330
18
100
AcDbEntity
  8
mark
100
AcDbLine
 10
346.2447198470443
 20
44.8281588083437
 30
0.0
 11
346.2447198470443
 21
51.72770452123986
 31
0.0
  0
LINE
  5
C4A2
330
18
100
AcDbEntity
  8
中心線
  6
CENTER
 48
0.15
100
AcDbLine
 10
266.2113988502534
 20
212.1899676298846
 30
0.0
 11
356.2780408438349
 21
160.1899676298843
 31
0.0
  0
LINE
  5
C4A3
330
18
100
AcDbEntity
  8
中心線
  6
CENTER
 48
0.15
100
AcDbLine
 10
266.2113988502537
 20
160.1899676298842
 30
0.0
 11
356.2780408438352
 21
212.1899676298846
 31
0.0
  0
LEADER
  5
C4A4
330
18
100
AcDbEntity
  8
DIM
 62
     6
100
AcDbLeader
  3
A
 76
     2
 10
348.8660482447031
 20
153.2561605375444
 30
0.0
 10
374.5553486391844
 20
139.4706861244161
 30
0.0
  0
MTEXT
  5
C4A5
330
18
100
AcDbEntity
  8
DIM
100
AcDbMText
 10
375.2948748697672
 20
140.6501955632022
 30
0.0
 40
5.0
 41
1.0
 71
     1
 72
     5
  1
\Ftxt.shx,bigfont.shx|c128;1
 73
     1
 44
1.0
1001
ACAD
1000
MTEXTBEGIN
1070
    73
1070
     1
1070
    44
1040
1.0
1070
    74
1070
     0
1000
MTEXTEND
  0
LINE
  5
C4A6
330
18
100
AcDbEntity
  8
DIM
 62
     6
100
AcDbLine
 10
276.2447198470443
 20
51.72770452123986
 30
0.0
 11
278.0157251642996
 21
52.65763623044809
 31
0.0
  0
LINE
  5
C4A7
330
18
100
AcDbEntity
  8
DIM
 62
     6
100
AcDbLine
 10
276.2447198470443
 20
51.72770452123986
 30
0.0
 11
278.0157251642996
 21
50.79777281203162
 31
0.0
  0
LINE
  5
C4A8
330
18
100
AcDbEntity
  8
DIM
 62
     6
100
AcDbLine
 10
275.5099664780303
 20
51.72770452123986
 30
0.0
 11
277.2809717952856
 21
52.65763623044809
 31
0.0
  0
LINE
  5
C4A9
330
18
100
AcDbEntity
  8
DIM
 62
     6
100
AcDbLine
 10
275.5099664780303
 20
51.72770452123986
 30
0.0
 11
277.2809717952856
 21
50.79777281203162
 31
0.0
  0
LINE
  5
C4AA
330
18
100
AcDbEntity
  8
中心線
  6
CENTER
 48
0.15
100
AcDbLine
 10
311.2447198470445
 20
238.1899676298847
 30
0.0
 11
311.2447198470442
 21
134.1899676298847
 31
0.0
  0
LINE
  5
C4AB
330
18
100
AcDbEntity
  8
中心線
  6
CENTER
 48
0.15
100
AcDbLine
 10
259.2447198470443
 20
186.1899676298846
 30
0.0
 11
363.2447198470443
 21
186.1899676298848
 31
0.0
  0
LINE
  5
C4AC
330
18
100
AcDbEntity
  8
本体外線
100
AcDbLine
 10
311.2447198470442
 20
75.44362897038741
 30
0.0
 11
311.2447198470442
 21
75.44362897038741
 31
0.0
  0
LINE
  5
C4AD
330
18
100
AcDbEntity
  8
本体外線
100
AcDbLine
 10
311.2447198470442
 20
75.44362897038741
 30
0.0
 11
311.2447198470442
 21
75.44362897038741
 31
0.0
  0
LINE
  5
C4AE
330
18
100
AcDbEntity
  8
0
100
AcDbLine
 10
355.5284095893447
 20
74.26397841525943
 30
0.0
 11
359.5284095893447
 21
81.19218164553547
 31
0.0
  0
LINE
  5
C4AF
330
18
100
AcDbEntity
  8
本体内線
  6
HIDDEN
 48
0.2
100
AcDbLine
 10
356.6726275899239
 20
80.40079879308416
 30
0.0
 11
354.7858762439763
 21
79.31148239560707
 31
0.0
  0
LINE
  5
C4B0
330
18
100
AcDbEntity
  8
本体内線
  6
HIDDEN
 48
0.2
100
AcDbLine
 10
354.7858762439763
 20
79.31148239560684
 30
0.0
 11
354.7858762439758
 21
77.13284960065277
 31
0.0
  0
LWPOLYLINE
  5
C4B1
102
{ACAD_REACTORS
330
C51F
102
}
330
18
100
AcDbEntity
  8
本体外線
100
AcDbPolyline
 90
        2
 70
     0
 43
0.0
 10
355.2447198470443
 20
72.17261336800927
 10
361.2447198470444
 20
82.56491821342264
  0
LINE
  5
C4B2
330
18
100
AcDbEntity
  8
本体内線
  6
HIDDEN
 48
0.2
100
AcDbLine
 10
359.164605585346
 20
78.96205462661249
 30
0.0
 11
356.6726275899238
 21
80.40079879308416
 31
0.0
  0
LINE
  5
C4B3
330
18
100
AcDbEntity
  8
本体内線
  6
HIDDEN
 48
0.2
100
AcDbLine
 10
357.2778542393979
 20
75.6941054341811
 30
0.0
 11
354.7858762439758
 21
77.13284960065277
 31
0.0
  0
LINE
  5
C4B4
330
18
100
AcDbEntity
  8
0
100
AcDbLine
 10
352.6002063590688
 20
83.59218164553453
 30
0.0
 11
354.4930266820969
 21
84.0993613225071
 31
0.0
  0
LINE
  5
C4B5
330
18
100
AcDbEntity
  8
0
100
AcDbLine
 10
349.9858470051241
 20
79.06397841525961
 30
0.0
 11
350.4930266820967
 21
77.17115809223173
 31
0.0
  0
LINE
  5
C4B6
330
18
100
AcDbEntity
  8
0
100
AcDbLine
 10
359.5284095893447
 20
79.59218164553442
 30
0.0
 11
352.6002063590688
 21
83.59218164553453
 31
0.0
  0
LINE
  5
C4B7
330
18
100
AcDbEntity
  8
0
100
AcDbLine
 10
356.9140502353994
 20
75.0639784152595
 30
0.0
 11
349.9858470051241
 21
79.06397841525955
 31
0.0
  0
LINE
  5
C4B8
330
18
100
AcDbEntity
  8
0
100
AcDbLine
 10
353.7771515796908
 20
83.93532173639767
 30
0.0
 11
353.7581784639081
 21
83.90245933588397
 31
0.0
  0
LINE
  5
C4B9
102
{ACAD_REACTORS
330
C501
102
}
330
18
100
AcDbEntity
  8
0
100
AcDbLine
 10
353.0430266820966
 20
84.35916894364272
 30
0.0
 11
345.2447198470443
 21
88.86152349408337
 31
0.0
  0
LINE
  5
C4BA
102
{ACAD_REACTORS
330
C501
102
}
330
18
100
AcDbEntity
  8
0
100
AcDbLine
 10
349.5430266820965
 20
78.29699111715178
 30
0.0
 11
345.2447198470443
 21
80.7786197254286
 31
0.0
  0
LWPOLYLINE
  5
C4BB
102
{ACAD_REACTORS
330
C51F
102
}
330
18
100
AcDbEntity
  8
0
100
AcDbPolyline
 90
        3
 70
     0
 43
0.0
 10
359.5284095893447
 20
79.59218164553511
 10
359.5284095893447
 20
81.19218164553467
 10
345.2447198470443
 20
89.43887376327291
  0
LWPOLYLINE
  5
C4BC
102
{ACAD_REACTORS
330
C51F
102
}
330
18
100
AcDbEntity
  8
0
100
AcDbPolyline
 90
        3
 70
     0
 43
0.0
 10
356.9140502353994
 20
75.0639784152595
 10
355.5284095893445
 20
74.26397841525943
 10
345.2447198470443
 20
80.20126945623895
  0
LINE
  5
C4BD
102
{ACAD_REACTORS
330
C501
102
}
330
18
100
AcDbEntity
  8
中心線
  6
CENTER
 48
0.15
100
AcDbLine
 10
359.1140294973408
 20
76.87445427253944
 30
0.0
 11
344.2447198470441
 21
85.32952091647777
 31
0.0
  0
LINE
  5
C4BE
330
18
100
AcDbEntity
  8
本体外線
100
AcDbLine
 10
352.407203556859
 20
214.5739408337769
 30
0.0
 11
349.3885222193742
 21
212.8311043509823
 31
0.0
  0
LINE
  5
C4BF
330
18
100
AcDbEntity
  8
本体外線
100
AcDbLine
 10
356.4072035568588
 20
207.6457376035015
 30
0.0
 11
353.3770261519358
 21
205.8962638630768
 31
0.0
  0
LINE
  5
C4C0
330
18
100
AcDbEntity
  8
本体外線
 48
0.2
100
AcDbLine
 10
311.2447198470444
 20
72.17261336800925
 30
0.0
 11
311.2447198470442
 21
100.1726133680092
 31
0.0
  0
LINE
  5
C4C1
330
18
100
AcDbEntity
  8
0
100
AcDbLine
 10
350.2961246954736
 20
77.90600631042025
 30
0.0
 11
350.2771515796911
 21
77.87314390990673
 31
0.0
  0
LWPOLYLINE
  5
C4C2
102
{ACAD_REACTORS
330
C501
102
}
330
18
100
AcDbEntity
  8
0
100
AcDbPolyline
 90
        2
 70
     0
 43
0.0
 10
349.5430266820965
 20
78.29699111715171
 10
353.0430266820966
 20
84.35916894364272
  0
LINE
  5
C4C3
330
18
100
AcDbEntity
  8
0
100
AcDbLine
 10
350.4930266820967
 20
77.17115809223173
 30
0.0
 11
354.4930266820969
 21
84.0993613225071
 31
0.0
  0
ARC
  5
C4C4
330
18
100
AcDbEntity
  8
本体外線
100
AcDbCircle
 10
311.2447198470443
 20
186.1899676298851
 30
0.0
 40
50.0
100
AcDbArc
 50
34.58856573578565
 51
71.8051276612315
  0
CIRCLE
  5
C4C5
330
18
100
AcDbEntity
  8
本体外線
100
AcDbCircle
 10
311.2447198470443
 20
186.1899676298851
 30
0.0
 40
46.0
  0
LINE
  5
C4C6
330
18
100
AcDbEntity
  8
本体外線
100
AcDbLine
 10
349.3868099643571
 20
212.8340814611017
 30
0.0
 11
353.3811625100164
 21
205.8890719475179
 31
0.0
  0
LINE
  5
C4C7
330
18
100
AcDbEntity
  8
本体外線
100
AcDbLine
 10
266.0822361372289
 20
207.6457376035012
 30
0.0
 11
269.1009174747137
 21
205.9029011207067
 31
0.0
  0
LINE
  5
C4C8
330
18
100
AcDbEntity
  8
本体外線
100
AcDbLine
 10
270.0822361372289
 20
214.5739408337766
 30
0.0
 11
273.1124135421519
 21
212.824467093352
 31
0.0
  0
LINE
  5
C4C9
330
18
100
AcDbEntity
  8
本体外線
100
AcDbLine
 10
269.0991953492292
 20
205.8999297093044
 30
0.0
 11
273.1165737446877
 21
212.8316452423083
 31
0.0
  0
LINE
  5
C4CA
330
18
100
AcDbEntity
  8
本体外線
100
AcDbLine
 10
270.0822361372291
 20
157.8059944259922
 30
0.0
 11
273.1009174747139
 21
159.5488309087867
 31
0.0
  0
LINE
  5
C4CB
330
18
100
AcDbEntity
  8
本体外線
100
AcDbLine
 10
266.0822361372291
 20
164.7341976562676
 30
0.0
 11
269.1124135421521
 21
166.4836713966922
 31
0.0
  0
LINE
  5
C4CC
330
18
100
AcDbEntity
  8
本体外線
100
AcDbLine
 10
273.102629729731
 20
159.5458537986674
 30
0.0
 11
269.1082771840718
 21
166.4908633122512
 31
0.0
  0
LINE
  5
C4CD
330
18
100
AcDbEntity
  8
本体外線
100
AcDbLine
 10
356.407203556859
 20
164.7341976562677
 30
0.0
 11
353.3885222193742
 21
166.4770341390622
 31
0.0
  0
LINE
  5
C4CE
330
18
100
AcDbEntity
  8
本体外線
100
AcDbLine
 10
352.407203556859
 20
157.8059944259923
 30
0.0
 11
349.377026151936
 21
159.555468166417
 31
0.0
  0
LINE
  5
C4CF
330
18
100
AcDbEntity
  8
本体外線
100
AcDbLine
 10
353.390244344859
 20
166.4800055504646
 30
0.0
 11
349.3728659494004
 21
159.5482900174607
 31
0.0
  0
LINE
  5
C4D0
330
18
100
AcDbEntity
  8
本体外線
100
AcDbLine
 10
295.6322248510474
 20
233.6899676298847
 30
0.0
 11
326.8572148430421
 21
233.6899676298846
 31
0.0
  0
LINE
  5
C4D1
330
18
100
AcDbEntity
  8
本体外線
100
AcDbLine
 10
295.6322248510496
 20
138.6899676298847
 30
0.0
 11
326.8572148430387
 21
138.6899676298845
 31
0.0
  0
ARC
  5
C4D2
330
18
100
AcDbEntity
  8
本体外線
100
AcDbCircle
 10
311.2447198470443
 20
186.1899676298851
 30
0.0
 40
50.0
100
AcDbArc
 50
108.1948723387684
 51
145.4114342642148
  0
ARC
  5
C4D3
330
18
100
AcDbEntity
  8
本体外線
100
AcDbCircle
 10
311.2447198470443
 20
186.1899676298851
 30
0.0
 40
50.0
100
AcDbArc
 50
154.5885657357869
 51
205.411434264215
  0
ARC
  5
C4D4
330
18
100
AcDbEntity
  8
本体外線
100
AcDbCircle
 10
311.2447198470443
 20
186.1899676298851
 30
0.0
 40
50.0
100
AcDbArc
 50
214.5885657357861
 51
251.8051276612349
  0
ARC
  5
C4D5
330
18
100
AcDbEntity
  8
本体外線
100
AcDbCircle
 10
311.2447198470443
 20
186.1899676298851
 30
0.0
 40
50.0
100
AcDbArc
 50
288.1948723387651
 51
325.4114342642138
  0
ARC
  5
C4D6
330
18
100
AcDbEntity
  8
本体外線
100
AcDbCircle
 10
311.2447198470443
 20
186.1899676298851
 30
0.0
 40
50.0
100
AcDbArc
 50
334.5885657357848
 51
25.41143426421378
  0
ELLIPSE
  5
C4D7
330
18
100
AcDbEntity
  8
本体内線
  6
HIDDEN
 48
0.2
100
AcDbEllipse
 10
287.3013648569772
 20
227.6333612269825
 30
0.0
 11
-2.819996118493226
 21
-1.613658611635341
 31
0.0
210
0.0
220
0.0
230
1.0
 40
0.5187765015602447
 41
0.0
 42
6.283185307179586
  0
ELLIPSE
  5
C4D8
330
18
100
AcDbEntity
  8
本体内線
  6
HIDDEN
 48
0.2
100
AcDbEllipse
 10
287.3253656679531
 20
144.7327171581087
 30
0.0
 11
2.807467409958345
 21
-1.635358971370976
 31
0.0
210
0.0
220
0.0
230
1.0
 40
0.5187765015602447
 41
0.0
 42
6.283185307179586
  0
ELLIPSE
  5
C4D9
330
18
100
AcDbEntity
  8
本体内線
  6
HIDDEN
 48
0.2
100
AcDbEllipse
 10
359.1074290162016
 20
186.2038245045622
 30
0.0
 11
0.012528708534882
 21
3.249017583006316
 31
0.0
210
0.0
220
0.0
230
0.9999999999999998
 40
0.5187765015602447
 41
0.0
 42
6.283185307179586
  0
LINE
  5
C4DA
102
{ACAD_REACTORS
330
C51F
102
}
330
18
100
AcDbEntity
  8
本体外線
100
AcDbLine
 10
361.2447198470444
 20
82.56491821342264
 30
0.0
 11
361.2447198470442
 21
94.86321229125065
 31
0.0
  0
LINE
  5
C4DB
330
18
100
AcDbEntity
  8
本体外線
100
AcDbLine
 10
311.2447198470442
 20
97.17261336800925
 30
0.0
 11
346.7447198470443
 21
97.17261336800925
 31
0.0
  0
LINE
  5
C4DC
102
{ACAD_REACTORS
330
C51F
102
}
330
18
100
AcDbEntity
  8
本体外線
100
AcDbLine
 10
357.2447198470442
 20
97.17261336800925
 30
0.0
 11
361.2447198470442
 21
94.86321229125071
 31
0.0
  0
LINE
  5
C4DD
102
{ACAD_REACTORS
330
C51F
102
}
330
18
100
AcDbEntity
  8
本体外線
100
AcDbLine
 10
357.2447198470442
 20
97.17261336800925
 30
0.0
 11
357.2447198470442
 21
100.1726133680093
 31
0.0
  0
LINE
  5
C4DE
330
18
100
AcDbEntity
  8
本体外線
100
AcDbLine
 10
261.2447198470442
 20
82.5649182134224
 30
0.0
 11
261.2447198470442
 21
94.86321229125048
 31
0.0
  0
LINE
  5
C4DF
102
{ACAD_REACTORS
330
C51F
102
}
330
18
100
AcDbEntity
  8
本体外線
100
AcDbLine
 10
357.2447198470442
 20
100.1726133680095
 30
0.0
 11
265.2447198470442
 21
100.172613368009
 31
0.0
  0
LINE
  5
C4E0
102
{ACAD_REACTORS
330
C51F
102
}
330
18
100
AcDbEntity
  8
本体外線
100
AcDbLine
 10
355.2447198470443
 20
72.17261336800925
 30
0.0
 11
267.2447198470442
 21
72.17261336800902
 31
0.0
  0
LINE
  5
C4E1
330
18
100
AcDbEntity
  8
本体外線
100
AcDbLine
 10
311.2447198470442
 20
97.17261336800925
 30
0.0
 11
265.2447198470442
 21
97.17261336800902
 31
0.0
  0
LINE
  5
C4E2
330
18
100
AcDbEntity
  8
本体外線
100
AcDbLine
 10
265.2447198470442
 20
97.17261336800902
 30
0.0
 11
261.2447198470442
 21
94.86321229125053
 31
0.0
  0
LINE
  5
C4E3
330
18
100
AcDbEntity
  8
本体外線
100
AcDbLine
 10
265.2447198470442
 20
97.17261336800902
 30
0.0
 11
265.2447198470442
 21
100.1726133680091
 31
0.0
  0
LINE
  5
C4E4
330
18
100
AcDbEntity
  8
本体外線
100
AcDbLine
 10
267.2447198470443
 20
72.17261336800913
 30
0.0
 11
261.2447198470442
 21
82.5649182134224
 31
0.0
  0
ELLIPSE
  5
C4E5
330
18
100
AcDbEntity
  8
本体外線
100
AcDbEllipse
 10
285.5825221142398
 20
76.906671227498
 30
0.0
 11
-5.57189245930499
 21
0.0
 31
0.0
210
0.0
220
0.0
230
1.0
 40
0.5210175196129253
 41
0.0
 42
6.283185307179586
  0
LINE
  5
C4E6
330
18
100
AcDbEntity
  8
本体外線
100
AcDbLine
 10
261.2447198470442
 20
94.86321229125048
 30
0.0
 11
264.4378576722473
 21
94.86321229125042
 31
0.0
  0
LINE
  5
C4E7
330
18
100
AcDbEntity
  8
本体外線
100
AcDbLine
 10
264.4378576722474
 20
94.86321229125048
 30
0.0
 11
267.4680350771704
 21
97.17261336800902
 31
0.0
  0
LINE
  5
C4E8
330
18
100
AcDbEntity
  8
本体外線
100
AcDbLine
 10
268.4378576722474
 20
94.86321229125053
 30
0.0
 11
271.4582512647493
 21
97.17261336800909
 31
0.0
  0
LINE
  5
C4E9
330
18
100
AcDbEntity
  8
本体外線
100
AcDbLine
 10
264.4378576722474
 20
94.86321229125048
 30
0.0
 11
264.4378576722475
 21
82.5649182134224
 31
0.0
  0
LINE
  5
C4EA
330
18
100
AcDbEntity
  8
本体外線
100
AcDbLine
 10
268.4378576722474
 20
94.86321229125053
 30
0.0
 11
268.4378576722475
 21
82.5649182134224
 31
0.0
  0
LINE
  5
C4EB
330
18
100
AcDbEntity
  8
本体外線
100
AcDbLine
 10
268.4378576722475
 20
82.5649182134224
 30
0.0
 11
271.4582512647494
 21
72.17261336800902
 31
0.0
  0
LINE
  5
C4EC
330
18
100
AcDbEntity
  8
本体外線
100
AcDbLine
 10
267.4680350771704
 20
97.17261336800902
 30
0.0
 11
267.4680350771704
 21
72.17261336800902
 31
0.0
  0
LINE
  5
C4ED
330
18
100
AcDbEntity
  8
本体外線
100
AcDbLine
 10
268.4378576722474
 20
94.86321229125048
 30
0.0
 11
293.927846386065
 21
94.86321229125058
 31
0.0
  0
LINE
  5
C4EE
330
18
100
AcDbEntity
  8
本体外線
100
AcDbLine
 10
261.2447198470442
 20
82.5649182134224
 30
0.0
 11
264.4378576722475
 21
82.5649182134224
 31
0.0
  0
LINE
  5
C4EF
330
18
100
AcDbEntity
  8
本体外線
100
AcDbLine
 10
264.4378576722475
 20
82.5649182134224
 30
0.0
 11
267.4680350771704
 21
72.17261336800902
 31
0.0
  0
LINE
  5
C4F0
330
18
100
AcDbEntity
  8
本体外線
100
AcDbLine
 10
268.4378576722475
 20
82.5649182134224
 30
0.0
 11
293.9278463860651
 21
82.5649182134224
 31
0.0
  0
LINE
  5
C4F1
330
18
100
AcDbEntity
  8
本体外線
100
AcDbLine
 10
293.927846386065
 20
94.86321229125058
 30
0.0
 11
293.9278463860651
 21
82.5649182134224
 31
0.0
  0
ARC
  5
C4F2
330
18
100
AcDbEntity
  8
本体外線
100
AcDbCircle
 10
315.6944687170169
 20
-2.890616006387006
 30
0.0
 40
100.1621192758962
100
AcDbArc
 50
92.54622974881527
 51
102.5896714740466
  0
ARC
  5
C4F3
330
18
100
AcDbEntity
  8
本体外線
100
AcDbCircle
 10
315.6944687170165
 20
180.320452433232
 30
0.0
 40
100.1621192758962
100
AcDbArc
 50
257.4103285259534
 51
267.4537702511864
  0
LINE
  5
C4F4
102
{ACAD_REACTORS
330
C51F
102
}
330
18
100
AcDbEntity
  8
0
100
AcDbLine
 10
346.2447198470443
 20
72.83928003467591
 30
0.0
 11
346.2447198470442
 21
79.62391918704947
 31
0.0
  0
LINE
  5
C4F5
102
{ACAD_REACTORS
330
C501
330
C51F
102
}
330
18
100
AcDbEntity
  8
本体外線
100
AcDbLine
 10
345.2447198470442
 20
74.17261336800926
 30
0.0
 11
345.2447198470442
 21
95.17261336800924
 31
0.0
  0
LINE
  5
C4F6
102
{ACAD_REACTORS
330
C51F
102
}
330
18
100
AcDbEntity
  8
0
100
AcDbLine
 10
346.2447198470441
 20
88.86152349408348
 30
0.0
 11
346.2447198470441
 21
96.50594670134232
 31
0.0
  0
POINT
  5
C4F7
330
18
100
AcDbEntity
  8
本体外線
100
AcDbPoint
 10
311.2447198470441
 20
100.1726133680092
 30
0.0
  0
POINT
  5
C4F8
330
18
100
AcDbEntity
  8
本体外線
100
AcDbPoint
 10
357.2447198470442
 20
97.17261336800925
 30
0.0
  0
POINT
  5
C4F9
330
18
100
AcDbEntity
  8
本体外線
100
AcDbPoint
 10
361.2447198470442
 20
94.86321229125071
 30
0.0
  0
POINT
  5
C4FA
330
18
100
AcDbEntity
  8
本体外線
100
AcDbPoint
 10
357.2447198470442
 20
100.1726133680092
 30
0.0
  0
POINT
  5
C4FB
330
18
100
AcDbEntity
  8
0
100
AcDbPoint
 10
361.2447198470443
 20
186.1899676298845
 30
0.0
  0
POINT
  5
C4FC
330
18
100
AcDbEntity
  8
本体外線
100
AcDbPoint
 10
311.2447198470442
 20
72.1726133680093
 30
0.0
  0
POINT
  5
C4FD
330
18
100
AcDbEntity
  8
0
100
AcDbPoint
 10
355.2793608631958
 20
72.23261336800942
 30
0.0
  0
POINT
  5
C4FE
330
18
100
AcDbEntity
  8
0
100
AcDbPoint
 10
361.2447198470444
 20
82.56491821342264
 30
0.0
  0
POINT
  5
C4FF
330
18
100
AcDbEntity
  8
0
100
AcDbPoint
 10
355.2447198470443
 20
72.17261336800925
 30
0.0
  0
ARC
  5
C500
330
18
100
AcDbEntity
  8
0
100
AcDbCircle
 10
311.2447198470443
 20
186.1899676298847
 30
0.0
 40
35.0
100
AcDbArc
 50
170.4589877846272
 51
100.6491761987494
  0
HATCH
  5
C501
330
18
100
AcDbEntity
  8
0
100
AcDbHatch
 10
0.0
 20
0.0
 30
0.0
210
0.0
220
0.0
230
1.0
  2
AR-SAND
 70
     0
 71
     1
 91
        2
 92
        7
 72
     0
 73
     1
 93
        4
 10
351.2902426446725
 20
81.32325793612848
 10
353.0430266820966
 20
84.35916894364268
 10
345.2447198470442
 20
88.86152349408344
 10
345.2447198470442
 20
84.76089555035192
 97
        4
330
C4B9
330
C4F5
330
C4BD
330
C4C2
 92
        7
 72
     0
 73
     1
 93
        4
 10
345.2447198470442
 20
84.76089555035189
 10
345.2447198470442
 20
80.77861972542867
 10
349.5430266820965
 20
78.29699111715175
 10
351.2902426446724
 20
81.32325793612848
 97
        4
330
C4F5
330
C4BA
330
C4C2
330
C4BD
 75
     0
 76
     1
 52
0.0
 41
0.9
 77
     0
 78
     4
 53
37.5
 43
12.88178435647393
 44
-185.6592075704575
 45
-0.0566940222986474
 46
1.734141392111842
 79
     6
 49
0.0
 49
-1.368
 49
0.0
 49
-1.53
 49
0.0
 49
-1.4625
 53
7.499999999999999
 43
12.88178435647393
 44
-185.6592075704575
 45
1.592799034740954
 46
2.539931458706766
 79
     6
 49
0.0
 49
-0.738
 49
0.0
 49
-1.233
 49
0.0
 49
-0.4725000000000001
 53
327.5
 43
11.77478435647393
 44
-185.6592075704575
 45
2.802727675576345
 46
0.005093148183268
 79
     6
 49
0.0
 49
-0.45
 49
0.0
 49
-1.62
 49
0.0
 49
-2.115
 53
317.5
 43
11.77478435647393
 44
-185.6592075704575
 45
2.705513944115064
 46
0.7899080084408242
 79
     6
 49
0.0
 49
-0.225
 49
0.0
 49
-1.062
 49
0.0
 49
-1.215
 47
0.0255694245418375
 98
        2
 10
349.7104697594533
 20
82.7113318244376
 10
349.3264855079743
 20
81.43286143273849
  0
CIRCLE
  5
C502
330
18
100
AcDbEntity
  8
本体外線
100
AcDbCircle
 10
311.2447198470443
 20
186.1899676298847
 30
0.0
 40
34.0
  0
POINT
  5
C503
330
18
100
AcDbEntity
  8
DEFPOINTS
  6
ByBlock
 62
     0
100
AcDbPoint
 10
356.2780408438352
 20
212.1899676298846
 30
0.0
  0
POINT
  5
C504
330
18
100
AcDbEntity
  8
DEFPOINTS
  6
ByBlock
 62
     0
100
AcDbPoint
 10
363.2447198470443
 20
186.1899676298848
 30
0.0
  0
LINE
  5
C505
330
18
100
AcDbEntity
  8
0
  6
ByBlock
 62
     6
100
AcDbLine
 10
353.2732289606436
 20
215.0739408337769
 30
0.0
 11
363.6274829325869
 21
221.0519721517359
 31
0.0
  0
LINE
  5
C506
330
18
100
AcDbEntity
  8
0
  6
ByBlock
 62
     6
100
AcDbLine
 10
357.2732289606433
 20
208.1457376035015
 30
0.0
 11
367.6274829325866
 21
214.1237689214605
 31
0.0
  0
LINE
  5
C507
330
18
100
AcDbEntity
  8
0
  6
ByBlock
 62
     6
100
AcDbLine
 10
364.0114575288024
 20
218.3869086422747
 30
0.0
 11
365.5114575288022
 21
215.7888324309216
 31
0.0
  0
LINE
  5
C508
330
18
100
AcDbEntity
  8
0
  6
ByBlock
 62
     6
100
AcDbLine
 10
356.0395385350624
 20
232.1946773732563
 30
0.0
 11
362.7614575288025
 21
220.5519721517358
 31
0.0
  0
MTEXT
  5
C509
330
18
100
AcDbEntity
  8
0
  6
ByBlock
 62
     3
100
AcDbMText
 10
358.6152695911603
 20
221.3263911996149
 30
0.0
 40
3.0
 41
0.0
 71
     5
 72
     1
  1
\A1;8
  7
TXT
 11
-0.4999999999999822
 21
0.866025403784449
 31
0.0
 73
     1
 44
1.0
1001
ACAD
1000
MTEXTBEGIN
1070
    73
1070
     1
1070
    44
1040
1.0
1070
    74
1070
     0
1000
MTEXTEND
  0
SOLID
  5
C50A
330
18
100
AcDbEntity
  8
0
  6
ByBlock
 62
     6
100
AcDbTrace
 10
364.3723014470459
 20
218.5952419756081
 30
0.0
 11
363.6506136105589
 21
218.1785753089414
 31
0.0
 12
362.7614575288025
 22
220.5519721517358
 32
0.0
 13
362.7614575288025
 23
220.5519721517358
 33
0.0
  0
SOLID
  5
C50B
330
18
100
AcDbEntity
  8
0
  6
ByBlock
 62
     6
100
AcDbTrace
 10
365.8723014470457
 20
215.9971657642549
 30
0.0
 11
365.1506136105587
 21
215.5804990975883
 31
0.0
 12
366.7614575288022
 22
213.6237689214605
 32
0.0
 13
366.7614575288022
 23
213.6237689214605
 33
0.0
  0
POINT
  5
C50C
330
18
100
AcDbEntity
  8
DEFPOINTS
  6
ByBlock
 62
     0
100
AcDbPoint
 10
352.4072035568591
 20
214.5739408337769
 30
0.0
  0
POINT
  5
C50D
330
18
100
AcDbEntity
  8
DEFPOINTS
  6
ByBlock
 62
     0
100
AcDbPoint
 10
356.4072035568589
 20
207.6457376035016
 30
0.0
  0
POINT
  5
C50E
330
18
100
AcDbEntity
  8
DEFPOINTS
  6
ByBlock
 62
     0
100
AcDbPoint
 10
366.7614575288022
 20
213.6237689214605
 30
0.0
  0
DIMENSION
  5
C50F
330
18
100
AcDbEntity
  8
DIM
100
AcDbDimension
  2
*D17
 10
363.2447198470442
 20
186.1899676298847
 30
0.0
 11
376.1421925810932
 21
168.8007422199753
 31
0.0
 70
    34
 71
     5
 42
0.5235987755983027
  3
A
100
AcDb2LineAngularDimension
 13
266.2113988502534
 23
212.1899676298846
 33
0.0
 14
356.2780408438349
 24
160.1899676298843
 34
0.0
 15
259.2447198470442
 25
186.1899676298845
 35
0.0
 16
376.7288987998152
 26
162.3556756757144
 36
0.0
1001
ACAD
1000
DSTYLE
1002
{
1070
    79
1070
     2
1070
   179
1070
     1
1070
   284
1070
     8
1002
}
  0
LINE
  5
C510
330
18
100
AcDbEntity
  8
0
  6
ByBlock
 62
     6
100
AcDbLine
 10
364.2447198470442
 20
186.1899676298847
 30
0.0
 11
381.876223850136
 21
186.1899676298846
 31
0.0
  0
LINE
  5
C511
330
18
100
AcDbEntity
  8
0
  6
ByBlock
 62
     6
100
AcDbLine
 10
357.1440662476196
 20
212.6899676298845
 30
0.0
 11
372.4133966212241
 21
221.5057196314304
 31
0.0
  0
ARC
  5
C512
330
18
100
AcDbEntity
  8
0
  6
ByBlock
 62
     6
100
AcDbCircle
 10
311.2447198470449
 20
186.1899676298846
 30
0.0
 40
69.63150400309119
100
AcDbArc
 50
2.057217424454021
 51
27.94278257554589
  0
SOLID
  5
C513
330
18
100
AcDbEntity
  8
0
  6
ByBlock
 62
     6
100
AcDbTrace
 10
381.2479442625332
 20
188.6970446223439
 30
0.0
 11
380.41474521566
 21
188.6820849186641
 31
0.0
 12
380.876223850136
 22
186.1899676298847
 32
0.0
 13
380.876223850136
 23
186.1899676298847
 33
0.0
  0
SOLID
  5
C514
330
18
100
AcDbEntity
  8
0
  6
ByBlock
 62
     6
100
AcDbTrace
 10
372.3937776410693
 20
218.616743432899
 30
0.0
 11
373.1228290339103
 21
219.0203874729157
 31
0.0
 12
371.5473712174396
 22
221.0057196314304
 32
0.0
 13
371.5473712174396
 23
221.0057196314304
 33
0.0
  0
MTEXT
  5
C515
330
18
100
AcDbEntity
  8
0
  6
ByBlock
 62
     3
100
AcDbMText
 10
375.4725683338388
 20
205.7906009594446
 30
0.0
 40
3.0
 41
0.0
 71
     5
 72
     1
  1
\A1;30°
  7
TXT
 11
-0.2588190451025234
 21
0.9659258262890677
 31
0.0
 73
     1
 44
1.0
1001
ACAD
1000
MTEXTBEGIN
1070
    73
1070
     1
1070
    44
1040
1.0
1070
    74
1070
     0
1000
MTEXTEND
  0
POINT
  5
C516
330
18
100
AcDbEntity
  8
DEFPOINTS
  6
ByBlock
 62
     0
100
AcDbPoint
 10
379.8183648431897
 20
198.281351408229
 30
0.0
  0
POINT
  5
C517
330
18
100
AcDbEntity
  8
DEFPOINTS
  6
ByBlock
 62
     0
100
AcDbPoint
 10
363.2447198470442
 20
186.1899676298848
 30
0.0
  0
POINT
  5
C518
330
18
100
AcDbEntity
  8
DEFPOINTS
  6
ByBlock
 62
     0
100
AcDbPoint
 10
356.2780408438351
 20
212.1899676298845
 30
0.0
  0
LINE
  5
C519
102
{ACAD_REACTORS
330
C51F
102
}
330
18
100
AcDbEntity
  8
本体外線
 48
0.2
100
AcDbLine
 10
346.7447198470443
 20
97.17261336800925
 30
0.0
 11
346.7447198470442
 21
100.1726133680094
 31
0.0
  0
LINE
  5
C51A
330
18
100
AcDbEntity
  8
本体外線
100
AcDbLine
 10
311.2447198470442
 20
95.17261336800926
 30
0.0
 11
345.2447198470442
 21
95.17261336800924
 31
0.0
  0
LINE
  5
C51B
330
18
100
AcDbEntity
  8
本体外線
100
AcDbLine
 10
311.2447198470442
 20
74.17261336800925
 30
0.0
 11
345.2447198470442
 21
74.17261336800926
 31
0.0
  0
LINE
  5
C51C
102
{ACAD_REACTORS
330
C51F
102
}
330
18
100
AcDbEntity
  8
本体外線
100
AcDbLine
 10
345.2447198470442
 20
95.17261336800924
 30
0.0
 11
346.7447198470443
 21
97.17261336800925
 31
0.0
  0
LINE
  5
C51D
102
{ACAD_REACTORS
330
C51F
102
}
330
18
100
AcDbEntity
  8
本体外線
100
AcDbLine
 10
345.2447198470442
 20
74.17261336800926
 30
0.0
 11
346.7447198470443
 21
72.17261336800925
 31
0.0
  0
LINE
  5
C51E
330
18
100
AcDbEntity
  8
中心線
  6
CENTER
 48
0.05
100
AcDbLine
 10
311.2447198470444
 20
69.17261336800925
 30
0.0
 11
311.2447198470442
 21
103.1726133680092
 31
0.0
  0
HATCH
  5
C51F
330
18
100
AcDbEntity
  8
剖面線
100
AcDbHatch
 10
0.0
 20
0.0
 30
0.0
210
0.0
220
0.0
230
1.0
  2
ANSI31
 70
     0
 71
     1
 91
        4
 92
        7
 72
     0
 73
     1
 93
       10
 10
357.2447198470442
 20
97.17261336800927
 10
357.2447198470442
 20
100.1726133680095
 10
346.7447198470442
 20
100.1726133680094
 10
346.7447198470443
 20
97.17261336800923
 10
346.2447198470441
 20
96.50594670134232
 10
346.2447198470441
 20
88.86152349408343
 10
359.5284095893446
 20
81.19218164553464
 10
359.5284095893447
 20
79.5921816455352
 10
361.2447198470444
 20
82.56491821342256
 10
361.2447198470442
 20
94.86321229125069
 97
        9
330
C4DC
330
C4DD
330
C4DF
330
C519
330
C51C
330
C4F6
330
C4BB
330
C4B1
330
C4DA
 92
        7
 72
     0
 73
     1
 93
        6
 10
346.2447198470442
 20
79.62391918704935
 10
346.2447198470443
 20
72.83928003467586
 10
346.7447198470443
 20
72.17261336800922
 10
355.2447198470444
 20
72.17261336800925
 10
356.9140502353999
 20
75.06397841525978
 10
355.5284095893445
 20
74.26397841525944
 97
        5
330
C4F4
330
C51D
330
C4E0
330
C4B1
330
C4BC
 92
        7
 72
     0
 73
     1
 93
        4
 10
346.2447198470441
 20
96.50594670134232
 10
345.2447198470442
 20
95.17261336800924
 10
345.2447198470442
 20
89.43887376327301
 10
346.2447198470441
 20
88.86152349408344
 97
        4
330
C51C
330
C4F5
330
C4BB
330
C4F6
 92
        7
 72
     0
 73
     1
 93
        4
 10
345.2447198470442
 20
74.17261336800926
 10
346.2447198470443
 20
72.83928003467591
 10
346.2447198470442
 20
79.62391918704942
 10
345.2447198470442
 20
80.20126945623905
 97
        4
330
C4BC
330
C4F5
330
C51D
330
C4F4
 75
     0
 76
     1
 52
0.0
 41
0.5
 77
     0
 78
     1
 53
45.0
 43
-48.0150054717007
 44
-16.00482324832751
 45
-1.122532015133643
 46
1.122532015133644
 79
     0
 47
0.0774257830742739
 98
        4
 10
352.9273535245916
 20
93.74621001898503
 10
350.9741440705057
 20
74.98040730214666
 10
345.8702795051373
 20
90.2912468932725
 10
345.6378162469246
 20
75.96747726314084
  0
DIMENSION
  5
C520
330
18
100
AcDbEntity
  8
DIM
100
AcDbDimension
  2
*D18
 10
373.5354144543972
 20
97.17261336800923
 30
0.0
 11
373.5354144543972
 21
98.67261336800936
 31
0.0
 70
   160
 71
     5
 42
3.000000000000241
  3
A
100
AcDbAlignedDimension
 13
357.2447198470442
 23
100.1726133680095
 33
0.0
 14
346.7447198470443
 24
97.17261336800925
 34
0.0
 50
90.0
100
AcDbRotatedDimension
1001
ACAD
1000
DSTYLE
1002
{
1070
   284
1070
     8
1002
}
  0
DIMENSION
  5
C521
330
18
100
AcDbEntity
  8
DIM
100
AcDbDimension
  2
*D19
 10
265.2447198470442
 20
100.172613368009
 30
0.0
 11
380.4630970662579
 21
92.5589630971465
 31
0.0
 70
    34
 71
     5
 42
0.5235987755983187
  3
A
100
AcDb2LineAngularDimension
 13
357.2447198470442
 23
97.17261336800925
 33
0.0
 14
361.2447198470442
 24
94.86321229125071
 34
0.0
 15
357.2447198470443
 25
100.1726133680095
 35
0.0
 16
382.0406294099761
 26
89.25639554096981
 36
0.0
1001
ACAD
1000
DSTYLE
1002
{
1070
    79
1070
     2
1070
   179
1070
     1
1070
   284
1070
     8
1002
}
  0
DIMENSION
  5
C522
330
18
100
AcDbEntity
  8
DIM
100
AcDbDimension
  2
*D20
 10
265.2447198470442
 20
100.172613368009
 30
0.0
 11
384.6133008102335
 21
82.59525861492429
 31
0.0
 70
    34
  1
30%%d
 71
     5
 42
0.5170303770378651
  3
A
100
AcDb2LineAngularDimension
 13
359.1140294973408
 23
76.87445427253944
 33
0.0
 14
344.2447198470441
 24
85.32952091647777
 34
0.0
 15
357.2447198470442
 25
100.1726133680094
 35
0.0
 16
385.2068131921748
 26
76.09479922939645
 36
0.0
1001
ACAD
1000
DSTYLE
1002
{
1070
    79
1070
     2
1070
   179
1070
     1
1070
   284
1070
     8
1002
}
  0
LINE
  5
C523
330
18
100
AcDbEntity
  8
0
 62
     1
100
AcDbLine
 10
304.3981593370379
 20
114.4195567729237
 30
0.0
 11
315.3569944822312
 21
114.4195567729237
 31
0.0
  0
LINE
  5
C524
330
18
100
AcDbEntity
  8
0
 62
     1
100
AcDbLine
 10
304.3981593370379
 20
113.1460997963436
 30
0.0
 11
315.3569944822312
 21
113.1460997963436
 31
0.0
  0
LWPOLYLINE
  5
C525
330
18
100
AcDbEntity
  8
mark
100
AcDbPolyline
 90
        3
 70
     1
 43
0.0
 10
288.1032973901057
 20
112.3037739091313
 10
293.2994498128124
 20
112.3037739091313
 10
290.701373601459
 20
116.8037739091313
  0
MTEXT
  5
C526
330
18
100
AcDbEntity
  8
DIM
100
AcDbMText
 10
290.3799336680828
 20
115.7770321388997
 30
0.0
 40
3.0
 41
0.0
 71
     1
 72
     5
  1
{\Ftxt,bigfont|c128;1}
  7
JL
 73
     1
 44
1.0
1001
ACAD
1000
MTEXTBEGIN
1070
    73
1070
     1
1070
    44
1040
1.0
1070
    74
1070
     0
1000
MTEXTEND
  0
MTEXT
  5
C527
330
18
100
AcDbEntity
  8
DIM
 62
     3
100
AcDbMText
 10
298.2855277402055
 20
113.8738421999231
 30
0.0
 40
3.0
 41
0.0
 71
     5
 72
     1
  1
%%C72
  7
TXT
 73
     1
 44
1.0
1001
ACAD
1000
MTEXTBEGIN
1070
    73
1070
     1
1070
    44
1040
1.0
1070
    74
1070
     0
1000
MTEXTEND
  0
MTEXT
  5
C528
330
18
100
AcDbEntity
  8
DIM
100
AcDbMText
 10
207.6004848450009
 20
70.62914284157557
 30
0.0
 40
4.5
 41
0.0
 71
     1
 72
     5
  1
{\Ftxt,bigfont|c128;06.04.24外形寸法を変更する}
  7
JL
 73
     1
 44
1.0
1001
ACAD
1000
MTEXTBEGIN
1070
    73
1070
     1
1070
    44
1040
1.0
1070
    74
1070
     0
1000
MTEXTEND
  0
LWPOLYLINE
  5
C529
330
18
100
AcDbEntity
  8
mark
100
AcDbPolyline
 90
        3
 70
     1
 43
0.0
 10
201.4643773113176
 20
65.91472793350783
 10
206.6605297340242
 20
65.91472793350783
 10
204.0624535226708
 20
70.41472793350783
  0
MTEXT
  5
C52A
330
18
100
AcDbEntity
  8
DIM
100
AcDbMText
 10
203.7410135892947
 20
69.3879861632762
 30
0.0
 40
3.0
 41
0.0
 71
     1
 72
     5
  1
{\Ftxt,bigfont|c128;1}
  7
JL
 73
     1
 44
1.0
1001
ACAD
1000
MTEXTBEGIN
1070
    73
1070
     1
1070
    44
1040
1.0
1070
    74
1070
     0
1000
MTEXTEND
  0
MTEXT
  5
C52B
330
18
100
AcDbEntity
  8
DIM
100
AcDbMText
 10
248.0904987417211
 20
70.62914284157557
 30
0.0
 40
4.5
 41
0.0
 71
     1
 72
     5
  1
{\Ftxt,bigfont|c128;謝}
  7
JL
 73
     1
 44
1.0
1001
ACAD
1000
MTEXTBEGIN
1070
    73
1070
     1
1070
    44
1040
1.0
1070
    74
1070
     0
1000
MTEXTEND
  0
CIRCLE
  5
C52C
330
18
100
AcDbEntity
  8
DIM
100
AcDbCircle
 10
249.1770948186133
 20
68.36152362439157
 30
0.0
 40
2.644201016044348
  0
MTEXT
  5
C52D
330
18
100
AcDbEntity
  8
0
100
AcDbMText
 10
247.8194827894975
 20
19.37399834316261
 30
0.0
 40
5.0
 41
0.0
 71
     1
 72
     5
  1
{\Ftxt,bigfont|c128;小\~柳}
  7
JL
 73
     1
 44
1.0
1001
ACAD
1000
MTEXTBEGIN
1070
    73
1070
     1
1070
    44
1040
1.0
1070
    74
1070
     0
1000
MTEXTEND
  0
MTEXT
  5
C52E
330
18
100
AcDbEntity
  8
mark
 62
     3
100
AcDbMText
 10
205.6071238874159
 20
251.3659428103215
 30
0.0
 40
2.60416666666667
 41
0.0
 71
     5
 72
     1
  1
2
 73
     1
 44
1.0
1001
ACAD
1000
MTEXTBEGIN
1070
    73
1070
     1
1070
    44
1040
1.0
1070
    74
1070
     0
1000
MTEXTEND
  0
LWPOLYLINE
  5
C52F
330
18
100
AcDbEntity
  8
mark
100
AcDbPolyline
 90
        3
 70
     1
 43
0.0
 10
202.9969241963278
 20
249.6567900836513
 10
208.1930766190343
 20
249.6567900836513
 10
205.595000407681
 20
254.1567900836513
  0
MTEXT
  5
C530
330
18
100
AcDbEntity
  8
DIM
100
AcDbMText
 10
210.0587801442195
 20
254.0602833747664
 30
0.0
 40
4.498106060606072
 41
0.0
 71
     1
 72
     5
  1
{\Ftxt,bigfont|c128;07.10.31ネジの長さを変更する  林}
  7
JL
 73
     1
 44
1.0
1001
ACAD
1000
MTEXTBEGIN
1070
    73
1070
     1
1070
    44
1040
1.0
1070
    74
1070
     0
1000
MTEXTEND
  0
CIRCLE
  5
C531
330
18
100
AcDbEntity
  8
DIM
100
AcDbCircle
 10
253.5120684002022
 20
251.7567435450144
 30
0.0
 40
2.723768066120043
  0
LINE
  5
C532
330
18
100
AcDbEntity
  8
mark
 62
     1
100
AcDbLine
 10
255.6995204016559
 20
268.5677102025341
 30
0.0
 11
282.3564702648034
 21
268.5677102025341
 31
0.0
  0
LINE
  5
C533
330
18
100
AcDbEntity
  8
mark
 62
     1
100
AcDbLine
 10
255.6995204016559
 20
266.3284690015694
 30
0.0
 11
282.3564702648034
 21
266.3284690015694
 31
0.0
  0
MTEXT
  5
C534
330
18
100
AcDbEntity
  8
0
100
AcDbMText
 10
349.5371734253158
 20
270.095850257545
 30
0.0
 40
5.0
 41
0.0
 71
     1
 72
     5
  1
{\Ftxt,bigfont|c128;M8X1.25-10L}
  7
JL
 73
     1
 44
1.0
1001
ACAD
1000
MTEXTBEGIN
1070
    73
1070
     1
1070
    44
1040
1.0
1070
    74
1070
     0
1000
MTEXTEND
  0
MTEXT
  5
C535
330
18
100
AcDbEntity
  8
mark
 62
     3
100
AcDbMText
 10
346.1532991513477
 20
266.9015204224228
 30
0.0
 40
2.60416666666667
 41
0.0
 71
     5
 72
     1
  1
2
 73
     1
 44
1.0
1001
ACAD
1000
MTEXTBEGIN
1070
    73
1070
     1
1070
    44
1040
1.0
1070
    74
1070
     0
1000
MTEXTEND
  0
LWPOLYLINE
  5
C536
330
18
100
AcDbEntity
  8
mark
100
AcDbPolyline
 90
        3
 70
     1
 43
0.0
 10
343.5430994602597
 20
265.1923676957526
 10
348.7392518829662
 20
265.1923676957526
 10
346.1411756716129
 20
269.6923676957526
  0
LWPOLYLINE
  5
C537
330
18
100
AcDbEntity
  8
mark
100
AcDbPolyline
 90
        3
 70
     1
 43
0.0
 10
208.172587508602
 20
242.7381941395094
 10
205.2858361626539
 20
247.7381941395094
 10
202.3990848167058
 20
242.7381941395094
  0
MTEXT
  5
C538
330
18
100
AcDbEntity
  8
DIM
100
AcDbMText
 10
204.5450662167528
 20
245.7546315963123
 30
0.0
 40
2.5
 41
9.163114146879252
 71
     1
 72
     5
  1
3
 73
     1
 44
1.0
1001
ACAD
1000
MTEXTBEGIN
1070
    73
1070
     1
1070
    44
1040
1.0
1070
    74
1070
     0
1000
MTEXTEND
  0
MTEXT
  5
C539
330
18
100
AcDbEntity
  8
DIM
100
AcDbMText
 10
209.9357860200737
 20
247.1987521219597
 30
0.0
 40
4.5
 41
0.0
 71
     1
 72
     5
  1
{\Ftxt,bigfont|c128;08.08.08 振れ精度の変更  林}
  7
JL
 73
     1
 44
1.0
1001
ACAD
1000
MTEXTBEGIN
1070
    73
1070
     1
1070
    44
1040
1.0
1070
    74
1070
     0
1000
MTEXTEND
  0
CIRCLE
  5
C53A
330
18
100
AcDbEntity
  8
DIM
100
AcDbCircle
 10
247.7100893140995
 20
244.8889335019929
 30
0.0
 40
2.762409708108862
  0
LWPOLYLINE
  5
C53B
330
18
100
AcDbEntity
  8
mark
100
AcDbPolyline
 90
        3
 70
     1
 43
0.0
 10
386.9704827598937
 20
2.660249763336622
 10
384.0837314139457
 20
7.660249763336622
 10
381.1969800679975
 20
2.660249763336622
  0
MTEXT
  5
C53C
330
18
100
AcDbEntity
  8
DIM
100
AcDbMText
 10
383.0656607723276
 20
5.676687220139541
 30
0.0
 40
2.5
 41
9.163114146879252
 71
     1
 72
     5
  1
4
 73
     1
 44
1.0
1001
ACAD
1000
MTEXTBEGIN
1070
    73
1070
     1
1070
    44
1040
1.0
1070
    74
1070
     0
1000
MTEXTEND
  0
LWPOLYLINE
  5
C53D
330
18
100
AcDbEntity
  8
mark
100
AcDbPolyline
 90
        3
 70
     1
 43
0.0
 10
230.2665306264179
 20
117.9017656316784
 10
227.3797792804698
 20
122.9017656316784
 10
224.4930279345217
 20
117.9017656316784
  0
MTEXT
  5
C53E
330
18
100
AcDbEntity
  8
DIM
100
AcDbMText
 10
226.6390093345687
 20
120.9182030884814
 30
0.0
 40
2.5
 41
9.163114146879252
 71
     1
 72
     5
  1
3
 73
     1
 44
1.0
1001
ACAD
1000
MTEXTBEGIN
1070
    73
1070
     1
1070
    44
1040
1.0
1070
    74
1070
     0
1000
MTEXTEND
  0
MTEXT
  5
C53F
330
18
100
AcDbEntity
  8
DIM
100
AcDbMText
 10
231.6314785284987
 20
120.9182030884814
 30
0.0
 40
2.74
 41
9.163114146879252
 71
     1
 72
     5
  1
0.007
 73
     1
 44
1.0
1001
ACAD
1000
MTEXTBEGIN
1070
    73
1070
     1
1070
    44
1040
1.0
1070
    74
1070
     0
1000
MTEXTEND
  0
LINE
  5
C540
330
18
100
AcDbEntity
  8
mark
 62
     1
100
AcDbLine
 10
231.0663830878912
 20
114.2632415744319
 30
0.0
 11
242.429323795589
 21
114.2632415744319
 31
0.0
  0
LINE
  5
C541
330
18
100
AcDbEntity
  8
mark
 62
     1
100
AcDbLine
 10
231.0663830878912
 20
113.3676346327224
 30
0.0
 11
242.429323795589
 21
113.3676346327224
 31
0.0
  0
LINE
  5
C64E
330
18
100
AcDbEntity
  8
DIM
 62
     1
100
AcDbLine
 10
203.8827657802033
 20
54.79023608466616
 30
0.0
 11
257.2500804002098
 21
54.79023608466616
 31
0.0
  0
LINE
  5
C64F
330
18
100
AcDbEntity
  8
DIM
 62
     1
100
AcDbLine
 10
203.8827657802033
 20
52.91207471223334
 30
0.0
 11
257.2500804002098
 21
52.91207471223334
 31
0.0
  0
MTEXT
  5
C650
330
18
100
AcDbEntity
  8
DIM
100
AcDbMText
 10
209.9357860200737
 20
240.5011616083075
 30
0.0
 40
4.5
 41
0.0
 71
     1
 72
     5
  1
{\Ftxt,bigfont|c136;13\Ftxt,bigfont|c128;.\Ftxt,bigfont|c136;03\Ftxt,bigfont|c128;.\Ftxt,bigfont|c136;20\Ftxt,bigfont|c128;  熱処理不要.振れ精度の変更  林}
  7
JL
 73
     1
 44
1.0
1001
ACAD
1000
MTEXTBEGIN
1070
    73
1070
     1
1070
    44
1040
1.0
1070
    74
1070
     0
1000
MTEXTEND
  0
CIRCLE
  5
C651
330
18
100
AcDbEntity
  8
DIM
100
AcDbCircle
 10
263.0400395629507
 20
238.1913429883407
 30
0.0
 40
2.762409708108862
  0
LWPOLYLINE
  5
C652
330
18
100
AcDbEntity
  8
mark
100
AcDbPolyline
 90
        3
 70
     1
 43
0.0
 10
208.172587508602
 20
235.9245282118296
 10
205.2858361626539
 20
240.9245282118296
 10
202.3990848167058
 20
235.9245282118296
  0
MTEXT
  5
C653
330
18
100
AcDbEntity
  8
DIM
100
AcDbMText
 10
204.5450662167528
 20
238.9409656686325
 30
0.0
 40
2.5
 41
9.163114146879252
 71
     1
 72
     5
  1
4
 73
     1
 44
1.0
1001
ACAD
1000
MTEXTBEGIN
1070
    73
1070
     1
1070
    44
1040
1.0
1070
    74
1070
     0
1000
MTEXTEND
  0
LWPOLYLINE
  5
C654
330
18
100
AcDbEntity
  8
mark
100
AcDbPolyline
 90
        3
 70
     1
 43
0.0
 10
230.2665306264179
 20
124.3543350368682
 10
227.3797792804698
 20
129.3543350368681
 10
224.4930279345217
 20
124.3543350368682
  0
MTEXT
  5
C655
330
18
100
AcDbEntity
  8
DIM
100
AcDbMText
 10
226.6390093345687
 20
127.3707724936711
 30
0.0
 40
2.5
 41
9.163114146879252
 71
     1
 72
     5
  1
4
 73
     1
 44
1.0
1001
ACAD
1000
MTEXTBEGIN
1070
    73
1070
     1
1070
    44
1040
1.0
1070
    74
1070
     0
1000
MTEXTEND
  0
MTEXT
  5
C656
330
18
100
AcDbEntity
  8
DIM
100
AcDbMText
 10
231.6314785284987
 20
127.3707724936711
 30
0.0
 40
2.74
 41
9.163114146879252
 71
     1
 72
     5
  1
0.005
 73
     1
 44
1.0
1001
ACAD
1000
MTEXTBEGIN
1070
    73
1070
     1
1070
    44
1040
1.0
1070
    74
1070
     0
1000
MTEXTEND
  0
LINE
  5
C657
330
18
100
AcDbEntity
  8
mark
 62
     1
100
AcDbLine
 10
224.4930279345217
 20
119.97088150584
 30
0.0
 11
242.429323795589
 21
119.97088150584
 31
0.0
  0
LINE
  5
C658
330
18
100
AcDbEntity
  8
mark
 62
     1
100
AcDbLine
 10
224.4930279345217
 20
119.0752745641305
 30
0.0
 11
242.429323795589
 21
119.0752745641305
 31
0.0
  0
ENDSEC
  0
SECTION
  2
OBJECTS
  0
DICTIONARY
  5
C
330
0
100
AcDbDictionary
281
     1
  3
ACAD_COLOR
350
C1BD
  3
ACAD_GROUP
350
D
  3
ACAD_LAYOUT
350
5CF3
  3
ACAD_MATERIAL
350
C1BC
  3
ACAD_MLEADERSTYLE
350
C2CC
  3
ACAD_MLINESTYLE
350
1B
  3
ACAD_PLOTSETTINGS
350
5CF4
  3
ACAD_PLOTSTYLENAME
350
5CF1
  3
ACAD_SCALELIST
350
C2BA
  3
ACAD_TABLESTYLE
350
C1BE
  3
ACAD_VISUALSTYLE
350
C2A1
  3
ACDB_RECOMPOSE_DATA
350
C66E
  3
ACDBHEADERROUNDTRIPXREC
350
C760
  3
ACDBVARIABLEDICTIONARY
350
45D
  3
AcmDictionary
350
C327
  3
AMG
350
C2DA
  3
AMGSNAPSETTINGS
350
C420
  3
DWGPROPS
350
C75F
  0
DICTIONARY
  5
C670
330
8
100
AcDbDictionary
280
     1
281
     1
  3
ACAD_XREC_ROUNDTRIP
360
C671
  0
DICTIONARY
  5
C65A
330
E
100
AcDbDictionary
280
     1
281
     1
  3
ADSK_XREC_LAYER_RECONCILED
360
C65B
  0
DICTIONARY
  5
C65C
330
B9
100
AcDbDictionary
280
     1
281
     1
  3
ADSK_XREC_LAYER_RECONCILED
360
C65D
  0
DICTIONARY
  5
C65E
330
5F8B
100
AcDbDictionary
280
     1
281
     1
  3
ADSK_XREC_LAYER_RECONCILED
360
C65F
  0
DICTIONARY
  5
C660
330
644E
100
AcDbDictionary
280
     1
281
     1
  3
ADSK_XREC_LAYER_RECONCILED
360
C661
  0
DICTIONARY
  5
C662
330
650D
100
AcDbDictionary
280
     1
281
     1
  3
ADSK_XREC_LAYER_RECONCILED
360
C663
  0
DICTIONARY
  5
C664
330
650E
100
AcDbDictionary
280
     1
281
     1
  3
ADSK_XREC_LAYER_RECONCILED
360
C665
  0
DICTIONARY
  5
C666
330
650F
100
AcDbDictionary
280
     1
281
     1
  3
ADSK_XREC_LAYER_RECONCILED
360
C667
  0
DICTIONARY
  5
C668
330
6510
100
AcDbDictionary
280
     1
281
     1
  3
ADSK_XREC_LAYER_RECONCILED
360
C669
  0
DICTIONARY
  5
C66A
330
C23D
100
AcDbDictionary
280
     1
281
     1
  3
ADSK_XREC_LAYER_RECONCILED
360
C66B
  0
DICTIONARY
  5
45F
330
18
100
AcDbDictionary
280
     1
281
     1
  3
ACAD_LAYOUTSELFREF
360
5D8B
  3
ACAD_SORTENTS
360
460
  0
DICTIONARY
  5
5D89
330
15
100
AcDbDictionary
280
     1
281
     1
  3
ACAD_LAYOUTSELFREF
360
5D8A
  0
DICTIONARY
  5
C21A
330
C214
100
AcDbDictionary
280
     1
281
     1
  3
ACAD_SORTENTS
360
C21B
  0
DICTIONARY
  5
C1BD
102
{ACAD_REACTORS
330
C
102
}
330
C
100
AcDbDictionary
281
     1
  0
DICTIONARY
  5
D
102
{ACAD_REACTORS
330
C
102
}
330
C
100
AcDbDictionary
281
     1
  0
DICTIONARY
  5
5CF3
102
{ACAD_REACTORS
330
C
102
}
330
C
100
AcDbDictionary
281
     1
  3
Model
350
5CF5
  3
配置1
350
5CF6
1001
ACADSTRINGINFO
1000
MIFCodePage
1070
     1
  0
DICTIONARY
  5
C1BC
102
{ACAD_REACTORS
330
C
102
}
330
C
100
AcDbDictionary
281
     1
  3
ByBlock
350
C291
  3
ByLayer
350
C289
  3
Global
350
C299
  0
DICTIONARY
  5
C2CC
102
{ACAD_REACTORS
330
C
102
}
330
C
100
AcDbDictionary
281
     1
  3
Standard
350
C2CD
  0
DICTIONARY
  5
1B
102
{ACAD_REACTORS
330
C
102
}
330
C
100
AcDbDictionary
281
     1
  3
STANDARD
350
1C
  0
DICTIONARY
  5
5CF4
102
{ACAD_REACTORS
330
C
102
}
330
C
100
AcDbDictionary
281
     1
  0
ACDBDICTIONARYWDFLT
  5
5CF1
102
{ACAD_REACTORS
330
C
102
}
330
C
100
AcDbDictionary
281
     1
  3
Normal
350
5CF2
100
AcDbDictionaryWithDefault
340
5CF2
  0
DICTIONARY
  5
C2BA
102
{ACAD_REACTORS
330
C
102
}
330
C
100
AcDbDictionary
281
     1
  3
A0
350
C2BB
  3
A1
350
C2BC
  3
A2
350
C2BD
  3
A3
350
C2BE
  3
A4
350
C2BF
  3
A5
350
C2C0
  3
A6
350
C2C1
  3
A7
350
C2C2
  3
A8
350
C2C3
  3
A9
350
C2C4
  3
B0
350
C2C5
  3
B1
350
C2C6
  3
B2
350
C2C7
  3
B3
350
C2C8
  3
B4
350
C2C9
  3
B5
350
C2CA
  3
B6
350
C2CB
  0
DICTIONARY
  5
C1BE
102
{ACAD_REACTORS
330
C
102
}
330
C
100
AcDbDictionary
281
     1
  3
Standard
350
C1BF
  0
DICTIONARY
  5
C2A1
102
{ACAD_REACTORS
330
C
102
}
330
C
100
AcDbDictionary
281
     1
  3
2dWireframe
350
C2A7
  3
Basic
350
C2A6
  3
Brighten
350
C2AD
  3
ColorChange
350
C2B1
  3
Conceptual
350
C2AA
  3
Dim
350
C2AC
  3
EdgeColorOff
350
C2B9
  3
Facepattern
350
C2B0
  3
Flat
350
C2A2
  3
FlatWithEdges
350
C2A3
  3
Gouraud
350
C2A4
  3
GouraudWithEdges
350
C2A5
  3
Hidden
350
C2A9
  3
JitterOff
350
C2B7
  3
Linepattern
350
C2AF
  3
OverhangOff
350
C2B8
  3
Realistic
350
C2AB
  3
Shaded
350
C2B6
  3
Shaded with edges
350
C2B5
  3
Shades of Gray
350
C2B2
  3
Sketchy
350
C2B3
  3
Thicken
350
C2AE
  3
Wireframe
350
C2A8
  3
X-Ray
350
C2B4
  0
XRECORD
  5
C66E
102
{ACAD_REACTORS
330
C
102
}
330
C
100
AcDbXrecord
280
     1
 90
        1
330
C1BF
  0
DICTIONARY
  5
C760
102
{ACAD_REACTORS
330
C
102
}
330
C
100
AcDbDictionary
281
     1
  0
DICTIONARY
  5
45D
102
{ACAD_REACTORS
330
C
102
}
330
C
100
AcDbDictionary
281
     1
  3
CANNOSCALE
350
C74D
  3
CMLEADERSTYLE
350
C74C
  3
CTABLESTYLE
350
C224
  3
DIMASSOC
350
C750
  3
INDEXCTL
350
C74E
  3
PROJECTNAME
350
C75D
  3
SORTENTS
350
45E
  3
XCLIPFRAME
350
C74F
  0
DICTIONARY
  5
C327
102
{ACAD_REACTORS
330
C
102
}
330
C
100
AcDbDictionary
281
     1
  3
AcmStdDictionary
350
C332
  0
DICTIONARY
  5
C2DA
102
{ACAD_REACTORS
330
C
102
}
330
C
100
AcDbDictionary
281
     1
  0
DICTIONARY
  5
C420
102
{ACAD_REACTORS
330
C
102
}
330
C
100
AcDbDictionary
281
     1
  0
XRECORD
  5
C75F
102
{ACAD_REACTORS
330
C
102
}
330
C
100
AcDbXrecord
280
     1
  1
DWGPROPS COOKIE
  2

  3

  4

  6

  7

  8
USER
  9

300
=
301
=
302
=
303
=
304
=
305
=
306
=
307
=
308
=
309
=
 40
2.775605555555555
 41
2451555.620234838
 42
2457828.689371528
  1

 90
        0
  0
XRECORD
  5
C671
102
{ACAD_REACTORS
330
C670
102
}
330
C670
100
AcDbXrecord
280
     1
102
VTR_0.000_0.000_1.000_1.000_VISUALSTYLE
340
C2A7
102
VTR_0.000_0.000_1.000_1.000_GRIDDISPLAY
 70
     3
102
VTR_0.000_0.000_1.000_1.000_GRIDMAJOR
 70
     5
102
VTR_0.000_0.000_1.000_1.000_DEFAULTLIGHTING
280
     1
102
VTR_0.000_0.000_1.000_1.000_DEFAULTLIGHTINGTYPE
 70
     1
102
VTR_0.000_0.000_1.000_1.000_BRIGHTNESS
141
0.0
102
VTR_0.000_0.000_1.000_1.000_CONTRAST
142
0.0
  0
XRECORD
  5
C65B
102
{ACAD_REACTORS
330
C65A
102
}
330
C65A
100
AcDbXrecord
280
     1
290
     1
  0
XRECORD
  5
C65D
102
{ACAD_REACTORS
330
C65C
102
}
330
C65C
100
AcDbXrecord
280
     1
290
     1
  0
XRECORD
  5
C65F
102
{ACAD_REACTORS
330
C65E
102
}
330
C65E
100
AcDbXrecord
280
     1
290
     1
  0
XRECORD
  5
C661
102
{ACAD_REACTORS
330
C660
102
}
330
C660
100
AcDbXrecord
280
     1
290
     1
  0
XRECORD
  5
C663
102
{ACAD_REACTORS
330
C662
102
}
330
C662
100
AcDbXrecord
280
     1
290
     1
  0
XRECORD
  5
C665
102
{ACAD_REACTORS
330
C664
102
}
330
C664
100
AcDbXrecord
280
     1
290
     1
  0
XRECORD
  5
C667
102
{ACAD_REACTORS
330
C666
102
}
330
C666
100
AcDbXrecord
280
     1
290
     1
  0
XRECORD
  5
C669
102
{ACAD_REACTORS
330
C668
102
}
330
C668
100
AcDbXrecord
280
     1
290
     1
  0
XRECORD
  5
C66B
102
{ACAD_REACTORS
330
C66A
102
}
330
C66A
100
AcDbXrecord
280
     1
290
     1
  0
XRECORD
  5
5D8B
102
{ACAD_REACTORS
330
45F
102
}
330
45F
100
AcDbXrecord
280
     1
340
18
  0
SORTENTSTABLE
  5
460
102
{ACAD_REACTORS
330
45F
102
}
330
45F
100
AcDbSortentsTable
330
18
331
C0
  5
CB
331
B4B8
  5
B4B8
331
BE6F
  5
BE6F
331
64AF
  5
64AF
331
AB22
  5
AB22
331
B9AC
  5
B9AC
331
8100
  5
8100
  0
XRECORD
  5
5D8A
102
{ACAD_REACTORS
330
5D89
102
}
330
5D89
100
AcDbXrecord
280
     1
340
15
  0
SORTENTSTABLE
  5
C21B
102
{ACAD_REACTORS
330
C21A
102
}
330
C21A
100
AcDbSortentsTable
330
C214
  0
LAYOUT
  5
5CF5
102
{ACAD_XDICTIONARY
360
C761
102
}
102
{ACAD_REACTORS
330
5CF3
102
}
330
5CF3
100
AcDbPlotSettings
  1

  2
EPSON STYLUS COLOR 440
  4

  6

 40
0.0
 41
0.0
 42
0.0
 43
0.0
 44
0.0
 45
0.0
 46
0.0
 47
0.0
 48
0.0
 49
0.0
140
0.0
141
0.0
142
1.0
143
1.0
 70
  1712
 72
     0
 73
     0
 74
     0
  7
a.ctb
 75
     0
147
1.0
148
0.0
149
0.0
100
AcDbLayout
  1
Model
 70
     1
 71
     0
 10
0.0
 20
0.0
 11
12.0
 21
9.0
 12
0.0
 22
0.0
 32
0.0
 14
0.0
 24
0.0
 34
0.0
 15
0.0
 25
0.0
 35
0.0
146
0.0
 13
0.0
 23
0.0
 33
0.0
 16
1.0
 26
0.0
 36
0.0
 17
0.0
 27
1.0
 37
0.0
 76
     0
330
18
331
C287
  0
LAYOUT
  5
5CF6
102
{ACAD_XDICTIONARY
360
C763
102
}
102
{ACAD_REACTORS
330
5CF3
102
}
330
5CF3
100
AcDbPlotSettings
  1

  2
EPSON STYLUS COLOR 440
  4

  6

 40
0.0
 41
0.0
 42
0.0
 43
0.0
 44
0.0
 45
0.0
 46
0.0
 47
0.0
 48
0.0
 49
0.0
140
0.0
141
0.0
142
1.0
143
1.0
 70
   688
 72
     0
 73
     0
 74
     5
  7
a.ctb
 75
    16
147
1.0
148
0.0
149
0.0
100
AcDbLayout
  1
ｰtｸm1
 70
     1
 71
     1
 10
0.0
 20
0.0
 11
420.0
 21
297.0
 12
0.0
 22
0.0
 32
0.0
 14
1.000000000000000E+20
 24
1.000000000000000E+20
 34
1.000000000000000E+20
 15
-1.000000000000000E+20
 25
-1.000000000000000E+20
 35
-1.000000000000000E+20
146
0.0
 13
0.0
 23
0.0
 33
0.0
 16
1.0
 26
0.0
 36
0.0
 17
0.0
 27
1.0
 37
0.0
 76
     0
330
15
1001
ACADSTRINGINFO
1000
MIFCodePage
1070
     1
  0
MATERIAL
  5
C291
102
{ACAD_XDICTIONARY
360
C292
102
}
102
{ACAD_REACTORS
330
C1BC
102
}
330
C1BC
100
AcDbMaterial
  1
ByBlock
 72
     0
 73
     2
 43
0.0208333333333333
 43
0.0
 43
0.0
 43
0.0
 43
0.0
 43
0.0208333333333333
 43
0.0
 43
0.0
 43
0.0
 43
0.0
 43
1.0
 43
0.0
 43
0.0
 43
0.0
 43
0.0
 43
1.0
 77
     0
 78
     2
 47
0.0208333333333333
 47
0.0
 47
0.0
 47
0.0
 47
0.0
 47
0.0208333333333333
 47
0.0
 47
0.0
 47
0.0
 47
0.0
 47
1.0
 47
0.0
 47
0.0
 47
0.0
 47
0.0
 47
1.0
171
     0
172
     2
 49
0.0208333333333333
 49
0.0
 49
0.0
 49
0.0
 49
0.0
 49
0.0208333333333333
 49
0.0
 49
0.0
 49
0.0
 49
0.0
 49
1.0
 49
0.0
 49
0.0
 49
0.0
 49
0.0
 49
1.0
175
     0
176
     2
142
0.0208333333333333
142
0.0
142
0.0
142
0.0
142
0.0
142
0.0208333333333333
142
0.0
142
0.0
142
0.0
142
0.0
142
1.0
142
0.0
142
0.0
142
0.0
142
0.0
142
1.0
179
     0
270
     2
144
0.0208333333333333
144
0.0
144
0.0
144
0.0
144
0.0
144
0.0208333333333333
144
0.0
144
0.0
144
0.0
144
0.0
144
1.0
144
0.0
144
0.0
144
0.0
144
0.0
144
1.0
274
     2
147
0.0208333333333333
147
0.0
147
0.0
147
0.0
147
0.0
147
0.0208333333333333
147
0.0
147
0.0
147
0.0
147
0.0
147
1.0
147
0.0
147
0.0
147
0.0
147
0.0
147
1.0
  0
MATERIAL
  5
C289
102
{ACAD_XDICTIONARY
360
C28A
102
}
102
{ACAD_REACTORS
330
C1BC
102
}
330
C1BC
100
AcDbMaterial
  1
ByLayer
 72
     0
 73
     2
 43
0.0208333333333333
 43
0.0
 43
0.0
 43
0.0
 43
0.0
 43
0.0208333333333333
 43
0.0
 43
0.0
 43
0.0
 43
0.0
 43
1.0
 43
0.0
 43
0.0
 43
0.0
 43
0.0
 43
1.0
 77
     0
 78
     2
 47
0.0208333333333333
 47
0.0
 47
0.0
 47
0.0
 47
0.0
 47
0.0208333333333333
 47
0.0
 47
0.0
 47
0.0
 47
0.0
 47
1.0
 47
0.0
 47
0.0
 47
0.0
 47
0.0
 47
1.0
171
     0
172
     2
 49
0.0208333333333333
 49
0.0
 49
0.0
 49
0.0
 49
0.0
 49
0.0208333333333333
 49
0.0
 49
0.0
 49
0.0
 49
0.0
 49
1.0
 49
0.0
 49
0.0
 49
0.0
 49
0.0
 49
1.0
175
     0
176
     2
142
0.0208333333333333
142
0.0
142
0.0
142
0.0
142
0.0
142
0.0208333333333333
142
0.0
142
0.0
142
0.0
142
0.0
142
1.0
142
0.0
142
0.0
142
0.0
142
0.0
142
1.0
179
     0
270
     2
144
0.0208333333333333
144
0.0
144
0.0
144
0.0
144
0.0
144
0.0208333333333333
144
0.0
144
0.0
144
0.0
144
0.0
144
1.0
144
0.0
144
0.0
144
0.0
144
0.0
144
1.0
274
     2
147
0.0208333333333333
147
0.0
147
0.0
147
0.0
147
0.0
147
0.0208333333333333
147
0.0
147
0.0
147
0.0
147
0.0
147
1.0
147
0.0
147
0.0
147
0.0
147
0.0
147
1.0
  0
MATERIAL
  5
C299
102
{ACAD_XDICTIONARY
360
C29A
102
}
102
{ACAD_REACTORS
330
C1BC
102
}
330
C1BC
100
AcDbMaterial
  1
Global
 72
     0
 73
     2
 43
0.0208333333333333
 43
0.0
 43
0.0
 43
0.0
 43
0.0
 43
0.0208333333333333
 43
0.0
 43
0.0
 43
0.0
 43
0.0
 43
1.0
 43
0.0
 43
0.0
 43
0.0
 43
0.0
 43
1.0
 77
     0
 78
     2
 47
0.0208333333333333
 47
0.0
 47
0.0
 47
0.0
 47
0.0
 47
0.0208333333333333
 47
0.0
 47
0.0
 47
0.0
 47
0.0
 47
1.0
 47
0.0
 47
0.0
 47
0.0
 47
0.0
 47
1.0
171
     0
172
     2
 49
0.0208333333333333
 49
0.0
 49
0.0
 49
0.0
 49
0.0
 49
0.0208333333333333
 49
0.0
 49
0.0
 49
0.0
 49
0.0
 49
1.0
 49
0.0
 49
0.0
 49
0.0
 49
0.0
 49
1.0
175
     0
176
     2
142
0.0208333333333333
142
0.0
142
0.0
142
0.0
142
0.0
142
0.0208333333333333
142
0.0
142
0.0
142
0.0
142
0.0
142
1.0
142
0.0
142
0.0
142
0.0
142
0.0
142
1.0
179
     0
270
     2
144
0.0208333333333333
144
0.0
144
0.0
144
0.0
144
0.0
144
0.0208333333333333
144
0.0
144
0.0
144
0.0
144
0.0
144
1.0
144
0.0
144
0.0
144
0.0
144
0.0
144
1.0
274
     2
147
0.0208333333333333
147
0.0
147
0.0
147
0.0
147
0.0
147
0.0208333333333333
147
0.0
147
0.0
147
0.0
147
0.0
147
1.0
147
0.0
147
0.0
147
0.0
147
0.0
147
1.0
  0
ACAD_PROXY_OBJECT
  5
C2CD
102
{ACAD_REACTORS
330
C2CC
102
}
330
C2CC
100
AcDbProxyObject
 90
      499
 91
      515
 95
   983063
 70
     0
 93
      618
310
40901902A4063FBFFFFFE000000000000002040AD7A3703D0AD73F4254DD185B99185C99000000000000000104090141901A00000000000004100000000000000041025764000000000000300FC0
340
12
340
0
340
F
340
0
 94
        0
1001
ACAD_MLEADERVER
1070
     2
1001
ACAD
1000
AcRTDxfName
1000
MLEADERSTYLE
  0
MLINESTYLE
  5
1C
102
{ACAD_REACTORS
330
1B
102
}
330
1B
100
AcDbMlineStyle
  2
STANDARD
 70
     0
  3

 62
   256
 51
90.0
 52
90.0
 71
     2
 49
0.5
 62
   256
  6
BYLAYER
 49
-0.5
 62
   256
  6
BYLAYER
  0
ACDBPLACEHOLDER
  5
5CF2
102
{ACAD_REACTORS
330
5CF1
102
}
330
5CF1
  0
ACAD_PROXY_OBJECT
  5
C2BB
102
{ACAD_REACTORS
330
C2BA
102
}
330
C2BA
100
AcDbProxyObject
 90
      499
 91
      514
 95
   983063
 70
     0
 93
       49
310
904313A3100598
 94
        0
1001
ACAD
1000
AcRTDxfName
1000
SCALE
  0
ACAD_PROXY_OBJECT
  5
C2BC
102
{ACAD_REACTORS
330
C2BA
102
}
330
C2BA
100
AcDbProxyObject
 90
      499
 91
      514
 95
   983063
 70
     0
 93
      113
310
904313A32004000000000000004011
 94
        0
1001
ACAD
1000
AcRTDxfName
1000
SCALE
  0
ACAD_PROXY_OBJECT
  5
C2BD
102
{ACAD_REACTORS
330
C2BA
102
}
330
C2BA
100
AcDbProxyObject
 90
      499
 91
      514
 95
   983063
 70
     0
 93
      113
310
904313A34004000000000000104054
 94
        0
1001
ACAD
1000
AcRTDxfName
1000
SCALE
  0
ACAD_PROXY_OBJECT
  5
C2BE
102
{ACAD_REACTORS
330
C2BA
102
}
330
C2BA
100
AcDbProxyObject
 90
      499
 91
      514
 95
   983063
 70
     0
 93
      113
310
904313A35004000000000000144011
 94
        0
1001
ACAD
1000
AcRTDxfName
1000
SCALE
  0
ACAD_PROXY_OBJECT
  5
C2BF
102
{ACAD_REACTORS
330
C2BA
102
}
330
C2BA
100
AcDbProxyObject
 90
      499
 91
      514
 95
   983063
 70
     0
 93
      113
310
904313A38004000000000000204054
 94
        0
1001
ACAD
1000
AcRTDxfName
1000
SCALE
  0
ACAD_PROXY_OBJECT
  5
C2C0
102
{ACAD_REACTORS
330
C2BA
102
}
330
C2BA
100
AcDbProxyObject
 90
      499
 91
      514
 95
   983063
 70
     0
 93
      121
310
905313A3130004000000000000244064
 94
        0
1001
ACAD
1000
AcRTDxfName
1000
SCALE
  0
ACAD_PROXY_OBJECT
  5
C2C1
102
{ACAD_REACTORS
330
C2BA
102
}
330
C2BA
100
AcDbProxyObject
 90
      499
 91
      514
 95
   983063
 70
     0
 93
      121
310
905313A3136004000000000000304009
 94
        0
1001
ACAD
1000
AcRTDxfName
1000
SCALE
  0
ACAD_PROXY_OBJECT
  5
C2C2
102
{ACAD_REACTORS
330
C2BA
102
}
330
C2BA
100
AcDbProxyObject
 90
      499
 91
      514
 95
   983063
 70
     0
 93
      121
310
905313A3230004000000000000344064
 94
        0
1001
ACAD
1000
AcRTDxfName
1000
SCALE
  0
ACAD_PROXY_OBJECT
  5
C2C3
102
{ACAD_REACTORS
330
C2BA
102
}
330
C2BA
100
AcDbProxyObject
 90
      499
 91
      514
 95
   983063
 70
     0
 93
      121
310
905313A33300040000000000003E4009
 94
        0
1001
ACAD
1000
AcRTDxfName
1000
SCALE
  0
ACAD_PROXY_OBJECT
  5
C2C4
102
{ACAD_REACTORS
330
C2BA
102
}
330
C2BA
100
AcDbProxyObject
 90
      499
 91
      514
 95
   983063
 70
     0
 93
      121
310
905313A3430004000000000000444064
 94
        0
1001
ACAD
1000
AcRTDxfName
1000
SCALE
  0
ACAD_PROXY_OBJECT
  5
C2C5
102
{ACAD_REACTORS
330
C2BA
102
}
330
C2BA
100
AcDbProxyObject
 90
      499
 91
      514
 95
   983063
 70
     0
 93
      121
310
905313A3530004000000000000494009
 94
        0
1001
ACAD
1000
AcRTDxfName
1000
SCALE
  0
ACAD_PROXY_OBJECT
  5
C2C6
102
{ACAD_REACTORS
330
C2BA
102
}
330
C2BA
100
AcDbProxyObject
 90
      499
 91
      514
 95
   983063
 70
     0
 93
      129
310
906313A313030004000000000000594009
 94
        0
1001
ACAD
1000
AcRTDxfName
1000
SCALE
  0
ACAD_PROXY_OBJECT
  5
C2C7
102
{ACAD_REACTORS
330
C2BA
102
}
330
C2BA
100
AcDbProxyObject
 90
      499
 91
      514
 95
   983063
 70
     0
 93
      113
310
904323A31000000000000000010140
 94
        0
1001
ACAD
1000
AcRTDxfName
1000
SCALE
  0
ACAD_PROXY_OBJECT
  5
C2C8
102
{ACAD_REACTORS
330
C2BA
102
}
330
C2BA
100
AcDbProxyObject
 90
      499
 91
      514
 95
   983063
 70
     0
 93
      113
310
904343A31000000000000000410159
 94
        0
1001
ACAD
1000
AcRTDxfName
1000
SCALE
  0
ACAD_PROXY_OBJECT
  5
C2C9
102
{ACAD_REACTORS
330
C2BA
102
}
330
C2BA
100
AcDbProxyObject
 90
      499
 91
      514
 95
   983063
 70
     0
 93
      113
310
904383A31000000000000000810140
 94
        0
1001
ACAD
1000
AcRTDxfName
1000
SCALE
  0
ACAD_PROXY_OBJECT
  5
C2CA
102
{ACAD_REACTORS
330
C2BA
102
}
330
C2BA
100
AcDbProxyObject
 90
      499
 91
      514
 95
   983063
 70
     0
 93
      121
310
90531303A31000000000000000910140
 94
        0
1001
ACAD
1000
AcRTDxfName
1000
SCALE
  0
ACAD_PROXY_OBJECT
  5
C2CB
102
{ACAD_REACTORS
330
C2BA
102
}
330
C2BA
100
AcDbProxyObject
 90
      499
 91
      514
 95
   983063
 70
     0
 93
      129
310
9063130303A31000000000000001650102
 94
        0
1001
ACAD
1000
AcRTDxfName
1000
SCALE
  0
TABLESTYLE
  5
C1BF
102
{ACAD_XDICTIONARY
360
C66C
102
}
102
{ACAD_REACTORS
330
C1BE
102
}
330
C1BE
100
AcDbTableStyle
  3
Standard
 70
     0
 71
     0
 40
1.5
 41
1.5
280
     0
281
     0
  7
STANDARD
140
4.5
170
     2
 62
     0
 63
     7
283
     0
274
    -2
284
     1
 64
     0
275
    -2
285
     1
 65
     0
276
    -2
286
     1
 66
     0
277
    -2
287
     1
 67
     0
278
    -2
288
     1
 68
     0
279
    -2
289
     1
 69
     0
  7
STANDARD
140
6.0
170
     5
 62
     0
 63
     7
283
     0
274
    -2
284
     1
 64
     0
275
    -2
285
     1
 65
     0
276
    -2
286
     1
 66
     0
277
    -2
287
     1
 67
     0
278
    -2
288
     1
 68
     0
279
    -2
289
     1
 69
     0
  7
STANDARD
140
4.5
170
     5
 62
     0
 63
     7
283
     0
274
    -2
284
     1
 64
     0
275
    -2
285
     1
 65
     0
276
    -2
286
     1
 66
     0
277
    -2
287
     1
 67
     0
278
    -2
288
     1
 68
     0
279
    -2
289
     1
 69
     0
  0
ACAD_PROXY_OBJECT
  5
C2A7
102
{ACAD_XDICTIONARY
360
C6DC
102
}
102
{ACAD_REACTORS
330
C2A1
102
}
330
C2A1
100
AcDbProxyObject
 90
      499
 91
      513
 95
   983063
 70
     0
 93
      444
310
430C9915DA5C99599C985B59401049028333333333333E3BF0000000000000FB0107901411070040501600405405064090741402480A0340
 94
        0
1001
ACAD
1000
AcDbSavedByObjectVersion
1070
     0
1000
AcRTDxfName
1000
VISUALSTYLE
  0
ACAD_PROXY_OBJECT
  5
C2A6
102
{ACAD_XDICTIONARY
360
C6DA
102
}
102
{ACAD_REACTORS
330
C2A1
102
}
330
C2A1
100
AcDbProxyObject
 90
      499
 91
      513
 95
   983063
 70
     0
 93
      396
310
4190985CDA58C0107406404333333333333E3BF0000000000000FB0107A41107004050150841D405064090741402480A035A
 94
        0
1001
ACAD
1000
AcDbSavedByObjectVersion
1070
     0
1000
AcRTDxfName
1000
VISUALSTYLE
  0
ACAD_PROXY_OBJECT
  5
C2AD
102
{ACAD_XDICTIONARY
360
C6E8
102
}
102
{ACAD_REACTORS
330
C2A1
102
}
330
C2A1
100
AcDbProxyObject
 90
      499
 91
      513
 95
   983063
 70
     0
 93
      436
310
42509C9A59DA1D195B8010C409028333333333333E3BF0000000000000FB010790141107004050150841D405064090741402480A029954
 94
        0
1001
ACAD
1000
AcDbSavedByObjectVersion
1070
     0
1000
AcRTDxfName
1000
VISUALSTYLE
  0
ACAD_PROXY_OBJECT
  5
C2B1
102
{ACAD_XDICTIONARY
360
C6F0
102
}
102
{ACAD_REACTORS
330
C2A1
102
}
330
C2A1
100
AcDbProxyObject
 90
      499
 91
      513
 95
   983063
 70
     0
 93
      460
310
4310DBDB1BDC90DA185B99D9401104090240C333333333333E3BF0000000000000FB0108901411070040501508421405064090741402480A0354
 94
        0
1001
ACAD
1000
AcDbSavedByObjectVersion
1070
     0
1000
AcRTDxfName
1000
VISUALSTYLE
  0
ACAD_PROXY_OBJECT
  5
C2AA
102
{ACAD_XDICTIONARY
360
C6E2
102
}
102
{ACAD_REACTORS
330
C2A1
102
}
330
C2A1
100
AcDbProxyObject
 90
      499
 91
      513
 95
   983063
 70
     0
 93
      508
310
42D0DBDB98D95C1D1D585B0010940D028333333333333E3BF0000000000000FB0107902409070040501000000000018199010841D405064090740C02480A0340
 94
        0
1001
ACAD
1000
AcDbSavedByObjectVersion
1070
     0
1000
AcRTDxfName
1000
VISUALSTYLE
  0
ACAD_PROXY_OBJECT
  5
C2AC
102
{ACAD_XDICTIONARY
360
C6E6
102
}
102
{ACAD_REACTORS
330
C2A1
102
}
330
C2A1
100
AcDbProxyObject
 90
      499
 91
      513
 95
   983063
 70
     0
 93
      420
310
41111A5B4010B409028333333333333E3BF0000000000000FB010790141107004050150841D405064090741402480A02677FFFFFD4
 94
        0
1001
ACAD
1000
AcDbSavedByObjectVersion
1070
     0
1000
AcRTDxfName
1000
VISUALSTYLE
  0
ACAD_PROXY_OBJECT
  5
C2B9
102
{ACAD_XDICTIONARY
360
C700
102
}
102
{ACAD_REACTORS
330
C2A1
102
}
330
C2A1
100
AcDbProxyObject
 90
      499
 91
      513
 95
   983063
 70
     0
 93
      460
310
43515919D950DBDB1BDC93D99980116409028333333333333E3BF0000000000000FB010790141107004050150841D405064090741402480A0350
 94
        0
1001
ACAD
1000
AcDbSavedByObjectVersion
1070
     0
1000
AcRTDxfName
1000
VISUALSTYLE
  0
ACAD_PROXY_OBJECT
  5
C2B0
102
{ACAD_XDICTIONARY
360
C6EE
102
}
102
{ACAD_REACTORS
330
C2A1
102
}
330
C2A1
100
AcDbProxyObject
 90
      499
 91
      513
 95
   983063
 70
     0
 93
      452
310
43119858D95C185D1D195C9B8010F409028333333333333E3BF0000000000000FB010790141107004050150841D405064090741402480A0350
 94
        0
1001
ACAD
1000
AcDbSavedByObjectVersion
1070
     0
1000
AcRTDxfName
1000
VISUALSTYLE
  0
ACAD_PROXY_OBJECT
  5
C2A2
102
{ACAD_XDICTIONARY
360
C6D2
102
}
102
{ACAD_REACTORS
330
C2A1
102
}
330
C2A1
100
AcDbProxyObject
 90
      499
 91
      513
 95
   983063
 70
     0
 93
      388
310
41519B185D00240901404333333333333E3BF0000000000000F9010740A907004050150841D405064090741402480A1B56
 94
        0
1001
ACAD
1000
AcDbSavedByObjectVersion
1070
     0
1000
AcRTDxfName
1000
VISUALSTYLE
  0
ACAD_PROXY_OBJECT
  5
C2A3
102
{ACAD_XDICTIONARY
360
C6D4
102
}
102
{ACAD_REACTORS
330
C2A1
102
}
330
C2A1
100
AcDbProxyObject
 90
      499
 91
      513
 95
   983063
 70
     0
 93
      476
310
43919B185D15DA5D1A115919D95CC010140901404333333333333E3BF0000000000000F90107409019070040501600405405064090741402480A1B54
 94
        0
1001
ACAD
1000
AcDbSavedByObjectVersion
1070
     0
1000
AcRTDxfName
1000
VISUALSTYLE
  0
ACAD_PROXY_OBJECT
  5
C2A4
102
{ACAD_XDICTIONARY
360
C6D6
102
}
102
{ACAD_REACTORS
330
C2A1
102
}
330
C2A1
100
AcDbProxyObject
 90
      499
 91
      513
 95
   983063
 70
     0
 93
      412
310
4211DBDD5C985D590010240902404333333333333E3BF0000000000000F9010740A9070040501641D405064090741402480A1B50
 94
        0
1001
ACAD
1000
AcDbSavedByObjectVersion
1070
     0
1000
AcRTDxfName
1000
VISUALSTYLE
  0
ACAD_PROXY_OBJECT
  5
C2A5
102
{ACAD_XDICTIONARY
360
C6D8
102
}
102
{ACAD_REACTORS
330
C2A1
102
}
330
C2A1
100
AcDbProxyObject
 90
      499
 91
      513
 95
   983063
 70
     0
 93
      500
310
4451DBDD5C985D5915DA5D1A115919D95CC010340902404333333333333E3BF0000000000000F90107409019070040501600405405064090741402480A1B52
 94
        0
1001
ACAD
1000
AcDbSavedByObjectVersion
1070
     0
1000
AcRTDxfName
1000
VISUALSTYLE
  0
ACAD_PROXY_OBJECT
  5
C2A9
102
{ACAD_XDICTIONARY
360
C6E0
102
}
102
{ACAD_REACTORS
330
C2A1
102
}
330
C2A1
100
AcDbProxyObject
 90
      499
 91
      513
 95
   983063
 70
     0
 93
      484
310
41D21A5919195B8010640502408333333333333E3BF0000000000000FB01079024090700405020000000000001110200405405064090740C02480A034A
 94
        0
1001
ACAD
1000
AcDbSavedByObjectVersion
1070
     0
1000
AcRTDxfName
1000
VISUALSTYLE
  0
ACAD_PROXY_OBJECT
  5
C2B7
102
{ACAD_XDICTIONARY
360
C6FC
102
}
102
{ACAD_REACTORS
330
C2A1
102
}
330
C2A1
100
AcDbProxyObject
 90
      499
 91
      513
 95
   983063
 70
     0
 93
      436
310
42929A5D1D195C93D99980114409028333333333333E3BF0000000000000FB010790141107004050150A41D405064090741402480A0354
 94
        0
1001
ACAD
1000
AcDbSavedByObjectVersion
1070
     0
1000
AcRTDxfName
1000
VISUALSTYLE
  0
ACAD_PROXY_OBJECT
  5
C2AF
102
{ACAD_XDICTIONARY
360
C6EC
102
}
102
{ACAD_REACTORS
330
C2A1
102
}
330
C2A1
100
AcDbProxyObject
 90
      499
 91
      513
 95
   983063
 70
     0
 93
      452
310
43131A5B995C185D1D195C9B8010E409028333333333333E3BF0000000000000FB010790141107004050750841D405064090741402483A0350
 94
        0
1001
ACAD
1000
AcDbSavedByObjectVersion
1070
     0
1000
AcRTDxfName
1000
VISUALSTYLE
  0
ACAD_PROXY_OBJECT
  5
C2B8
102
{ACAD_XDICTIONARY
360
C6FE
102
}
102
{ACAD_REACTORS
330
C2A1
102
}
330
C2A1
100
AcDbProxyObject
 90
      499
 91
      513
 95
   983063
 70
     0
 93
      452
310
4313DD995C9A185B99D3D99980115409028333333333333E3BF0000000000000FB010790141107004050150941D405064090741402480A0354
 94
        0
1001
ACAD
1000
AcDbSavedByObjectVersion
1070
     0
1000
AcRTDxfName
1000
VISUALSTYLE
  0
ACAD_PROXY_OBJECT
  5
C2AB
102
{ACAD_XDICTIONARY
360
C6E4
102
}
102
{ACAD_REACTORS
330
C2A1
102
}
330
C2A1
100
AcDbProxyObject
 90
      499
 91
      513
 95
   983063
 70
     0
 93
      436
310
429499585B1A5CDD1A58C0108409028333333333333E3BF0000000000000F9010740A907004050150800405405064090740C02480A1B44
 94
        0
1001
ACAD
1000
AcDbSavedByObjectVersion
1070
     0
1000
AcRTDxfName
1000
VISUALSTYLE
  0
ACAD_PROXY_OBJECT
  5
C2B6
102
{ACAD_XDICTIONARY
360
C6FA
102
}
102
{ACAD_REACTORS
330
C2A1
102
}
330
C2A1
100
AcDbProxyObject
 90
      499
 91
      513
 95
   983063
 70
     0
 93
      428
310
41D4DA185919590011B40902404333333333333E3BF0000000000000F9010740A41107004050150800405405064090840C02480A0B41
 94
        0
1001
ACAD
1000
AcDbSavedByObjectVersion
1070
     0
1000
AcRTDxfName
1000
VISUALSTYLE
  0
ACAD_PROXY_OBJECT
  5
C2B5
102
{ACAD_XDICTIONARY
360
C6F8
102
}
102
{ACAD_REACTORS
330
C2A1
102
}
330
C2A1
100
AcDbProxyObject
 90
      499
 91
      513
 95
   983063
 70
     0
 93
      524
310
4494DA18591959081DDA5D1A08195919D95CC011A40902404333333333333E3BF0000000000000F901074090142907004050250800405405064090740C02480A0B40
 94
        0
1001
ACAD
1000
AcDbSavedByObjectVersion
1070
     0
1000
AcRTDxfName
1000
VISUALSTYLE
  0
ACAD_PROXY_OBJECT
  5
C2B2
102
{ACAD_XDICTIONARY
360
C6F2
102
}
102
{ACAD_REACTORS
330
C2A1
102
}
330
C2A1
100
AcDbProxyObject
 90
      499
 91
      513
 95
   983063
 70
     0
 93
      540
310
43D4DA1859195CC81BD98811DC985E401174090240C333333333333E3BF0000000000000FB01079024090741D01000000000000111010841D405064090740C02480A0340
 94
        0
1001
ACAD
1000
AcDbSavedByObjectVersion
1070
     0
1000
AcRTDxfName
1000
VISUALSTYLE
  0
ACAD_PROXY_OBJECT
  5
C2B3
102
{ACAD_XDICTIONARY
360
C6F4
102
}
102
{ACAD_REACTORS
330
C2A1
102
}
330
C2A1
100
AcDbProxyObject
 90
      499
 91
      513
 95
   983063
 70
     0
 93
      484
310
4214DAD95D18DA1E4011840502408333333333333E3BF0000000000000FB01079024090741D01000000000000111010B41D405064090741802480A0348
 94
        0
1001
ACAD
1000
AcDbSavedByObjectVersion
1070
     0
1000
AcRTDxfName
1000
VISUALSTYLE
  0
ACAD_PROXY_OBJECT
  5
C2AE
102
{ACAD_XDICTIONARY
360
C6EA
102
}
102
{ACAD_REACTORS
330
C2A1
102
}
330
C2A1
100
AcDbProxyObject
 90
      499
 91
      513
 95
   983063
 70
     0
 93
      420
310
42151A1A58DAD95B8010D409028333333333333E3BF0000000000000FB010790141107004050150C41D405064090741402480A0354
 94
        0
1001
ACAD
1000
AcDbSavedByObjectVersion
1070
     0
1000
AcRTDxfName
1000
VISUALSTYLE
  0
ACAD_PROXY_OBJECT
  5
C2A8
102
{ACAD_XDICTIONARY
360
C6DE
102
}
102
{ACAD_REACTORS
330
C2A1
102
}
330
C2A1
100
AcDbProxyObject
 90
      499
 91
      513
 95
   983063
 70
     0
 93
      428
310
4295DA5C99599C985B59401059028333333333333E3BF0000000000000FB0107901411070040501600405405064090740C02480A0340
 94
        0
1001
ACAD
1000
AcDbSavedByObjectVersion
1070
     0
1000
AcRTDxfName
1000
VISUALSTYLE
  0
ACAD_PROXY_OBJECT
  5
C2B4
102
{ACAD_XDICTIONARY
360
C6F6
102
}
102
{ACAD_REACTORS
330
C2A1
102
}
330
C2A1
100
AcDbProxyObject
 90
      499
 91
      513
 95
   983063
 70
     0
 93
      412
310
41960B54985E4011940902404000000000000E03F0000000000000FB010740501907004050150841D405064090740C02480A1B41
 94
        0
1001
ACAD
1000
AcDbSavedByObjectVersion
1070
     0
1000
AcRTDxfName
1000
VISUALSTYLE
  0
DICTIONARYVAR
  5
C74D
102
{ACAD_REACTORS
330
45D
102
}
330
45D
100
DictionaryVariables
280
     0
  1
1:1
  0
DICTIONARYVAR
  5
C74C
102
{ACAD_REACTORS
330
45D
102
}
330
45D
100
DictionaryVariables
280
     0
  1
STANDARD
  0
DICTIONARYVAR
  5
C224
102
{ACAD_REACTORS
330
45D
102
}
330
45D
100
DictionaryVariables
280
     0
  1
STANDARD
  0
DICTIONARYVAR
  5
C750
102
{ACAD_REACTORS
330
45D
102
}
330
45D
100
DictionaryVariables
280
     0
  1
1
  0
DICTIONARYVAR
  5
C74E
102
{ACAD_REACTORS
330
45D
102
}
330
45D
100
DictionaryVariables
280
     0
  1
0
  0
DICTIONARYVAR
  5
C75D
102
{ACAD_REACTORS
330
45D
102
}
330
45D
100
DictionaryVariables
280
     0
  1

  0
DICTIONARYVAR
  5
45E
102
{ACAD_REACTORS
330
45D
102
}
330
45D
100
DictionaryVariables
280
     0
  1
127
  0
DICTIONARYVAR
  5
C74F
102
{ACAD_REACTORS
330
45D
102
}
330
45D
100
DictionaryVariables
280
     0
  1
0
  0
DICTIONARY
  5
C332
102
{ACAD_REACTORS
330
C327
102
}
330
C327
100
AcDbDictionary
281
     1
  0
DICTIONARY
  5
C761
330
5CF5
100
AcDbDictionary
280
     1
281
     1
  3
ACAD_XREC_ROUNDTRIP
360
C762
  0
DICTIONARY
  5
C763
330
5CF6
100
AcDbDictionary
280
     1
281
     1
  3
ACAD_XREC_ROUNDTRIP
360
C764
  0
DICTIONARY
  5
C292
330
C291
100
AcDbDictionary
280
     1
281
     1
  3
ACAD_XREC_ROUNDTRIP
360
C6D0
  3
BUMPTILE
360
C294
  3
DIFFUSETILE
360
C293
  3
OPACITYTILE
360
C297
  3
REFLECTIONTILE
360
C296
  3
REFRACTIONTILE
360
C298
  3
SPECULARTILE
360
C295
  0
DICTIONARY
  5
C28A
330
C289
100
AcDbDictionary
280
     1
281
     1
  3
ACAD_XREC_ROUNDTRIP
360
C6CF
  3
BUMPTILE
360
C28C
  3
DIFFUSETILE
360
C28B
  3
OPACITYTILE
360
C28F
  3
REFLECTIONTILE
360
C28E
  3
REFRACTIONTILE
360
C290
  3
SPECULARTILE
360
C28D
  0
DICTIONARY
  5
C29A
330
C299
100
AcDbDictionary
280
     1
281
     1
  3
ACAD_XREC_ROUNDTRIP
360
C6D1
  3
BUMPTILE
360
C29C
  3
DIFFUSETILE
360
C29B
  3
OPACITYTILE
360
C29F
  3
REFLECTIONTILE
360
C29E
  3
REFRACTIONTILE
360
C2A0
  3
SPECULARTILE
360
C29D
  0
DICTIONARY
  5
C66C
330
C1BF
100
AcDbDictionary
280
     1
281
     1
  3
ACAD_ROUNDTRIP_2008_TABLESTYLE_CELLSTYLEMAP
360
C66D
  3
ACAD_XREC_ROUNDTRIP
360
C6C0
  0
DICTIONARY
  5
C6DC
330
C2A7
100
AcDbDictionary
280
     1
281
     1
  3
ACAD_XREC_ROUNDTRIP
360
C6DD
  0
DICTIONARY
  5
C6DA
330
C2A6
100
AcDbDictionary
280
     1
281
     1
  3
ACAD_XREC_ROUNDTRIP
360
C6DB
  0
DICTIONARY
  5
C6E8
330
C2AD
100
AcDbDictionary
280
     1
281
     1
  3
ACAD_XREC_ROUNDTRIP
360
C6E9
  0
DICTIONARY
  5
C6F0
330
C2B1
100
AcDbDictionary
280
     1
281
     1
  3
ACAD_XREC_ROUNDTRIP
360
C6F1
  0
DICTIONARY
  5
C6E2
330
C2AA
100
AcDbDictionary
280
     1
281
     1
  3
ACAD_XREC_ROUNDTRIP
360
C6E3
  0
DICTIONARY
  5
C6E6
330
C2AC
100
AcDbDictionary
280
     1
281
     1
  3
ACAD_XREC_ROUNDTRIP
360
C6E7
  0
DICTIONARY
  5
C700
330
C2B9
100
AcDbDictionary
280
     1
281
     1
  3
ACAD_XREC_ROUNDTRIP
360
C701
  0
DICTIONARY
  5
C6EE
330
C2B0
100
AcDbDictionary
280
     1
281
     1
  3
ACAD_XREC_ROUNDTRIP
360
C6EF
  0
DICTIONARY
  5
C6D2
330
C2A2
100
AcDbDictionary
280
     1
281
     1
  3
ACAD_XREC_ROUNDTRIP
360
C6D3
  0
DICTIONARY
  5
C6D4
330
C2A3
100
AcDbDictionary
280
     1
281
     1
  3
ACAD_XREC_ROUNDTRIP
360
C6D5
  0
DICTIONARY
  5
C6D6
330
C2A4
100
AcDbDictionary
280
     1
281
     1
  3
ACAD_XREC_ROUNDTRIP
360
C6D7
  0
DICTIONARY
  5
C6D8
330
C2A5
100
AcDbDictionary
280
     1
281
     1
  3
ACAD_XREC_ROUNDTRIP
360
C6D9
  0
DICTIONARY
  5
C6E0
330
C2A9
100
AcDbDictionary
280
     1
281
     1
  3
ACAD_XREC_ROUNDTRIP
360
C6E1
  0
DICTIONARY
  5
C6FC
330
C2B7
100
AcDbDictionary
280
     1
281
     1
  3
ACAD_XREC_ROUNDTRIP
360
C6FD
  0
DICTIONARY
  5
C6EC
330
C2AF
100
AcDbDictionary
280
     1
281
     1
  3
ACAD_XREC_ROUNDTRIP
360
C6ED
  0
DICTIONARY
  5
C6FE
330
C2B8
100
AcDbDictionary
280
     1
281
     1
  3
ACAD_XREC_ROUNDTRIP
360
C6FF
  0
DICTIONARY
  5
C6E4
330
C2AB
100
AcDbDictionary
280
     1
281
     1
  3
ACAD_XREC_ROUNDTRIP
360
C6E5
  0
DICTIONARY
  5
C6FA
330
C2B6
100
AcDbDictionary
280
     1
281
     1
  3
ACAD_XREC_ROUNDTRIP
360
C6FB
  0
DICTIONARY
  5
C6F8
330
C2B5
100
AcDbDictionary
280
     1
281
     1
  3
ACAD_XREC_ROUNDTRIP
360
C6F9
  0
DICTIONARY
  5
C6F2
330
C2B2
100
AcDbDictionary
280
     1
281
     1
  3
ACAD_XREC_ROUNDTRIP
360
C6F3
  0
DICTIONARY
  5
C6F4
330
C2B3
100
AcDbDictionary
280
     1
281
     1
  3
ACAD_XREC_ROUNDTRIP
360
C6F5
  0
DICTIONARY
  5
C6EA
330
C2AE
100
AcDbDictionary
280
     1
281
     1
  3
ACAD_XREC_ROUNDTRIP
360
C6EB
  0
DICTIONARY
  5
C6DE
330
C2A8
100
AcDbDictionary
280
     1
281
     1
  3
ACAD_XREC_ROUNDTRIP
360
C6DF
  0
DICTIONARY
  5
C6F6
330
C2B4
100
AcDbDictionary
280
     1
281
     1
  3
ACAD_XREC_ROUNDTRIP
360
C6F7
  0
XRECORD
  5
C762
102
{ACAD_REACTORS
330
C761
102
}
330
C761
100
AcDbXrecord
280
     1
102
SHADEPLOT
 70
     0
102
SHADEPLOTRESLEVEL
 70
     2
102
SHADEPLOTCUSTOMDPI
 70
   300
  0
XRECORD
  5
C764
102
{ACAD_REACTORS
330
C763
102
}
330
C763
100
AcDbXrecord
280
     1
102
SHADEPLOT
 70
     0
102
SHADEPLOTRESLEVEL
 70
     2
102
SHADEPLOTCUSTOMDPI
 70
   300
  0
XRECORD
  5
C6D0
102
{ACAD_REACTORS
330
C292
102
}
330
C292
100
AcDbXrecord
280
     1
102
MATERIAL
148
0.0
149
0.0
149
0.0
 93
        0
 94
      127
282
     0
 72
     0
 77
     0
171
     0
175
     0
179
     0
273
     0
  0
XRECORD
  5
C294
102
{ACAD_REACTORS
330
C292
102
}
330
C292
100
AcDbXrecord
280
     1
270
     1
271
     1
  0
XRECORD
  5
C293
102
{ACAD_REACTORS
330
C292
102
}
330
C292
100
AcDbXrecord
280
     1
270
     1
271
     1
  0
XRECORD
  5
C297
102
{ACAD_REACTORS
330
C292
102
}
330
C292
100
AcDbXrecord
280
     1
270
     1
271
     1
  0
XRECORD
  5
C296
102
{ACAD_REACTORS
330
C292
102
}
330
C292
100
AcDbXrecord
280
     1
270
     1
271
     1
  0
XRECORD
  5
C298
102
{ACAD_REACTORS
330
C292
102
}
330
C292
100
AcDbXrecord
280
     1
270
     1
271
     1
  0
XRECORD
  5
C295
102
{ACAD_REACTORS
330
C292
102
}
330
C292
100
AcDbXrecord
280
     1
270
     1
271
     1
  0
XRECORD
  5
C6CF
102
{ACAD_REACTORS
330
C28A
102
}
330
C28A
100
AcDbXrecord
280
     1
102
MATERIAL
148
0.0
149
0.0
149
0.0
 93
        0
 94
      127
282
     0
 72
     0
 77
     0
171
     0
175
     0
179
     0
273
     0
  0
XRECORD
  5
C28C
102
{ACAD_REACTORS
330
C28A
102
}
330
C28A
100
AcDbXrecord
280
     1
270
     1
271
     1
  0
XRECORD
  5
C28B
102
{ACAD_REACTORS
330
C28A
102
}
330
C28A
100
AcDbXrecord
280
     1
270
     1
271
     1
  0
XRECORD
  5
C28F
102
{ACAD_REACTORS
330
C28A
102
}
330
C28A
100
AcDbXrecord
280
     1
270
     1
271
     1
  0
XRECORD
  5
C28E
102
{ACAD_REACTORS
330
C28A
102
}
330
C28A
100
AcDbXrecord
280
     1
270
     1
271
     1
  0
XRECORD
  5
C290
102
{ACAD_REACTORS
330
C28A
102
}
330
C28A
100
AcDbXrecord
280
     1
270
     1
271
     1
  0
XRECORD
  5
C28D
102
{ACAD_REACTORS
330
C28A
102
}
330
C28A
100
AcDbXrecord
280
     1
270
     1
271
     1
  0
XRECORD
  5
C6D1
102
{ACAD_REACTORS
330
C29A
102
}
330
C29A
100
AcDbXrecord
280
     1
102
MATERIAL
148
0.0
149
0.0
149
0.0
 93
        0
 94
      127
282
     0
 72
     0
 77
     0
171
     0
175
     0
179
     0
273
     0
  0
XRECORD
  5
C29C
102
{ACAD_REACTORS
330
C29A
102
}
330
C29A
100
AcDbXrecord
280
     1
270
     1
271
     1
  0
XRECORD
  5
C29B
102
{ACAD_REACTORS
330
C29A
102
}
330
C29A
100
AcDbXrecord
280
     1
270
     1
271
     1
  0
XRECORD
  5
C29F
102
{ACAD_REACTORS
330
C29A
102
}
330
C29A
100
AcDbXrecord
280
     1
270
     1
271
     1
  0
XRECORD
  5
C29E
102
{ACAD_REACTORS
330
C29A
102
}
330
C29A
100
AcDbXrecord
280
     1
270
     1
271
     1
  0
XRECORD
  5
C2A0
102
{ACAD_REACTORS
330
C29A
102
}
330
C29A
100
AcDbXrecord
280
     1
270
     1
271
     1
  0
XRECORD
  5
C29D
102
{ACAD_REACTORS
330
C29A
102
}
330
C29A
100
AcDbXrecord
280
     1
270
     1
271
     1
  0
ACAD_PROXY_OBJECT
  5
C66D
102
{ACAD_REACTORS
330
C66C
102
}
330
C66C
100
AcDbProxyObject
 90
      499
 91
      577
 95
   983063
 70
     0
 93
     5232
310
40D054060020000020000003200101A412A5058000000C10000000000000006101010000000000003E0FC000000000000F83F0000000000003E0FC000000000000F83F02B5E8DC0F42B1CFC0AD7A3703D0AC73F419019018000000C1003FBFFFFFE02B5E8DC0F42A9CFD029018000000C1003FBFFFFFE02B5E8DC0F42A9CFD
310
049018000000C1003FBFFFFFE02B5E8DC0F42A9CFD089018000000C1003FBFFFFFE02B5E8DC0F42A9CFD109018000000C1003FBFFFFFE02B5E8DC0F42A9CFD209018000000C1003FBFFFFFE02B5E8DC0F42A9CFD01405075F5449544C450041501A8000000C800406904A94160000003040000000000000012404040000000
310
00000F83F0000000000003E0FC000000000000F83F0000000000003E0FC0AD7A3703D0AC73F02B5E8DC0F42B1CFD0640640600000030400FEFFFFFF80AD7A3703D0AA73F40A40600000030400FEFFFFFF80AD7A3703D0AA73F41240600000030400FEFFFFFF80AD7A3703D0AA73F42240600000030400FEFFFFFF80AD7A370
310
3D0AA73F44240600000030400FEFFFFFF80AD7A3703D0AA73F48240600000030400FEFFFFFF80AD7A3703D0AA73F409014217D2115051115480105406A0000003200101A412A5028000000C10000000000000004901010000000000003E0FC000000000000F83F0000000000003E0FC000000000000F83F02B5E8DC0F42B1C
310
FC0AD7A3703D0AC73F419019018000000C1003FBFFFFFE02B5E8DC0F42A9CFD029018000000C1003FBFFFFFE02B5E8DC0F42A9CFD049018000000C1003FBFFFFFE02B5E8DC0F42A9CFD089018000000C1003FBFFFFFE02B5E8DC0F42A9CFD109018000000C1003FBFFFFFE02B5E8DC0F42A9CFD209018000000C1003FBFFFF
310
FE02B5E8DC0F42A9CFD03409065F444154410000
340
F
340
0
340
0
340
0
340
0
340
0
340
0
340
F
340
0
340
0
340
0
340
0
340
0
340
0
340
F
340
0
340
0
340
0
340
0
340
0
340
0
 94
        0
1001
ACAD
1000
AcRTDxfName
1000
CELLSTYLEMAP
  0
XRECORD
  5
C6C0
102
{ACAD_REACTORS
330
C66C
102
}
330
C66C
100
AcDbXrecord
280
     1
102
ACAD_ROUNDTRIP_PRE2007_TABLESTYLE
 90
        4
 91
        0
  1

 92
        4
 93
        0
  2

 94
        4
 95
        0
  3

  0
XRECORD
  5
C6DD
102
{ACAD_REACTORS
330
C6DC
102
}
330
C6DC
100
AcDbXrecord
280
     1
102
RTVSPropertyOp0
 70
     1
102
RTVSPropertyOp1
 70
     1
102
RTVSPropertyOp2
 70
     1
102
RTVSPropertyOp3
 70
     1
102
RTVSPropertyOp4
 70
     1
102
RTVSPropertyOp5
 70
     1
102
RTVSPropertyOp6
 70
     1
102
RTVSPropertyOp7
 70
     1
102
RTVSPropertyOp8
 70
     1
102
RTVSPropertyOp9
 70
     1
102
RTVSPropertyOp10
 70
     1
102
RTVSPropertyOp11
 70
     1
102
RTVSPropertyOp12
 70
     1
102
RTVSPropertyOp13
 70
     1
102
RTVSPropertyOp14
 70
     1
102
RTVSPropertyOp15
 70
     1
102
RTVSPropertyOp16
 70
     1
102
RTVSPropertyOp17
 70
     1
102
RTVSPropertyOp18
 70
     1
102
RTVSPropertyOp19
 70
     1
102
RTVSPropertyOp20
 70
     1
102
RTVSPropertyOp21
 70
     1
102
RTVSPropertyOp22
 70
     1
102
RTVSPropertyOp23
 70
     1
102
RTVSPropertyOp24
 70
     1
102
RTVSPropertyOp25
 70
     1
102
RTVSPropertyOp26
 70
     1
102
RTVSPropertyOp27
 70
     1
102
RTVSPropertyOp28
 70
     1
102
RTVSPropertyOp29
 70
     1
102
RTVSPropertyOp30
 70
     1
102
RTVSPropertyOp31
 70
     1
102
RTVSPropertyOp32
 70
     1
  0
XRECORD
  5
C6DB
102
{ACAD_REACTORS
330
C6DA
102
}
330
C6DA
100
AcDbXrecord
280
     1
102
RTVSPropertyOp0
 70
     1
102
RTVSPropertyOp1
 70
     1
102
RTVSPropertyOp2
 70
     1
102
RTVSPropertyOp3
 70
     1
102
RTVSPropertyOp4
 70
     1
102
RTVSPropertyOp5
 70
     1
102
RTVSPropertyOp6
 70
     1
102
RTVSPropertyOp7
 70
     1
102
RTVSPropertyOp8
 70
     1
102
RTVSPropertyOp9
 70
     1
102
RTVSPropertyOp10
 70
     1
102
RTVSPropertyOp11
 70
     1
102
RTVSPropertyOp12
 70
     1
102
RTVSPropertyOp13
 70
     1
102
RTVSPropertyOp14
 70
     1
102
RTVSPropertyOp15
 70
     1
102
RTVSPropertyOp16
 70
     1
102
RTVSPropertyOp17
 70
     1
102
RTVSPropertyOp18
 70
     1
102
RTVSPropertyOp19
 70
     1
102
RTVSPropertyOp20
 70
     1
102
RTVSPropertyOp21
 70
     1
102
RTVSPropertyOp22
 70
     1
102
RTVSPropertyOp23
 70
     1
102
RTVSPropertyOp24
 70
     1
102
RTVSPropertyOp25
 70
     1
102
RTVSPropertyOp26
 70
     1
102
RTVSPropertyOp27
 70
     1
102
RTVSPropertyOp28
 70
     1
102
RTVSPropertyOp29
 70
     1
102
RTVSPropertyOp30
 70
     1
102
RTVSPropertyOp31
 70
     1
102
RTVSPropertyOp32
 70
     1
  0
XRECORD
  5
C6E9
102
{ACAD_REACTORS
330
C6E8
102
}
330
C6E8
100
AcDbXrecord
280
     1
102
RTVSPropertyOp0
 70
     1
102
RTVSPropertyOp1
 70
     1
102
RTVSPropertyOp2
 70
     1
102
RTVSPropertyOp3
 70
     1
102
RTVSPropertyOp4
 70
     1
102
RTVSPropertyOp5
 70
     1
102
RTVSPropertyOp6
 70
     1
102
RTVSPropertyOp7
 70
     1
102
RTVSPropertyOp8
 70
     1
102
RTVSPropertyOp9
 70
     1
102
RTVSPropertyOp10
 70
     1
102
RTVSPropertyOp11
 70
     1
102
RTVSPropertyOp12
 70
     1
102
RTVSPropertyOp13
 70
     1
102
RTVSPropertyOp14
 70
     1
102
RTVSPropertyOp15
 70
     1
102
RTVSPropertyOp16
 70
     1
102
RTVSPropertyOp17
 70
     1
102
RTVSPropertyOp18
 70
     1
102
RTVSPropertyOp19
 70
     1
102
RTVSPropertyOp20
 70
     1
102
RTVSPropertyOp21
 70
     1
102
RTVSPropertyOp22
 70
     1
102
RTVSPropertyOp23
 70
     1
102
RTVSPropertyOp24
 70
     1
102
RTVSPropertyOp25
 70
     1
102
RTVSPropertyOp26
 70
     1
102
RTVSPropertyOp27
 70
     1
102
RTVSPropertyOp28
 70
     1
102
RTVSPropertyOp29
 70
     1
102
RTVSPropertyOp30
 70
     1
102
RTVSPropertyOp31
 70
     1
102
RTVSPropertyOp32
 70
     1
  0
XRECORD
  5
C6F1
102
{ACAD_REACTORS
330
C6F0
102
}
330
C6F0
100
AcDbXrecord
280
     1
102
RTVSPropertyOp0
 70
     1
102
RTVSPropertyOp1
 70
     1
102
RTVSPropertyOp2
 70
     1
102
RTVSPropertyOp3
 70
     1
102
RTVSPropertyOp4
 70
     1
102
RTVSPropertyOp5
 70
     1
102
RTVSPropertyOp6
 70
     1
102
RTVSPropertyOp7
 70
     1
102
RTVSPropertyOp8
 70
     1
102
RTVSPropertyOp9
 70
     1
102
RTVSPropertyOp10
 70
     1
102
RTVSPropertyOp11
 70
     1
102
RTVSPropertyOp12
 70
     1
102
RTVSPropertyOp13
 70
     1
102
RTVSPropertyOp14
 70
     1
102
RTVSPropertyOp15
 70
     1
102
RTVSPropertyOp16
 70
     1
102
RTVSPropertyOp17
 70
     1
102
RTVSPropertyOp18
 70
     1
102
RTVSPropertyOp19
 70
     1
102
RTVSPropertyOp20
 70
     1
102
RTVSPropertyOp21
 70
     1
102
RTVSPropertyOp22
 70
     1
102
RTVSPropertyOp23
 70
     1
102
RTVSPropertyOp24
 70
     1
102
RTVSPropertyOp25
 70
     1
102
RTVSPropertyOp26
 70
     1
102
RTVSPropertyOp27
 70
     1
102
RTVSPropertyOp28
 70
     1
102
RTVSPropertyOp29
 70
     1
102
RTVSPropertyOp30
 70
     1
102
RTVSPropertyOp31
 70
     1
102
RTVSPropertyOp32
 70
     1
  0
XRECORD
  5
C6E3
102
{ACAD_REACTORS
330
C6E2
102
}
330
C6E2
100
AcDbXrecord
280
     1
102
RTVSPropertyOp0
 70
     1
102
RTVSPropertyOp1
 70
     1
102
RTVSPropertyOp2
 70
     1
102
RTVSPropertyOp3
 70
     1
102
RTVSPropertyOp4
 70
     1
102
RTVSPropertyOp5
 70
     1
102
RTVSPropertyOp6
 70
     1
102
RTVSPropertyOp7
 70
     1
102
RTVSPropertyOp8
 70
     1
102
RTVSPropertyOp9
 70
     1
102
RTVSPropertyOp10
 70
     1
102
RTVSPropertyOp11
 70
     1
102
RTVSPropertyOp12
 70
     1
102
RTVSPropertyOp13
 70
     1
102
RTVSPropertyOp14
 70
     1
102
RTVSPropertyOp15
 70
     1
102
RTVSPropertyOp16
 70
     1
102
RTVSPropertyOp17
 70
     1
102
RTVSPropertyOp18
 70
     1
102
RTVSPropertyOp19
 70
     1
102
RTVSPropertyOp20
 70
     1
102
RTVSPropertyOp21
 70
     1
102
RTVSPropertyOp22
 70
     1
102
RTVSPropertyOp23
 70
     1
102
RTVSPropertyOp24
 70
     1
102
RTVSPropertyOp25
 70
     1
102
RTVSPropertyOp26
 70
     1
102
RTVSPropertyOp27
 70
     1
102
RTVSPropertyOp28
 70
     1
102
RTVSPropertyOp29
 70
     1
102
RTVSPropertyOp30
 70
     1
102
RTVSPropertyOp31
 70
     1
102
RTVSPropertyOp32
 70
     1
  0
XRECORD
  5
C6E7
102
{ACAD_REACTORS
330
C6E6
102
}
330
C6E6
100
AcDbXrecord
280
     1
102
RTVSPropertyOp0
 70
     1
102
RTVSPropertyOp1
 70
     1
102
RTVSPropertyOp2
 70
     1
102
RTVSPropertyOp3
 70
     1
102
RTVSPropertyOp4
 70
     1
102
RTVSPropertyOp5
 70
     1
102
RTVSPropertyOp6
 70
     1
102
RTVSPropertyOp7
 70
     1
102
RTVSPropertyOp8
 70
     1
102
RTVSPropertyOp9
 70
     1
102
RTVSPropertyOp10
 70
     1
102
RTVSPropertyOp11
 70
     1
102
RTVSPropertyOp12
 70
     1
102
RTVSPropertyOp13
 70
     1
102
RTVSPropertyOp14
 70
     1
102
RTVSPropertyOp15
 70
     1
102
RTVSPropertyOp16
 70
     1
102
RTVSPropertyOp17
 70
     1
102
RTVSPropertyOp18
 70
     1
102
RTVSPropertyOp19
 70
     1
102
RTVSPropertyOp20
 70
     1
102
RTVSPropertyOp21
 70
     1
102
RTVSPropertyOp22
 70
     1
102
RTVSPropertyOp23
 70
     1
102
RTVSPropertyOp24
 70
     1
102
RTVSPropertyOp25
 70
     1
102
RTVSPropertyOp26
 70
     1
102
RTVSPropertyOp27
 70
     1
102
RTVSPropertyOp28
 70
     1
102
RTVSPropertyOp29
 70
     1
102
RTVSPropertyOp30
 70
     1
102
RTVSPropertyOp31
 70
     1
102
RTVSPropertyOp32
 70
     1
  0
XRECORD
  5
C701
102
{ACAD_REACTORS
330
C700
102
}
330
C700
100
AcDbXrecord
280
     1
102
RTVSPropertyOp0
 70
     0
102
RTVSPropertyOp1
 70
     0
102
RTVSPropertyOp2
 70
     0
102
RTVSPropertyOp3
 70
     0
102
RTVSPropertyOp4
 70
     0
102
RTVSPropertyOp5
 70
     0
102
RTVSPropertyOp6
 70
     0
102
RTVSPropertyOp7
 70
     0
102
RTVSPropertyOp8
 70
     0
102
RTVSPropertyOp9
 70
     0
102
RTVSPropertyOp10
 70
     0
102
RTVSPropertyOp11
 70
     0
102
RTVSPropertyOp12
 70
     0
102
RTVSPropertyOp13
 70
     0
102
RTVSPropertyOp14
 70
     2
102
RTVSPropertyOp15
 70
     0
102
RTVSPropertyOp16
 70
     0
102
RTVSPropertyOp17
 70
     0
102
RTVSPropertyOp18
 70
     0
102
RTVSPropertyOp19
 70
     0
102
RTVSPropertyOp20
 70
     0
102
RTVSPropertyOp21
 70
     0
102
RTVSPropertyOp22
 70
     0
102
RTVSPropertyOp23
 70
     0
102
RTVSPropertyOp24
 70
     0
102
RTVSPropertyOp25
 70
     0
102
RTVSPropertyOp26
 70
     0
102
RTVSPropertyOp27
 70
     0
102
RTVSPropertyOp28
 70
     0
102
RTVSPropertyOp29
 70
     0
102
RTVSPropertyOp30
 70
     0
102
RTVSPropertyOp31
 70
     0
102
RTVSPropertyOp32
 70
     0
  0
XRECORD
  5
C6EF
102
{ACAD_REACTORS
330
C6EE
102
}
330
C6EE
100
AcDbXrecord
280
     1
102
RTVSPropertyOp0
 70
     1
102
RTVSPropertyOp1
 70
     1
102
RTVSPropertyOp2
 70
     1
102
RTVSPropertyOp3
 70
     1
102
RTVSPropertyOp4
 70
     1
102
RTVSPropertyOp5
 70
     1
102
RTVSPropertyOp6
 70
     1
102
RTVSPropertyOp7
 70
     1
102
RTVSPropertyOp8
 70
     1
102
RTVSPropertyOp9
 70
     1
102
RTVSPropertyOp10
 70
     1
102
RTVSPropertyOp11
 70
     1
102
RTVSPropertyOp12
 70
     1
102
RTVSPropertyOp13
 70
     1
102
RTVSPropertyOp14
 70
     1
102
RTVSPropertyOp15
 70
     1
102
RTVSPropertyOp16
 70
     1
102
RTVSPropertyOp17
 70
     1
102
RTVSPropertyOp18
 70
     1
102
RTVSPropertyOp19
 70
     1
102
RTVSPropertyOp20
 70
     1
102
RTVSPropertyOp21
 70
     1
102
RTVSPropertyOp22
 70
     1
102
RTVSPropertyOp23
 70
     1
102
RTVSPropertyOp24
 70
     1
102
RTVSPropertyOp25
 70
     1
102
RTVSPropertyOp26
 70
     1
102
RTVSPropertyOp27
 70
     1
102
RTVSPropertyOp28
 70
     1
102
RTVSPropertyOp29
 70
     1
102
RTVSPropertyOp30
 70
     1
102
RTVSPropertyOp31
 70
     1
102
RTVSPropertyOp32
 70
     1
  0
XRECORD
  5
C6D3
102
{ACAD_REACTORS
330
C6D2
102
}
330
C6D2
100
AcDbXrecord
280
     1
102
RTVSPropertyOp0
 70
     1
102
RTVSPropertyOp1
 70
     1
102
RTVSPropertyOp2
 70
     1
102
RTVSPropertyOp3
 70
     1
102
RTVSPropertyOp4
 70
     1
102
RTVSPropertyOp5
 70
     1
102
RTVSPropertyOp6
 70
     1
102
RTVSPropertyOp7
 70
     1
102
RTVSPropertyOp8
 70
     1
102
RTVSPropertyOp9
 70
     1
102
RTVSPropertyOp10
 70
     1
102
RTVSPropertyOp11
 70
     1
102
RTVSPropertyOp12
 70
     1
102
RTVSPropertyOp13
 70
     1
102
RTVSPropertyOp14
 70
     1
102
RTVSPropertyOp15
 70
     1
102
RTVSPropertyOp16
 70
     1
102
RTVSPropertyOp17
 70
     1
102
RTVSPropertyOp18
 70
     1
102
RTVSPropertyOp19
 70
     1
102
RTVSPropertyOp20
 70
     1
102
RTVSPropertyOp21
 70
     1
102
RTVSPropertyOp22
 70
     1
102
RTVSPropertyOp23
 70
     1
102
RTVSPropertyOp24
 70
     1
102
RTVSPropertyOp25
 70
     1
102
RTVSPropertyOp26
 70
     1
102
RTVSPropertyOp27
 70
     1
102
RTVSPropertyOp28
 70
     1
102
RTVSPropertyOp29
 70
     1
102
RTVSPropertyOp30
 70
     1
102
RTVSPropertyOp31
 70
     1
102
RTVSPropertyOp32
 70
     1
  0
XRECORD
  5
C6D5
102
{ACAD_REACTORS
330
C6D4
102
}
330
C6D4
100
AcDbXrecord
280
     1
102
RTVSPropertyOp0
 70
     1
102
RTVSPropertyOp1
 70
     1
102
RTVSPropertyOp2
 70
     1
102
RTVSPropertyOp3
 70
     1
102
RTVSPropertyOp4
 70
     1
102
RTVSPropertyOp5
 70
     1
102
RTVSPropertyOp6
 70
     1
102
RTVSPropertyOp7
 70
     1
102
RTVSPropertyOp8
 70
     1
102
RTVSPropertyOp9
 70
     1
102
RTVSPropertyOp10
 70
     1
102
RTVSPropertyOp11
 70
     1
102
RTVSPropertyOp12
 70
     1
102
RTVSPropertyOp13
 70
     1
102
RTVSPropertyOp14
 70
     1
102
RTVSPropertyOp15
 70
     1
102
RTVSPropertyOp16
 70
     1
102
RTVSPropertyOp17
 70
     1
102
RTVSPropertyOp18
 70
     1
102
RTVSPropertyOp19
 70
     1
102
RTVSPropertyOp20
 70
     1
102
RTVSPropertyOp21
 70
     1
102
RTVSPropertyOp22
 70
     1
102
RTVSPropertyOp23
 70
     1
102
RTVSPropertyOp24
 70
     1
102
RTVSPropertyOp25
 70
     1
102
RTVSPropertyOp26
 70
     1
102
RTVSPropertyOp27
 70
     1
102
RTVSPropertyOp28
 70
     1
102
RTVSPropertyOp29
 70
     1
102
RTVSPropertyOp30
 70
     1
102
RTVSPropertyOp31
 70
     1
102
RTVSPropertyOp32
 70
     1
  0
XRECORD
  5
C6D7
102
{ACAD_REACTORS
330
C6D6
102
}
330
C6D6
100
AcDbXrecord
280
     1
102
RTVSPropertyOp0
 70
     1
102
RTVSPropertyOp1
 70
     1
102
RTVSPropertyOp2
 70
     1
102
RTVSPropertyOp3
 70
     1
102
RTVSPropertyOp4
 70
     1
102
RTVSPropertyOp5
 70
     1
102
RTVSPropertyOp6
 70
     1
102
RTVSPropertyOp7
 70
     1
102
RTVSPropertyOp8
 70
     1
102
RTVSPropertyOp9
 70
     1
102
RTVSPropertyOp10
 70
     1
102
RTVSPropertyOp11
 70
     1
102
RTVSPropertyOp12
 70
     1
102
RTVSPropertyOp13
 70
     1
102
RTVSPropertyOp14
 70
     1
102
RTVSPropertyOp15
 70
     1
102
RTVSPropertyOp16
 70
     1
102
RTVSPropertyOp17
 70
     1
102
RTVSPropertyOp18
 70
     1
102
RTVSPropertyOp19
 70
     1
102
RTVSPropertyOp20
 70
     1
102
RTVSPropertyOp21
 70
     1
102
RTVSPropertyOp22
 70
     1
102
RTVSPropertyOp23
 70
     1
102
RTVSPropertyOp24
 70
     1
102
RTVSPropertyOp25
 70
     1
102
RTVSPropertyOp26
 70
     1
102
RTVSPropertyOp27
 70
     1
102
RTVSPropertyOp28
 70
     1
102
RTVSPropertyOp29
 70
     1
102
RTVSPropertyOp30
 70
     1
102
RTVSPropertyOp31
 70
     1
102
RTVSPropertyOp32
 70
     1
  0
XRECORD
  5
C6D9
102
{ACAD_REACTORS
330
C6D8
102
}
330
C6D8
100
AcDbXrecord
280
     1
102
RTVSPropertyOp0
 70
     1
102
RTVSPropertyOp1
 70
     1
102
RTVSPropertyOp2
 70
     1
102
RTVSPropertyOp3
 70
     1
102
RTVSPropertyOp4
 70
     1
102
RTVSPropertyOp5
 70
     1
102
RTVSPropertyOp6
 70
     1
102
RTVSPropertyOp7
 70
     1
102
RTVSPropertyOp8
 70
     1
102
RTVSPropertyOp9
 70
     1
102
RTVSPropertyOp10
 70
     1
102
RTVSPropertyOp11
 70
     1
102
RTVSPropertyOp12
 70
     1
102
RTVSPropertyOp13
 70
     1
102
RTVSPropertyOp14
 70
     1
102
RTVSPropertyOp15
 70
     1
102
RTVSPropertyOp16
 70
     1
102
RTVSPropertyOp17
 70
     1
102
RTVSPropertyOp18
 70
     1
102
RTVSPropertyOp19
 70
     1
102
RTVSPropertyOp20
 70
     1
102
RTVSPropertyOp21
 70
     1
102
RTVSPropertyOp22
 70
     1
102
RTVSPropertyOp23
 70
     1
102
RTVSPropertyOp24
 70
     1
102
RTVSPropertyOp25
 70
     1
102
RTVSPropertyOp26
 70
     1
102
RTVSPropertyOp27
 70
     1
102
RTVSPropertyOp28
 70
     1
102
RTVSPropertyOp29
 70
     1
102
RTVSPropertyOp30
 70
     1
102
RTVSPropertyOp31
 70
     1
102
RTVSPropertyOp32
 70
     1
  0
XRECORD
  5
C6E1
102
{ACAD_REACTORS
330
C6E0
102
}
330
C6E0
100
AcDbXrecord
280
     1
102
RTVSPropertyOp0
 70
     1
102
RTVSPropertyOp1
 70
     1
102
RTVSPropertyOp2
 70
     1
102
RTVSPropertyOp3
 70
     1
102
RTVSPropertyOp4
 70
     1
102
RTVSPropertyOp5
 70
     1
102
RTVSPropertyOp6
 70
     1
102
RTVSPropertyOp7
 70
     1
102
RTVSPropertyOp8
 70
     1
102
RTVSPropertyOp9
 70
     1
102
RTVSPropertyOp10
 70
     1
102
RTVSPropertyOp11
 70
     1
102
RTVSPropertyOp12
 70
     1
102
RTVSPropertyOp13
 70
     1
102
RTVSPropertyOp14
 70
     1
102
RTVSPropertyOp15
 70
     1
102
RTVSPropertyOp16
 70
     1
102
RTVSPropertyOp17
 70
     1
102
RTVSPropertyOp18
 70
     1
102
RTVSPropertyOp19
 70
     1
102
RTVSPropertyOp20
 70
     1
102
RTVSPropertyOp21
 70
     1
102
RTVSPropertyOp22
 70
     1
102
RTVSPropertyOp23
 70
     1
102
RTVSPropertyOp24
 70
     1
102
RTVSPropertyOp25
 70
     1
102
RTVSPropertyOp26
 70
     1
102
RTVSPropertyOp27
 70
     1
102
RTVSPropertyOp28
 70
     1
102
RTVSPropertyOp29
 70
     1
102
RTVSPropertyOp30
 70
     1
102
RTVSPropertyOp31
 70
     1
102
RTVSPropertyOp32
 70
     1
  0
XRECORD
  5
C6FD
102
{ACAD_REACTORS
330
C6FC
102
}
330
C6FC
100
AcDbXrecord
280
     1
102
RTVSPropertyOp0
 70
     0
102
RTVSPropertyOp1
 70
     0
102
RTVSPropertyOp2
 70
     0
102
RTVSPropertyOp3
 70
     0
102
RTVSPropertyOp4
 70
     0
102
RTVSPropertyOp5
 70
     0
102
RTVSPropertyOp6
 70
     0
102
RTVSPropertyOp7
 70
     0
102
RTVSPropertyOp8
 70
     0
102
RTVSPropertyOp9
 70
     0
102
RTVSPropertyOp10
 70
     0
102
RTVSPropertyOp11
 70
     0
102
RTVSPropertyOp12
 70
     0
102
RTVSPropertyOp13
 70
     0
102
RTVSPropertyOp14
 70
     2
102
RTVSPropertyOp15
 70
     0
102
RTVSPropertyOp16
 70
     0
102
RTVSPropertyOp17
 70
     0
102
RTVSPropertyOp18
 70
     0
102
RTVSPropertyOp19
 70
     0
102
RTVSPropertyOp20
 70
     0
102
RTVSPropertyOp21
 70
     0
102
RTVSPropertyOp22
 70
     0
102
RTVSPropertyOp23
 70
     0
102
RTVSPropertyOp24
 70
     0
102
RTVSPropertyOp25
 70
     0
102
RTVSPropertyOp26
 70
     0
102
RTVSPropertyOp27
 70
     0
102
RTVSPropertyOp28
 70
     0
102
RTVSPropertyOp29
 70
     0
102
RTVSPropertyOp30
 70
     0
102
RTVSPropertyOp31
 70
     0
102
RTVSPropertyOp32
 70
     0
  0
XRECORD
  5
C6ED
102
{ACAD_REACTORS
330
C6EC
102
}
330
C6EC
100
AcDbXrecord
280
     1
102
RTVSPropertyOp0
 70
     1
102
RTVSPropertyOp1
 70
     1
102
RTVSPropertyOp2
 70
     1
102
RTVSPropertyOp3
 70
     1
102
RTVSPropertyOp4
 70
     1
102
RTVSPropertyOp5
 70
     1
102
RTVSPropertyOp6
 70
     1
102
RTVSPropertyOp7
 70
     1
102
RTVSPropertyOp8
 70
     1
102
RTVSPropertyOp9
 70
     1
102
RTVSPropertyOp10
 70
     1
102
RTVSPropertyOp11
 70
     1
102
RTVSPropertyOp12
 70
     1
102
RTVSPropertyOp13
 70
     1
102
RTVSPropertyOp14
 70
     1
102
RTVSPropertyOp15
 70
     1
102
RTVSPropertyOp16
 70
     1
102
RTVSPropertyOp17
 70
     1
102
RTVSPropertyOp18
 70
     1
102
RTVSPropertyOp19
 70
     1
102
RTVSPropertyOp20
 70
     1
102
RTVSPropertyOp21
 70
     1
102
RTVSPropertyOp22
 70
     1
102
RTVSPropertyOp23
 70
     1
102
RTVSPropertyOp24
 70
     1
102
RTVSPropertyOp25
 70
     1
102
RTVSPropertyOp26
 70
     1
102
RTVSPropertyOp27
 70
     1
102
RTVSPropertyOp28
 70
     1
102
RTVSPropertyOp29
 70
     1
102
RTVSPropertyOp30
 70
     1
102
RTVSPropertyOp31
 70
     1
102
RTVSPropertyOp32
 70
     1
  0
XRECORD
  5
C6FF
102
{ACAD_REACTORS
330
C6FE
102
}
330
C6FE
100
AcDbXrecord
280
     1
102
RTVSPropertyOp0
 70
     0
102
RTVSPropertyOp1
 70
     0
102
RTVSPropertyOp2
 70
     0
102
RTVSPropertyOp3
 70
     0
102
RTVSPropertyOp4
 70
     0
102
RTVSPropertyOp5
 70
     0
102
RTVSPropertyOp6
 70
     0
102
RTVSPropertyOp7
 70
     0
102
RTVSPropertyOp8
 70
     0
102
RTVSPropertyOp9
 70
     0
102
RTVSPropertyOp10
 70
     0
102
RTVSPropertyOp11
 70
     0
102
RTVSPropertyOp12
 70
     0
102
RTVSPropertyOp13
 70
     0
102
RTVSPropertyOp14
 70
     2
102
RTVSPropertyOp15
 70
     0
102
RTVSPropertyOp16
 70
     0
102
RTVSPropertyOp17
 70
     0
102
RTVSPropertyOp18
 70
     0
102
RTVSPropertyOp19
 70
     0
102
RTVSPropertyOp20
 70
     0
102
RTVSPropertyOp21
 70
     0
102
RTVSPropertyOp22
 70
     0
102
RTVSPropertyOp23
 70
     0
102
RTVSPropertyOp24
 70
     0
102
RTVSPropertyOp25
 70
     0
102
RTVSPropertyOp26
 70
     0
102
RTVSPropertyOp27
 70
     0
102
RTVSPropertyOp28
 70
     0
102
RTVSPropertyOp29
 70
     0
102
RTVSPropertyOp30
 70
     0
102
RTVSPropertyOp31
 70
     0
102
RTVSPropertyOp32
 70
     0
  0
XRECORD
  5
C6E5
102
{ACAD_REACTORS
330
C6E4
102
}
330
C6E4
100
AcDbXrecord
280
     1
102
RTVSPropertyOp0
 70
     1
102
RTVSPropertyOp1
 70
     1
102
RTVSPropertyOp2
 70
     1
102
RTVSPropertyOp3
 70
     1
102
RTVSPropertyOp4
 70
     1
102
RTVSPropertyOp5
 70
     1
102
RTVSPropertyOp6
 70
     1
102
RTVSPropertyOp7
 70
     1
102
RTVSPropertyOp8
 70
     1
102
RTVSPropertyOp9
 70
     1
102
RTVSPropertyOp10
 70
     1
102
RTVSPropertyOp11
 70
     1
102
RTVSPropertyOp12
 70
     1
102
RTVSPropertyOp13
 70
     1
102
RTVSPropertyOp14
 70
     1
102
RTVSPropertyOp15
 70
     1
102
RTVSPropertyOp16
 70
     1
102
RTVSPropertyOp17
 70
     1
102
RTVSPropertyOp18
 70
     1
102
RTVSPropertyOp19
 70
     1
102
RTVSPropertyOp20
 70
     1
102
RTVSPropertyOp21
 70
     1
102
RTVSPropertyOp22
 70
     1
102
RTVSPropertyOp23
 70
     1
102
RTVSPropertyOp24
 70
     1
102
RTVSPropertyOp25
 70
     1
102
RTVSPropertyOp26
 70
     1
102
RTVSPropertyOp27
 70
     1
102
RTVSPropertyOp28
 70
     1
102
RTVSPropertyOp29
 70
     1
102
RTVSPropertyOp30
 70
     1
102
RTVSPropertyOp31
 70
     1
102
RTVSPropertyOp32
 70
     1
  0
XRECORD
  5
C6FB
102
{ACAD_REACTORS
330
C6FA
102
}
330
C6FA
100
AcDbXrecord
280
     1
102
RTVSPropertyOp0
 70
     1
102
RTVSPropertyOp1
 70
     1
102
RTVSPropertyOp2
 70
     1
102
RTVSPropertyOp3
 70
     1
102
RTVSPropertyOp4
 70
     1
102
RTVSPropertyOp5
 70
     1
102
RTVSPropertyOp6
 70
     1
102
RTVSPropertyOp7
 70
     1
102
RTVSPropertyOp8
 70
     1
102
RTVSPropertyOp9
 70
     1
102
RTVSPropertyOp10
 70
     1
102
RTVSPropertyOp11
 70
     1
102
RTVSPropertyOp12
 70
     1
102
RTVSPropertyOp13
 70
     1
102
RTVSPropertyOp14
 70
     1
102
RTVSPropertyOp15
 70
     1
102
RTVSPropertyOp16
 70
     1
102
RTVSPropertyOp17
 70
     1
102
RTVSPropertyOp18
 70
     1
102
RTVSPropertyOp19
 70
     1
102
RTVSPropertyOp20
 70
     1
102
RTVSPropertyOp21
 70
     1
102
RTVSPropertyOp22
 70
     1
102
RTVSPropertyOp23
 70
     1
102
RTVSPropertyOp24
 70
     1
102
RTVSPropertyOp25
 70
     1
102
RTVSPropertyOp26
 70
     1
102
RTVSPropertyOp27
 70
     1
102
RTVSPropertyOp28
 70
     1
102
RTVSPropertyOp29
 70
     1
102
RTVSPropertyOp30
 70
     1
102
RTVSPropertyOp31
 70
     1
102
RTVSPropertyOp32
 70
     1
  0
XRECORD
  5
C6F9
102
{ACAD_REACTORS
330
C6F8
102
}
330
C6F8
100
AcDbXrecord
280
     1
102
RTVSPropertyOp0
 70
     1
102
RTVSPropertyOp1
 70
     1
102
RTVSPropertyOp2
 70
     1
102
RTVSPropertyOp3
 70
     1
102
RTVSPropertyOp4
 70
     1
102
RTVSPropertyOp5
 70
     1
102
RTVSPropertyOp6
 70
     1
102
RTVSPropertyOp7
 70
     1
102
RTVSPropertyOp8
 70
     1
102
RTVSPropertyOp9
 70
     1
102
RTVSPropertyOp10
 70
     1
102
RTVSPropertyOp11
 70
     1
102
RTVSPropertyOp12
 70
     1
102
RTVSPropertyOp13
 70
     1
102
RTVSPropertyOp14
 70
     1
102
RTVSPropertyOp15
 70
     1
102
RTVSPropertyOp16
 70
     1
102
RTVSPropertyOp17
 70
     1
102
RTVSPropertyOp18
 70
     1
102
RTVSPropertyOp19
 70
     1
102
RTVSPropertyOp20
 70
     1
102
RTVSPropertyOp21
 70
     1
102
RTVSPropertyOp22
 70
     1
102
RTVSPropertyOp23
 70
     1
102
RTVSPropertyOp24
 70
     1
102
RTVSPropertyOp25
 70
     1
102
RTVSPropertyOp26
 70
     1
102
RTVSPropertyOp27
 70
     1
102
RTVSPropertyOp28
 70
     1
102
RTVSPropertyOp29
 70
     1
102
RTVSPropertyOp30
 70
     1
102
RTVSPropertyOp31
 70
     1
102
RTVSPropertyOp32
 70
     1
  0
XRECORD
  5
C6F3
102
{ACAD_REACTORS
330
C6F2
102
}
330
C6F2
100
AcDbXrecord
280
     1
102
RTVSPropertyOp0
 70
     1
102
RTVSPropertyOp1
 70
     1
102
RTVSPropertyOp2
 70
     1
102
RTVSPropertyOp3
 70
     1
102
RTVSPropertyOp4
 70
     1
102
RTVSPropertyOp5
 70
     1
102
RTVSPropertyOp6
 70
     1
102
RTVSPropertyOp7
 70
     1
102
RTVSPropertyOp8
 70
     1
102
RTVSPropertyOp9
 70
     1
102
RTVSPropertyOp10
 70
     1
102
RTVSPropertyOp11
 70
     1
102
RTVSPropertyOp12
 70
     1
102
RTVSPropertyOp13
 70
     1
102
RTVSPropertyOp14
 70
     1
102
RTVSPropertyOp15
 70
     1
102
RTVSPropertyOp16
 70
     1
102
RTVSPropertyOp17
 70
     1
102
RTVSPropertyOp18
 70
     1
102
RTVSPropertyOp19
 70
     1
102
RTVSPropertyOp20
 70
     1
102
RTVSPropertyOp21
 70
     1
102
RTVSPropertyOp22
 70
     1
102
RTVSPropertyOp23
 70
     1
102
RTVSPropertyOp24
 70
     1
102
RTVSPropertyOp25
 70
     1
102
RTVSPropertyOp26
 70
     1
102
RTVSPropertyOp27
 70
     1
102
RTVSPropertyOp28
 70
     1
102
RTVSPropertyOp29
 70
     1
102
RTVSPropertyOp30
 70
     1
102
RTVSPropertyOp31
 70
     1
102
RTVSPropertyOp32
 70
     1
  0
XRECORD
  5
C6F5
102
{ACAD_REACTORS
330
C6F4
102
}
330
C6F4
100
AcDbXrecord
280
     1
102
RTVSPropertyOp0
 70
     1
102
RTVSPropertyOp1
 70
     1
102
RTVSPropertyOp2
 70
     1
102
RTVSPropertyOp3
 70
     1
102
RTVSPropertyOp4
 70
     1
102
RTVSPropertyOp5
 70
     1
102
RTVSPropertyOp6
 70
     1
102
RTVSPropertyOp7
 70
     1
102
RTVSPropertyOp8
 70
     1
102
RTVSPropertyOp9
 70
     1
102
RTVSPropertyOp10
 70
     1
102
RTVSPropertyOp11
 70
     1
102
RTVSPropertyOp12
 70
     1
102
RTVSPropertyOp13
 70
     1
102
RTVSPropertyOp14
 70
     1
102
RTVSPropertyOp15
 70
     1
102
RTVSPropertyOp16
 70
     1
102
RTVSPropertyOp17
 70
     1
102
RTVSPropertyOp18
 70
     1
102
RTVSPropertyOp19
 70
     1
102
RTVSPropertyOp20
 70
     1
102
RTVSPropertyOp21
 70
     1
102
RTVSPropertyOp22
 70
     1
102
RTVSPropertyOp23
 70
     1
102
RTVSPropertyOp24
 70
     1
102
RTVSPropertyOp25
 70
     1
102
RTVSPropertyOp26
 70
     1
102
RTVSPropertyOp27
 70
     1
102
RTVSPropertyOp28
 70
     1
102
RTVSPropertyOp29
 70
     1
102
RTVSPropertyOp30
 70
     1
102
RTVSPropertyOp31
 70
     1
102
RTVSPropertyOp32
 70
     1
  0
XRECORD
  5
C6EB
102
{ACAD_REACTORS
330
C6EA
102
}
330
C6EA
100
AcDbXrecord
280
     1
102
RTVSPropertyOp0
 70
     1
102
RTVSPropertyOp1
 70
     1
102
RTVSPropertyOp2
 70
     1
102
RTVSPropertyOp3
 70
     1
102
RTVSPropertyOp4
 70
     1
102
RTVSPropertyOp5
 70
     1
102
RTVSPropertyOp6
 70
     1
102
RTVSPropertyOp7
 70
     1
102
RTVSPropertyOp8
 70
     1
102
RTVSPropertyOp9
 70
     1
102
RTVSPropertyOp10
 70
     1
102
RTVSPropertyOp11
 70
     1
102
RTVSPropertyOp12
 70
     1
102
RTVSPropertyOp13
 70
     1
102
RTVSPropertyOp14
 70
     1
102
RTVSPropertyOp15
 70
     1
102
RTVSPropertyOp16
 70
     1
102
RTVSPropertyOp17
 70
     1
102
RTVSPropertyOp18
 70
     1
102
RTVSPropertyOp19
 70
     1
102
RTVSPropertyOp20
 70
     1
102
RTVSPropertyOp21
 70
     1
102
RTVSPropertyOp22
 70
     1
102
RTVSPropertyOp23
 70
     1
102
RTVSPropertyOp24
 70
     1
102
RTVSPropertyOp25
 70
     1
102
RTVSPropertyOp26
 70
     1
102
RTVSPropertyOp27
 70
     1
102
RTVSPropertyOp28
 70
     1
102
RTVSPropertyOp29
 70
     1
102
RTVSPropertyOp30
 70
     1
102
RTVSPropertyOp31
 70
     1
102
RTVSPropertyOp32
 70
     1
  0
XRECORD
  5
C6DF
102
{ACAD_REACTORS
330
C6DE
102
}
330
C6DE
100
AcDbXrecord
280
     1
102
RTVSPropertyOp0
 70
     1
102
RTVSPropertyOp1
 70
     1
102
RTVSPropertyOp2
 70
     1
102
RTVSPropertyOp3
 70
     1
102
RTVSPropertyOp4
 70
     1
102
RTVSPropertyOp5
 70
     1
102
RTVSPropertyOp6
 70
     1
102
RTVSPropertyOp7
 70
     1
102
RTVSPropertyOp8
 70
     1
102
RTVSPropertyOp9
 70
     1
102
RTVSPropertyOp10
 70
     1
102
RTVSPropertyOp11
 70
     1
102
RTVSPropertyOp12
 70
     1
102
RTVSPropertyOp13
 70
     1
102
RTVSPropertyOp14
 70
     1
102
RTVSPropertyOp15
 70
     1
102
RTVSPropertyOp16
 70
     1
102
RTVSPropertyOp17
 70
     1
102
RTVSPropertyOp18
 70
     1
102
RTVSPropertyOp19
 70
     1
102
RTVSPropertyOp20
 70
     1
102
RTVSPropertyOp21
 70
     1
102
RTVSPropertyOp22
 70
     1
102
RTVSPropertyOp23
 70
     1
102
RTVSPropertyOp24
 70
     1
102
RTVSPropertyOp25
 70
     1
102
RTVSPropertyOp26
 70
     1
102
RTVSPropertyOp27
 70
     1
102
RTVSPropertyOp28
 70
     1
102
RTVSPropertyOp29
 70
     1
102
RTVSPropertyOp30
 70
     1
102
RTVSPropertyOp31
 70
     1
102
RTVSPropertyOp32
 70
     1
  0
XRECORD
  5
C6F7
102
{ACAD_REACTORS
330
C6F6
102
}
330
C6F6
100
AcDbXrecord
280
     1
102
RTVSPropertyOp0
 70
     1
102
RTVSPropertyOp1
 70
     1
102
RTVSPropertyOp2
 70
     1
102
RTVSPropertyOp3
 70
     1
102
RTVSPropertyOp4
 70
     1
102
RTVSPropertyOp5
 70
     1
102
RTVSPropertyOp6
 70
     1
102
RTVSPropertyOp7
 70
     1
102
RTVSPropertyOp8
 70
     1
102
RTVSPropertyOp9
 70
     1
102
RTVSPropertyOp10
 70
     1
102
RTVSPropertyOp11
 70
     1
102
RTVSPropertyOp12
 70
     1
102
RTVSPropertyOp13
 70
     1
102
RTVSPropertyOp14
 70
     1
102
RTVSPropertyOp15
 70
     1
102
RTVSPropertyOp16
 70
     1
102
RTVSPropertyOp17
 70
     1
102
RTVSPropertyOp18
 70
     1
102
RTVSPropertyOp19
 70
     1
102
RTVSPropertyOp20
 70
     1
102
RTVSPropertyOp21
 70
     1
102
RTVSPropertyOp22
 70
     1
102
RTVSPropertyOp23
 70
     1
102
RTVSPropertyOp24
 70
     1
102
RTVSPropertyOp25
 70
     1
102
RTVSPropertyOp26
 70
     1
102
RTVSPropertyOp27
 70
     1
102
RTVSPropertyOp28
 70
     1
102
RTVSPropertyOp29
 70
     1
102
RTVSPropertyOp30
 70
     1
102
RTVSPropertyOp31
 70
     1
102
RTVSPropertyOp32
 70
     1
  0
ENDSEC
  0
EOF
