  0
SECTION
  2
HEADER
  9
$ACADVER
  1
AC1015
  9
$ACADMAINTVER
 70
    20
  9
$DWGCODEPAGE
  3
ANSI_932
  9
$INSBASE
 10
0.0
 20
0.0
 30
0.0
  9
$EXTMIN
 10
-0.0000000000002274
 20
-0.0000000000000568
 30
0.0
  9
$EXTMAX
 10
395.9999999999995
 20
290.0
 30
4.0
  9
$LIMMIN
 10
0.0
 20
0.0
  9
$LIMMAX
 10
420.0
 20
297.0
  9
$ORTHOMODE
 70
     1
  9
$REGENMODE
 70
     1
  9
$FILLMODE
 70
     1
  9
$QTEXTMODE
 70
     0
  9
$MIRRTEXT
 70
     1
  9
$LTSCALE
 40
1.0
  9
$ATTMODE
 70
     1
  9
$TEXTSIZE
 40
2.5
  9
$TRACEWID
 40
1.0
  9
$TEXTSTYLE
  7
TXT
  9
$CLAYER
  8
DIM
  9
$CELTYPE
  6
BYLAYER
  9
$CECOLOR
 62
   256
  9
$CELTSCALE
 40
1.0
  9
$DISPSILH
 70
     0
  9
$DIMSCALE
 40
1.0
  9
$DIMASZ
 40
2.5
  9
$DIMEXO
 40
1.0
  9
$DIMDLI
 40
6.0
  9
$DIMRND
 40
0.0
  9
$DIMDLE
 40
0.0
  9
$DIMEXE
 40
1.0
  9
$DIMTP
 40
0.0
  9
$DIMTM
 40
0.0
  9
$DIMTXT
 40
3.0
  9
$DIMCEN
 40
0.0
  9
$DIMTSZ
 40
0.0
  9
$DIMTOL
 70
     0
  9
$DIMLIM
 70
     0
  9
$DIMTIH
 70
     0
  9
$DIMTOH
 70
     0
  9
$DIMSE1
 70
     0
  9
$DIMSE2
 70
     0
  9
$DIMTAD
 70
     3
  9
$DIMZIN
 70
     8
  9
$DIMBLK
  1

  9
$DIMASO
 70
     1
  9
$DIMSHO
 70
     1
  9
$DIMPOST
  1

  9
$DIMAPOST
  1

  9
$DIMALT
 70
     0
  9
$DIMALTD
 70
     2
  9
$DIMALTF
 40
25.4
  9
$DIMLFAC
 40
1.0
  9
$DIMTOFL
 70
     0
  9
$DIMTVP
 40
0.0
  9
$DIMTIX
 70
     0
  9
$DIMSOXD
 70
     0
  9
$DIMSAH
 70
     0
  9
$DIMBLK1
  1

  9
$DIMBLK2
  1

  9
$DIMSTYLE
  2
A
  9
$DIMCLRD
 70
     6
  9
$DIMCLRE
 70
     6
  9
$DIMCLRT
 70
     3
  9
$DIMTFAC
 40
1.0
  9
$DIMGAP
 40
1.0
  9
$DIMJUST
 70
     0
  9
$DIMSD1
 70
     0
  9
$DIMSD2
 70
     0
  9
$DIMTOLJ
 70
     1
  9
$DIMTZIN
 70
     8
  9
$DIMALTZ
 70
     0
  9
$DIMALTTZ
 70
     0
  9
$DIMUPT
 70
     0
  9
$DIMDEC
 70
     1
  9
$DIMTDEC
 70
     1
  9
$DIMALTU
 70
     2
  9
$DIMALTTD
 70
     2
  9
$DIMTXSTY
  7
TXT
  9
$DIMAUNIT
 70
     0
  9
$DIMADEC
 70
     0
  9
$DIMALTRND
 40
0.0
  9
$DIMAZIN
 70
     0
  9
$DIMDSEP
 70
    46
  9
$DIMATFIT
 70
     3
  9
$DIMFRAC
 70
     0
  9
$DIMLDRBLK
  1

  9
$DIMLUNIT
 70
     2
  9
$DIMLWD
 70
    -2
  9
$DIMLWE
 70
    -2
  9
$DIMTMOVE
 70
     1
  9
$LUNITS
 70
     2
  9
$LUPREC
 70
     2
  9
$SKETCHINC
 40
1.0
  9
$FILLETRAD
 40
0.0
  9
$AUNITS
 70
     0
  9
$AUPREC
 70
     2
  9
$MENU
  1
.
  9
$ELEVATION
 40
0.0
  9
$PELEVATION
 40
0.0
  9
$THICKNESS
 40
0.0
  9
$LIMCHECK
 70
     0
  9
$CHAMFERA
 40
0.0
  9
$CHAMFERB
 40
0.0
  9
$CHAMFERC
 40
1.75
  9
$CHAMFERD
 40
0.0174532925199433
  9
$SKPOLY
 70
     0
  9
$TDCREATE
 40
2451555.620234838
  9
$TDUCREATE
 40
2451555.245234838
  9
$TDUPDATE
 40
2457828.686647570
  9
$TDUUPDATE
 40
2457828.311647570
  9
$TDINDWG
 40
2.6470965162
  9
$TDUSRTIMER
 40
2.6470965162
  9
$USRTIMER
 70
     1
  9
$ANGBASE
 50
0.0
  9
$ANGDIR
 70
     0
  9
$PDMODE
 70
     0
  9
$PDSIZE
 40
0.0
  9
$PLINEWID
 40
0.0
  9
$SPLFRAME
 70
     0
  9
$SPLINETYPE
 70
     6
  9
$SPLINESEGS
 70
     8
  9
$HANDSEED
  5
B2E6
  9
$SURFTAB1
 70
     6
  9
$SURFTAB2
 70
     6
  9
$SURFTYPE
 70
     6
  9
$SURFU
 70
     6
  9
$SURFV
 70
     6
  9
$UCSBASE
  2

  9
$UCSNAME
  2

  9
$UCSORG
 10
0.0
 20
0.0
 30
0.0
  9
$UCSXDIR
 10
1.0
 20
0.0
 30
0.0
  9
$UCSYDIR
 10
0.0
 20
1.0
 30
0.0
  9
$UCSORTHOREF
  2

  9
$UCSORTHOVIEW
 70
     0
  9
$UCSORGTOP
 10
0.0
 20
0.0
 30
0.0
  9
$UCSORGBOTTOM
 10
0.0
 20
0.0
 30
0.0
  9
$UCSORGLEFT
 10
0.0
 20
0.0
 30
0.0
  9
$UCSORGRIGHT
 10
0.0
 20
0.0
 30
0.0
  9
$UCSORGFRONT
 10
0.0
 20
0.0
 30
0.0
  9
$UCSORGBACK
 10
0.0
 20
0.0
 30
0.0
  9
$PUCSBASE
  2

  9
$PUCSNAME
  2

  9
$PUCSORG
 10
0.0
 20
0.0
 30
0.0
  9
$PUCSXDIR
 10
1.0
 20
0.0
 30
0.0
  9
$PUCSYDIR
 10
0.0
 20
1.0
 30
0.0
  9
$PUCSORTHOREF
  2

  9
$PUCSORTHOVIEW
 70
     0
  9
$PUCSORGTOP
 10
0.0
 20
0.0
 30
0.0
  9
$PUCSORGBOTTOM
 10
0.0
 20
0.0
 30
0.0
  9
$PUCSORGLEFT
 10
0.0
 20
0.0
 30
0.0
  9
$PUCSORGRIGHT
 10
0.0
 20
0.0
 30
0.0
  9
$PUCSORGFRONT
 10
0.0
 20
0.0
 30
0.0
  9
$PUCSORGBACK
 10
0.0
 20
0.0
 30
0.0
  9
$USERI1
 70
     0
  9
$USERI2
 70
     0
  9
$USERI3
 70
     0
  9
$USERI4
 70
     0
  9
$USERI5
 70
     0
  9
$USERR1
 40
0.0
  9
$USERR2
 40
0.0
  9
$USERR3
 40
0.0
  9
$USERR4
 40
0.0
  9
$USERR5
 40
0.0
  9
$WORLDVIEW
 70
     1
  9
$SHADEDGE
 70
     3
  9
$SHADEDIF
 70
    70
  9
$TILEMODE
 70
     1
  9
$MAXACTVP
 70
    48
  9
$PINSBASE
 10
0.0
 20
0.0
 30
0.0
  9
$PLIMCHECK
 70
     0
  9
$PEXTMIN
 10
1.000000000000000E+20
 20
1.000000000000000E+20
 30
1.000000000000000E+20
  9
$PEXTMAX
 10
-1.000000000000000E+20
 20
-1.000000000000000E+20
 30
-1.000000000000000E+20
  9
$PLIMMIN
 10
0.0
 20
0.0
  9
$PLIMMAX
 10
420.0
 20
297.0
  9
$UNITMODE
 70
     0
  9
$VISRETAIN
 70
     1
  9
$PLINEGEN
 70
     0
  9
$PSLTSCALE
 70
     1
  9
$TREEDEPTH
 70
  3020
  9
$CMLSTYLE
  2
STANDARD
  9
$CMLJUST
 70
     0
  9
$CMLSCALE
 40
20.0
  9
$PROXYGRAPHICS
 70
     1
  9
$MEASUREMENT
 70
     1
  9
$CELWEIGHT
370
    -1
  9
$ENDCAPS
280
     0
  9
$JOINSTYLE
280
     0
  9
$LWDISPLAY
290
     0
  9
$INSUNITS
 70
     0
  9
$HYPERLINKBASE
  1

  9
$STYLESHEET
  1

  9
$XEDIT
290
     1
  9
$CEPSNTYPE
380
     0
  9
$PSTYLEMODE
290
     1
  9
$FINGERPRINTGUID
  2
{1CF51E8A-A506-11D4-A7D9-AF69F5C20846}
  9
$VERSIONGUID
  2
{834A6248-C252-4D2D-BA6C-73A9FFDE3575}
  9
$EXTNAMES
290
     1
  9
$PSVPSCALE
 40
0.0
  9
$OLESTARTUP
290
     0
  0
ENDSEC
  0
SECTION
  2
CLASSES
  0
CLASS
  1
DICTIONARYVAR
  2
AcDbDictionaryVar
  3
ObjectDBX Classes
 90
        0
280
     0
281
     0
  0
CLASS
  1
SORTENTSTABLE
  2
AcDbSortentsTable
  3
ObjectDBX Classes
 90
        0
280
     0
281
     0
  0
CLASS
  1
HATCH
  2
AcDbHatch
  3
ObjectDBX Classes
 90
        0
280
     0
281
     1
  0
CLASS
  1
LWPOLYLINE
  2
AcDbPolyline
  3
ObjectDBX Classes
 90
        0
280
     0
281
     1
  0
CLASS
  1
ACDBDICTIONARYWDFLT
  2
AcDbDictionaryWithDefault
  3
ObjectDBX Classes
 90
        0
280
     0
281
     0
  0
CLASS
  1
ACDBPLACEHOLDER
  2
AcDbPlaceHolder
  3
ObjectDBX Classes
 90
        0
280
     0
281
     0
  0
CLASS
  1
LAYOUT
  2
AcDbLayout
  3
ObjectDBX Classes
 90
        0
280
     0
281
     0
  0
CLASS
  1
LONG_TRANSACTION
  2
AcDbLongTransaction
  3
ObjectDBX Classes
 90
    32768
280
     0
281
     0
  0
CLASS
  1
LWPOLYLINE
  2
AcDbPolyline
  3
ObjectDBX Classes
 90
        0
280
     0
281
     1
  0
CLASS
  1
HATCH
  2
AcDbHatch
  3
ObjectDBX Classes
 90
        0
280
     0
281
     1
  0
CLASS
  1
XRECORD
  2
AcDbXrecord
  3
ObjectDBX Classes
 90
        0
280
     0
281
     0
  0
CLASS
  1
TABLESTYLE
  2
AcDbTableStyle
  3
ObjectDBX Classes
 90
     2047
280
     0
281
     0
  0
CLASS
  1
MATERIAL
  2
AcDbMaterial
  3
ObjectDBX Classes
 90
        0
280
     0
281
     0
  0
CLASS
  1
VISUALSTYLE
  2
AcDbVisualStyle
  3
ObjectDBX Classes
 90
     4095
280
     0
281
     0
  0
CLASS
  1
SCALE
  2
AcDbScale
  3
ObjectDBX Classes
 90
     1153
280
     0
281
     0
  0
CLASS
  1
MLEADERSTYLE
  2
AcDbMLeaderStyle
  3
ACDB_MLEADERSTYLE_CLASS
 90
     4095
280
     0
281
     0
  0
CLASS
  1
ACME_DOCUMENT
  2
AcMeDbDoc
  3
AcMeServices
 90
    33792
280
     0
281
     0
  0
CLASS
  1
AMGSETTINGSOBJ
  2
AmgSettingsObj
  3
"AcadM|Product Description: AutoCAD Mechanical|Company: Autodesk, Inc."
 90
    33792
280
     0
281
     0
  0
CLASS
  1
ACMESCOPE
  2
AcMeScope
  3
AcMeServices
 90
    33792
280
     0
281
     0
  0
CLASS
  1
ACMECOMMANDHISTORY
  2
AcMeCommandHistory
  3
AcMeServices
 90
    33792
280
     0
281
     0
  0
CLASS
  1
ACIMSYSVARMAN
  2
AcImSysVarManager
  3
AcMeServices
 90
    33792
280
     0
281
     0
  0
CLASS
  1
ACIMINTSYSVAR
  2
AcImIntSysVar
  3
AcMeServices
 90
    33792
280
     0
281
     0
  0
CLASS
  1
ACMESTATEMGR
  2
AcMeStateMgr
  3
AcMeServices
 90
    33792
280
     0
281
     0
  0
CLASS
  1
ACDBENTITYCACHE
  2
AcMeEntityCache
  3
AcMeServices
 90
    33792
280
     0
281
     0
  0
CLASS
  1
ACGREFMASTER
  2
AcGrefMaster
  3
AcAttribServices
 90
    33792
280
     0
281
     0
  0
CLASS
  1
AM_DRAWING_MGR
  2
AcDmDwgMgr
  3
AcMechDwgViewMgmt
 90
    33792
280
     0
281
     0
  0
CLASS
  1
AM_DWG_DOCUMENT
  2
AcDmDwgDocument
  3
AcMechDwgViewMgmt
 90
    33792
280
     0
281
     0
  0
CLASS
  1
AM_DWG_SHEET
  2
AcDmSheet
  3
AcMechDwgViewMgmt
 90
    33792
280
     0
281
     0
  0
CLASS
  1
AM_VIEWDIMPARMAP
  2
AcDmViewDimParMap
  3
AcMechDwgViewMgmt
 90
    33792
280
     0
281
     0
  0
CLASS
  1
AMDTINTERNALREACTOR
  2
AmdtInternalReactor
  3
AcMeServices
 90
    33792
280
     0
281
     0
  0
CLASS
  1
ACIMREALSYSVAR
  2
AcImRealSysVar
  3
AcMeServices
 90
    33792
280
     0
281
     0
  0
CLASS
  1
AM_DWGMGR_NAME
  2
AcDmDwgMgrName
  3
AcMechDwgViewMgmt
 90
    33792
280
     0
281
     0
  0
CLASS
  1
ACME_DATABASE
  2
AcMeDbDatabase
  3
AcMeServices
 90
    33792
280
     0
281
     0
  0
CLASS
  1
ACRFINSADJUSTERMGR
  2
AcRfInsAdjusterMgr
  3
AcMeServices
 90
    33792
280
     0
281
     0
  0
CLASS
  1
ACGREFACADMASTER
  2
AcGrefacadMaster
  3
AcGrefServices
 90
    33792
280
     0
281
     0
  0
CLASS
  1
AMDTMENUSTATEMGR
  2
AmdtMenuStateMgr
  3
McadcomServices
 90
    33792
280
     0
281
     0
  0
CLASS
  1
AMDTMCOMMENUSTATE
  2
AmdtMcomMenuState
  3
McadcomServices
 90
    33792
280
     0
281
     0
  0
CLASS
  1
AMIMASTER
  2
AmiMaster
  3
AmiServices
 90
    33792
280
     0
281
     0
  0
CLASS
  1
MAPIAMMOUDLE
  2
MApiAmModule
  3
MApiAmServices
 90
    33792
280
     0
281
     0
  0
CLASS
  1
ACIMSTRSYSVAR
  2
AcImStrSysVar
  3
AcMeServices
 90
    33792
280
     0
281
     0
  0
CLASS
  1
AMDTDMMENUSTATE
  2
AmdtDmMenuState
  3
AcMechDwgViewMgmt
 90
    33792
280
     0
281
     0
  0
CLASS
  1
AMDTAMMENUSTATE
  2
AmdtAmMenuState
  3
DesignerAssemblies
 90
    33792
280
     0
281
     0
  0
CLASS
  1
ACAMPROJECT
  2
AcAmProject
  3
DesignerAssemblies
 90
    33792
280
     0
281
     0
  0
CLASS
  1
ACAMGRCOMPDEF
  2
AcAmGrCompDef
  3
DesignerAssemblies
 90
    33792
280
     0
281
     0
  0
CLASS
  1
ACAMCOMPDEF
  2
AcAmCompDef
  3
DesignerAssemblies
 90
    33792
280
     0
281
     0
  0
CLASS
  1
ACAMCOMPDEFMGR
  2
AcAmCompDefMgr
  3
DesignerAssemblies
 90
    33792
280
     0
281
     0
  0
CLASS
  1
AMCONTEXTMGR
  2
AcAmContextMgr
  3
DesignerAssemblies
 90
    33792
280
     0
281
     0
  0
CLASS
  1
ACAMCONTEXTMODELER
  2
AcAmContextModeler
  3
DesignerAssemblies
 90
    33792
280
     0
281
     0
  0
CLASS
  1
ACMDATADICTIONARY
  2
AcmDataDictionary
  3
"AcmSymBB|Product Description: AutoCAD Mechanical|Company: Autodesk, Inc."
 90
    33792
280
     0
281
     0
  0
CLASS
  1
ACAMGRCOMPDEFSET
  2
AcAmGrCompDefSet
  3
DesignerAssemblies
 90
    33792
280
     0
281
     0
  0
CLASS
  1
AMDTBROWSERDBTAB
  2
AmdtBrowserDbTab
  3
McadcomServices
 90
    33792
280
     0
281
     0
  0
CLASS
  1
CBROWSERAPPOBJECT
  2
CBrowserAppObject
  3
McadcomServices
 90
    33792
280
     0
281
     0
  0
CLASS
  1
DM_PLACEHOLDER
  2
AcDmSelsetPlaceholder
  3
AcMechDwgViewMgmt
 90
    33792
280
     0
281
     0
  0
CLASS
  1
EXACXREFPANELOBJECT
  2
ExAcXREFPanelObject
  3
EXAC_ESW
 90
    33793
280
     0
281
     0
  0
CLASS
  1
NPOCOLLECTION
  2
AcDbImpNonPersistentObjectsCollection
  3
ObjectDBX Classes
 90
    33921
280
     0
281
     0
  0
CLASS
  1
ACMSTANDARDISO
  2
AcmStandardISO
  3
"Amdt_StdImp|Product Description: AutoCAD Mechanical|Company: Autodesk, Inc."
 90
    33792
280
     0
281
     0
  0
CLASS
  1
AMDTEDGESTANDARDISO13715
  2
AmdtEdgeStdISO13715
  3
"Amdt_StdImp|Product Description: AutoCAD Mechanical|Company: Autodesk, Inc."
 90
    33792
280
     0
281
     0
  0
CLASS
  1
ACMSURFSTANDARDISO2002
  2
AcmSurfTextStdISO2002
  3
"Amdt_StdImp|Product Description: AutoCAD Mechanical|Company: Autodesk, Inc."
 90
    33792
280
     0
281
     0
  0
CLASS
  1
ACMFCFSTANDARDISO
  2
AcmFCFStdISO
  3
"Amdt_StdImp|Product Description: AutoCAD Mechanical|Company: Autodesk, Inc."
 90
    33792
280
     0
281
     0
  0
CLASS
  1
ACMWELDSTANDARDISO
  2
AcmWeldingStdISO
  3
"Amdt_StdImp|Product Description: AutoCAD Mechanical|Company: Autodesk, Inc."
 90
    33792
280
     0
281
     0
  0
CLASS
  1
ACMIDSTANDARDISO
  2
AcmIdStdISO
  3
"Amdt_StdImp|Product Description: AutoCAD Mechanical|Company: Autodesk, Inc."
 90
    33792
280
     0
281
     0
  0
CLASS
  1
ACMDATUMSTANDARDISO
  2
AcmDatumStdISO
  3
"Amdt_StdImp|Product Description: AutoCAD Mechanical|Company: Autodesk, Inc."
 90
    33792
280
     0
281
     0
  0
CLASS
  1
ACMBOMSTANDARDISO
  2
AcmBOMStdISO
  3
"Amdt_StdImp|Product Description: AutoCAD Mechanical|Company: Autodesk, Inc."
 90
    33792
280
     0
281
     0
  0
CLASS
  1
ACMDETAILSTANDARDISO
  2
AmdtDetailSymStdISO
  3
"Amdt_StdImp|Product Description: AutoCAD Mechanical|Company: Autodesk, Inc."
 90
    33792
280
     0
281
     0
  0
CLASS
  1
ACMSECTIONSTANDARDISO2001
  2
AmdtSectionSymStdISO2001
  3
"Amdt_StdImp|Product Description: AutoCAD Mechanical|Company: Autodesk, Inc."
 90
    33792
280
     0
281
     0
  0
CLASS
  1
ACMCENTERLINESTANDARDISO
  2
AmdtCenterLineStdISO
  3
"Amdt_StdImp|Product Description: AutoCAD Mechanical|Company: Autodesk, Inc."
 90
    33792
280
     0
281
     0
  0
CLASS
  1
ACMTHREADLINESTANDARDISO
  2
AmdtThreadLineStdISO
  3
"Amdt_StdImp|Product Description: AutoCAD Mechanical|Company: Autodesk, Inc."
 90
    33792
280
     0
281
     0
  0
CLASS
  1
ACMNOTESTANDARDISO
  2
AmdtNoteStdISO
  3
"Amdt_StdImp|Product Description: AutoCAD Mechanical|Company: Autodesk, Inc."
 90
    33792
280
     0
281
     0
  0
CLASS
  1
ACMTAPERSTANDARDISO
  2
AcmTaperStdISO
  3
"Amdt_StdImp|Product Description: AutoCAD Mechanical|Company: Autodesk, Inc."
 90
    33792
280
     0
281
     0
  0
CLASS
  1
ACMANOOTATIONVIEWSTANDARDISO
  2
AmdtAnViewStdISO
  3
"Amdt_StdImp|Product Description: AutoCAD Mechanical|Company: Autodesk, Inc."
 90
    33792
280
     0
281
     0
  0
CLASS
  1
ACAMGLAYSTD
  2
AcAmgLayStd
  3
"AmgLay|Product Description: AutoCAD Mechanical|Company: Autodesk, Inc."
 90
    33792
280
     0
281
     0
  0
CLASS
  1
ACAMGDIMSTD
  2
AcAmgDimStd
  3
"AmgDim|Product Description: AutoCAD Mechanical|Company: Autodesk, Inc."
 90
    33792
280
     0
281
     0
  0
CLASS
  1
AMGOBJPROPCFG
  2
AmgObjPropCfg
  3
"AmgLay|Product Description: AutoCAD Mechanical|Company: Autodesk, Inc."
 90
    33793
280
     0
281
     0
  0
CLASS
  1
ACAMGHOLECHARTSTDISO
  2
AcAmgHoleChartStdISO
  3
AmgDim|Product Description: AutoCAD Mechanical|Company: Autodesk, Inc.
 90
    33792
280
     0
281
     0
  0
CLASS
  1
ACAMGTITLESTD
  2
AcAmgTitleStd
  3
"AmgTitle|Product Description: AutoCAD Mechanical|Company: Autodesk, Inc."
 90
    36863
280
     0
281
     0
  0
CLASS
  1
AMDTNOTETEMPLATEDB
  2
AmdtNoteTemplateDB
  3
AcmSymBB|Product Description: AutoCAD Mechanical|Company: Autodesk, Inc.
 90
    33792
280
     0
281
     0
  0
CLASS
  1
ACAMGFILTERDAT
  2
AcAmgFilterDat
  3
"AcadM|Product Description: AutoCAD Mechanical|Company: Autodesk, Inc."
 90
    33792
280
     0
281
     0
  0
CLASS
  1
AEC_REFEDIT_STATUS_TRACKER
  2
AecDbRefEditStatusTracker
  3
AecArchBase60|Product Desc: Autodesk Architectural Desktop 2007 |Company: Autodesk,Inc. |WEB Address: www.autodesk.com
 90
    32897
280
     0
281
     0
  0
CLASS
  1
CELLSTYLEMAP
  2
AcDbCellStyleMap
  3
ObjectDBX Classes
 90
     1152
280
     0
281
     0
  0
ENDSEC
  0
SECTION
  2
TABLES
  0
TABLE
  2
VPORT
  5
8
102
{ACAD_XDICTIONARY
360
B1F9
102
}
330
0
100
AcDbSymbolTable
 70
     2
  0
VPORT
  5
B2DF
330
8
100
AcDbSymbolTableRecord
100
AcDbViewportTableRecord
  2
*Active
 70
     0
 10
0.0
 20
0.0
 11
1.0
 21
1.0
 12
267.3790032135134
 22
126.8068560676648
 13
0.0
 23
0.0
 14
10.0
 24
10.0
 15
10.0
 25
10.0
 16
0.0
 26
0.0
 36
1.0
 17
0.0
 27
0.0
 37
0.0
 40
468.273116630923
 41
2.647181628392484
 42
50.0
 43
0.0
 44
0.0
 50
0.0
 51
0.0
 71
     0
 72
   100
 73
     1
 74
     1
 75
     0
 76
     0
 77
     0
 78
     0
281
     0
 65
     1
110
0.0
120
0.0
130
0.0
111
1.0
121
0.0
131
0.0
112
0.0
122
1.0
132
0.0
 79
     0
146
0.0
  0
ENDTAB
  0
TABLE
  2
LTYPE
  5
5
330
0
100
AcDbSymbolTable
 70
    18
  0
LTYPE
  5
12
330
5
100
AcDbSymbolTableRecord
100
AcDbLinetypeTableRecord
  2
BYBLOCK
 70
     0
  3

 72
    65
 73
     0
 40
0.0
  0
LTYPE
  5
13
330
5
100
AcDbSymbolTableRecord
100
AcDbLinetypeTableRecord
  2
BYLAYER
 70
     0
  3

 72
    65
 73
     0
 40
0.0
  0
LTYPE
  5
14
330
5
100
AcDbSymbolTableRecord
100
AcDbLinetypeTableRecord
  2
CONTINUOUS
 70
     0
  3
Solid line
 72
    65
 73
     0
 40
0.0
  0
LTYPE
  5
9D
330
5
100
AcDbSymbolTableRecord
100
AcDbLinetypeTableRecord
  2
CENTERX2
 70
     0
  3
Center (2x) ________  __  ________  __  _____
 72
    65
 73
     4
 40
101.6
 49
63.5
 74
     0
 49
-12.7
 74
     0
 49
12.7
 74
     0
 49
-12.7
 74
     0
  0
LTYPE
  5
A1
330
5
100
AcDbSymbolTableRecord
100
AcDbLinetypeTableRecord
  2
DASHED
 70
     0
  3
Dashed __ __ __ __ __ __ __ __ __ __ __ __ __ _
 72
    65
 73
     2
 40
19.05
 49
12.7
 74
     0
 49
-6.349999999999999
 74
     0
  0
LTYPE
  5
A2
330
5
100
AcDbSymbolTableRecord
100
AcDbLinetypeTableRecord
  2
DASHED2
 70
     0
  3
Dashed (.5x) _ _ _ _ _ _ _ _ _ _ _ _ _ _ _ _ _
 72
    65
 73
     2
 40
9.524999999999998
 49
6.349999999999999
 74
     0
 49
-3.174999999999999
 74
     0
  0
LTYPE
  5
A5
330
5
100
AcDbSymbolTableRecord
100
AcDbLinetypeTableRecord
  2
DIVIDE2
 70
     0
  3
Divide (.5x) __..__..__..__..__..__..__..__.._
 72
    65
 73
     6
 40
15.875
 49
6.349999999999999
 74
     0
 49
-3.174999999999999
 74
     0
 49
0.0
 74
     0
 49
-3.174999999999999
 74
     0
 49
0.0
 74
     0
 49
-3.174999999999999
 74
     0
  0
LTYPE
  5
650B
330
5
100
AcDbSymbolTableRecord
100
AcDbLinetypeTableRecord
  2
CENTER
 70
     0
  3
Center ____ _ ____ _ ____ _ ____ _ ____ _ ____
 72
    65
 73
     4
 40
50.8
 49
31.75
 74
     0
 49
-6.349999999999999
 74
     0
 49
6.349999999999999
 74
     0
 49
-6.349999999999999
 74
     0
  0
LTYPE
  5
650C
330
5
100
AcDbSymbolTableRecord
100
AcDbLinetypeTableRecord
  2
HIDDEN
 70
     0
  3
Hidden __ __ __ __ __ __ __ __ __ __ __ __ __ _
 72
    65
 73
     2
 40
9.524999999999998
 49
6.349999999999999
 74
     0
 49
-3.174999999999999
 74
     0
  0
LTYPE
  5
AF5A
330
5
100
AcDbSymbolTableRecord
100
AcDbLinetypeTableRecord
  2
PHANTOM2
 70
     0
  3
Phantom (.5x) ___ _ _ ___ _ _ ___ _ _ ___ _ _
 72
    65
 73
     6
 40
31.75
 49
15.875
 74
     0
 49
-3.174999999999999
 74
     0
 49
3.174999999999999
 74
     0
 49
-3.174999999999999
 74
     0
 49
3.174999999999999
 74
     0
 49
-3.174999999999999
 74
     0
  0
LTYPE
  5
AF9A
330
5
100
AcDbSymbolTableRecord
100
AcDbLinetypeTableRecord
  2
AM_ISO02W050
 70
     0
  3
__ __ __ __ __ __ __ __ __ __ __ __ __ __ __
 72
    65
 73
     2
 40
7.5
 49
6.0
 74
     0
 49
-1.5
 74
     0
  0
LTYPE
  5
AF9B
330
5
100
AcDbSymbolTableRecord
100
AcDbLinetypeTableRecord
  2
AM_ISO08W050
 70
     0
  3
____ . ____ . ____ . ____ . ____ . ____ . ____
 72
    65
 73
     4
 40
18.0
 49
12.0
 74
     0
 49
-1.5
 74
     0
 49
3.0
 74
     0
 49
-1.5
 74
     0
  0
LTYPE
  5
AF9C
330
5
100
AcDbSymbolTableRecord
100
AcDbLinetypeTableRecord
  2
AM_ISO09W050
 70
     0
  3
_____ . . _____ . . _____ . . ____ .. ____
 72
    65
 73
     6
 40
22.5
 49
12.0
 74
     0
 49
-1.5
 74
     0
 49
3.0
 74
     0
 49
-1.5
 74
     0
 49
3.0
 74
     0
 49
-1.5
 74
     0
  0
LTYPE
  5
AF9D
330
5
100
AcDbSymbolTableRecord
100
AcDbLinetypeTableRecord
  2
Amconstr
 70
     0
  3
_______________________
 72
    65
 73
     2
 40
9999.0
 49
9999.0
 74
     0
 49
0.0
 74
     0
  0
LTYPE
  5
AF9E
330
5
100
AcDbSymbolTableRecord
100
AcDbLinetypeTableRecord
  2
AM_ISO08W050x2
 70
     0
  3
__ . __ . __ . __ . __ . __
 72
    65
 73
     4
 40
9.0
 49
6.0
 74
     0
 49
-0.75
 74
     0
 49
1.5
 74
     0
 49
-0.75
 74
     0
  0
LTYPE
  5
AF9F
330
5
100
AcDbSymbolTableRecord
100
AcDbLinetypeTableRecord
  2
AM_ISO02W050x2
 70
     0
  3
 _ _ _ _ _ _ _ _ _ _ _ _
 72
    65
 73
     2
 40
3.75
 49
3.0
 74
     0
 49
-0.75
 74
     0
  0
LTYPE
  5
AFA2
330
5
100
AcDbSymbolTableRecord
100
AcDbLinetypeTableRecord
  2
Amzigzag
 70
     0
  3
/\/-/\/-/\/-/\/-/\/-/\/
 72
    65
 73
     2
 40
11.0001
 49
0.0001
 74
     4
 75
   136
340
AFA1
 46
0.04
 50
0.0
 44
0.0
 45
0.0
 49
-11.0
 74
     0
  0
LTYPE
  5
AFB1
330
5
100
AcDbSymbolTableRecord
100
AcDbLinetypeTableRecord
  2
ACISOWELD
 70
     0
  3
_ _ _ _ _
 72
    65
 73
     2
 40
2.0
 49
2.0
 74
     0
 49
-1.0
 74
     0
  0
LTYPE
  5
AFB2
330
5
100
AcDbSymbolTableRecord
100
AcDbLinetypeTableRecord
  2
ACISOTGB
 70
     0
  3
__ . . __ . .
 72
    65
 73
     6
 40
9.0
 49
4.0
 74
     0
 49
-1.0
 74
     0
 49
1.0
 74
     0
 49
-1.0
 74
     0
 49
1.0
 74
     0
 49
-1.0
 74
     0
  0
LTYPE
  5
AFB3
330
5
100
AcDbSymbolTableRecord
100
AcDbLinetypeTableRecord
  2
ACISOTGL
 70
     0
  3
_ _ _ _ _
 72
    65
 73
     2
 40
3.0
 49
2.0
 74
     0
 49
-1.0
 74
     0
  0
ENDTAB
  0
TABLE
  2
LAYER
  5
2
330
0
100
AcDbSymbolTable
 70
    10
  0
LAYER
  5
E
102
{ACAD_XDICTIONARY
360
B1E3
102
}
330
2
100
AcDbSymbolTableRecord
100
AcDbLayerTableRecord
  2
0
 70
     0
 62
     7
  6
CONTINUOUS
370
    -3
390
5CF2
  0
LAYER
  5
B9
102
{ACAD_XDICTIONARY
360
B1E5
102
}
330
2
100
AcDbSymbolTableRecord
100
AcDbLayerTableRecord
  2
DIM
 70
     0
 62
     3
  6
CONTINUOUS
370
    -3
390
5CF2
  0
LAYER
  5
F2
330
2
100
AcDbSymbolTableRecord
100
AcDbLayerTableRecord
  2
DEFPOINTS
 70
     0
 62
     4
  6
CONTINUOUS
290
     0
370
    -3
390
5CF2
  0
LAYER
  5
5F8B
102
{ACAD_XDICTIONARY
360
B1E7
102
}
330
2
100
AcDbSymbolTableRecord
100
AcDbLayerTableRecord
  2
公差
 70
     0
 62
     6
  6
CONTINUOUS
370
    -3
390
5CF2
1001
ACADSTRINGINFO
1000
MIFCodePage
1070
     1
  0
LAYER
  5
644E
102
{ACAD_XDICTIONARY
360
B1E9
102
}
330
2
100
AcDbSymbolTableRecord
100
AcDbLayerTableRecord
  2
図框線
 70
     0
 62
     9
  6
CONTINUOUS
370
    -3
390
5CF2
1001
ACADSTRINGINFO
1000
MIFCodePage
1070
     1
  0
LAYER
  5
650D
102
{ACAD_XDICTIONARY
360
B1EB
102
}
330
2
100
AcDbSymbolTableRecord
100
AcDbLayerTableRecord
  2
中心線
 70
     0
 62
     1
  6
CENTER
370
    -3
390
5CF2
1001
ACADSTRINGINFO
1000
MIFCodePage
1070
     1
  0
LAYER
  5
650E
102
{ACAD_XDICTIONARY
360
B1ED
102
}
330
2
100
AcDbSymbolTableRecord
100
AcDbLayerTableRecord
  2
本体内線
 70
     0
 62
     4
  6
HIDDEN
370
    -3
390
5CF2
1001
ACADSTRINGINFO
1000
MIFCodePage
1070
     1
  0
LAYER
  5
650F
102
{ACAD_XDICTIONARY
360
B1EF
102
}
330
2
100
AcDbSymbolTableRecord
100
AcDbLayerTableRecord
  2
本体外線
 70
     0
 62
     2
  6
CONTINUOUS
370
    -3
390
5CF2
1001
ACADSTRINGINFO
1000
MIFCodePage
1070
     1
  0
LAYER
  5
6510
102
{ACAD_XDICTIONARY
360
B1F1
102
}
330
2
100
AcDbSymbolTableRecord
100
AcDbLayerTableRecord
  2
剖面線
 70
     0
 62
     5
  6
CONTINUOUS
370
    -3
390
5CF2
1001
ACADSTRINGINFO
1000
MIFCodePage
1070
     1
  0
LAYER
  5
AEB7
102
{ACAD_XDICTIONARY
360
B1F3
102
}
330
2
100
AcDbSymbolTableRecord
100
AcDbLayerTableRecord
  2
mark
 70
     0
 62
     6
  6
CONTINUOUS
370
    -3
390
5CF2
  0
ENDTAB
  0
TABLE
  2
STYLE
  5
3
330
0
100
AcDbSymbolTable
 70
     8
  0
STYLE
  5
F
330
3
100
AcDbSymbolTableRecord
100
AcDbTextStyleTableRecord
  2
STANDARD
 70
     0
 40
0.0
 41
1.0
 50
0.0
 71
     0
 42
2.5
  3
txt
  4

  0
STYLE
  5
BE
330
3
100
AcDbSymbolTableRecord
100
AcDbTextStyleTableRecord
  2
ISOCP3
 70
     0
 40
0.0
 41
1.0
 50
0.0
 71
     0
 42
2.5
  3
isocp3.shx
  4

  0
STYLE
  5
2A37
330
3
100
AcDbSymbolTableRecord
100
AcDbTextStyleTableRecord
  2
TXT
 70
     0
 40
0.0
 41
1.0
 50
0.0
 71
     0
 42
2.5
  3
txt.shx
  4
bigfont.shx
  0
STYLE
  5
5DCB
330
3
100
AcDbSymbolTableRecord
100
AcDbTextStyleTableRecord
  2
LKK
 70
     0
 40
50.0
 41
1.5
 50
0.0
 71
     0
 42
50.0
  3
MS PGothic.ttf
  4

1001
ACAD
1000
MS PGothic
1071
    32818
  0
STYLE
  5
5DCC
330
3
100
AcDbSymbolTableRecord
100
AcDbTextStyleTableRecord
  2
JL
 70
     0
 40
10.0
 41
0.5
 50
0.0
 71
     0
 42
5.0
  3
MS Mincho.ttf
  4

1001
ACAD
1000
MS Mincho
1071
    32785
  0
STYLE
  5
AFA1
330
3
100
AcDbSymbolTableRecord
100
AcDbTextStyleTableRecord
  2

 70
     1
 40
0.0
 41
1.0
 50
0.0
 71
     0
 42
2.5
  3
genltshp.shx
  4

  0
STYLE
  5
AFAF
330
3
100
AcDbSymbolTableRecord
100
AcDbTextStyleTableRecord
  2
ACISOTS
 70
     0
 40
1.0
 41
1.0
 50
0.0
 71
     0
 42
2.5
  3
isocp.shx
  4
chineset.shx
  0
STYLE
  5
AFB0
330
3
100
AcDbSymbolTableRecord
100
AcDbTextStyleTableRecord
  2
ACISOGDT
 70
     0
 40
0.0
 41
1.0
 50
0.0
 71
     0
 42
2.5
  3
amgdt.shx
  4

  0
ENDTAB
  0
TABLE
  2
VIEW
  5
6
330
0
100
AcDbSymbolTable
 70
     0
  0
ENDTAB
  0
TABLE
  2
UCS
  5
7
330
0
100
AcDbSymbolTable
 70
     0
  0
ENDTAB
  0
TABLE
  2
APPID
  5
9
330
0
100
AcDbSymbolTable
 70
    20
  0
APPID
  5
10
330
9
100
AcDbSymbolTableRecord
100
AcDbRegAppTableRecord
  2
ACAD
 70
     0
  0
APPID
  5
AEB8
330
9
100
AcDbSymbolTableRecord
100
AcDbRegAppTableRecord
  2
ACAD_DSTYLE_DIMEXT_LENGTH
 70
     0
  0
APPID
  5
AEB9
330
9
100
AcDbSymbolTableRecord
100
AcDbRegAppTableRecord
  2
ACAD_DSTYLE_DIMEXT_ENABLED
 70
     0
  0
APPID
  5
AEBA
330
9
100
AcDbSymbolTableRecord
100
AcDbRegAppTableRecord
  2
ACAD_DSTYLE_DIMJOGGED_JOGANGLE_SYMBOL
 70
     0
  0
APPID
  5
AEBB
330
9
100
AcDbSymbolTableRecord
100
AcDbRegAppTableRecord
  2
ACAD_DSTYLE_DIMARC_LENGTH_SYMBOL
 70
     0
  0
APPID
  5
AECB
330
9
100
AcDbSymbolTableRecord
100
AcDbRegAppTableRecord
  2
ACAD_EXEMPT_FROM_CAD_STANDARDS
 70
     0
  0
APPID
  5
AF20
330
9
100
AcDbSymbolTableRecord
100
AcDbRegAppTableRecord
  2
ACADSTRINGINFO
 70
     0
  0
APPID
  5
AF31
330
9
100
AcDbSymbolTableRecord
100
AcDbRegAppTableRecord
  2
MCAD_NO_VIS
 70
     0
  0
APPID
  5
AF32
330
9
100
AcDbSymbolTableRecord
100
AcDbRegAppTableRecord
  2
ACAD_TEMP_GRAPHIC
 70
     0
  0
APPID
  5
AF5C
330
9
100
AcDbSymbolTableRecord
100
AcDbRegAppTableRecord
  2
AD_DRAW
 70
     0
  0
APPID
  5
AF5F
330
9
100
AcDbSymbolTableRecord
100
AcDbRegAppTableRecord
  2
ACATTRIBSERVICES
 70
     0
  0
APPID
  5
AF78
330
9
100
AcDbSymbolTableRecord
100
AcDbRegAppTableRecord
  2
DESIGNERASSEMBLIES
 70
     0
  0
APPID
  5
AF7D
330
9
100
AcDbSymbolTableRecord
100
AcDbRegAppTableRecord
  2
ACADM_DIM_EDIT
 70
     0
  0
APPID
  5
AF7E
330
9
100
AcDbSymbolTableRecord
100
AcDbRegAppTableRecord
  2
AMDT_DM_ADJ
 70
     0
  0
APPID
  5
AF97
330
9
100
AcDbSymbolTableRecord
100
AcDbRegAppTableRecord
  2
ACAD_DSTYLE_DIMJAG
 70
     0
  0
APPID
  5
AF98
330
9
100
AcDbSymbolTableRecord
100
AcDbRegAppTableRecord
  2
ACAD_DSTYLE_DIMBREAK
 70
     0
  0
APPID
  5
B285
330
9
100
AcDbSymbolTableRecord
100
AcDbRegAppTableRecord
  2
ACAD_MLEADERVER
 70
     0
  0
APPID
  5
B286
330
9
100
AcDbSymbolTableRecord
100
AcDbRegAppTableRecord
  2
ACAD_DSTYLE_DIM_LINETYPE
 70
     0
  0
APPID
  5
B287
330
9
100
AcDbSymbolTableRecord
100
AcDbRegAppTableRecord
  2
ACAD_DSTYLE_DIM_EXT1_LINETYPE
 70
     0
  0
APPID
  5
B288
330
9
100
AcDbSymbolTableRecord
100
AcDbRegAppTableRecord
  2
ACAD_DSTYLE_DIM_EXT2_LINETYPE
 70
     0
  0
ENDTAB
  0
TABLE
  2
DIMSTYLE
  5
A
330
0
100
AcDbSymbolTable
 70
    10
100
AcDbDimStyleTable
 71
     1
340
1A4
  0
DIMSTYLE
105
1D
330
A
100
AcDbSymbolTableRecord
100
AcDbDimStyleTableRecord
  2
STANDARD
 70
     0
 41
3.0
 42
0.06
 77
     3
140
4.0
144
0.3333333333333333
172
     1
340
F
  0
DIMSTYLE
105
1A4
102
{ACAD_REACTORS
330
B01F
330
B0AF
330
B0B0
330
B0B1
330
B020
330
B022
330
B032
330
B033
330
B034
330
B03D
330
B040
330
B0A0
102
}
330
A
100
AcDbSymbolTableRecord
100
AcDbDimStyleTableRecord
  2
A
 70
     0
 41
2.5
 42
1.0
 43
6.0
 44
1.0
 73
     0
 74
     0
 77
     3
 78
     8
140
3.0
141
0.0
147
1.0
176
     6
177
     6
178
     3
271
     1
272
     1
279
     1
340
2A37
  0
DIMSTYLE
105
6006
330
A
100
AcDbSymbolTableRecord
100
AcDbDimStyleTableRecord
  2
ISO-25
 70
     0
 40
0.0
 41
2.0
 42
0.3
 43
1.0
 44
0.3
 73
     0
 74
     0
 77
     1
 78
     8
140
3.0
147
1.0
172
     1
176
     6
177
     6
178
     3
271
     1
272
     2
284
     8
288
     1
289
     2
340
F
  0
DIMSTYLE
105
AF96
330
A
100
AcDbSymbolTableRecord
100
AcDbDimStyleTableRecord
  2
AM_ISO
 70
     0
  4
"
 41
3.5
 42
1.0
 43
10.0
 44
1.0
 47
0.1
 48
0.1
 73
     0
 74
     0
 77
     1
 78
     8
 79
     2
140
3.5
141
0.0
143
0.0393701
146
0.71
147
1.5
172
     1
176
   256
177
   256
178
     2
271
     2
272
     3
274
     4
283
     0
284
     8
340
F
371
    -1
372
    -1
1001
ACAD_DSTYLE_DIMJAG
1070
   388
1040
1.5
1001
ACAD_DSTYLE_DIMBREAK
1070
   391
1040
3.75
1001
ACAD_DSTYLE_DIMARC_LENGTH_SYMBOL
1070
   379
1070
     1
1001
ACAD_DSTYLE_DIM_LINETYPE
1070
   380
1005
12
1001
ACAD_DSTYLE_DIM_EXT1_LINETYPE
1070
   381
1005
12
1001
ACAD_DSTYLE_DIM_EXT2_LINETYPE
1070
   382
1005
12
  0
DIMSTYLE
105
AFA3
330
A
100
AcDbSymbolTableRecord
100
AcDbDimStyleTableRecord
  2
AM_ISO$3
 70
     0
  4
"
 41
3.5
 42
1.0
 43
10.0
 44
1.0
 47
0.1
 48
0.1
 73
     0
 77
     1
 78
     8
 79
     2
140
3.5
141
0.0
143
0.0393701
146
0.71
147
1.5
176
   256
177
   256
178
     2
271
     2
272
     3
274
     4
283
     0
284
     8
288
     1
289
     0
340
F
371
    -1
372
    -1
1001
ACAD_DSTYLE_DIMBREAK
1070
   391
1040
3.75
1001
ACAD_DSTYLE_DIMJAG
1070
   388
1040
1.5
1001
ACAD_DSTYLE_DIMARC_LENGTH_SYMBOL
1070
   379
1070
     1
1001
ACAD_DSTYLE_DIM_LINETYPE
1070
   380
1005
12
1001
ACAD_DSTYLE_DIM_EXT1_LINETYPE
1070
   381
1005
12
1001
ACAD_DSTYLE_DIM_EXT2_LINETYPE
1070
   382
1005
12
  0
DIMSTYLE
105
AFA4
330
A
100
AcDbSymbolTableRecord
100
AcDbDimStyleTableRecord
  2
AM_ISO$4
 70
     0
  4
"
 41
3.5
 42
1.0
 43
10.0
 44
1.0
 47
0.1
 48
0.1
 73
     0
 77
     1
 78
     8
 79
     2
140
3.5
141
0.0
143
0.0393701
146
0.71
147
1.5
176
   256
177
   256
178
     2
271
     2
272
     3
274
     4
283
     0
284
     8
288
     1
289
     0
340
F
371
    -1
372
    -1
1001
ACAD_DSTYLE_DIMBREAK
1070
   391
1040
3.75
1001
ACAD_DSTYLE_DIMJAG
1070
   388
1040
1.5
1001
ACAD_DSTYLE_DIMARC_LENGTH_SYMBOL
1070
   379
1070
     1
1001
ACAD_DSTYLE_DIM_LINETYPE
1070
   380
1005
12
1001
ACAD_DSTYLE_DIM_EXT1_LINETYPE
1070
   381
1005
12
1001
ACAD_DSTYLE_DIM_EXT2_LINETYPE
1070
   382
1005
12
  0
DIMSTYLE
105
AFA5
330
A
100
AcDbSymbolTableRecord
100
AcDbDimStyleTableRecord
  2
AM_ISO$6
 70
     0
  4
"
 41
3.5
 42
1.0
 43
10.0
 44
1.0
 47
0.1
 48
0.1
 73
     0
 74
     0
 78
     8
 79
     2
140
3.5
141
0.0
143
0.0393701
146
0.71
147
1.5
172
     1
176
   256
177
   256
178
     2
271
     2
272
     3
274
     4
283
     0
284
     8
340
F
371
    -1
372
    -1
1001
ACAD_DSTYLE_DIMBREAK
1070
   391
1040
3.75
1001
ACAD_DSTYLE_DIMJAG
1070
   388
1040
1.5
1001
ACAD_DSTYLE_DIMARC_LENGTH_SYMBOL
1070
   379
1070
     1
1001
ACAD_DSTYLE_DIM_LINETYPE
1070
   380
1005
12
1001
ACAD_DSTYLE_DIM_EXT1_LINETYPE
1070
   381
1005
12
1001
ACAD_DSTYLE_DIM_EXT2_LINETYPE
1070
   382
1005
12
  0
DIMSTYLE
105
AFA6
330
A
100
AcDbSymbolTableRecord
100
AcDbDimStyleTableRecord
  2
AM_ISO$7
 70
     0
  4
"
 41
3.5
 42
1.0
 43
10.0
 44
1.0
 47
0.1
 48
0.1
 73
     0
 74
     0
 77
     1
 78
     8
 79
     2
140
3.5
141
0.0
143
0.0393701
146
0.71
147
1.5
172
     1
176
   256
177
   256
178
     2
271
     2
272
     3
274
     4
283
     0
284
     8
340
F
371
    -1
372
    -1
1001
ACAD_DSTYLE_DIMBREAK
1070
   391
1040
3.75
1001
ACAD_DSTYLE_DIMJAG
1070
   388
1040
1.5
1001
ACAD_DSTYLE_DIMARC_LENGTH_SYMBOL
1070
   379
1070
     1
1001
ACAD_DSTYLE_DIM_LINETYPE
1070
   380
1005
12
1001
ACAD_DSTYLE_DIM_EXT1_LINETYPE
1070
   381
1005
12
1001
ACAD_DSTYLE_DIM_EXT2_LINETYPE
1070
   382
1005
12
  0
DIMSTYLE
105
AFA7
330
A
100
AcDbSymbolTableRecord
100
AcDbDimStyleTableRecord
  2
AM_ISO$SF
 70
     0
  4
"
 41
3.5
 42
1.0
 43
10.0
 44
1.0
 47
0.1
 48
0.1
 73
     0
 74
     0
 75
     1
 76
     1
 77
     1
 78
     8
 79
     2
140
3.5
141
0.0
143
0.0393701
146
0.71
147
1.5
172
     1
176
   256
177
   256
178
     2
271
     2
272
     3
274
     4
283
     0
284
     8
340
F
371
    -1
372
    -1
1001
ACAD_DSTYLE_DIMBREAK
1070
   391
1040
3.75
1001
ACAD_DSTYLE_DIMJAG
1070
   388
1040
1.5
1001
ACAD_DSTYLE_DIMARC_LENGTH_SYMBOL
1070
   379
1070
     1
1001
ACAD_DSTYLE_DIM_LINETYPE
1070
   380
1005
12
1001
ACAD_DSTYLE_DIM_EXT1_LINETYPE
1070
   381
1005
12
1001
ACAD_DSTYLE_DIM_EXT2_LINETYPE
1070
   382
1005
12
  0
DIMSTYLE
105
AFAC
330
A
100
AcDbSymbolTableRecord
100
AcDbDimStyleTableRecord
  2
AM_ISO$SH
 70
     0
  4
"
 41
3.5
 42
1.0
 43
10.0
 44
1.0
 47
0.1
 48
0.1
 73
     0
 74
     0
 75
     1
 76
     1
 77
     1
 78
     8
 79
     2
140
3.5
141
0.0
143
0.0393701
144
2.0
146
0.71
147
1.5
172
     1
173
     1
176
   256
177
   256
178
     2
271
     2
272
     3
274
     4
283
     0
284
     8
340
F
343
AFA8
371
    -1
372
    -1
1001
ACAD_DSTYLE_DIMBREAK
1070
   391
1040
3.75
1001
ACAD_DSTYLE_DIMJAG
1070
   388
1040
1.5
1001
ACAD_DSTYLE_DIMARC_LENGTH_SYMBOL
1070
   379
1070
     1
1001
ACAD_DSTYLE_DIM_LINETYPE
1070
   380
1005
12
1001
ACAD_DSTYLE_DIM_EXT1_LINETYPE
1070
   381
1005
12
1001
ACAD_DSTYLE_DIM_EXT2_LINETYPE
1070
   382
1005
12
  0
ENDTAB
  0
TABLE
  2
BLOCK_RECORD
  5
1
330
0
100
AcDbSymbolTable
 70
    28
  0
BLOCK_RECORD
  5
18
102
{ACAD_XDICTIONARY
360
45F
102
}
330
1
100
AcDbSymbolTableRecord
100
AcDbBlockTableRecord
  2
*MODEL_SPACE
340
5CF5
  0
BLOCK_RECORD
  5
15
102
{ACAD_XDICTIONARY
360
5D89
102
}
330
1
100
AcDbSymbolTableRecord
100
AcDbBlockTableRecord
  2
*PAPER_SPACE
340
5CF6
  0
BLOCK_RECORD
  5
639D
330
1
100
AcDbSymbolTableRecord
100
AcDbBlockTableRecord
  2
A$C255C26A2
340
0
102
{BLKREFS
331
AFC9
102
}
  0
BLOCK_RECORD
  5
6C86
330
1
100
AcDbSymbolTableRecord
100
AcDbBlockTableRecord
  2
*D1
340
0
  0
BLOCK_RECORD
  5
6C9E
330
1
100
AcDbSymbolTableRecord
100
AcDbBlockTableRecord
  2
*D2
340
0
  0
BLOCK_RECORD
  5
7A5F
330
1
100
AcDbSymbolTableRecord
100
AcDbBlockTableRecord
  2
_DOTSMALL
340
0
  0
BLOCK_RECORD
  5
8FA3
330
1
100
AcDbSymbolTableRecord
100
AcDbBlockTableRecord
  2
*D4
340
0
  0
BLOCK_RECORD
  5
93DD
330
1
100
AcDbSymbolTableRecord
100
AcDbBlockTableRecord
  2
*D5
340
0
  0
BLOCK_RECORD
  5
93F5
330
1
100
AcDbSymbolTableRecord
100
AcDbBlockTableRecord
  2
*D6
340
0
  0
BLOCK_RECORD
  5
93FF
330
1
100
AcDbSymbolTableRecord
100
AcDbBlockTableRecord
  2
*D7
340
0
  0
BLOCK_RECORD
  5
9571
330
1
100
AcDbSymbolTableRecord
100
AcDbBlockTableRecord
  2
*D8
340
0
  0
BLOCK_RECORD
  5
A27B
330
1
100
AcDbSymbolTableRecord
100
AcDbBlockTableRecord
  2
*D9
340
0
  0
BLOCK_RECORD
  5
AD1B
330
1
100
AcDbSymbolTableRecord
100
AcDbBlockTableRecord
  2
*D10
340
0
  0
BLOCK_RECORD
  5
ADB1
330
1
100
AcDbSymbolTableRecord
100
AcDbBlockTableRecord
  2
*D11
340
0
  0
BLOCK_RECORD
  5
ADD0
330
1
100
AcDbSymbolTableRecord
100
AcDbBlockTableRecord
  2
*D12
340
0
  0
BLOCK_RECORD
  5
ADDF
330
1
100
AcDbSymbolTableRecord
100
AcDbBlockTableRecord
  2
*D13
340
0
  0
BLOCK_RECORD
  5
AEB1
330
1
100
AcDbSymbolTableRecord
100
AcDbBlockTableRecord
  2
_Open30
340
0
  0
BLOCK_RECORD
  5
AFA8
330
1
100
AcDbSymbolTableRecord
100
AcDbBlockTableRecord
  2
GENAXEH
340
0
  0
BLOCK_RECORD
  5
B0CC
330
1
100
AcDbSymbolTableRecord
100
AcDbBlockTableRecord
  2
*D16
340
0
  0
BLOCK_RECORD
  5
B0D8
330
1
100
AcDbSymbolTableRecord
100
AcDbBlockTableRecord
  2
*D17
340
0
  0
BLOCK_RECORD
  5
B0E5
330
1
100
AcDbSymbolTableRecord
100
AcDbBlockTableRecord
  2
*D18
340
0
  0
BLOCK_RECORD
  5
B0F3
330
1
100
AcDbSymbolTableRecord
100
AcDbBlockTableRecord
  2
*D19
340
0
  0
BLOCK_RECORD
  5
B101
330
1
100
AcDbSymbolTableRecord
100
AcDbBlockTableRecord
  2
*D20
340
0
  0
BLOCK_RECORD
  5
B10D
330
1
100
AcDbSymbolTableRecord
100
AcDbBlockTableRecord
  2
*D21
340
0
  0
BLOCK_RECORD
  5
B119
330
1
100
AcDbSymbolTableRecord
100
AcDbBlockTableRecord
  2
*D22
340
0
  0
BLOCK_RECORD
  5
B125
330
1
100
AcDbSymbolTableRecord
100
AcDbBlockTableRecord
  2
*D23
340
0
  0
BLOCK_RECORD
  5
B130
330
1
100
AcDbSymbolTableRecord
100
AcDbBlockTableRecord
  2
*D24
340
0
  0
BLOCK_RECORD
  5
B13B
330
1
100
AcDbSymbolTableRecord
100
AcDbBlockTableRecord
  2
*D25
340
0
  0
BLOCK_RECORD
  5
B147
330
1
100
AcDbSymbolTableRecord
100
AcDbBlockTableRecord
  2
*D26
340
0
  0
BLOCK_RECORD
  5
B154
330
1
100
AcDbSymbolTableRecord
100
AcDbBlockTableRecord
  2
*D27
340
0
  0
ENDTAB
  0
ENDSEC
  0
SECTION
  2
BLOCKS
  0
BLOCK
  5
19
330
18
100
AcDbEntity
  8
0
100
AcDbBlockBegin
  2
*MODEL_SPACE
 70
     0
 10
0.0
 20
0.0
 30
0.0
  3
*MODEL_SPACE
  1

  0
ENDBLK
  5
1A
330
18
100
AcDbEntity
  8
0
100
AcDbBlockEnd
  0
BLOCK
  5
16
330
15
100
AcDbEntity
 67
     1
  8
0
100
AcDbBlockBegin
  2
*PAPER_SPACE
 70
     0
 10
0.0
 20
0.0
 30
0.0
  3
*PAPER_SPACE
  1

  0
ENDBLK
  5
17
330
15
100
AcDbEntity
 67
     1
  8
0
100
AcDbBlockEnd
  0
BLOCK
  5
63A1
330
639D
100
AcDbEntity
  8
0
100
AcDbBlockBegin
  2
A$C255C26A2
 70
     0
 10
0.0
 20
0.0
 30
0.0
  3
A$C255C26A2
  1

  0
LWPOLYLINE
  5
639E
330
639D
100
AcDbEntity
  8
0
100
AcDbPolyline
 90
        3
 70
     1
 43
0.0
 10
7.014806023851633
 20
0.0000006939811783
 10
5.611844869720698
 20
2.430000693981241
 10
8.417767177982568
 20
2.430000693981241
  0
LWPOLYLINE
  5
639F
330
639D
100
AcDbEntity
  8
0
100
AcDbPolyline
 90
        3
 70
     1
 43
0.0
 10
4.20888371558999
 20
0.0000006939811783
 10
2.805922561459283
 20
2.430000693981241
 10
5.611844869720698
 20
2.430000693981241
  0
LWPOLYLINE
  5
63A0
330
639D
100
AcDbEntity
  8
0
100
AcDbPolyline
 90
        3
 70
     1
 43
0.0
 10
1.402961407328348
 20
0.0000006939811783
 10
0.0000002531974133
 20
2.430000693981241
 10
2.805922561459283
 20
2.430000693981241
  0
ENDBLK
  5
63A2
330
639D
100
AcDbEntity
  8
0
100
AcDbBlockEnd
  0
BLOCK
  5
AD5D
330
6C86
100
AcDbEntity
  8
0
100
AcDbBlockBegin
  2
*D1
 70
     1
 10
0.0
 20
0.0
 30
0.0
  3
*D1
  1

  0
LINE
  5
AD5E
330
6C86
100
AcDbEntity
  8
0
  6
ByBlock
 62
     6
100
AcDbLine
 10
281.4324054054452
 20
105.9433531926348
 30
0.0
 11
281.4324054054452
 21
123.5400420978375
 31
0.0
  0
LINE
  5
AD5F
330
6C86
100
AcDbEntity
  8
0
  6
ByBlock
 62
     6
100
AcDbLine
 10
345.4324054054451
 20
105.9433531926348
 30
0.0
 11
345.4324054054451
 21
123.5400420978375
 31
0.0
  0
LINE
  5
AD60
330
6C86
100
AcDbEntity
  8
0
  6
ByBlock
 62
     6
100
AcDbLine
 10
283.9324054054451
 20
122.5400420978375
 30
0.0
 11
342.9324054054451
 21
122.5400420978375
 31
0.0
  0
SOLID
  5
AD61
330
6C86
100
AcDbEntity
  8
0
  6
ByBlock
 62
     6
100
AcDbTrace
 10
283.9324054054451
 20
122.9567087645042
 30
0.0
 11
283.9324054054451
 21
122.1233754311709
 31
0.0
 12
281.4324054054452
 22
122.5400420978375
 32
0.0
 13
281.4324054054452
 23
122.5400420978375
 33
0.0
  0
SOLID
  5
AD62
330
6C86
100
AcDbEntity
  8
0
  6
ByBlock
 62
     6
100
AcDbTrace
 10
342.9324054054451
 20
122.9567087645042
 30
0.0
 11
342.9324054054451
 21
122.1233754311709
 31
0.0
 12
345.4324054054451
 22
122.5400420978375
 32
0.0
 13
345.4324054054451
 23
122.5400420978375
 33
0.0
  0
MTEXT
  5
AD63
330
6C86
100
AcDbEntity
  8
0
  6
ByBlock
 62
     3
100
AcDbMText
 10
313.4324054054451
 20
125.0400420978375
 30
0.0
 40
3.0
 41
0.0
 71
     5
 72
     1
  1
\A1;\U+220564±0.5
  7
TXT
 73
     1
 44
1.0
1001
ACAD
1000
MTEXTBEGIN
1070
    73
1070
     1
1070
    44
1040
1.0
1070
    74
1070
     0
1000
MTEXTEND
  0
POINT
  5
AD64
330
6C86
100
AcDbEntity
  8
DEFPOINTS
  6
ByBlock
 62
     0
100
AcDbPoint
 10
281.4324054054452
 20
104.9433531926348
 30
0.0
  0
POINT
  5
AD65
330
6C86
100
AcDbEntity
  8
DEFPOINTS
  6
ByBlock
 62
     0
100
AcDbPoint
 10
345.4324054054451
 20
104.9433531926348
 30
0.0
  0
POINT
  5
AD66
330
6C86
100
AcDbEntity
  8
DEFPOINTS
  6
ByBlock
 62
     0
100
AcDbPoint
 10
345.4324054054451
 20
122.5400420978375
 30
0.0
  0
ENDBLK
  5
AD67
330
6C86
100
AcDbEntity
  8
0
100
AcDbBlockEnd
  0
BLOCK
  5
AD52
330
6C9E
100
AcDbEntity
  8
0
100
AcDbBlockBegin
  2
*D2
 70
     1
 10
0.0
 20
0.0
 30
0.0
  3
*D2
  1

  0
LINE
  5
AD53
330
6C9E
100
AcDbEntity
  8
0
  6
ByBlock
 62
     6
100
AcDbLine
 10
278.4324054054453
 20
101.2113023850659
 30
0.0
 11
278.4324054054453
 21
130.6197115217185
 31
0.0
  0
LINE
  5
AD54
330
6C9E
100
AcDbEntity
  8
0
  6
ByBlock
 62
     6
100
AcDbLine
 10
348.4324054054452
 20
101.2113023850659
 30
0.0
 11
348.4324054054452
 21
130.6197115217185
 31
0.0
  0
LINE
  5
AD55
330
6C9E
100
AcDbEntity
  8
0
  6
ByBlock
 62
     6
100
AcDbLine
 10
280.9324054054453
 20
129.6197115217185
 30
0.0
 11
345.9324054054452
 21
129.6197115217185
 31
0.0
  0
MTEXT
  5
AD56
330
6C9E
100
AcDbEntity
  8
0
  6
ByBlock
 62
     3
100
AcDbMText
 10
307.9074920362685
 20
132.9321325458067
 30
0.0
 40
3.0
 41
0.0
 71
     5
 72
     1
  1
\A1;\U+220570
  7
TXT
 73
     1
 44
1.0
1001
ACAD
1000
MTEXTBEGIN
1070
    73
1070
     1
1070
    44
1040
1.0
1070
    74
1070
     0
1000
MTEXTEND
  0
SOLID
  5
AD57
330
6C9E
100
AcDbEntity
  8
0
  6
ByBlock
 62
     6
100
AcDbTrace
 10
280.9324054054453
 20
130.0363781883852
 30
0.0
 11
280.9324054054453
 21
129.2030448550519
 31
0.0
 12
278.4324054054453
 22
129.6197115217185
 32
0.0
 13
278.4324054054453
 23
129.6197115217185
 33
0.0
  0
SOLID
  5
AD58
330
6C9E
100
AcDbEntity
  8
0
  6
ByBlock
 62
     6
100
AcDbTrace
 10
345.9324054054452
 20
130.0363781883852
 30
0.0
 11
345.9324054054452
 21
129.2030448550519
 31
0.0
 12
348.4324054054452
 22
129.6197115217185
 32
0.0
 13
348.4324054054452
 23
129.6197115217185
 33
0.0
  0
POINT
  5
AD59
330
6C9E
100
AcDbEntity
  8
DEFPOINTS
  6
ByBlock
 62
     0
100
AcDbPoint
 10
278.4324054054453
 20
100.2113023850659
 30
0.0
  0
POINT
  5
AD5A
330
6C9E
100
AcDbEntity
  8
DEFPOINTS
  6
ByBlock
 62
     0
100
AcDbPoint
 10
348.4324054054452
 20
100.2113023850659
 30
0.0
  0
POINT
  5
AD5B
330
6C9E
100
AcDbEntity
  8
DEFPOINTS
  6
ByBlock
 62
     0
100
AcDbPoint
 10
348.4324054054452
 20
129.6197115217185
 30
0.0
  0
ENDBLK
  5
AD5C
330
6C9E
100
AcDbEntity
  8
0
100
AcDbBlockEnd
  0
BLOCK
  5
7A64
330
7A5F
100
AcDbEntity
  8
0
100
AcDbBlockBegin
  2
_DOTSMALL
 70
     0
 10
0.0
 20
0.0
 30
0.0
  3
_DOTSMALL
  1

  0
LWPOLYLINE
  5
7A60
330
7A5F
100
AcDbEntity
  8
0
  6
ByBlock
 62
     0
100
AcDbPolyline
 90
        2
 70
     1
 43
0.5
 10
-0.0625
 20
0.0
 42
1.0
 10
0.0625
 20
0.0
 42
1.0
  0
ENDBLK
  5
7A65
330
7A5F
100
AcDbEntity
  8
0
100
AcDbBlockEnd
  0
BLOCK
  5
ACA4
330
8FA3
100
AcDbEntity
  8
0
100
AcDbBlockBegin
  2
*D4
 70
     1
 10
0.0
 20
0.0
 30
0.0
  3
*D4
  1

  0
LINE
  5
ACA5
330
8FA3
100
AcDbEntity
  8
0
  6
ByBlock
 62
     6
100
AcDbLine
 10
299.4420243486788
 20
212.3463665210781
 30
0.0
 11
259.0501433600216
 21
212.3463665210781
 31
0.0
  0
LINE
  5
ACA6
330
8FA3
100
AcDbEntity
  8
0
  6
ByBlock
 62
     6
100
AcDbLine
 10
299.9324054054452
 20
147.3463665210781
 30
0.0
 11
259.0501433600216
 21
147.3463665210781
 31
0.0
  0
LINE
  5
ACA7
330
8FA3
100
AcDbEntity
  8
0
  6
ByBlock
 62
     6
100
AcDbLine
 10
260.0501433600216
 20
209.8463665210781
 30
0.0
 11
260.0501433600216
 21
149.8463665210781
 31
0.0
  0
MTEXT
  5
ACA8
330
8FA3
100
AcDbEntity
  8
0
  6
ByBlock
 62
     3
100
AcDbMText
 10
256.3043265269116
 20
176.5009213116934
 30
0.0
 40
3.0
 41
0.0
 71
     5
 72
     1
  1
\A1;65
  7
TXT
 11
0.0000000000000001
 21
1.0
 31
0.0
 73
     1
 44
1.0
1001
ACAD
1000
MTEXTBEGIN
1070
    73
1070
     1
1070
    44
1040
1.0
1070
    74
1070
     0
1000
MTEXTEND
  0
SOLID
  5
ACA9
330
8FA3
100
AcDbEntity
  8
0
  6
ByBlock
 62
     6
100
AcDbTrace
 10
259.6334766933549
 20
209.8463665210781
 30
0.0
 11
260.4668100266883
 21
209.8463665210781
 31
0.0
 12
260.0501433600216
 22
212.3463665210781
 32
0.0
 13
260.0501433600216
 23
212.3463665210781
 33
0.0
  0
SOLID
  5
ACAA
330
8FA3
100
AcDbEntity
  8
0
  6
ByBlock
 62
     6
100
AcDbTrace
 10
259.6334766933549
 20
149.8463665210781
 30
0.0
 11
260.4668100266883
 21
149.8463665210781
 31
0.0
 12
260.0501433600216
 22
147.3463665210781
 32
0.0
 13
260.0501433600216
 23
147.3463665210781
 33
0.0
  0
POINT
  5
ACAB
330
8FA3
100
AcDbEntity
  8
DEFPOINTS
  6
ByBlock
 62
     0
100
AcDbPoint
 10
300.4420243486789
 20
212.3463665210781
 30
0.0
  0
POINT
  5
ACAC
330
8FA3
100
AcDbEntity
  8
DEFPOINTS
  6
ByBlock
 62
     0
100
AcDbPoint
 10
300.9324054054452
 20
147.3463665210781
 30
0.0
  0
POINT
  5
ACAD
330
8FA3
100
AcDbEntity
  8
DEFPOINTS
  6
ByBlock
 62
     0
100
AcDbPoint
 10
260.0501433600216
 20
147.3463665210781
 30
0.0
  0
ENDBLK
  5
ACAE
330
8FA3
100
AcDbEntity
  8
0
100
AcDbBlockEnd
  0
BLOCK
  5
AE1B
330
93DD
100
AcDbEntity
  8
0
100
AcDbBlockBegin
  2
*D5
 70
     1
 10
0.0
 20
0.0
 30
0.0
  3
*D5
  1

  0
LINE
  5
AE1C
330
93DD
100
AcDbEntity
  8
0
  6
ByBlock
 62
     6
100
AcDbLine
 10
282.9324054054452
 20
81.94335319263482
 30
0.0
 11
282.9324054054452
 21
46.84561044989243
 31
0.0
  0
LINE
  5
AE1D
330
93DD
100
AcDbEntity
  8
0
  6
ByBlock
 62
     6
100
AcDbLine
 10
343.9324655388328
 20
81.94345734671751
 30
0.0
 11
343.9324655388328
 21
46.84561044989243
 31
0.0
  0
LINE
  5
AE1E
330
93DD
100
AcDbEntity
  8
0
  6
ByBlock
 62
     6
100
AcDbLine
 10
285.4324054054452
 20
47.84561044989243
 30
0.0
 11
341.4324655388329
 21
47.84561044989243
 31
0.0
  0
SOLID
  5
AE1F
330
93DD
100
AcDbEntity
  8
0
  6
ByBlock
 62
     6
100
AcDbTrace
 10
285.4324054054452
 20
48.2622771165591
 30
0.0
 11
285.4324054054452
 21
47.42894378322577
 31
0.0
 12
282.9324054054452
 22
47.84561044989243
 32
0.0
 13
282.9324054054452
 23
47.84561044989243
 33
0.0
  0
SOLID
  5
AE20
330
93DD
100
AcDbEntity
  8
0
  6
ByBlock
 62
     6
100
AcDbTrace
 10
341.4324655388329
 20
48.2622771165591
 30
0.0
 11
341.4324655388329
 21
47.42894378322577
 31
0.0
 12
343.9324655388328
 22
47.84561044989243
 32
0.0
 13
343.9324655388328
 23
47.84561044989243
 33
0.0
  0
MTEXT
  5
AE21
330
93DD
100
AcDbEntity
  8
0
  6
ByBlock
 62
     3
100
AcDbMText
 10
313.432435472139
 20
50.34561044989243
 30
0.0
 40
3.0
 41
0.0
 71
     5
 72
     1
  1
\A1;\U+220561±0.5
  7
TXT
 73
     1
 44
1.0
1001
ACAD
1000
MTEXTBEGIN
1070
    73
1070
     1
1070
    44
1040
1.0
1070
    74
1070
     0
1000
MTEXTEND
  0
POINT
  5
AE22
330
93DD
100
AcDbEntity
  8
DEFPOINTS
  6
ByBlock
 62
     0
100
AcDbPoint
 10
282.9324054054452
 20
82.94335319263481
 30
0.0
  0
POINT
  5
AE23
330
93DD
100
AcDbEntity
  8
DEFPOINTS
  6
ByBlock
 62
     0
100
AcDbPoint
 10
343.9324655388328
 20
82.9434573467175
 30
0.0
  0
POINT
  5
AE24
330
93DD
100
AcDbEntity
  8
DEFPOINTS
  6
ByBlock
 62
     0
100
AcDbPoint
 10
343.9324655388328
 20
47.84561044989243
 30
0.0
  0
ENDBLK
  5
AE25
330
93DD
100
AcDbEntity
  8
0
100
AcDbBlockEnd
  0
BLOCK
  5
AD71
330
93F5
100
AcDbEntity
  8
0
100
AcDbBlockBegin
  2
*D6
 70
     1
 10
0.0
 20
0.0
 30
0.0
  3
*D6
  1

  0
LINE
  5
AD72
330
93F5
100
AcDbEntity
  8
0
  6
ByBlock
 62
     6
100
AcDbLine
 10
336.4324054054451
 20
105.9433531926348
 30
0.0
 11
336.4324054054451
 21
117.1040171029998
 31
0.0
  0
LINE
  5
AD73
330
93F5
100
AcDbEntity
  8
0
  6
ByBlock
 62
     6
100
AcDbLine
 10
333.9324054054451
 20
116.1040171029998
 30
0.0
 11
290.4324054054452
 21
116.1040171029998
 31
0.0
  0
SOLID
  5
AD74
330
93F5
100
AcDbEntity
  8
0
  6
ByBlock
 62
     6
100
AcDbTrace
 10
333.9324054054451
 20
116.5206837696664
 30
0.0
 11
333.9324054054451
 21
115.6873504363331
 31
0.0
 12
336.4324054054451
 22
116.1040171029998
 32
0.0
 13
336.4324054054451
 23
116.1040171029998
 33
0.0
  0
MTEXT
  5
AD75
330
93F5
100
AcDbEntity
  8
0
  6
ByBlock
 62
     3
100
AcDbMText
 10
312.1824054054452
 20
118.6040171029997
 30
0.0
 40
3.0
 41
0.0
 71
     5
 72
     1
  1
\A1;\U+220546
  7
TXT
 73
     1
 44
1.0
1001
ACAD
1000
MTEXTBEGIN
1070
    73
1070
     1
1070
    44
1040
1.0
1070
    74
1070
     0
1000
MTEXTEND
  0
POINT
  5
AD76
330
93F5
100
AcDbEntity
  8
DEFPOINTS
  6
ByBlock
 62
     0
100
AcDbPoint
 10
336.4324054054451
 20
104.9433531926348
 30
0.0
  0
POINT
  5
AD77
330
93F5
100
AcDbEntity
  8
DEFPOINTS
  6
ByBlock
 62
     0
100
AcDbPoint
 10
290.4324054054452
 20
104.9433531926343
 30
0.0
  0
POINT
  5
AD78
330
93F5
100
AcDbEntity
  8
DEFPOINTS
  6
ByBlock
 62
     0
100
AcDbPoint
 10
290.4324054054452
 20
116.1040171029998
 30
0.0
  0
ENDBLK
  5
AD79
330
93F5
100
AcDbEntity
  8
0
100
AcDbBlockEnd
  0
BLOCK
  5
AE11
330
93FF
100
AcDbEntity
  8
0
100
AcDbBlockBegin
  2
*D7
 70
     1
 10
0.0
 20
0.0
 30
0.0
  3
*D7
  1

  0
LINE
  5
AE12
330
93FF
100
AcDbEntity
  8
0
  6
ByBlock
 62
     6
100
AcDbLine
 10
335.9324054054452
 20
82.5433531926348
 30
0.0
 11
335.9324054054452
 21
61.49844434586555
 31
0.0
  0
LINE
  5
AE13
330
93FF
100
AcDbEntity
  8
0
  6
ByBlock
 62
     6
100
AcDbLine
 10
333.4324054054452
 20
62.49844434586555
 30
0.0
 11
290.9324054054451
 21
62.49844434586555
 31
0.0
  0
MTEXT
  5
AE14
330
93FF
100
AcDbEntity
  8
0
  6
ByBlock
 62
     3
100
AcDbMText
 10
314.6824054054451
 20
64.99844434586555
 30
0.0
 40
3.0
 41
0.0
 71
     5
 72
     1
  1
\A1;M45X1.5P
  7
TXT
 73
     1
 44
1.0
1001
ACAD
1000
MTEXTBEGIN
1070
    73
1070
     1
1070
    44
1040
1.0
1070
    74
1070
     0
1000
MTEXTEND
  0
SOLID
  5
AE15
330
93FF
100
AcDbEntity
  8
0
  6
ByBlock
 62
     6
100
AcDbTrace
 10
333.4324054054452
 20
62.91511101253221
 30
0.0
 11
333.4324054054452
 21
62.08177767919888
 31
0.0
 12
335.9324054054452
 22
62.49844434586555
 32
0.0
 13
335.9324054054452
 23
62.49844434586555
 33
0.0
  0
POINT
  5
AE16
330
93FF
100
AcDbEntity
  8
DEFPOINTS
  6
ByBlock
 62
     0
100
AcDbPoint
 10
335.9324054054452
 20
83.54335319263482
 30
0.0
  0
POINT
  5
AE17
330
93FF
100
AcDbEntity
  8
DEFPOINTS
  6
ByBlock
 62
     0
100
AcDbPoint
 10
290.9324054054451
 20
83.04335319263485
 30
0.0
  0
POINT
  5
AE18
330
93FF
100
AcDbEntity
  8
DEFPOINTS
  6
ByBlock
 62
     0
100
AcDbPoint
 10
290.9324054054451
 20
62.49844434586555
 30
0.0
  0
ENDBLK
  5
AE19
330
93FF
100
AcDbEntity
  8
0
100
AcDbBlockEnd
  0
BLOCK
  5
AE26
330
9571
100
AcDbEntity
  8
0
100
AcDbBlockBegin
  2
*D8
 70
     1
 10
0.0
 20
0.0
 30
0.0
  3
*D8
  1

  0
LINE
  5
AE27
330
9571
100
AcDbEntity
  8
0
  6
ByBlock
 62
     6
100
AcDbLine
 10
280.4324054054451
 20
104.9433531926348
 30
0.0
 11
264.8671377524266
 21
104.9433531926348
 31
0.0
  0
LINE
  5
AE28
330
9571
100
AcDbEntity
  8
0
  6
ByBlock
 62
     6
100
AcDbLine
 10
281.9324054054451
 20
82.94335319263485
 30
0.0
 11
264.8671377524266
 21
82.94335319263485
 31
0.0
  0
LINE
  5
AE29
330
9571
100
AcDbEntity
  8
0
  6
ByBlock
 62
     6
100
AcDbLine
 10
265.8671377524266
 20
102.4433531926348
 30
0.0
 11
265.8671377524266
 21
85.44335319263485
 31
0.0
  0
SOLID
  5
AE2A
330
9571
100
AcDbEntity
  8
0
  6
ByBlock
 62
     6
100
AcDbTrace
 10
265.45047108576
 20
102.4433531926348
 30
0.0
 11
266.2838044190933
 21
102.4433531926348
 31
0.0
 12
265.8671377524266
 22
104.9433531926348
 32
0.0
 13
265.8671377524266
 23
104.9433531926348
 33
0.0
  0
SOLID
  5
AE2B
330
9571
100
AcDbEntity
  8
0
  6
ByBlock
 62
     6
100
AcDbTrace
 10
265.45047108576
 20
85.44335319263485
 30
0.0
 11
266.2838044190933
 21
85.44335319263485
 31
0.0
 12
265.8671377524266
 22
82.94335319263485
 32
0.0
 13
265.8671377524266
 23
82.94335319263485
 33
0.0
  0
MTEXT
  5
AE2C
330
9571
100
AcDbEntity
  8
0
  6
ByBlock
 62
     3
100
AcDbMText
 10
263.3671377524266
 20
93.94335319263484
 30
0.0
 40
3.0
 41
0.0
 71
     5
 72
     1
  1
\A1;22±0.2
  7
TXT
 11
0.0000000000000001
 21
1.0
 31
0.0
 73
     1
 44
1.0
1001
ACAD
1000
MTEXTBEGIN
1070
    73
1070
     1
1070
    44
1040
1.0
1070
    74
1070
     0
1000
MTEXTEND
  0
POINT
  5
AE2D
330
9571
100
AcDbEntity
  8
DEFPOINTS
  6
ByBlock
 62
     0
100
AcDbPoint
 10
281.4324054054452
 20
104.9433531926348
 30
0.0
  0
POINT
  5
AE2E
330
9571
100
AcDbEntity
  8
DEFPOINTS
  6
ByBlock
 62
     0
100
AcDbPoint
 10
282.9324054054451
 20
82.94335319263485
 30
0.0
  0
POINT
  5
AE2F
330
9571
100
AcDbEntity
  8
DEFPOINTS
  6
ByBlock
 62
     0
100
AcDbPoint
 10
265.8671377524266
 20
82.94335319263485
 30
0.0
  0
ENDBLK
  5
AE30
330
9571
100
AcDbEntity
  8
0
100
AcDbBlockEnd
  0
BLOCK
  5
ACD7
330
A27B
100
AcDbEntity
  8
0
100
AcDbBlockBegin
  2
*D9
 70
     1
 10
0.0
 20
0.0
 30
0.0
  3
*D9
  1

  0
LINE
  5
ACD8
330
A27B
100
AcDbEntity
  8
0
  6
ByBlock
 62
     6
100
AcDbLine
 10
339.4656687987123
 20
199.4954803025824
 30
0.0
 11
326.8007461952938
 21
221.4317697256316
 31
0.0
  0
LINE
  5
ACD9
330
A27B
100
AcDbEntity
  8
0
  6
ByBlock
 62
     6
100
AcDbLine
 10
341.5863076831632
 20
200.7198317333741
 30
0.0
 11
328.9213850797446
 21
222.6561211564232
 31
0.0
  0
LINE
  5
ACDA
330
A27B
100
AcDbEntity
  8
0
  6
ByBlock
 62
     6
100
AcDbLine
 10
325.1356826858327
 20
219.3157443218471
 30
0.0
 11
322.9706191763715
 21
218.0657443218472
 31
0.0
  0
LINE
  5
ACDB
330
A27B
100
AcDbEntity
  8
0
  6
ByBlock
 62
     6
100
AcDbLine
 10
331.5864485892058
 20
223.0400957526387
 30
0.0
 11
333.7515120986669
 21
224.2900957526387
 31
0.0
  0
MTEXT
  5
ACDC
330
A27B
100
AcDbEntity
  8
0
  6
ByBlock
 62
     3
100
AcDbMText
 10
326.1548094015885
 20
223.8258425932195
 30
0.0
 40
3.0
 41
0.0
 71
     5
 72
     1
  1
\A1;2.5
  7
TXT
 11
0.8660254037844453
 21
0.4999999999999884
 31
0.0
 73
     1
 44
1.0
1001
ACAD
1000
MTEXTBEGIN
1070
    73
1070
     1
1070
    44
1040
1.0
1070
    74
1070
     0
1000
MTEXTEND
  0
LINE
  5
ACDD
330
A27B
100
AcDbEntity
  8
0
  6
ByBlock
 62
     6
100
AcDbLine
 10
327.3007461952937
 20
220.5657443218471
 30
0.0
 11
329.4213850797446
 21
221.7900957526388
 31
0.0
  0
SOLID
  5
ACDE
330
A27B
100
AcDbEntity
  8
0
  6
ByBlock
 62
     6
100
AcDbTrace
 10
324.9273493524993
 20
219.6765882400907
 30
0.0
 11
325.344016019166
 21
218.9549004036036
 31
0.0
 12
327.3007461952937
 22
220.5657443218471
 32
0.0
 13
327.3007461952937
 23
220.5657443218471
 33
0.0
  0
SOLID
  5
ACDF
330
A27B
100
AcDbEntity
  8
0
  6
ByBlock
 62
     6
100
AcDbTrace
 10
331.3781152558724
 20
223.4009396708823
 30
0.0
 11
331.794781922539
 21
222.6792518343952
 31
0.0
 12
329.4213850797446
 22
221.7900957526388
 32
0.0
 13
329.4213850797446
 23
221.7900957526388
 33
0.0
  0
POINT
  5
ACE0
330
A27B
100
AcDbEntity
  8
DEFPOINTS
  6
ByBlock
 62
     0
100
AcDbPoint
 10
339.9656687987123
 20
198.629454898798
 30
0.0
  0
POINT
  5
ACE1
330
A27B
100
AcDbEntity
  8
DEFPOINTS
  6
ByBlock
 62
     0
100
AcDbPoint
 10
342.0863076831632
 20
199.8538063295896
 30
0.0
  0
POINT
  5
ACE2
330
A27B
100
AcDbEntity
  8
DEFPOINTS
  6
ByBlock
 62
     0
100
AcDbPoint
 10
329.4213850797446
 20
221.7900957526388
 30
0.0
  0
ENDBLK
  5
ACE3
330
A27B
100
AcDbEntity
  8
0
100
AcDbBlockEnd
  0
BLOCK
  5
AD1C
330
AD1B
100
AcDbEntity
  8
0
100
AcDbBlockBegin
  2
*D10
 70
     1
 10
0.0
 20
0.0
 30
0.0
  3
*D10
  1

  0
LINE
  5
AD1D
330
AD1B
100
AcDbEntity
  8
0
  6
ByBlock
 62
     6
100
AcDbLine
 10
346.3413707492539
 20
160.846366521078
 30
0.0
 11
362.3756318225328
 21
151.5889815741638
 31
0.0
  0
LINE
  5
AD1E
330
AD1B
100
AcDbEntity
  8
0
  6
ByBlock
 62
     6
100
AcDbLine
 10
351.4324054054453
 20
179.8463665210779
 30
0.0
 11
369.9471752992737
 21
179.8463665210777
 31
0.0
  0
ARC
  5
AD1F
330
AD1B
100
AcDbEntity
  8
0
  6
ByBlock
 62
     6
100
AcDbCircle
 10
313.4324054054452
 20
179.846366521078
 30
0.0
 40
55.51476989382854
100
AcDbArc
 50
332.5804223887155
 51
357.4195776112843
  0
SOLID
  5
AD20
330
AD1B
100
AcDbEntity
  8
0
  6
ByBlock
 62
     6
100
AcDbTrace
 10
363.0759831666541
 20
154.0814862779804
 30
0.0
 11
362.3450964114754
 21
154.4817974014192
 31
0.0
 12
361.5096064187483
 22
152.0889815741638
 32
0.0
 13
361.5096064187483
 23
152.0889815741638
 33
0.0
  0
SOLID
  5
AD21
330
AD1B
100
AcDbEntity
  8
0
  6
ByBlock
 62
     6
100
AcDbTrace
 10
368.4743229439554
 20
177.3563822317335
 30
0.0
 11
369.3074450029491
 21
177.3376184564596
 31
0.0
 12
368.9471752992738
 22
179.8463665210777
 32
0.0
 13
368.9471752992738
 23
179.8463665210777
 33
0.0
  0
MTEXT
  5
AD22
330
AD1B
100
AcDbEntity
  8
0
  6
ByBlock
 62
     3
100
AcDbMText
 10
364.6407408206663
 20
166.1251344008274
 30
0.0
 40
3.0
 41
0.0
 71
     5
 72
     1
  1
\A1;30°
  7
TXT
 11
0.2588190451025218
 21
0.9659258262890679
 31
0.0
 73
     1
 44
1.0
1001
ACAD
1000
MTEXTBEGIN
1070
    73
1070
     1
1070
    44
1040
1.0
1070
    74
1070
     0
1000
MTEXTEND
  0
POINT
  5
AD23
330
AD1B
100
AcDbEntity
  8
DEFPOINTS
  6
ByBlock
 62
     0
100
AcDbPoint
 10
365.5992250193035
 20
160.8591969652992
 30
0.0
  0
POINT
  5
AD24
330
AD1B
100
AcDbEntity
  8
DEFPOINTS
  6
ByBlock
 62
     0
100
AcDbPoint
 10
276.4324054054452
 20
179.8463665210782
 30
0.0
  0
POINT
  5
AD25
330
AD1B
100
AcDbEntity
  8
DEFPOINTS
  6
ByBlock
 62
     0
100
AcDbPoint
 10
281.3894654654209
 20
198.3463665210779
 30
0.0
  0
POINT
  5
AD26
330
AD1B
100
AcDbEntity
  8
DEFPOINTS
  6
ByBlock
 62
     0
100
AcDbPoint
 10
345.4753453454695
 20
161.346366521078
 30
0.0
  0
POINT
  5
AD27
330
AD1B
100
AcDbEntity
  8
DEFPOINTS
  6
ByBlock
 62
     0
100
AcDbPoint
 10
350.4324054054452
 20
179.8463665210778
 30
0.0
  0
ENDBLK
  5
AD28
330
AD1B
100
AcDbEntity
  8
0
100
AcDbBlockEnd
  0
BLOCK
  5
ADC2
330
ADB1
100
AcDbEntity
  8
0
100
AcDbBlockBegin
  2
*D11
 70
     1
 10
0.0
 20
0.0
 30
0.0
  3
*D11
  1

  0
LINE
  5
ADC3
330
ADB1
100
AcDbEntity
  8
0
  6
ByBlock
 62
     6
100
AcDbLine
 10
346.4324054054451
 20
104.9433531926348
 30
0.0
 11
362.8530940109372
 21
104.9433531926348
 31
0.0
  0
LINE
  5
ADC4
330
ADB1
100
AcDbEntity
  8
0
  6
ByBlock
 62
     6
100
AcDbLine
 10
337.4324054054451
 20
101.9433531926348
 30
0.0
 11
362.8530940109372
 21
101.9433531926348
 31
0.0
  0
LINE
  5
ADC5
330
ADB1
100
AcDbEntity
  8
0
  6
ByBlock
 62
     6
100
AcDbLine
 10
361.8530940109372
 20
107.4433531926348
 30
0.0
 11
361.8530940109372
 21
109.9433531926348
 31
0.0
  0
LINE
  5
ADC6
330
ADB1
100
AcDbEntity
  8
0
  6
ByBlock
 62
     6
100
AcDbLine
 10
361.8530940109372
 20
99.44335319263483
 30
0.0
 11
361.8530940109372
 21
96.94335319263483
 31
0.0
  0
MTEXT
  5
ADC7
330
ADB1
100
AcDbEntity
  8
0
  6
ByBlock
 62
     3
100
AcDbMText
 10
359.3530940109372
 20
103.4433531926348
 30
0.0
 40
3.0
 41
0.0
 71
     5
 72
     1
  1
\A1;3
  7
TXT
 11
0.0000000000000001
 21
1.0
 31
0.0
 73
     1
 44
1.0
1001
ACAD
1000
MTEXTBEGIN
1070
    73
1070
     1
1070
    44
1040
1.0
1070
    74
1070
     0
1000
MTEXTEND
  0
LINE
  5
ADC8
330
ADB1
100
AcDbEntity
  8
0
  6
ByBlock
 62
     6
100
AcDbLine
 10
361.8530940109372
 20
104.9433531926348
 30
0.0
 11
361.8530940109372
 21
101.9433531926348
 31
0.0
  0
SOLID
  5
ADC9
330
ADB1
100
AcDbEntity
  8
0
  6
ByBlock
 62
     6
100
AcDbTrace
 10
361.4364273442705
 20
107.4433531926348
 30
0.0
 11
362.2697606776039
 21
107.4433531926348
 31
0.0
 12
361.8530940109372
 22
104.9433531926348
 32
0.0
 13
361.8530940109372
 23
104.9433531926348
 33
0.0
  0
SOLID
  5
ADCA
330
ADB1
100
AcDbEntity
  8
0
  6
ByBlock
 62
     6
100
AcDbTrace
 10
361.4364273442705
 20
99.44335319263483
 30
0.0
 11
362.2697606776039
 21
99.44335319263483
 31
0.0
 12
361.8530940109372
 22
101.9433531926348
 32
0.0
 13
361.8530940109372
 23
101.9433531926348
 33
0.0
  0
POINT
  5
ADCB
330
ADB1
100
AcDbEntity
  8
DEFPOINTS
  6
ByBlock
 62
     0
100
AcDbPoint
 10
345.4324054054451
 20
104.9433531926348
 30
0.0
  0
POINT
  5
ADCC
330
ADB1
100
AcDbEntity
  8
DEFPOINTS
  6
ByBlock
 62
     0
100
AcDbPoint
 10
336.4324054054451
 20
101.9433531926348
 30
0.0
  0
POINT
  5
ADCD
330
ADB1
100
AcDbEntity
  8
DEFPOINTS
  6
ByBlock
 62
     0
100
AcDbPoint
 10
361.8530940109372
 20
101.9433531926348
 30
0.0
  0
ENDBLK
  5
ADCE
330
ADB1
100
AcDbEntity
  8
0
100
AcDbBlockEnd
  0
BLOCK
  5
ADD1
330
ADD0
100
AcDbEntity
  8
0
100
AcDbBlockBegin
  2
*D12
 70
     1
 10
0.0
 20
0.0
 30
0.0
  3
*D12
  1

  0
LINE
  5
ADD2
330
ADD0
100
AcDbEntity
  8
0
  6
ByBlock
 62
     6
100
AcDbLine
 10
349.2984308092296
 20
99.71130238506598
 30
0.0
 11
369.0183301966958
 21
88.32601316531999
 31
0.0
  0
LINE
  5
ADD3
330
ADD0
100
AcDbEntity
  8
0
  6
ByBlock
 62
     6
100
AcDbLine
 10
346.4324054054452
 20
104.9433531926349
 30
0.0
 11
373.4709330373682
 21
104.9433531926349
 31
0.0
  0
ARC
  5
ADD4
330
ADD0
100
AcDbEntity
  8
0
  6
ByBlock
 62
     6
100
AcDbCircle
 10
340.2362529827386
 20
104.9433531926349
 30
0.0
 40
32.23468005462959
100
AcDbArc
 50
334.4447586278906
 51
355.5552413721093
  0
SOLID
  5
ADD5
330
ADD0
100
AcDbEntity
  8
0
  6
ByBlock
 62
     6
100
AcDbTrace
 10
369.6860588088666
 20
90.8437370635905
 30
0.0
 11
368.9487562464029
 21
91.23210464183166
 31
0.0
 12
368.1523047929113
 22
88.82601316531998
 32
0.0
 13
368.1523047929113
 23
88.82601316531998
 33
0.0
  0
SOLID
  5
ADD6
330
ADD0
100
AcDbEntity
  8
0
  6
ByBlock
 62
     6
100
AcDbTrace
 10
371.9576344907171
 20
102.4613911234007
 30
0.0
 11
372.7903410292066
 21
102.429076030932
 31
0.0
 12
372.4709330373681
 22
104.9433531926349
 32
0.0
 13
372.4709330373681
 23
104.9433531926349
 33
0.0
  0
MTEXT
  5
ADD7
330
ADD0
100
AcDbEntity
  8
0
  6
ByBlock
 62
     3
100
AcDbMText
 10
368.9577483839478
 20
97.24745169446668
 30
0.0
 40
3.0
 41
0.0
 71
     5
 72
     1
  1
\A1;30°
  7
TXT
 11
0.2588190451025265
 21
0.9659258262890666
 31
0.0
 73
     1
 44
1.0
1001
ACAD
1000
MTEXTBEGIN
1070
    73
1070
     1
1070
    44
1040
1.0
1070
    74
1070
     0
1000
MTEXTEND
  0
POINT
  5
ADD8
330
ADD0
100
AcDbEntity
  8
DEFPOINTS
  6
ByBlock
 62
     0
100
AcDbPoint
 10
370.5269439634687
 20
93.91844330029334
 30
0.0
  0
POINT
  5
ADD9
330
ADD0
100
AcDbEntity
  8
DEFPOINTS
  6
ByBlock
 62
     0
100
AcDbPoint
 10
281.4324054054452
 20
104.9433531926348
 30
0.0
  0
POINT
  5
ADDA
330
ADD0
100
AcDbEntity
  8
DEFPOINTS
  6
ByBlock
 62
     0
100
AcDbPoint
 10
345.4324054054451
 20
101.9433531926349
 30
0.0
  0
POINT
  5
ADDB
330
ADD0
100
AcDbEntity
  8
DEFPOINTS
  6
ByBlock
 62
     0
100
AcDbPoint
 10
348.4324054054452
 20
100.211302385066
 30
0.0
  0
POINT
  5
ADDC
330
ADD0
100
AcDbEntity
  8
DEFPOINTS
  6
ByBlock
 62
     0
100
AcDbPoint
 10
345.4324054054451
 20
104.9433531926349
 30
0.0
  0
ENDBLK
  5
ADDD
330
ADD0
100
AcDbEntity
  8
0
100
AcDbBlockEnd
  0
BLOCK
  5
ADEE
330
ADDF
100
AcDbEntity
  8
0
100
AcDbBlockBegin
  2
*D13
 70
     1
 10
0.0
 20
0.0
 30
0.0
  3
*D13
  1

  0
LINE
  5
ADEF
330
ADDF
100
AcDbEntity
  8
0
  6
ByBlock
 62
     6
100
AcDbLine
 10
347.9210059534188
 20
85.85185513652673
 30
0.0
 11
370.359690417399
 21
73.09264996781412
 31
0.0
  0
LINE
  5
ADF0
330
ADDF
100
AcDbEntity
  8
0
  6
ByBlock
 62
     6
100
AcDbLine
 10
346.4324054054451
 20
104.9433531926349
 30
0.0
 11
378.7820445061703
 21
104.9433531926347
 31
0.0
  0
ARC
  5
ADF1
330
ADDF
100
AcDbEntity
  8
0
  6
ByBlock
 62
     6
100
AcDbCircle
 10
314.3461793743956
 20
104.9433531926348
 30
0.0
 40
63.43586513177477
100
AcDbArc
 50
332.6345076133512
 51
357.7418339023221
  0
SOLID
  5
ADF2
330
ADDF
100
AcDbEntity
  8
0
  6
ByBlock
 62
     6
100
AcDbTrace
 10
371.0492810252
 20
75.58532505274084
 30
0.0
 11
370.3168957881584
 21
75.98288801505997
 31
0.0
 12
369.4903995197218
 22
73.5869508227756
 32
0.0
 13
369.4903995197218
 23
73.5869508227756
 33
0.0
  0
SOLID
  5
ADF3
330
ADDF
100
AcDbEntity
  8
0
  6
ByBlock
 62
     6
100
AcDbTrace
 10
377.3161963867062
 20
102.4520489878651
 30
0.0
 11
378.1493679190349
 21
102.4356282034319
 31
0.0
 12
377.7820445061703
 22
104.9433531926348
 32
0.0
 13
377.7820445061703
 23
104.9433531926348
 33
0.0
  0
MTEXT
  5
ADF4
330
ADDF
100
AcDbEntity
  8
0
  6
ByBlock
 62
     3
100
AcDbMText
 10
373.2571840283544
 20
89.36538188636097
 30
0.0
 40
3.0
 41
0.0
 71
     5
 72
     1
  1
\A1;30°
  7
TXT
 11
0.2556453620964636
 21
0.9667706288663138
 31
0.0
 73
     1
 44
1.0
1001
ACAD
1000
MTEXTBEGIN
1070
    73
1070
     1
1070
    44
1040
1.0
1070
    74
1070
     0
1000
MTEXTEND
  0
POINT
  5
ADF5
330
ADDF
100
AcDbEntity
  8
DEFPOINTS
  6
ByBlock
 62
     0
100
AcDbPoint
 10
374.0508287365474
 20
83.50824578541098
 30
0.0
  0
POINT
  5
ADF6
330
ADDF
100
AcDbEntity
  8
DEFPOINTS
  6
ByBlock
 62
     0
100
AcDbPoint
 10
281.4324054054452
 20
104.9433531926348
 30
0.0
  0
POINT
  5
ADF7
330
ADDF
100
AcDbEntity
  8
DEFPOINTS
  6
ByBlock
 62
     0
100
AcDbPoint
 10
347.0517150557416
 20
86.34615599148824
 30
0.0
  0
POINT
  5
ADF8
330
ADDF
100
AcDbEntity
  8
DEFPOINTS
  6
ByBlock
 62
     0
100
AcDbPoint
 10
334.182405405445
 20
93.66397190317472
 30
0.0
  0
POINT
  5
ADF9
330
ADDF
100
AcDbEntity
  8
DEFPOINTS
  6
ByBlock
 62
     0
100
AcDbPoint
 10
345.4324054054451
 20
104.9433531926349
 30
0.0
  0
ENDBLK
  5
ADFA
330
ADDF
100
AcDbEntity
  8
0
100
AcDbBlockEnd
  0
BLOCK
  5
AEB2
330
AEB1
100
AcDbEntity
  8
0
100
AcDbBlockBegin
  2
_Open30
 70
     0
 10
0.0
 20
0.0
 30
0.0
  3
_Open30
  1

  0
LINE
  5
AEB3
330
AEB1
100
AcDbEntity
  8
0
  6
ByBlock
 62
     0
370
    -2
100
AcDbLine
 10
-1.0
 20
0.26794919
 30
0.0
 11
0.0
 21
0.0
 31
0.0
  0
LINE
  5
AEB4
330
AEB1
100
AcDbEntity
  8
0
  6
ByBlock
 62
     0
370
    -2
100
AcDbLine
 10
0.0
 20
0.0
 30
0.0
 11
-1.0
 21
-0.26794919
 31
0.0
  0
LINE
  5
AEB5
330
AEB1
100
AcDbEntity
  8
0
  6
ByBlock
 62
     0
370
    -2
100
AcDbLine
 10
0.0
 20
0.0
 30
0.0
 11
-1.0
 21
0.0
 31
0.0
  0
ENDBLK
  5
AEB6
330
AEB1
100
AcDbEntity
  8
0
100
AcDbBlockEnd
  0
BLOCK
  5
AFAA
330
AFA8
100
AcDbEntity
  8
0
100
AcDbBlockBegin
  2
GENAXEH
 70
     0
 10
0.0
 20
0.0
 30
0.0
  3
GENAXEH
  1

  0
LINE
  5
AFA9
330
AFA8
100
AcDbEntity
  8
0
100
AcDbLine
 10
-1.0
 20
0.0
 30
0.0
 11
1.0
 21
0.0
 31
0.0
  0
ENDBLK
  5
AFAB
330
AFA8
100
AcDbEntity
  8
0
100
AcDbBlockEnd
  0
BLOCK
  5
B0CD
330
B0CC
100
AcDbEntity
  8
0
100
AcDbBlockBegin
  2
*D16
 70
     1
 10
0.0
 20
0.0
 30
0.0
  3
*D16
  1

  0
LINE
  5
B162
330
B0CC
100
AcDbEntity
  8
DIM
 62
     6
370
    -2
100
AcDbLine
 10
256.7570949310053
 20
127.938405726284
 30
0.0
 11
256.7570949310053
 21
145.5350946314867
 31
0.0
  0
LINE
  5
B163
330
B0CC
100
AcDbEntity
  8
DIM
 62
     6
370
    -2
100
AcDbLine
 10
320.7570949310053
 20
127.938405726284
 30
0.0
 11
320.7570949310053
 21
145.5350946314867
 31
0.0
  0
LINE
  5
B164
330
B0CC
100
AcDbEntity
  8
DIM
 62
     6
370
    -2
100
AcDbLine
 10
259.2570949310053
 20
144.5350946314867
 30
0.0
 11
318.2570949310053
 21
144.5350946314867
 31
0.0
  0
SOLID
  5
B165
330
B0CC
100
AcDbEntity
  8
DIM
 62
     6
100
AcDbTrace
 10
259.2570949310053
 20
144.9517612981534
 30
0.0
 11
259.2570949310053
 21
144.1184279648201
 31
0.0
 12
256.7570949310053
 22
144.5350946314867
 32
0.0
 13
256.7570949310053
 23
144.5350946314867
 33
0.0
  0
SOLID
  5
B166
330
B0CC
100
AcDbEntity
  8
DIM
 62
     6
100
AcDbTrace
 10
318.2570949310053
 20
144.9517612981534
 30
0.0
 11
318.2570949310053
 21
144.1184279648201
 31
0.0
 12
320.7570949310053
 22
144.5350946314867
 32
0.0
 13
320.7570949310053
 23
144.5350946314867
 33
0.0
  0
MTEXT
  5
B167
330
B0CC
100
AcDbEntity
  8
DIM
 62
     3
100
AcDbMText
 10
288.7570949310053
 20
147.0350946314867
 30
0.0
 40
3.0
 41
0.0
 71
     5
 72
     1
  1
\A1;%%c64%%p0.5
  7
TXT
 73
     1
 44
1.0
1001
ACAD
1000
MTEXTBEGIN
1070
    73
1070
     1
1070
    44
1040
1.0
1070
    74
1070
     0
1000
MTEXTEND
  0
POINT
  5
B168
330
B0CC
100
AcDbEntity
  8
DEFPOINTS
 62
     0
100
AcDbPoint
 10
256.7570949310053
 20
126.938405726284
 30
0.0
  0
POINT
  5
B169
330
B0CC
100
AcDbEntity
  8
DEFPOINTS
 62
     0
100
AcDbPoint
 10
320.7570949310053
 20
126.938405726284
 30
0.0
  0
POINT
  5
B16A
330
B0CC
100
AcDbEntity
  8
DEFPOINTS
 62
     0
100
AcDbPoint
 10
320.7570949310053
 20
144.5350946314867
 30
0.0
  0
ENDBLK
  5
B0CE
330
B0CC
100
AcDbEntity
  8
0
100
AcDbBlockEnd
  0
BLOCK
  5
B0D9
330
B0D8
100
AcDbEntity
  8
0
100
AcDbBlockBegin
  2
*D17
 70
     1
 10
0.0
 20
0.0
 30
0.0
  3
*D17
  1

  0
LINE
  5
B16B
330
B0D8
100
AcDbEntity
  8
DIM
 62
     6
370
    -2
100
AcDbLine
 10
321.7570949310053
 20
126.938405726284
 30
0.0
 11
338.1777835364974
 21
126.938405726284
 31
0.0
  0
LINE
  5
B16C
330
B0D8
100
AcDbEntity
  8
DIM
 62
     6
370
    -2
100
AcDbLine
 10
312.7570949310053
 20
123.938405726284
 30
0.0
 11
338.1777835364974
 21
123.938405726284
 31
0.0
  0
LINE
  5
B16D
330
B0D8
100
AcDbEntity
  8
DIM
 62
     6
370
    -2
100
AcDbLine
 10
337.1777835364974
 20
129.438405726284
 30
0.0
 11
337.1777835364974
 21
131.938405726284
 31
0.0
  0
LINE
  5
B16E
330
B0D8
100
AcDbEntity
  8
DIM
 62
     6
370
    -2
100
AcDbLine
 10
337.1777835364974
 20
121.438405726284
 30
0.0
 11
337.1777835364974
 21
118.938405726284
 31
0.0
  0
MTEXT
  5
B16F
330
B0D8
100
AcDbEntity
  8
DIM
 62
     3
100
AcDbMText
 10
334.6777835364974
 20
125.438405726284
 30
0.0
 40
3.0
 41
0.0
 71
     5
 72
     1
  1
\A1;3
  7
TXT
 11
0.0000000000000001
 21
1.0
 31
0.0
 73
     1
 44
1.0
1001
ACAD
1000
MTEXTBEGIN
1070
    73
1070
     1
1070
    44
1040
1.0
1070
    74
1070
     0
1000
MTEXTEND
  0
SOLID
  5
B170
330
B0D8
100
AcDbEntity
  8
DIM
 62
     6
100
AcDbTrace
 10
336.7611168698307
 20
129.438405726284
 30
0.0
 11
337.5944502031641
 21
129.438405726284
 31
0.0
 12
337.1777835364974
 22
126.938405726284
 32
0.0
 13
337.1777835364974
 23
126.938405726284
 33
0.0
  0
SOLID
  5
B171
330
B0D8
100
AcDbEntity
  8
DIM
 62
     6
100
AcDbTrace
 10
336.7611168698307
 20
121.438405726284
 30
0.0
 11
337.5944502031641
 21
121.438405726284
 31
0.0
 12
337.1777835364974
 22
123.938405726284
 32
0.0
 13
337.1777835364974
 23
123.938405726284
 33
0.0
  0
POINT
  5
B172
330
B0D8
100
AcDbEntity
  8
DEFPOINTS
 62
     0
100
AcDbPoint
 10
320.7570949310053
 20
126.938405726284
 30
0.0
  0
POINT
  5
B173
330
B0D8
100
AcDbEntity
  8
DEFPOINTS
 62
     0
100
AcDbPoint
 10
311.7570949310053
 20
123.938405726284
 30
0.0
  0
POINT
  5
B174
330
B0D8
100
AcDbEntity
  8
DEFPOINTS
 62
     0
100
AcDbPoint
 10
337.1777835364974
 20
123.938405726284
 30
0.0
  0
ENDBLK
  5
B0DA
330
B0D8
100
AcDbEntity
  8
0
100
AcDbBlockEnd
  0
BLOCK
  5
B0E6
330
B0E5
100
AcDbEntity
  8
0
100
AcDbBlockBegin
  2
*D18
 70
     1
 10
0.0
 20
0.0
 30
0.0
  3
*D18
  1

  0
LINE
  5
B175
330
B0E5
100
AcDbEntity
  8
DIM
 62
     6
370
    -2
100
AcDbLine
 10
324.6231203347899
 20
121.7063549187151
 30
0.0
 11
344.343019722256
 21
110.3210656989693
 31
0.0
  0
LINE
  5
B176
330
B0E5
100
AcDbEntity
  8
DIM
 62
     6
370
    -2
100
AcDbLine
 10
321.7570949310053
 20
126.938405726284
 30
0.0
 11
348.7956225629284
 21
126.938405726284
 31
0.0
  0
ARC
  5
B177
330
B0E5
100
AcDbEntity
  8
DIM
 62
     6
370
    -2
100
AcDbCircle
 10
315.5609425082986
 20
126.938405726284
 30
0.0
 40
32.23468005462974
100
AcDbArc
 50
334.4447586278909
 51
355.5552413721093
  0
SOLID
  5
B178
330
B0E5
100
AcDbEntity
  8
DIM
 62
     6
100
AcDbTrace
 10
345.0107483344269
 20
112.8387895972398
 30
0.0
 11
344.2734457719632
 21
113.2271571754809
 31
0.0
 12
343.4769943184716
 22
110.8210656989693
 32
0.0
 13
343.4769943184716
 23
110.8210656989693
 33
0.0
  0
SOLID
  5
B179
330
B0E5
100
AcDbEntity
  8
DIM
 62
     6
100
AcDbTrace
 10
347.2823240162773
 20
124.4564436570499
 30
0.0
 11
348.1150305547668
 21
124.4241285645811
 31
0.0
 12
347.7956225629284
 22
126.938405726284
 32
0.0
 13
347.7956225629284
 23
126.938405726284
 33
0.0
  0
MTEXT
  5
B17A
330
B0E5
100
AcDbEntity
  8
DIM
 62
     3
100
AcDbMText
 10
344.2824379095079
 20
119.2425042281159
 30
0.0
 40
3.0
 41
0.0
 71
     5
 72
     1
  1
\A1;30\U+00B0
  7
TXT
 11
0.258819045102523
 21
0.9659258262890675
 31
0.0
 73
     1
 44
1.0
1001
ACAD
1000
MTEXTBEGIN
1070
    73
1070
     1
1070
    44
1040
1.0
1070
    74
1070
     0
1000
MTEXTEND
  0
POINT
  5
B17B
330
B0E5
100
AcDbEntity
  8
DEFPOINTS
 62
     0
100
AcDbPoint
 10
345.8516334890289
 20
115.9134958339425
 30
0.0
  0
POINT
  5
B17C
330
B0E5
100
AcDbEntity
  8
DEFPOINTS
 62
     0
100
AcDbPoint
 10
256.7570949310053
 20
126.938405726284
 30
0.0
  0
POINT
  5
B17D
330
B0E5
100
AcDbEntity
  8
DEFPOINTS
 62
     0
100
AcDbPoint
 10
320.7570949310053
 20
123.938405726284
 30
0.0
  0
POINT
  5
B17E
330
B0E5
100
AcDbEntity
  8
DEFPOINTS
 62
     0
100
AcDbPoint
 10
323.7570949310053
 20
122.2063549187151
 30
0.0
  0
POINT
  5
B17F
330
B0E5
100
AcDbEntity
  8
DEFPOINTS
 62
     0
100
AcDbPoint
 10
320.7570949310053
 20
126.938405726284
 30
0.0
  0
ENDBLK
  5
B0E7
330
B0E5
100
AcDbEntity
  8
0
100
AcDbBlockEnd
  0
BLOCK
  5
B0F4
330
B0F3
100
AcDbEntity
  8
0
100
AcDbBlockBegin
  2
*D19
 70
     1
 10
0.0
 20
0.0
 30
0.0
  3
*D19
  1

  0
LINE
  5
B180
330
B0F3
100
AcDbEntity
  8
DIM
 62
     6
370
    -2
100
AcDbLine
 10
323.245695478979
 20
107.8469076701759
 30
0.0
 11
345.6843799429591
 21
95.08770250146326
 31
0.0
  0
LINE
  5
B181
330
B0F3
100
AcDbEntity
  8
DIM
 62
     6
370
    -2
100
AcDbLine
 10
321.7570949310053
 20
126.938405726284
 30
0.0
 11
354.1067340317305
 21
126.938405726284
 31
0.0
  0
ARC
  5
B182
330
B0F3
100
AcDbEntity
  8
DIM
 62
     6
370
    -2
100
AcDbCircle
 10
289.6708688999558
 20
126.938405726284
 30
0.0
 40
63.43586513177477
100
AcDbArc
 50
332.634507613351
 51
357.7418339023222
  0
SOLID
  5
B183
330
B0F3
100
AcDbEntity
  8
DIM
 62
     6
100
AcDbTrace
 10
346.3739705507602
 20
97.58037758638998
 30
0.0
 11
345.6415853137186
 21
97.97794054870912
 31
0.0
 12
344.815089045282
 22
95.58200335642474
 32
0.0
 13
344.815089045282
 23
95.58200335642474
 33
0.0
  0
SOLID
  5
B184
330
B0F3
100
AcDbEntity
  8
DIM
 62
     6
100
AcDbTrace
 10
352.6408859122664
 20
124.4471015215144
 30
0.0
 11
353.4740574445951
 21
124.4306807370811
 31
0.0
 12
353.1067340317306
 22
126.938405726284
 32
0.0
 13
353.1067340317306
 23
126.938405726284
 33
0.0
  0
MTEXT
  5
B185
330
B0F3
100
AcDbEntity
  8
DIM
 62
     3
100
AcDbMText
 10
348.5818735539146
 20
111.3604344200102
 30
0.0
 40
3.0
 41
0.0
 71
     5
 72
     1
  1
\A1;30%%d
  7
TXT
 11
0.2556453620964636
 21
0.9667706288663138
 31
0.0
 73
     1
 44
1.0
1001
ACAD
1000
MTEXTBEGIN
1070
    73
1070
     1
1070
    44
1040
1.0
1070
    74
1070
     0
1000
MTEXTEND
  0
POINT
  5
B186
330
B0F3
100
AcDbEntity
  8
DEFPOINTS
 62
     0
100
AcDbPoint
 10
349.3755182621076
 20
105.5032983190602
 30
0.0
  0
POINT
  5
B187
330
B0F3
100
AcDbEntity
  8
DEFPOINTS
 62
     0
100
AcDbPoint
 10
256.7570949310053
 20
126.938405726284
 30
0.0
  0
POINT
  5
B188
330
B0F3
100
AcDbEntity
  8
DEFPOINTS
 62
     0
100
AcDbPoint
 10
322.3764045813018
 20
108.3412085251374
 30
0.0
  0
POINT
  5
B189
330
B0F3
100
AcDbEntity
  8
DEFPOINTS
 62
     0
100
AcDbPoint
 10
309.5070949310052
 20
115.6590244368239
 30
0.0
  0
POINT
  5
B18A
330
B0F3
100
AcDbEntity
  8
DEFPOINTS
 62
     0
100
AcDbPoint
 10
320.7570949310053
 20
126.938405726284
 30
0.0
  0
ENDBLK
  5
B0F5
330
B0F3
100
AcDbEntity
  8
0
100
AcDbBlockEnd
  0
BLOCK
  5
B102
330
B101
100
AcDbEntity
  8
0
100
AcDbBlockBegin
  2
*D20
 70
     1
 10
0.0
 20
0.0
 30
0.0
  3
*D20
  1

  0
LINE
  5
B18B
330
B101
100
AcDbEntity
  8
DIM
 62
     6
370
    -2
100
AcDbLine
 10
253.7570949310055
 20
123.2063549187151
 30
0.0
 11
253.7570949310055
 21
152.6147640553677
 31
0.0
  0
LINE
  5
B18C
330
B101
100
AcDbEntity
  8
DIM
 62
     6
370
    -2
100
AcDbLine
 10
323.7570949310053
 20
123.2063549187151
 30
0.0
 11
323.7570949310053
 21
152.6147640553677
 31
0.0
  0
LINE
  5
B18D
330
B101
100
AcDbEntity
  8
DIM
 62
     6
370
    -2
100
AcDbLine
 10
256.2570949310055
 20
151.6147640553677
 30
0.0
 11
321.2570949310053
 21
151.6147640553677
 31
0.0
  0
MTEXT
  5
B18E
330
B101
100
AcDbEntity
  8
DIM
 62
     3
100
AcDbMText
 10
283.2321815618287
 20
154.9271850794559
 30
0.0
 40
3.0
 41
0.0
 71
     5
 72
     1
  1
\A1;%%c70
  7
TXT
 73
     1
 44
1.0
1001
ACAD
1000
MTEXTBEGIN
1070
    73
1070
     1
1070
    44
1040
1.0
1070
    74
1070
     0
1000
MTEXTEND
  0
SOLID
  5
B18F
330
B101
100
AcDbEntity
  8
DIM
 62
     6
100
AcDbTrace
 10
256.2570949310055
 20
152.0314307220344
 30
0.0
 11
256.2570949310055
 21
151.1980973887011
 31
0.0
 12
253.7570949310055
 22
151.6147640553677
 32
0.0
 13
253.7570949310055
 23
151.6147640553677
 33
0.0
  0
SOLID
  5
B190
330
B101
100
AcDbEntity
  8
DIM
 62
     6
100
AcDbTrace
 10
321.2570949310053
 20
152.0314307220344
 30
0.0
 11
321.2570949310053
 21
151.1980973887011
 31
0.0
 12
323.7570949310053
 22
151.6147640553677
 32
0.0
 13
323.7570949310053
 23
151.6147640553677
 33
0.0
  0
POINT
  5
B191
330
B101
100
AcDbEntity
  8
DEFPOINTS
 62
     0
100
AcDbPoint
 10
253.7570949310055
 20
122.2063549187151
 30
0.0
  0
POINT
  5
B192
330
B101
100
AcDbEntity
  8
DEFPOINTS
 62
     0
100
AcDbPoint
 10
323.7570949310053
 20
122.2063549187151
 30
0.0
  0
POINT
  5
B193
330
B101
100
AcDbEntity
  8
DEFPOINTS
 62
     0
100
AcDbPoint
 10
323.7570949310053
 20
151.6147640553677
 30
0.0
  0
ENDBLK
  5
B103
330
B101
100
AcDbEntity
  8
0
100
AcDbBlockEnd
  0
BLOCK
  5
B10E
330
B10D
100
AcDbEntity
  8
0
100
AcDbBlockBegin
  2
*D21
 70
     1
 10
0.0
 20
0.0
 30
0.0
  3
*D21
  1

  0
LINE
  5
B194
330
B10D
100
AcDbEntity
  8
DIM
 62
     6
370
    -2
100
AcDbLine
 10
274.766713874239
 20
234.3414190547273
 30
0.0
 11
234.3748328855818
 21
234.3414190547273
 31
0.0
  0
LINE
  5
B195
330
B10D
100
AcDbEntity
  8
DIM
 62
     6
370
    -2
100
AcDbLine
 10
275.2570949310054
 20
169.3414190547273
 30
0.0
 11
234.3748328855818
 21
169.3414190547273
 31
0.0
  0
LINE
  5
B196
330
B10D
100
AcDbEntity
  8
DIM
 62
     6
370
    -2
100
AcDbLine
 10
235.3748328855818
 20
231.8414190547273
 30
0.0
 11
235.3748328855818
 21
171.8414190547273
 31
0.0
  0
MTEXT
  5
B197
330
B10D
100
AcDbEntity
  8
DIM
 62
     3
100
AcDbMText
 10
231.6290160524718
 20
198.4959738453426
 30
0.0
 40
3.0
 41
0.0
 71
     5
 72
     1
  1
\A1;65
  7
TXT
 11
0.0000000000000001
 21
1.0
 31
0.0
 73
     1
 44
1.0
1001
ACAD
1000
MTEXTBEGIN
1070
    73
1070
     1
1070
    44
1040
1.0
1070
    74
1070
     0
1000
MTEXTEND
  0
SOLID
  5
B198
330
B10D
100
AcDbEntity
  8
DIM
 62
     6
100
AcDbTrace
 10
234.9581662189152
 20
231.8414190547273
 30
0.0
 11
235.7914995522484
 21
231.8414190547273
 31
0.0
 12
235.3748328855818
 22
234.3414190547273
 32
0.0
 13
235.3748328855818
 23
234.3414190547273
 33
0.0
  0
SOLID
  5
B199
330
B10D
100
AcDbEntity
  8
DIM
 62
     6
100
AcDbTrace
 10
234.9581662189151
 20
171.8414190547273
 30
0.0
 11
235.7914995522484
 21
171.8414190547273
 31
0.0
 12
235.3748328855818
 22
169.3414190547273
 32
0.0
 13
235.3748328855818
 23
169.3414190547273
 33
0.0
  0
POINT
  5
B19A
330
B10D
100
AcDbEntity
  8
DEFPOINTS
 62
     0
100
AcDbPoint
 10
275.766713874239
 20
234.3414190547273
 30
0.0
  0
POINT
  5
B19B
330
B10D
100
AcDbEntity
  8
DEFPOINTS
 62
     0
100
AcDbPoint
 10
276.2570949310054
 20
169.3414190547273
 30
0.0
  0
POINT
  5
B19C
330
B10D
100
AcDbEntity
  8
DEFPOINTS
 62
     0
100
AcDbPoint
 10
235.3748328855818
 20
169.3414190547273
 30
0.0
  0
ENDBLK
  5
B10F
330
B10D
100
AcDbEntity
  8
0
100
AcDbBlockEnd
  0
BLOCK
  5
B11A
330
B119
100
AcDbEntity
  8
0
100
AcDbBlockBegin
  2
*D22
 70
     1
 10
0.0
 20
0.0
 30
0.0
  3
*D22
  1

  0
LINE
  5
B19D
330
B119
100
AcDbEntity
  8
DIM
 62
     6
370
    -2
100
AcDbLine
 10
258.2570949310054
 20
103.938405726284
 30
0.0
 11
258.2570949310054
 21
68.84066298354162
 31
0.0
  0
LINE
  5
B19E
330
B119
100
AcDbEntity
  8
DIM
 62
     6
370
    -2
100
AcDbLine
 10
319.257155064393
 20
103.9385098803667
 30
0.0
 11
319.257155064393
 21
68.84066298354162
 31
0.0
  0
LINE
  5
B19F
330
B119
100
AcDbEntity
  8
DIM
 62
     6
370
    -2
100
AcDbLine
 10
260.7570949310054
 20
69.84066298354162
 30
0.0
 11
316.7571550643931
 21
69.84066298354162
 31
0.0
  0
SOLID
  5
B1A0
330
B119
100
AcDbEntity
  8
DIM
 62
     6
100
AcDbTrace
 10
260.7570949310054
 20
70.25732965020829
 30
0.0
 11
260.7570949310054
 21
69.42399631687495
 31
0.0
 12
258.2570949310054
 22
69.84066298354162
 32
0.0
 13
258.2570949310054
 23
69.84066298354162
 33
0.0
  0
SOLID
  5
B1A1
330
B119
100
AcDbEntity
  8
DIM
 62
     6
100
AcDbTrace
 10
316.7571550643931
 20
70.25732965020829
 30
0.0
 11
316.7571550643931
 21
69.42399631687495
 31
0.0
 12
319.257155064393
 22
69.84066298354162
 32
0.0
 13
319.257155064393
 23
69.84066298354162
 33
0.0
  0
MTEXT
  5
B1A2
330
B119
100
AcDbEntity
  8
DIM
 62
     3
100
AcDbMText
 10
288.7571249976992
 20
72.34066298354162
 30
0.0
 40
3.0
 41
0.0
 71
     5
 72
     1
  1
\A1;%%c61%%p0.5
  7
TXT
 73
     1
 44
1.0
1001
ACAD
1000
MTEXTBEGIN
1070
    73
1070
     1
1070
    44
1040
1.0
1070
    74
1070
     0
1000
MTEXTEND
  0
POINT
  5
B1A3
330
B119
100
AcDbEntity
  8
DEFPOINTS
 62
     0
100
AcDbPoint
 10
258.2570949310054
 20
104.938405726284
 30
0.0
  0
POINT
  5
B1A4
330
B119
100
AcDbEntity
  8
DEFPOINTS
 62
     0
100
AcDbPoint
 10
319.257155064393
 20
104.9385098803667
 30
0.0
  0
POINT
  5
B1A5
330
B119
100
AcDbEntity
  8
DEFPOINTS
 62
     0
100
AcDbPoint
 10
319.257155064393
 20
69.84066298354162
 30
0.0
  0
ENDBLK
  5
B11B
330
B119
100
AcDbEntity
  8
0
100
AcDbBlockEnd
  0
BLOCK
  5
B126
330
B125
100
AcDbEntity
  8
0
100
AcDbBlockBegin
  2
*D23
 70
     1
 10
0.0
 20
0.0
 30
0.0
  3
*D23
  1

  0
LINE
  5
B1A6
330
B125
100
AcDbEntity
  8
DIM
 62
     6
370
    -2
100
AcDbLine
 10
311.7570949310053
 20
127.938405726284
 30
0.0
 11
311.7570949310053
 21
139.0990696366489
 31
0.0
  0
LINE
  5
B1A7
330
B125
100
AcDbEntity
  8
DIM
 62
     6
370
    -2
100
AcDbLine
 10
309.2570949310053
 20
138.0990696366489
 30
0.0
 11
268.2570949310054
 21
138.0990696366489
 31
0.0
  0
SOLID
  5
B1A8
330
B125
100
AcDbEntity
  8
DIM
 62
     6
100
AcDbTrace
 10
309.2570949310053
 20
138.5157363033156
 30
0.0
 11
309.2570949310053
 21
137.6824029699823
 31
0.0
 12
311.7570949310053
 22
138.0990696366489
 32
0.0
 13
311.7570949310053
 23
138.0990696366489
 33
0.0
  0
SOLID
  5
B1A9
330
B125
100
AcDbEntity
  8
DIM
 62
     6
100
AcDbTrace
 10
268.2570949310054
 20
138.5157363033156
 30
0.0
 11
268.2570949310054
 21
137.6824029699823
 31
0.0
 12
265.7570949310054
 22
138.0990696366489
 32
0.0
 13
265.7570949310054
 23
138.0990696366489
 33
0.0
  0
MTEXT
  5
B1AA
330
B125
100
AcDbEntity
  8
DIM
 62
     3
100
AcDbMText
 10
288.7570949310054
 20
140.5990696366489
 30
0.0
 40
3.0
 41
0.0
 71
     5
 72
     1
  1
\A1;%%c46
  7
TXT
 73
     1
 44
1.0
1001
ACAD
1000
MTEXTBEGIN
1070
    73
1070
     1
1070
    44
1040
1.0
1070
    74
1070
     0
1000
MTEXTEND
  0
POINT
  5
B1AB
330
B125
100
AcDbEntity
  8
DEFPOINTS
 62
     0
100
AcDbPoint
 10
311.7570949310053
 20
126.938405726284
 30
0.0
  0
POINT
  5
B1AC
330
B125
100
AcDbEntity
  8
DEFPOINTS
 62
     0
100
AcDbPoint
 10
265.7570949310054
 20
126.9384057262835
 30
0.0
  0
POINT
  5
B1AD
330
B125
100
AcDbEntity
  8
DEFPOINTS
 62
     0
100
AcDbPoint
 10
265.7570949310054
 20
138.0990696366489
 30
0.0
  0
ENDBLK
  5
B127
330
B125
100
AcDbEntity
  8
0
100
AcDbBlockEnd
  0
BLOCK
  5
B131
330
B130
100
AcDbEntity
  8
0
100
AcDbBlockBegin
  2
*D24
 70
     1
 10
0.0
 20
0.0
 30
0.0
  3
*D24
  1

  0
LINE
  5
B1AE
330
B130
100
AcDbEntity
  8
DIM
 62
     6
370
    -2
100
AcDbLine
 10
311.2570949310053
 20
104.538405726284
 30
0.0
 11
311.2570949310053
 21
83.49349687951473
 31
0.0
  0
LINE
  5
B1AF
330
B130
100
AcDbEntity
  8
DIM
 62
     6
370
    -2
100
AcDbLine
 10
308.7570949310053
 20
84.49349687951473
 30
0.0
 11
268.7570949310053
 21
84.49349687951473
 31
0.0
  0
MTEXT
  5
B1B0
330
B130
100
AcDbEntity
  8
DIM
 62
     3
100
AcDbMText
 10
290.0070949310053
 20
86.99349687951473
 30
0.0
 40
3.0
 41
0.0
 71
     5
 72
     1
  1
\A1;M45X1.5P
  7
TXT
 73
     1
 44
1.0
1001
ACAD
1000
MTEXTBEGIN
1070
    73
1070
     1
1070
    44
1040
1.0
1070
    74
1070
     0
1000
MTEXTEND
  0
SOLID
  5
B1B1
330
B130
100
AcDbEntity
  8
DIM
 62
     6
100
AcDbTrace
 10
308.7570949310053
 20
84.91016354618141
 30
0.0
 11
308.7570949310053
 21
84.07683021284807
 31
0.0
 12
311.2570949310053
 22
84.49349687951473
 32
0.0
 13
311.2570949310053
 23
84.49349687951473
 33
0.0
  0
SOLID
  5
B1B2
330
B130
100
AcDbEntity
  8
DIM
 62
     6
100
AcDbTrace
 10
268.7570949310053
 20
84.91016354618141
 30
0.0
 11
268.7570949310053
 21
84.07683021284807
 31
0.0
 12
266.2570949310053
 22
84.49349687951473
 32
0.0
 13
266.2570949310053
 23
84.49349687951473
 33
0.0
  0
POINT
  5
B1B3
330
B130
100
AcDbEntity
  8
DEFPOINTS
 62
     0
100
AcDbPoint
 10
311.2570949310053
 20
105.538405726284
 30
0.0
  0
POINT
  5
B1B4
330
B130
100
AcDbEntity
  8
DEFPOINTS
 62
     0
100
AcDbPoint
 10
266.2570949310053
 20
105.038405726284
 30
0.0
  0
POINT
  5
B1B5
330
B130
100
AcDbEntity
  8
DEFPOINTS
 62
     0
100
AcDbPoint
 10
266.2570949310053
 20
84.49349687951473
 30
0.0
  0
ENDBLK
  5
B132
330
B130
100
AcDbEntity
  8
0
100
AcDbBlockEnd
  0
BLOCK
  5
B13C
330
B13B
100
AcDbEntity
  8
0
100
AcDbBlockBegin
  2
*D25
 70
     1
 10
0.0
 20
0.0
 30
0.0
  3
*D25
  1

  0
LINE
  5
B1B6
330
B13B
100
AcDbEntity
  8
DIM
 62
     6
370
    -2
100
AcDbLine
 10
255.7570949310054
 20
126.938405726284
 30
0.0
 11
240.1918272779868
 21
126.938405726284
 31
0.0
  0
LINE
  5
B1B7
330
B13B
100
AcDbEntity
  8
DIM
 62
     6
370
    -2
100
AcDbLine
 10
257.2570949310053
 20
104.938405726284
 30
0.0
 11
240.1918272779868
 21
104.938405726284
 31
0.0
  0
LINE
  5
B1B8
330
B13B
100
AcDbEntity
  8
DIM
 62
     6
370
    -2
100
AcDbLine
 10
241.1918272779868
 20
124.438405726284
 30
0.0
 11
241.1918272779868
 21
107.438405726284
 31
0.0
  0
SOLID
  5
B1B9
330
B13B
100
AcDbEntity
  8
DIM
 62
     6
100
AcDbTrace
 10
240.7751606113202
 20
124.438405726284
 30
0.0
 11
241.6084939446535
 21
124.438405726284
 31
0.0
 12
241.1918272779868
 22
126.938405726284
 32
0.0
 13
241.1918272779868
 23
126.938405726284
 33
0.0
  0
SOLID
  5
B1BA
330
B13B
100
AcDbEntity
  8
DIM
 62
     6
100
AcDbTrace
 10
240.7751606113202
 20
107.438405726284
 30
0.0
 11
241.6084939446535
 21
107.438405726284
 31
0.0
 12
241.1918272779868
 22
104.938405726284
 32
0.0
 13
241.1918272779868
 23
104.938405726284
 33
0.0
  0
MTEXT
  5
B1BB
330
B13B
100
AcDbEntity
  8
DIM
 62
     3
100
AcDbMText
 10
238.6918272779868
 20
115.938405726284
 30
0.0
 40
3.0
 41
0.0
 71
     5
 72
     1
  1
\A1;22%%p0.2
  7
TXT
 11
0.0000000000000001
 21
1.0
 31
0.0
 73
     1
 44
1.0
1001
ACAD
1000
MTEXTBEGIN
1070
    73
1070
     1
1070
    44
1040
1.0
1070
    74
1070
     0
1000
MTEXTEND
  0
POINT
  5
B1BC
330
B13B
100
AcDbEntity
  8
DEFPOINTS
 62
     0
100
AcDbPoint
 10
256.7570949310053
 20
126.938405726284
 30
0.0
  0
POINT
  5
B1BD
330
B13B
100
AcDbEntity
  8
DEFPOINTS
 62
     0
100
AcDbPoint
 10
258.2570949310053
 20
104.938405726284
 30
0.0
  0
POINT
  5
B1BE
330
B13B
100
AcDbEntity
  8
DEFPOINTS
 62
     0
100
AcDbPoint
 10
241.1918272779868
 20
104.938405726284
 30
0.0
  0
ENDBLK
  5
B13D
330
B13B
100
AcDbEntity
  8
0
100
AcDbBlockEnd
  0
BLOCK
  5
B148
330
B147
100
AcDbEntity
  8
0
100
AcDbBlockBegin
  2
*D26
 70
     1
 10
0.0
 20
0.0
 30
0.0
  3
*D26
  1

  0
LINE
  5
B1BF
330
B147
100
AcDbEntity
  8
DIM
 62
     6
370
    -2
100
AcDbLine
 10
314.7903583242725
 20
221.4905328362316
 30
0.0
 11
302.1254357208539
 21
243.4268222592807
 31
0.0
  0
LINE
  5
B1C0
330
B147
100
AcDbEntity
  8
DIM
 62
     6
370
    -2
100
AcDbLine
 10
316.9109972087233
 20
222.7148842670233
 30
0.0
 11
304.2460746053048
 21
244.6511736900724
 31
0.0
  0
LINE
  5
B1C1
330
B147
100
AcDbEntity
  8
DIM
 62
     6
370
    -2
100
AcDbLine
 10
300.4603722113928
 20
241.3107968554963
 30
0.0
 11
298.2953087019317
 21
240.0607968554963
 31
0.0
  0
LINE
  5
B1C2
330
B147
100
AcDbEntity
  8
DIM
 62
     6
370
    -2
100
AcDbLine
 10
306.9111381147659
 20
245.0351482862879
 30
0.0
 11
309.076201624227
 21
246.2851482862879
 31
0.0
  0
MTEXT
  5
B1C3
330
B147
100
AcDbEntity
  8
DIM
 62
     3
100
AcDbMText
 10
301.4794989271487
 20
245.8208951268687
 30
0.0
 40
3.0
 41
0.0
 71
     5
 72
     1
  1
\A1;2.4
  7
TXT
 11
0.8660254037844453
 21
0.4999999999999883
 31
0.0
 73
     1
 44
1.0
1001
ACAD
1000
MTEXTBEGIN
1070
    73
1070
     1
1070
    44
1040
1.0
1070
    74
1070
     0
1000
MTEXTEND
  0
SOLID
  5
B1C4
330
B147
100
AcDbEntity
  8
DIM
 62
     6
100
AcDbTrace
 10
300.2520388780595
 20
241.6716407737398
 30
0.0
 11
300.6687055447262
 21
240.9499529372528
 31
0.0
 12
302.6254357208539
 22
242.5607968554963
 32
0.0
 13
302.6254357208539
 23
242.5607968554963
 33
0.0
  0
SOLID
  5
B1C5
330
B147
100
AcDbEntity
  8
DIM
 62
     6
100
AcDbTrace
 10
306.7028047814326
 20
245.3959922045314
 30
0.0
 11
307.1194714480993
 21
244.6743043680444
 31
0.0
 12
304.7460746053048
 22
243.785148286288
 32
0.0
 13
304.7460746053048
 23
243.785148286288
 33
0.0
  0
POINT
  5
B1C6
330
B147
100
AcDbEntity
  8
DEFPOINTS
 62
     0
100
AcDbPoint
 10
315.2903583242725
 20
220.6245074324471
 30
0.0
  0
POINT
  5
B1C7
330
B147
100
AcDbEntity
  8
DEFPOINTS
 62
     0
100
AcDbPoint
 10
317.4109972087233
 20
221.8488588632388
 30
0.0
  0
POINT
  5
B1C8
330
B147
100
AcDbEntity
  8
DEFPOINTS
 62
     0
100
AcDbPoint
 10
304.7460746053048
 20
243.785148286288
 30
0.0
  0
ENDBLK
  5
B149
330
B147
100
AcDbEntity
  8
0
100
AcDbBlockEnd
  0
BLOCK
  5
B155
330
B154
100
AcDbEntity
  8
0
100
AcDbBlockBegin
  2
*D27
 70
     1
 10
0.0
 20
0.0
 30
0.0
  3
*D27
  1

  0
LINE
  5
B1C9
330
B154
100
AcDbEntity
  8
DIM
 62
     6
370
    -2
100
AcDbLine
 10
321.6660602748141
 20
182.8414190547271
 30
0.0
 11
337.7003213480929
 21
173.584034107813
 31
0.0
  0
LINE
  5
B1CA
330
B154
100
AcDbEntity
  8
DIM
 62
     6
370
    -2
100
AcDbLine
 10
326.7570949310055
 20
201.841419054727
 30
0.0
 11
345.2718648248339
 21
201.8414190547269
 31
0.0
  0
ARC
  5
B1CB
330
B154
100
AcDbEntity
  8
DIM
 62
     6
370
    -2
100
AcDbCircle
 10
288.7570949310053
 20
201.8414190547272
 30
0.0
 40
55.51476989382847
100
AcDbArc
 50
332.5804223887155
 51
357.4195776112843
  0
SOLID
  5
B1CC
330
B154
100
AcDbEntity
  8
DIM
 62
     6
100
AcDbTrace
 10
338.4006726922141
 20
176.0765388116295
 30
0.0
 11
337.6697859370355
 21
176.4768499350684
 31
0.0
 12
336.8342959443084
 22
174.084034107813
 32
0.0
 13
336.8342959443084
 23
174.084034107813
 33
0.0
  0
SOLID
  5
B1CD
330
B154
100
AcDbEntity
  8
DIM
 62
     6
100
AcDbTrace
 10
343.7990124695155
 20
199.3514347653827
 30
0.0
 11
344.6321345285091
 21
199.3326709901088
 31
0.0
 12
344.2718648248338
 22
201.8414190547269
 32
0.0
 13
344.2718648248338
 23
201.8414190547269
 33
0.0
  0
MTEXT
  5
B1CE
330
B154
100
AcDbEntity
  8
DIM
 62
     3
100
AcDbMText
 10
339.9654303462264
 20
188.1201869344766
 30
0.0
 40
3.0
 41
0.0
 71
     5
 72
     1
  1
\A1;30\U+00B0
  7
TXT
 11
0.2588190451025218
 21
0.9659258262890679
 31
0.0
 73
     1
 44
1.0
1001
ACAD
1000
MTEXTBEGIN
1070
    73
1070
     1
1070
    44
1040
1.0
1070
    74
1070
     0
1000
MTEXTEND
  0
POINT
  5
B1CF
330
B154
100
AcDbEntity
  8
DEFPOINTS
 62
     0
100
AcDbPoint
 10
340.9239145448637
 20
182.8542494989483
 30
0.0
  0
POINT
  5
B1D0
330
B154
100
AcDbEntity
  8
DEFPOINTS
 62
     0
100
AcDbPoint
 10
251.7570949310054
 20
201.8414190547273
 30
0.0
  0
POINT
  5
B1D1
330
B154
100
AcDbEntity
  8
DEFPOINTS
 62
     0
100
AcDbPoint
 10
256.7141549909811
 20
220.3414190547271
 30
0.0
  0
POINT
  5
B1D2
330
B154
100
AcDbEntity
  8
DEFPOINTS
 62
     0
100
AcDbPoint
 10
320.8000348710296
 20
183.3414190547272
 30
0.0
  0
POINT
  5
B1D3
330
B154
100
AcDbEntity
  8
DEFPOINTS
 62
     0
100
AcDbPoint
 10
325.7570949310054
 20
201.841419054727
 30
0.0
  0
ENDBLK
  5
B156
330
B154
100
AcDbEntity
  8
0
100
AcDbBlockEnd
  0
ENDSEC
  0
SECTION
  2
ENTITIES
  0
MTEXT
  5
C0
330
18
100
AcDbEntity
  8
0
100
AcDbMText
 10
41.26970765600413
 20
233.6950877649332
 30
0.0
 40
2.5
 41
0.0
 71
     1
 72
     5
  1

  7
ISOCP3
 73
     1
 44
1.0
1001
ACAD
1000
MTEXTBEGIN
1070
    73
1070
     1
1070
    44
1040
1.0
1070
    74
1070
     0
1000
MTEXTEND
  0
LINE
  5
64AF
330
18
100
AcDbEntity
  8
図框線
100
AcDbLine
 10
197.9999999999997
 20
289.9999999999999
 30
0.0
 11
197.9999999999997
 21
-0.0000000000000568
 31
0.0
  0
MTEXT
  5
8100
330
18
100
AcDbEntity
  8
0
 62
     3
100
AcDbMText
 10
271.8936002556579
 20
231.0795154942946
 30
0.0
 40
4.0
 41
0.0
 71
     6
 72
     1
  1
\A1;
  7
TXT
 73
     1
 44
1.0
1001
ACAD
1000
MTEXTBEGIN
1070
    73
1070
     1
1070
    44
1040
1.0
1070
    74
1070
     0
1000
MTEXTEND
  0
MTEXT
  5
AB22
330
18
100
AcDbEntity
  8
DIM
 62
     3
100
AcDbMText
 10
274.6439051493778
 20
220.5586263190087
 30
0.0
 40
4.0
 41
0.0
 71
     9
 72
     1
  1

  7
TXT
 73
     1
 44
1.0
1001
ACAD
1000
MTEXTBEGIN
1070
    73
1070
     1
1070
    44
1040
1.0
1070
    74
1070
     0
1000
MTEXTEND
  0
MTEXT
  5
AFC1
330
18
100
AcDbEntity
  8
DIM
100
AcDbMText
 10
303.6726471534768
 20
250.0131408759898
 30
0.0
 40
2.0
 41
9.555074525974475
 71
     1
 72
     5
  1
+0.15\P+0
  7
TXT
 11
0.8660254037844387
 21
0.5
 31
0.0
 73
     1
 44
1.0
1001
ACAD
1000
MTEXTBEGIN
1070
    73
1070
     1
1070
    44
1040
1.0
1070
    74
1070
     0
1000
MTEXTEND
  0
MTEXT
  5
AFC2
330
18
100
AcDbEntity
  8
DIM
100
AcDbMText
 10
229.4333397522493
 20
202.8891708124959
 30
0.0
 40
2.0
 41
8.84945634767439
 71
     1
 72
     5
  1
+0\P-0.5
  7
TXT
 11
0.0000000000000001
 21
1.0
 31
0.0
 73
     1
 44
1.0
1001
ACAD
1000
MTEXTBEGIN
1070
    73
1070
     1
1070
    44
1040
1.0
1070
    74
1070
     0
1000
MTEXTEND
  0
MTEXT
  5
AFC3
330
18
100
AcDbEntity
  8
DIM
100
AcDbMText
 10
289.0587135356065
 20
157.9155729491738
 30
0.0
 40
2.0
 41
11.48459459716352
 71
     1
 72
     5
  1
+0\P-0.2
  7
TXT
 73
     1
 44
1.0
1001
ACAD
1000
MTEXTBEGIN
1070
    73
1070
     1
1070
    44
1040
1.0
1070
    74
1070
     0
1000
MTEXTEND
  0
MTEXT
  5
AFC4
330
18
100
AcDbEntity
  8
0
100
AcDbMText
 10
215.8194827894974
 20
19.37399834316261
 30
0.0
 40
5.0
 41
0.0
 71
     1
 72
     5
  1
\Ftxt.shx,bigfont.shx|c128;呉銘宏
  7
JL
 73
     1
 44
1.0
1001
ACAD
1000
MTEXTBEGIN
1070
    73
1070
     1
1070
    44
1040
1.0
1070
    74
1070
     0
1000
MTEXTEND
  0
MTEXT
  5
AFC5
330
18
100
AcDbEntity
  8
0
100
AcDbMText
 10
279.2351766519634
 20
29.2278230533891
 30
0.0
 40
4.5
 41
0.0
 71
     1
 72
     5
  1
\Ftxt.shx,bigfont.shx|c128;1 : 1
  7
JL
 73
     1
 44
1.0
1001
ACAD
1000
MTEXTBEGIN
1070
    73
1070
     1
1070
    44
1040
1.0
1070
    74
1070
     0
1000
MTEXTEND
  0
MTEXT
  5
AFC6
330
18
100
AcDbEntity
  8
0
 48
2.0
370
    25
100
AcDbMText
 10
344.1234268906312
 20
3.636969934829039
 30
0.0
 40
4.5
 41
0.0
 71
     5
 72
     1
  1
\Ftxt.shx,bigfont.shx|c128;N L 4 0 1 9 0
 73
     1
 44
1.0
1001
ACAD
1000
MTEXTBEGIN
1070
    73
1070
     1
1070
    44
1040
1.0
1070
    74
1070
     0
1000
MTEXTEND
  0
MTEXT
  5
AFC7
330
18
100
AcDbEntity
  8
0
 48
2.0
100
AcDbMText
 10
376.1300746997772
 20
22.17550270047843
 30
0.0
 40
4.5
 41
0.0
 71
     5
 72
     1
  1
\P\Ftxt.shx,bigfont.shx|c128;SFZ45X1.5P
 73
     1
 44
1.0
1001
ACAD
1000
MTEXTBEGIN
1070
    73
1070
     1
1070
    44
1040
1.0
1070
    74
1070
     0
1000
MTEXTEND
  0
MTEXT
  5
AFC8
330
18
100
AcDbEntity
  8
0
100
AcDbMText
 10
214.0234810910952
 20
28.64592585511957
 30
0.0
 40
4.5
 41
0.0
 71
     1
 72
     5
  1
\Ftxt.shx,bigfont.shx|c128;05.03.09
  7
JL
 73
     1
 44
1.0
1001
ACAD
1000
MTEXTBEGIN
1070
    73
1070
     1
1070
    44
1040
1.0
1070
    74
1070
     0
1000
MTEXTEND
  0
INSERT
  5
AFC9
330
18
100
AcDbEntity
  8
mark
100
AcDbBlockReference
  2
A$C255C26A2
 10
267.5427903149409
 20
126.9384050323028
 30
0.0
  0
LEADER
  5
AFCA
330
18
100
AcDbEntity
  8
DIM
 62
     6
100
AcDbLeader
  3
A
 76
     2
 10
321.5070949310054
 20
108.835520043314
 30
0.0
 10
334.2728606303392
 20
95.53132318913243
 30
0.0
  0
MTEXT
  5
AFCB
330
18
100
AcDbEntity
  8
DIM
100
AcDbMText
 10
335.9910657266401
 20
145.4096701304656
 30
0.0
 40
5.0
 41
1.0
 71
     1
 72
     5
  1
\Ftxt.shx,bigfont.shx|c128;3
 73
     1
 44
1.0
1001
ACAD
1000
MTEXTBEGIN
1070
    73
1070
     1
1070
    44
1040
1.0
1070
    74
1070
     0
1000
MTEXTEND
  0
MTEXT
  5
AFCC
330
18
100
AcDbEntity
  8
DIM
100
AcDbMText
 10
334.343261757179
 20
95.62367399452655
 30
0.0
 40
5.0
 41
1.0
 71
     1
 72
     5
  1
\Ftxt.shx,bigfont.shx|c128;2
 73
     1
 44
1.0
1001
ACAD
1000
MTEXTBEGIN
1070
    73
1070
     1
1070
    44
1040
1.0
1070
    74
1070
     0
1000
MTEXTEND
  0
LINE
  5
AFCD
330
18
100
AcDbEntity
  8
図框線
100
AcDbLine
 10
395.9999999999995
 20
289.9999999999999
 30
0.0
 11
395.9999999999995
 21
-0.0000000000000568
 31
0.0
  0
LINE
  5
AFCE
330
18
100
AcDbEntity
  8
図框線
370
    30
100
AcDbLine
 10
197.9999999999995
 20
0.0
 30
0.0
 11
197.9999999999995
 21
290.0
 31
0.0
  0
LINE
  5
AFCF
330
18
100
AcDbEntity
  8
0
 62
     7
 48
5.0
100
AcDbLine
 39
4.0
 10
247.9475051563429
 20
27.8953239783782
 30
0.0
 11
253.2793088720521
 21
29.22827490730549
 31
0.0
  0
MTEXT
  5
AFD0
330
18
100
AcDbEntity
  8
0
100
AcDbMText
 10
213.9786697715872
 20
9.63134010478825
 30
0.0
 40
6.0
 41
0.0
 71
     1
 72
     5
  1
\Ftxt.shx,bigfont.shx|c128;日機株式会社
  7
LKK
 73
     1
 44
1.0
1001
ACAD
1000
MTEXTBEGIN
1070
    73
1070
     1
1070
    44
1040
1.0
1070
    74
1070
     0
1000
MTEXTEND
  0
LINE
  5
AFD1
330
18
100
AcDbEntity
  8
図框線
100
AcDbLine
 10
197.9999999999997
 20
0.0
 30
0.0
 11
395.9999999999995
 21
0.0
 31
0.0
  0
LINE
  5
AFD2
330
18
100
AcDbEntity
  8
図框線
100
AcDbLine
 10
197.9999999999997
 20
12.0
 30
0.0
 11
395.9999999999995
 21
12.00000000000005
 31
0.0
  0
LINE
  5
AFD3
330
18
100
AcDbEntity
  8
図框線
100
AcDbLine
 10
197.9999999999997
 20
22.0
 30
0.0
 11
293.9999999999998
 21
22.0
 31
0.0
  0
LINE
  5
AFD4
330
18
100
AcDbEntity
  8
図框線
100
AcDbLine
 10
197.9999999999997
 20
32.0
 30
0.0
 11
395.9999999999995
 21
32.0
 31
0.0
  0
LINE
  5
AFD5
330
18
100
AcDbEntity
  8
図框線
100
AcDbLine
 10
209.9999999999998
 20
32.0
 30
0.0
 11
209.9999999999998
 21
12.0
 31
0.0
  0
LINE
  5
AFD6
330
18
100
AcDbEntity
  8
図框線
100
AcDbLine
 10
229.9999999999998
 20
32.0
 30
0.0
 11
229.9999999999998
 21
12.0
 31
0.0
  0
MTEXT
  5
AFD7
330
18
100
AcDbEntity
  8
0
100
AcDbMText
 10
200.9494442488206
 20
29.04715033351227
 30
0.0
 40
4.5
 41
0.0
 71
     1
 72
     5
  1
\Ftxt.shx,bigfont.shx|c128;日 付
  7
JL
 73
     1
 44
1.0
1001
ACAD
1000
MTEXTBEGIN
1070
    73
1070
     1
1070
    44
1040
1.0
1070
    74
1070
     0
1000
MTEXTEND
  0
MTEXT
  5
AFD8
330
18
100
AcDbEntity
  8
0
100
AcDbMText
 10
201.0957123649098
 20
19.83833899470915
 30
0.0
 40
4.5
 41
0.0
 71
     1
 72
     5
  1
\Ftxt.shx,bigfont.shx|c128;製 図
  7
JL
 73
     1
 44
1.0
1001
ACAD
1000
MTEXTBEGIN
1070
    73
1070
     1
1070
    44
1040
1.0
1070
    74
1070
     0
1000
MTEXTEND
  0
LINE
  5
AFD9
330
18
100
AcDbEntity
  8
0
 62
     7
370
    25
100
AcDbLine
 10
253.2793088720521
 20
23.89647119159633
 30
0.0
 11
253.2793088720521
 21
29.22827490730549
 31
0.0
  0
MTEXT
  5
AFDA
330
18
100
AcDbEntity
  8
0
100
AcDbMText
 10
264.7025406733253
 20
29.42231870267847
 30
0.0
 40
4.5
 41
0.0
 71
     1
 72
     5
  1
\Ftxt.shx,bigfont.shx|c128;尺 度
  7
JL
 73
     1
 44
1.0
1001
ACAD
1000
MTEXTBEGIN
1070
    73
1070
     1
1070
    44
1040
1.0
1070
    74
1070
     0
1000
MTEXTEND
  0
LINE
  5
AFDB
330
18
100
AcDbEntity
  8
図框線
100
AcDbLine
 10
261.9999999999998
 20
32.0
 30
0.0
 11
261.9999999999998
 21
12.0
 31
0.0
  0
LINE
  5
AFDC
330
18
100
AcDbEntity
  8
0
 62
     7
370
    25
100
AcDbLine
 10
239.2833241183155
 20
23.23894871736115
 30
0.0
 11
239.2833241183155
 21
29.67466750005656
 31
0.0
  0
CIRCLE
  5
AFDD
330
18
100
AcDbEntity
  8
0
 62
     7
100
AcDbCircle
 10
239.2833241183155
 20
26.5623730494508
 30
0.0
 40
2.665901857854641
  0
LINE
  5
AFDE
330
18
100
AcDbEntity
  8
0
 62
     7
370
    25
100
AcDbLine
 10
247.1803028110605
 20
26.56237304945091
 30
0.0
 11
253.7579732190313
 21
26.56237304945091
 31
0.0
  0
LINE
  5
AFDF
330
18
100
AcDbEntity
  8
0
 62
     7
100
AcDbLine
 10
247.9475051563429
 20
25.22942212052362
 30
0.0
 11
253.2793088720521
 21
23.89647119159633
 31
0.0
  0
LINE
  5
AFE0
330
18
100
AcDbEntity
  8
図框線
100
AcDbLine
 10
241.9999999999998
 20
21.99999999999989
 30
0.0
 11
241.9999999999998
 21
12.0
 31
0.0
  0
LINE
  5
AFE1
330
18
100
AcDbEntity
  8
0
 62
     7
370
    25
100
AcDbLine
 10
235.9517253284391
 20
26.5623730494508
 30
0.0
 11
242.8139159467689
 21
26.56237304945091
 31
0.0
  0
CIRCLE
  5
AFE2
330
18
100
AcDbEntity
  8
0
 62
     7
100
AcDbCircle
 10
239.2833241183155
 20
26.5623730494508
 30
0.0
 40
1.33295092892732
  0
MTEXT
  5
AFE3
330
18
100
AcDbEntity
  8
0
100
AcDbMText
 10
233.1208651803974
 20
19.39982343168049
 30
0.0
 40
4.5
 41
0.0
 71
     1
 72
     5
  1
\Ftxt.shx,bigfont.shx|c128;検 図
  7
JL
 73
     1
 44
1.0
1001
ACAD
1000
MTEXTBEGIN
1070
    73
1070
     1
1070
    44
1040
1.0
1070
    74
1070
     0
1000
MTEXTEND
  0
LINE
  5
AFE4
330
18
100
AcDbEntity
  8
0
 62
     7
370
    25
100
AcDbLine
 10
247.9475051563429
 20
25.22942212052362
 30
0.0
 11
247.9475051563429
 21
27.8953239783782
 31
0.0
  0
MTEXT
  5
AFE5
330
18
100
AcDbEntity
  8
0
100
AcDbMText
 10
264.9950741833748
 20
19.62882052001464
 30
0.0
 40
4.5
 41
0.0
 71
     1
 72
     5
  1
\Ftxt.shx,bigfont.shx|c128;承 認
  7
JL
 73
     1
 44
1.0
1001
ACAD
1000
MTEXTBEGIN
1070
    73
1070
     1
1070
    44
1040
1.0
1070
    74
1070
     0
1000
MTEXTEND
  0
LINE
  5
AFE6
330
18
100
AcDbEntity
  8
図框線
100
AcDbLine
 10
330.6157900786388
 20
43.13491348924492
 30
0.0
 11
390.6157900786388
 21
43.13491348924481
 31
0.0
  0
LINE
  5
AFE7
330
18
100
AcDbEntity
  8
図框線
100
AcDbLine
 10
330.6157900786388
 20
50.33491348924497
 30
0.0
 11
390.6157900786388
 21
50.33491348924497
 31
0.0
  0
LINE
  5
AFE8
330
18
100
AcDbEntity
  8
図框線
100
AcDbLine
 10
330.6157900786388
 20
57.5349134892449
 30
0.0
 11
390.6157900786388
 21
57.53491348924478
 31
0.0
  0
LINE
  5
AFE9
330
18
100
AcDbEntity
  8
図框線
100
AcDbLine
 10
330.6157900786388
 20
64.73491348924494
 30
0.0
 11
390.6157900786388
 21
64.73491348924483
 31
0.0
  0
LINE
  5
AFEA
330
18
100
AcDbEntity
  8
図框線
100
AcDbLine
 10
330.6157900786388
 20
35.93491348924488
 30
0.0
 11
390.6157900786388
 21
35.93491348924488
 31
0.0
  0
MTEXT
  5
AFEB
330
18
100
AcDbEntity
  8
0
 62
     7
 48
2.0
100
AcDbMText
 10
360.5011900445102
 20
65.52808189982909
 30
0.0
 40
4.8
 41
0.0
 71
     5
 72
     1
  1
\P\Ftxt.shx,bigfont.shx|c128;諸　　　　元
 73
     1
 44
1.0
1001
ACAD
1000
MTEXTBEGIN
1070
    73
1070
     1
1070
    44
1040
1.0
1070
    74
1070
     0
1000
MTEXTEND
  0
LINE
  5
AFEC
330
18
100
AcDbEntity
  8
図框線
100
AcDbLine
 10
330.6157900786388
 20
64.73491348924483
 30
0.0
 11
330.6157900786388
 21
35.93491348924488
 31
0.0
  0
MTEXT
  5
AFED
330
18
100
AcDbEntity
  8
0
100
AcDbMText
 10
334.138225892319
 20
56.00840432212407
 30
0.0
 40
4.4
 41
163.916286842249
 71
     1
 72
     5
  1
\Ftxt.shx,bigfont.shx|c128;熱　処　理
  7
JL
 73
     1
 44
1.0
1001
ACAD
1000
MTEXTBEGIN
1070
    73
1070
     1
1070
    44
1040
1.0
1070
    74
1070
     0
1000
MTEXTEND
  0
LINE
  5
AFEE
330
18
100
AcDbEntity
  8
図框線
100
AcDbLine
 10
354.6157900786389
 20
57.53491348924478
 30
0.0
 11
354.6157900786389
 21
35.93491348924488
 31
0.0
  0
MTEXT
  5
AFEF
330
18
100
AcDbEntity
  8
0
100
AcDbMText
 10
295.657025562638
 20
11.15332144655735
 30
0.0
 40
5.0
 41
0.0
 71
     1
 72
     5
  1
\Ftxt.shx,bigfont.shx|c128;図  面  番  号
  7
JL
 73
     1
 44
1.0
1001
ACAD
1000
MTEXTBEGIN
1070
    73
1070
     1
1070
    44
1040
1.0
1070
    74
1070
     0
1000
MTEXTEND
  0
MTEXT
  5
AFF0
330
18
100
AcDbEntity
  8
0
 62
     7
 48
2.0
100
AcDbMText
 10
319.826085065386
 20
22.29156825453561
 30
0.0
 40
4.5
 41
0.0
 71
     5
 72
     1
  1
\P\Ftxt.shx,bigfont.shx|c128;    精密ロックナット
 73
     1
 44
1.0
1001
ACAD
1000
MTEXTBEGIN
1070
    73
1070
     1
1070
    44
1040
1.0
1070
    74
1070
     0
1000
MTEXTEND
  0
MTEXT
  5
AFF1
330
18
100
AcDbEntity
  8
0
370
    25
100
AcDbMText
 10
296.8002923053596
 20
29.80688815403971
 30
0.0
 40
5.0
 41
0.0
 71
     1
 72
     5
  1
\Ftxt.shx,bigfont.shx|c128;品  名
  7
JL
 73
     1
 44
1.0
1001
ACAD
1000
MTEXTBEGIN
1070
    73
1070
     1
1070
    44
1040
1.0
1070
    74
1070
     0
1000
MTEXTEND
  0
LINE
  5
AFF2
330
18
100
AcDbEntity
  8
図框線
100
AcDbLine
 10
293.9999999999998
 20
32.0
 30
0.0
 11
293.9999999999998
 21
0.19104161092514
 31
0.0
  0
LINE
  5
AFF3
330
18
100
AcDbEntity
  8
図框線
100
AcDbLine
 10
273.9999999999998
 20
32.0
 30
0.0
 11
273.9999999999998
 21
12.0
 31
0.0
  0
LINE
  5
AFF4
330
18
100
AcDbEntity
  8
図框線
100
AcDbLine
 10
351.2235601908681
 20
32.0
 30
0.0
 11
351.2235601908681
 21
12.0
 31
0.0
  0
MTEXT
  5
AFF5
330
18
100
AcDbEntity
  8
0
100
AcDbMText
 10
333.8579515249398
 20
49.00617587486397
 30
0.0
 40
4.4
 41
163.6058628849672
 71
     1
 72
     5
  1
\Ftxt.shx,bigfont.shx|c128;表 面 処 理
  7
JL
 73
     1
 44
1.0
1001
ACAD
1000
MTEXTBEGIN
1070
    73
1070
     1
1070
    44
1040
1.0
1070
    74
1070
     0
1000
MTEXTEND
  0
MTEXT
  5
AFF6
330
18
100
AcDbEntity
  8
0
100
AcDbMText
 10
334.1480173733748
 20
41.71770302125605
 30
0.0
 40
4.4
 41
166.1718
 71
     1
 72
     5
  1
\Ftxt.shx,bigfont.shx|c128;等     　級
  7
JL
 73
     1
 44
1.0
1001
ACAD
1000
MTEXTBEGIN
1070
    73
1070
     1
1070
    44
1040
1.0
1070
    74
1070
     0
1000
MTEXTEND
  0
LINE
  5
AFF7
330
18
100
AcDbEntity
  8
図框線
100
AcDbLine
 10
390.6157900786388
 20
64.73491348924483
 30
0.0
 11
390.6157900786388
 21
35.93491348924499
 31
0.0
  0
MTEXT
  5
AFF8
330
18
100
AcDbEntity
  8
0
100
AcDbMText
 10
359.3627933880814
 20
55.83344641471445
 30
0.0
 40
4.4
 41
291.8960056857887
 71
     1
 72
     5
  1
\Ftxt.shx,bigfont.shx|c128;調質　HRC30%%d%%p２%%d
  7
JL
 73
     1
 44
1.0
1001
ACAD
1000
MTEXTBEGIN
1070
    73
1070
     1
1070
    44
1040
1.0
1070
    74
1070
     0
1000
MTEXTEND
  0
MTEXT
  5
AFF9
330
18
100
AcDbEntity
  8
0
370
    25
100
AcDbMText
 10
355.2494735287421
 20
29.58569764093568
 30
0.0
 40
5.0
 41
0.0
 71
     1
 72
     5
  1
\Ftxt.shx,bigfont.shx|c128;型  番
  7
JL
 73
     1
 44
1.0
1001
ACAD
1000
MTEXTBEGIN
1070
    73
1070
     1
1070
    44
1040
1.0
1070
    74
1070
     0
1000
MTEXTEND
  0
MTEXT
  5
AFFA
330
18
100
AcDbEntity
  8
0
100
AcDbMText
 10
370.7872651223388
 20
11.23700203391422
 30
0.0
 40
5.0
 41
0.0
 71
     1
 72
     5
  1
\Ftxt.shx,bigfont.shx|c128;変更
  7
JL
 73
     1
 44
1.0
1001
ACAD
1000
MTEXTBEGIN
1070
    73
1070
     1
1070
    44
1040
1.0
1070
    74
1070
     0
1000
MTEXTEND
  0
LINE
  5
AFFB
330
18
100
AcDbEntity
  8
図框線
100
AcDbLine
 10
368.9999999999998
 20
12.00907027842731
 30
0.0
 11
368.9999999999998
 21
0.0
 31
0.0
  0
MTEXT
  5
AFFC
330
18
100
AcDbEntity
  8
0
100
AcDbMText
 10
359.6234323895178
 20
41.7183135927072
 30
0.0
 40
4.4
 41
290.783364796891
 71
     1
 72
     5
  1
\Ftxt.shx,bigfont.shx|c128;ＩＳＯ - ４Ｈ
  7
JL
 73
     1
 44
1.0
1001
ACAD
1000
MTEXTBEGIN
1070
    73
1070
     1
1070
    44
1040
1.0
1070
    74
1070
     0
1000
MTEXTEND
  0
MTEXT
  5
AFFD
330
18
100
AcDbEntity
  8
0
100
AcDbMText
 10
359.7978935876481
 20
48.65328293790913
 30
0.0
 40
4.4
 41
291.4548
 71
     1
 72
     5
  1
\Ftxt.shx,bigfont.shx|c128;黒  　    染
  7
JL
 73
     1
 44
1.0
1001
ACAD
1000
MTEXTBEGIN
1070
    73
1070
     1
1070
    44
1040
1.0
1070
    74
1070
     0
1000
MTEXTEND
  0
MTEXT
  5
AFFE
330
18
100
AcDbEntity
  8
0
100
AcDbMText
 10
258.0631860075898
 20
270.095850257545
 30
0.0
 40
5.0
 41
0.0
 71
     1
 72
     5
  1
\Ftxt.shx,bigfont.shx|c128;M8X1.25-8L
  7
JL
 73
     1
 44
1.0
1001
ACAD
1000
MTEXTBEGIN
1070
    73
1070
     1
1070
    44
1040
1.0
1070
    74
1070
     0
1000
MTEXTEND
  0
MTEXT
  5
AFFF
330
18
100
AcDbEntity
  8
0
100
AcDbMText
 10
258.0631860075898
 20
262.095850257545
 30
0.0
 40
5.0
 41
0.0
 71
     1
 72
     5
  1
\Ftxt.shx,bigfont.shx|c128;%%c7X6L
  7
JL
 73
     1
 44
1.0
1001
ACAD
1000
MTEXTBEGIN
1070
    73
1070
     1
1070
    44
1040
1.0
1070
    74
1070
     0
1000
MTEXTEND
  0
LINE
  5
B000
330
18
100
AcDbEntity
  8
図框線
100
AcDbLine
 10
197.9999999999995
 20
263.9999999999999
 30
0.0
 11
395.9999999999995
 21
263.9999999999999
 31
0.0
  0
LINE
  5
B001
330
18
100
AcDbEntity
  8
図框線
100
AcDbLine
 10
197.9999999999995
 20
271.9999999999999
 30
0.0
 11
395.9999999999995
 21
271.9999999999999
 31
0.0
  0
LINE
  5
B002
330
18
100
AcDbEntity
  8
図框線
 62
     9
100
AcDbLine
 10
197.9999999999995
 20
279.9999999999999
 30
0.0
 11
395.9999999999995
 21
279.9999999999999
 31
0.0
  0
LINE
  5
B003
330
18
100
AcDbEntity
  8
図框線
100
AcDbLine
 10
197.9999999999995
 20
290.0
 30
0.0
 11
395.9999999999995
 21
290.0
 31
0.0
  0
MTEXT
  5
B004
330
18
100
AcDbEntity
  8
0
100
AcDbMText
 10
257.4163025968171
 20
287.3155952051104
 30
0.0
 40
5.0
 41
0.0
 71
     1
 72
     5
  1
\Ftxt.shx,bigfont.shx|c128;図    番 / 規　　格
  7
JL
 73
     1
 44
1.0
1001
ACAD
1000
MTEXTBEGIN
1070
    73
1070
     1
1070
    44
1040
1.0
1070
    74
1070
     0
1000
MTEXTEND
  0
LINE
  5
B005
330
18
100
AcDbEntity
  8
図框線
100
AcDbLine
 10
197.9999999999995
 20
263.9999999999999
 30
0.0
 11
395.9999999999995
 21
263.9999999999999
 31
0.0
  0
LINE
  5
B006
330
18
100
AcDbEntity
  8
図框線
100
AcDbLine
 10
197.9999999999995
 20
255.9999999999999
 30
0.0
 11
395.9999999999995
 21
255.9999999999999
 31
0.0
  0
MTEXT
  5
B007
330
18
100
AcDbEntity
  8
0
100
AcDbMText
 10
220.0143491414122
 20
286.7888025819827
 30
0.0
 40
5.0
 41
0.0
 71
     1
 72
     5
  1
\Ftxt.shx,bigfont.shx|c128;品　          名
  7
JL
 73
     1
 44
1.0
1001
ACAD
1000
MTEXTBEGIN
1070
    73
1070
     1
1070
    44
1040
1.0
1070
    74
1070
     0
1000
MTEXTEND
  0
MTEXT
  5
B008
330
18
100
AcDbEntity
  8
0
100
AcDbMText
 10
216.865037613042
 20
270.5298549795346
 30
0.0
 40
6.0
 41
0.0
 71
     1
 72
     5
  1
\Ftxt.shx,bigfont.shx|c128;セットスクリュ-
  7
JL
 73
     1
 44
1.0
1001
ACAD
1000
MTEXTBEGIN
1070
    73
1070
     1
1070
    44
1040
1.0
1070
    74
1070
     0
1000
MTEXTEND
  0
MTEXT
  5
B009
330
18
100
AcDbEntity
  8
0
100
AcDbMText
 10
216.6694145900471
 20
278.3660650505403
 30
0.0
 40
6.0
 41
0.0
 71
     1
 72
     5
  1
\Ftxt.shx,bigfont.shx|c128;ロックナット　  
  7
JL
 73
     1
 44
1.0
1001
ACAD
1000
MTEXTBEGIN
1070
    73
1070
     1
1070
    44
1040
1.0
1070
    74
1070
     0
1000
MTEXTEND
  0
MTEXT
  5
B00A
330
18
100
AcDbEntity
  8
0
100
AcDbMText
 10
216.865037613042
 20
262.5298549795346
 30
0.0
 40
6.0
 41
0.0
 71
     1
 72
     5
  1
\Ftxt.shx,bigfont.shx|c128;ロックピン 
  7
JL
 73
     1
 44
1.0
1001
ACAD
1000
MTEXTBEGIN
1070
    73
1070
     1
1070
    44
1040
1.0
1070
    74
1070
     0
1000
MTEXTEND
  0
LINE
  5
B00B
330
18
100
AcDbEntity
  8
図框線
100
AcDbLine
 10
212.9999999999995
 20
289.9999999999998
 30
0.0
 11
212.9999999999999
 21
255.9999999999999
 31
0.0
  0
MTEXT
  5
B00C
330
18
100
AcDbEntity
  8
0
100
AcDbMText
 10
204.2152890873903
 20
262.7436409356394
 30
0.0
 40
5.0
 41
0.0
 71
     1
 72
     5
  1
\Ftxt.shx,bigfont.shx|c128;3
  7
JL
 73
     1
 44
1.0
1001
ACAD
1000
MTEXTBEGIN
1070
    73
1070
     1
1070
    44
1040
1.0
1070
    74
1070
     0
1000
MTEXTEND
  0
MTEXT
  5
B00D
330
18
100
AcDbEntity
  8
0
100
AcDbMText
 10
205.1019570266666
 20
278.5798510066454
 30
0.0
 40
5.0
 41
0.0
 71
     1
 72
     5
  1
\Ftxt.shx,bigfont.shx|c128;1
  7
JL
 73
     1
 44
1.0
1001
ACAD
1000
MTEXTBEGIN
1070
    73
1070
     1
1070
    44
1040
1.0
1070
    74
1070
     0
1000
MTEXTEND
  0
MTEXT
  5
B00E
330
18
100
AcDbEntity
  8
0
100
AcDbMText
 10
204.2152890873903
 20
270.7436409356394
 30
0.0
 40
5.0
 41
0.0
 71
     1
 72
     5
  1
\Ftxt.shx,bigfont.shx|c128;2
  7
JL
 73
     1
 44
1.0
1001
ACAD
1000
MTEXTBEGIN
1070
    73
1070
     1
1070
    44
1040
1.0
1070
    74
1070
     0
1000
MTEXTEND
  0
MTEXT
  5
B00F
330
18
100
AcDbEntity
  8
0
100
AcDbMText
 10
200.2090839918421
 20
287.0885254164057
 30
0.0
 40
5.0
 41
0.0
 71
     1
 72
     5
  1
\Ftxt.shx,bigfont.shx|c128;照   号
  7
JL
 73
     1
 44
1.0
1001
ACAD
1000
MTEXTBEGIN
1070
    73
1070
     1
1070
    44
1040
1.0
1070
    74
1070
     0
1000
MTEXTEND
  0
LINE
  5
B010
330
18
100
AcDbEntity
  8
図框線
 62
     9
100
AcDbLine
 10
252.9999999999995
 20
289.9999999999998
 30
0.0
 11
252.9999999999995
 21
256.0
 31
0.0
  0
MTEXT
  5
B011
330
18
100
AcDbEntity
  8
0
100
AcDbMText
 10
344.3353765925376
 20
287.5804049742369
 30
0.0
 40
5.0
 41
0.0
 71
     1
 72
     5
  1
\Ftxt.shx,bigfont.shx|c128;備           考
  7
JL
 73
     1
 44
1.0
1001
ACAD
1000
MTEXTBEGIN
1070
    73
1070
     1
1070
    44
1040
1.0
1070
    74
1070
     0
1000
MTEXTEND
  0
LINE
  5
B012
330
18
100
AcDbEntity
  8
図框線
 62
     9
100
AcDbLine
 10
292.9999999999996
 20
289.9999999999999
 30
0.0
 11
292.9999999999996
 21
255.9999999999999
 31
0.0
  0
MTEXT
  5
B013
330
18
100
AcDbEntity
  8
0
100
AcDbMText
 10
294.7838702977636
 20
262.3660650505403
 30
0.0
 40
5.0
 41
0.0
 71
     1
 72
     5
  1
\Ftxt.shx,bigfont.shx|c128;C3604
  7
JL
 73
     1
 44
1.0
1001
ACAD
1000
MTEXTBEGIN
1070
    73
1070
     1
1070
    44
1040
1.0
1070
    74
1070
     0
1000
MTEXTEND
  0
MTEXT
  5
B014
330
18
100
AcDbEntity
  8
0
100
AcDbMText
 10
294.7838702977636
 20
278.3660650505403
 30
0.0
 40
5.0
 41
0.0
 71
     1
 72
     5
  1
\Ftxt.shx,bigfont.shx|c128;SCM-440
  7
JL
 73
     1
 44
1.0
1001
ACAD
1000
MTEXTBEGIN
1070
    73
1070
     1
1070
    44
1040
1.0
1070
    74
1070
     0
1000
MTEXTEND
  0
MTEXT
  5
B015
330
18
100
AcDbEntity
  8
0
100
AcDbMText
 10
294.7838702977636
 20
270.3660650505403
 30
0.0
 40
5.0
 41
0.0
 71
     1
 72
     5
  1
\Ftxt.shx,bigfont.shx|c128;SCM435
  7
JL
 73
     1
 44
1.0
1001
ACAD
1000
MTEXTBEGIN
1070
    73
1070
     1
1070
    44
1040
1.0
1070
    74
1070
     0
1000
MTEXTEND
  0
MTEXT
  5
B016
330
18
100
AcDbEntity
  8
0
100
AcDbMText
 10
297.8003249944539
 20
287.5804049742369
 30
0.0
 40
5.0
 41
0.0
 71
     1
 72
     5
  1
\Ftxt.shx,bigfont.shx|c128;材　質
  7
JL
 73
     1
 44
1.0
1001
ACAD
1000
MTEXTBEGIN
1070
    73
1070
     1
1070
    44
1040
1.0
1070
    74
1070
     0
1000
MTEXTEND
  0
LINE
  5
B017
330
18
100
AcDbEntity
  8
図框線
 62
     9
100
AcDbLine
 10
312.9999999999995
 20
289.9999999999999
 30
0.0
 11
312.9999999999995
 21
255.9999999999999
 31
0.0
  0
LINE
  5
B018
330
18
100
AcDbEntity
  8
図框線
100
AcDbLine
 10
327.9999999999995
 20
289.9999999999999
 30
0.0
 11
327.9999999999995
 21
255.9999999999999
 31
0.0
  0
MTEXT
  5
B019
330
18
100
AcDbEntity
  8
0
100
AcDbMText
 10
319.2152890873901
 20
262.7436409356394
 30
0.0
 40
5.0
 41
0.0
 71
     1
 72
     5
  1
\Ftxt.shx,bigfont.shx|c128;3
  7
JL
 73
     1
 44
1.0
1001
ACAD
1000
MTEXTBEGIN
1070
    73
1070
     1
1070
    44
1040
1.0
1070
    74
1070
     0
1000
MTEXTEND
  0
MTEXT
  5
B01A
330
18
100
AcDbEntity
  8
0
100
AcDbMText
 10
320.1019570266665
 20
278.5798510066454
 30
0.0
 40
5.0
 41
0.0
 71
     1
 72
     5
  1
\Ftxt.shx,bigfont.shx|c128;1
  7
JL
 73
     1
 44
1.0
1001
ACAD
1000
MTEXTBEGIN
1070
    73
1070
     1
1070
    44
1040
1.0
1070
    74
1070
     0
1000
MTEXTEND
  0
MTEXT
  5
B01B
330
18
100
AcDbEntity
  8
0
100
AcDbMText
 10
319.2152890873901
 20
270.7436409356394
 30
0.0
 40
5.0
 41
0.0
 71
     1
 72
     5
  1
\Ftxt.shx,bigfont.shx|c128;3
  7
JL
 73
     1
 44
1.0
1001
ACAD
1000
MTEXTBEGIN
1070
    73
1070
     1
1070
    44
1040
1.0
1070
    74
1070
     0
1000
MTEXTEND
  0
MTEXT
  5
B01C
330
18
100
AcDbEntity
  8
0
100
AcDbMText
 10
314.4337403119168
 20
287.5804049742369
 30
0.0
 40
5.0
 41
0.0
 71
     1
 72
     5
  1
\Ftxt.shx,bigfont.shx|c128;数   量
  7
JL
 73
     1
 44
1.0
1001
ACAD
1000
MTEXTBEGIN
1070
    73
1070
     1
1070
    44
1040
1.0
1070
    74
1070
     0
1000
MTEXTEND
  0
LEADER
  5
B01D
330
18
100
AcDbEntity
  8
DIM
 62
     6
100
AcDbLeader
  3
A
 73
     0
 75
     1
 40
3.0
 41
8.0
 76
     3
 10
311.2570949310054
 20
123.338405726284
 30
0.0
 10
303.467857526102
 20
132.327573319195
 30
0.0
 10
300.967857526102
 20
132.327573319195
 30
0.0
340
B01E
  0
MTEXT
  5
B01E
102
{ACAD_REACTORS
330
B01D
102
}
330
18
100
AcDbEntity
  8
DIM
 62
     3
100
AcDbMText
 10
299.967857526102
 20
134.827573319195
 30
0.0
 40
3.0
 41
0.0
 71
     6
 72
     1
  1
\A1;C1.5
  7
TXT
 73
     1
 44
1.0
1001
ACAD
1000
MTEXTBEGIN
1070
    73
1070
     1
1070
    44
1040
1.0
1070
    74
1070
     0
1000
MTEXTEND
  0
DIMENSION
  5
B01F
330
18
100
AcDbEntity
  8
DIM
100
AcDbDimension
  2
*D16
 10
320.7570949310053
 20
144.5350946314867
 30
0.0
 11
288.7570949310053
 21
147.0350946314867
 31
0.0
 70
    32
  1
%%c<>%%p0.5
 71
     5
 42
64.0
  3
A
100
AcDbAlignedDimension
 13
256.7570949310053
 23
126.938405726284
 33
0.0
 14
320.7570949310053
 24
126.938405726284
 34
0.0
100
AcDbRotatedDimension
  0
DIMENSION
  5
B020
330
18
100
AcDbEntity
  8
DIM
100
AcDbDimension
  2
*D20
 10
323.7570949310053
 20
151.6147640553677
 30
0.0
 11
283.2321815618287
 21
152.4271850794559
 31
0.0
 70
   160
  1
%%c<>
 71
     5
 42
69.99999999999989
  3
A
100
AcDbAlignedDimension
 13
253.7570949310055
 23
122.2063549187151
 33
0.0
 14
323.7570949310053
 24
122.2063549187151
 34
0.0
100
AcDbRotatedDimension
  0
LEADER
  5
B021
330
18
100
AcDbEntity
  8
DIM
 62
     6
100
AcDbLeader
  3
A
 76
     2
 10
311.932360049498
 20
116.5700303501794
 30
0.0
 10
336.5937077188216
 20
140.00196424803
 30
0.0
1001
ACAD
1000
DSTYLE
1002
{
1070
   341
1005
7A5F
1070
   173
1070
     1
1070
   343
1005
7A5F
1070
   344
1005
7A5F
1002
}
  0
DIMENSION
  5
B022
330
18
100
AcDbEntity
  8
DIM
100
AcDbDimension
  2
*D21
 10
235.3748328855818
 20
169.3414190547273
 30
0.0
 11
234.1290160524718
 21
198.4959738453426
 31
0.0
 70
   160
 71
     5
 42
65.0
  3
A
100
AcDbAlignedDimension
 13
275.766713874239
 23
234.3414190547273
 33
0.0
 14
276.2570949310054
 24
169.3414190547273
 34
0.0
 50
90.0
100
AcDbRotatedDimension
  0
LINE
  5
B023
330
18
100
AcDbEntity
  8
DIM
 62
     6
100
AcDbLine
 10
308.7451246037674
 20
246.094000879403
 30
0.0
 11
313.722839632337
 21
248.9678859910969
 31
0.0
  0
MTEXT
  5
B024
330
18
100
AcDbEntity
  8
DIM
100
AcDbMText
 10
320.0093508945804
 20
230.0963027007541
 30
0.0
 40
2.0
 41
9.555074525974475
 71
     1
 72
     5
  1
+0.15\P+0
  7
TXT
 11
-0.5
 21
0.8660254037844389
 31
0.0
 73
     1
 44
1.0
1001
ACAD
1000
MTEXTBEGIN
1070
    73
1070
     1
1070
    44
1040
1.0
1070
    74
1070
     0
1000
MTEXTEND
  0
LINE
  5
B025
330
18
100
AcDbEntity
  8
0
 62
     6
100
AcDbLine
 10
241.1918272779868
 20
126.938405726284
 30
0.0
 11
241.1918272779868
 21
140.5524875158977
 31
0.0
  0
LINE
  5
B026
330
18
100
AcDbEntity
  8
0
 62
     6
100
AcDbLine
 10
241.1918272779868
 20
140.5524875158977
 30
0.0
 11
238.9538844941743
 21
140.5524875158977
 31
0.0
  0
TOLERANCE
  5
B027
330
18
100
AcDbEntity
  8
0
  6
ByBlock
100
AcDbFcf
  3
A
 10
215.2052178275076
 20
140.6128727125014
 30
0.0
  1
{\Fgdt;h}%%v0.005%%v%%vA%%v%%v
1001
ACAD
1000
DSTYLE
1002
{
1070
   140
1040
2.743999999999999
1070
   147
1040
0.6859999999999999
1002
}
  0
LINE
  5
B028
330
18
100
AcDbEntity
  8
mark
100
AcDbLine
 10
311.2570949310053
 20
77.59395116661858
 30
0.0
 11
313.0820116274565
 21
75.63820297516844
 31
0.0
  0
HATCH
  5
B029
330
18
100
AcDbEntity
  8
mark
100
AcDbHatch
 10
0.0
 20
0.0
 30
0.0
210
0.0
220
0.0
230
1.0
  2
SOLID
 70
     1
 71
     0
 91
        1
 92
        7
 72
     0
 73
     1
 93
        3
 10
311.2548467021002
 20
73.62657437665752
 10
313.0923108793003
 20
75.59618996714499
 10
311.2548467021002
 20
77.56580555763247
 97
        0
 75
     0
 76
     1
 47
0.2359147607200769
 98
        1
 10
311.8304786945619
 20
76.01914197852806
  0
LINE
  5
B02A
330
18
100
AcDbEntity
  8
mark
100
AcDbLine
 10
321.4245452049853
 20
72.01089536684941
 30
0.0
 11
321.4245452049853
 21
79.30349294689171
 31
0.0
  0
LINE
  5
B02B
330
18
100
AcDbEntity
  8
mark
100
AcDbLine
 10
321.4245452049853
 20
79.30349294689171
 30
0.0
 11
329.0418156960067
 21
79.30349294689171
 31
0.0
  0
LINE
  5
B02C
330
18
100
AcDbEntity
  8
mark
100
AcDbLine
 10
329.0418156960067
 20
72.01089536684941
 30
0.0
 11
329.0418156960067
 21
79.30349294689171
 31
0.0
  0
LINE
  5
B02D
330
18
100
AcDbEntity
  8
mark
100
AcDbLine
 10
321.4245452049853
 20
72.01089536684941
 30
0.0
 11
329.0418156960067
 21
72.01089536684941
 31
0.0
  0
LINE
  5
B02E
330
18
100
AcDbEntity
  8
mark
100
AcDbLine
 10
321.4245452049853
 20
75.65719415687053
 30
0.0
 11
313.0546095694025
 21
75.65719415687055
 31
0.0
  0
MTEXT
  5
B02F
330
18
100
AcDbEntity
  8
DIM
100
AcDbMText
 10
323.5492062899533
 20
78.64984661486346
 30
0.0
 40
6.0
 41
4.709751971108957
 71
     1
 72
     5
  1
A
  7
ISOCP3
 73
     1
 44
1.0
1001
ACAD
1000
MTEXTBEGIN
1070
    73
1070
     1
1070
    44
1040
1.0
1070
    74
1070
     0
1000
MTEXTEND
  0
MTEXT
  5
B030
102
{ACAD_REACTORS
330
B031
102
}
330
18
100
AcDbEntity
  8
DIM
 62
     3
100
AcDbMText
 10
299.8266330752741
 20
96.51575196211027
 30
0.0
 40
3.0
 41
0.0
 71
     6
 72
     1
  1
\A1;C1.5
  7
TXT
 73
     1
 44
1.0
1001
ACAD
1000
MTEXTBEGIN
1070
    73
1070
     1
1070
    44
1040
1.0
1070
    74
1070
     0
1000
MTEXTEND
  0
LEADER
  5
B031
330
18
100
AcDbEntity
  8
DIM
 62
     6
100
AcDbLeader
  3
A
 73
     0
 75
     1
 40
3.0
 41
8.0
 76
     3
 10
311.2570949310056
 20
105.538405726284
 30
0.0
 10
303.3266330752741
 20
94.01575196211027
 30
0.0
 10
300.8266330752741
 20
94.01575196211027
 30
0.0
340
B030
  0
DIMENSION
  5
B032
330
18
100
AcDbEntity
  8
DIM
100
AcDbDimension
  2
*D22
 10
319.257155064393
 20
69.84066298354162
 30
0.0
 11
288.7571249976992
 21
72.34066298354162
 31
0.0
 70
    32
  1
%%c<>%%p0.5
 71
     5
 42
61.00006013338765
  3
A
100
AcDbAlignedDimension
 13
258.2570949310054
 23
104.938405726284
 33
0.0
 14
319.257155064393
 24
104.9385098803667
 34
0.0
100
AcDbRotatedDimension
  0
DIMENSION
  5
B033
330
18
100
AcDbEntity
  8
DIM
100
AcDbDimension
  2
*D23
 10
265.7570949310054
 20
138.0990696366489
 30
0.0
 11
288.7570949310054
 21
140.5990696366489
 31
0.0
 70
    32
  1
%%c<>
 71
     5
 42
45.99999999999988
  3
A
100
AcDbAlignedDimension
 13
311.7570949310053
 23
126.938405726284
 33
0.0
 14
265.7570949310054
 24
126.9384057262835
 34
0.0
100
AcDbRotatedDimension
1001
ACAD
1000
DSTYLE
1002
{
1070
    76
1070
     1
1070
   173
1070
     1
1070
     7
1000
_NONE
1002
}
  0
DIMENSION
  5
B034
330
18
100
AcDbEntity
  8
DIM
100
AcDbDimension
  2
*D24
 10
266.2570949310053
 20
84.49349687951473
 30
0.0
 11
290.0070949310053
 21
84.49349687951473
 31
0.0
 70
   160
  1
M<>X1.5P
 71
     5
 42
45.00000000000006
  3
A
100
AcDbAlignedDimension
 13
311.2570949310053
 23
105.538405726284
 33
0.0
 14
266.2570949310053
 24
105.038405726284
 34
0.0
100
AcDbRotatedDimension
1001
ACAD
1000
DSTYLE
1002
{
1070
    76
1070
     1
1070
   173
1070
     1
1070
     7
1000
_NONE
1002
}
  0
LINE
  5
B035
330
18
100
AcDbEntity
  8
DIM
 62
     6
100
AcDbLine
 10
265.7570949310054
 20
138.0990696366489
 30
0.0
 11
267.5281002482608
 21
139.0290013458572
 31
0.0
  0
LINE
  5
B036
330
18
100
AcDbEntity
  8
DIM
 62
     6
100
AcDbLine
 10
265.7570949310054
 20
138.0990696366489
 30
0.0
 11
267.5281002482608
 21
137.1691379274407
 31
0.0
  0
LINE
  5
B037
330
18
100
AcDbEntity
  8
DIM
 62
     6
100
AcDbLine
 10
265.0223415619914
 20
138.0990696366489
 30
0.0
 11
266.7933468792468
 21
139.0290013458572
 31
0.0
  0
LINE
  5
B038
330
18
100
AcDbEntity
  8
DIM
 62
     6
100
AcDbLine
 10
265.0223415619914
 20
138.0990696366489
 30
0.0
 11
266.7933468792468
 21
137.1691379274407
 31
0.0
  0
LINE
  5
B039
330
18
100
AcDbEntity
  8
DIM
 62
     6
100
AcDbLine
 10
266.2570949310053
 20
84.49349687951473
 30
0.0
 11
268.0281002482606
 21
85.42342858872297
 31
0.0
  0
LINE
  5
B03A
330
18
100
AcDbEntity
  8
DIM
 62
     6
100
AcDbLine
 10
266.2570949310053
 20
84.49349687951473
 30
0.0
 11
268.0281002482606
 21
83.56356517030651
 31
0.0
  0
LINE
  5
B03B
330
18
100
AcDbEntity
  8
DIM
 62
     6
100
AcDbLine
 10
265.5223415619913
 20
84.49349687951473
 30
0.0
 11
267.2933468792466
 21
85.42342858872297
 31
0.0
  0
LINE
  5
B03C
330
18
100
AcDbEntity
  8
DIM
 62
     6
100
AcDbLine
 10
265.5223415619913
 20
84.49349687951473
 30
0.0
 11
267.2933468792466
 21
83.56356517030651
 31
0.0
  0
DIMENSION
  5
B03D
330
18
100
AcDbEntity
  8
DIM
100
AcDbDimension
  2
*D25
 10
241.1918272779868
 20
104.938405726284
 30
0.0
 11
238.6918272779868
 21
115.938405726284
 31
0.0
 70
    32
  1
<>%%p0.2
 71
     5
 42
22.0
  3
A
100
AcDbAlignedDimension
 13
256.7570949310053
 23
126.938405726284
 33
0.0
 14
258.2570949310053
 24
104.938405726284
 34
0.0
 50
90.0
100
AcDbRotatedDimension
  0
LINE
  5
B03E
330
18
100
AcDbEntity
  8
中心線
  6
CENTER
 48
0.15
100
AcDbLine
 10
256.7141549909812
 20
183.3414190547272
 30
0.0
 11
320.8000348710296
 21
220.3414190547272
 31
0.0
  0
LINE
  5
B03F
330
18
100
AcDbEntity
  8
中心線
  6
CENTER
 48
0.15
100
AcDbLine
 10
256.7141549909811
 20
220.3414190547271
 30
0.0
 11
320.8000348710296
 21
183.3414190547272
 31
0.0
  0
DIMENSION
  5
B040
330
18
100
AcDbEntity
  8
DIM
100
AcDbDimension
  2
*D26
 10
304.7460746053048
 20
243.785148286288
 30
0.0
 11
302.7294989271486
 21
243.6558316174076
 31
0.0
 70
   161
 71
     5
 42
2.448702861583399
  3
A
100
AcDbAlignedDimension
 13
315.2903583242725
 23
220.6245074324472
 33
0.0
 14
317.4109972087233
 24
221.8488588632388
 34
0.0
  0
LINE
  5
B041
330
18
100
AcDbEntity
  8
中心線
  6
CENTER
 48
0.15
100
AcDbLine
 10
288.7570949310055
 20
238.8414190547273
 30
0.0
 11
288.7570949310054
 21
164.8414190547272
 31
0.0
  0
LINE
  5
B042
330
18
100
AcDbEntity
  8
中心線
  6
CENTER
 48
0.15
100
AcDbLine
 10
251.7570949310055
 20
201.8414190547274
 30
0.0
 11
325.7570949310054
 21
201.8414190547271
 31
0.0
  0
LINE
  5
B043
330
18
100
AcDbEntity
  8
本体外線
 48
0.2
100
AcDbLine
 10
288.7570949310053
 20
104.938405726284
 30
0.0
 11
288.7570949310053
 21
126.938405726284
 31
0.0
  0
LWPOLYLINE
  5
B044
330
18
100
AcDbEntity
  8
0
100
AcDbPolyline
 90
        2
 70
     0
 43
0.0
 10
319.2570949310053
 20
104.938405726284
 10
323.7570949310053
 20
112.7326343603438
  0
ELLIPSE
  5
B045
330
18
100
AcDbEntity
  8
本体内線
  6
HIDDEN
 48
0.2
100
AcDbEllipse
 10
272.0413490826697
 20
230.8326331103569
 30
0.0
 11
1.635128752986093
 21
0.9136490164293775
 31
0.0
210
0.0
220
0.0
230
1.0
 40
0.6365468230481372
 41
0.0
 42
6.283185307179586
  0
ARC
  5
B046
330
18
100
AcDbEntity
  8
0
100
AcDbCircle
 10
288.7570949310054
 20
201.8414190547273
 30
0.0
 40
22.5
100
AcDbArc
 50
168.6719733366098
 51
101.754539914148
  0
CIRCLE
  5
B047
330
18
100
AcDbEntity
  8
本体外線
100
AcDbCircle
 10
288.7570949310054
 20
201.8414190547273
 30
0.0
 40
32.0
  0
ARC
  5
B048
330
18
100
AcDbEntity
  8
本体外線
100
AcDbCircle
 10
288.7570949310054
 20
201.8414190547273
 30
0.0
 40
35.0
100
AcDbArc
 50
111.7867892982618
 51
145.0828996644706
  0
LINE
  5
B049
330
18
100
AcDbEntity
  8
本体外線
100
AcDbLine
 10
275.7667138742389
 20
234.3414190547273
 30
0.0
 11
301.7474759877722
 21
234.3414190547272
 31
0.0
  0
LINE
  5
B04A
330
18
100
AcDbEntity
  8
本体外線
100
AcDbLine
 10
275.7667138742387
 20
169.3414190547273
 30
0.0
 11
301.7474759877718
 21
169.3414190547272
 31
0.0
  0
ARC
  5
B04B
330
18
100
AcDbEntity
  8
本体外線
100
AcDbCircle
 10
288.7570949310054
 20
201.8414190547273
 30
0.0
 40
35.0
100
AcDbArc
 50
291.7867892982617
 51
325.0828996644713
  0
LINE
  5
B04C
330
18
100
AcDbEntity
  8
本体外線
100
AcDbLine
 10
317.4564326720883
 20
221.8750910402434
 30
0.0
 11
315.2903583242725
 21
220.6245074324472
 31
0.0
  0
LINE
  5
B04D
330
18
100
AcDbEntity
  8
本体外線
100
AcDbLine
 10
320.4564326720884
 20
216.6789386175368
 30
0.0
 11
318.3346422278418
 21
215.453922333387
 31
0.0
  0
ARC
  5
B04E
330
18
100
AcDbEntity
  8
本体外線
100
AcDbCircle
 10
288.7570949310054
 20
201.8414190547273
 30
0.0
 40
35.0
100
AcDbArc
 50
34.91710033552891
 51
68.21321070173816
  0
LINE
  5
B04F
330
18
100
AcDbEntity
  8
本体外線
100
AcDbLine
 10
315.2903583242726
 20
220.6245074324472
 30
0.0
 11
318.3646422278419
 21
215.40196080916
 31
0.0
  0
LINE
  5
B050
330
18
100
AcDbEntity
  8
本体外線
100
AcDbLine
 10
257.0577571899227
 20
216.6789386175371
 30
0.0
 11
259.2238315377385
 21
215.4283550097409
 31
0.0
  0
LINE
  5
B051
330
18
100
AcDbEntity
  8
本体外線
100
AcDbLine
 10
260.0577571899227
 20
221.8750910402437
 30
0.0
 11
262.1795476341692
 21
220.650074756094
 31
0.0
  0
LINE
  5
B052
330
18
100
AcDbEntity
  8
本体外線
100
AcDbLine
 10
259.2238315377385
 20
215.4283550097409
 30
0.0
 11
262.2095476341692
 21
220.7020362803211
 31
0.0
  0
LINE
  5
B053
330
18
100
AcDbEntity
  8
本体外線
100
AcDbLine
 10
260.0577571899226
 20
181.8077470692118
 30
0.0
 11
262.2238315377383
 21
183.058330677008
 31
0.0
  0
LINE
  5
B054
330
18
100
AcDbEntity
  8
本体外線
100
AcDbLine
 10
257.0577571899225
 20
187.0038994919184
 30
0.0
 11
259.179547634169
 21
188.2289157760682
 31
0.0
  0
LINE
  5
B055
330
18
100
AcDbEntity
  8
本体外線
100
AcDbLine
 10
262.2238315377383
 20
183.058330677008
 30
0.0
 11
259.1495476341689
 21
188.2808773002952
 31
0.0
  0
LINE
  5
B056
330
18
100
AcDbEntity
  8
本体外線
100
AcDbLine
 10
320.4564326720881
 20
187.0038994919181
 30
0.0
 11
318.2903583242723
 21
188.2544830997144
 31
0.0
  0
LINE
  5
B057
330
18
100
AcDbEntity
  8
本体外線
100
AcDbLine
 10
317.4564326720881
 20
181.8077470692115
 30
0.0
 11
315.3346422278415
 21
183.0327633533612
 31
0.0
  0
LINE
  5
B058
330
18
100
AcDbEntity
  8
本体外線
100
AcDbLine
 10
318.2903583242723
 20
188.2544830997143
 30
0.0
 11
315.3046422278417
 21
182.9808018291341
 31
0.0
  0
ARC
  5
B059
330
18
100
AcDbEntity
  8
本体外線
100
AcDbCircle
 10
288.7570949310054
 20
201.8414190547273
 30
0.0
 40
35.0
100
AcDbArc
 50
154.9171003355282
 51
205.0828996644705
  0
ARC
  5
B05A
330
18
100
AcDbEntity
  8
本体外線
100
AcDbCircle
 10
288.7570949310054
 20
201.8414190547273
 30
0.0
 40
35.0
100
AcDbArc
 50
214.9171003355282
 51
248.2132107017382
  0
ARC
  5
B05B
330
18
100
AcDbEntity
  8
本体外線
100
AcDbCircle
 10
288.7570949310054
 20
201.8414190547273
 30
0.0
 40
35.0
100
AcDbArc
 50
334.917100335529
 51
25.08289966447129
  0
LINE
  5
B05C
102
{ACAD_REACTORS
330
B0AE
102
}
330
18
100
AcDbEntity
  8
本体外線
100
AcDbLine
 10
256.7570949310053
 20
126.938405726284
 30
0.0
 11
320.7570949310053
 21
126.938405726284
 31
0.0
  0
LINE
  5
B05D
102
{ACAD_REACTORS
330
B0AE
102
}
330
18
100
AcDbEntity
  8
本体外線
100
AcDbLine
 10
258.2570949310054
 20
104.938405726284
 30
0.0
 11
319.2570949310053
 21
104.938405726284
 31
0.0
  0
LINE
  5
B05E
102
{ACAD_REACTORS
330
B0AE
102
}
330
18
100
AcDbEntity
  8
本体外線
100
AcDbLine
 10
323.7570949310053
 20
112.7326343603439
 30
0.0
 11
323.7570949310053
 21
122.2063549187152
 31
0.0
  0
LINE
  5
B05F
330
18
100
AcDbEntity
  8
本体外線
100
AcDbLine
 10
253.7570949310054
 20
112.7326343603441
 30
0.0
 11
253.7570949310053
 21
122.2063549187151
 31
0.0
  0
LINE
  5
B060
330
18
100
AcDbEntity
  8
本体外線
100
AcDbLine
 10
256.7570949310053
 20
123.938405726284
 30
0.0
 11
311.7570949310053
 21
123.938405726284
 31
0.0
  0
LINE
  5
B061
330
18
100
AcDbEntity
  8
本体外線
100
AcDbLine
 10
256.7570949310053
 20
112.7326343603441
 30
0.0
 11
256.7570949310053
 21
122.2063549187151
 31
0.0
  0
LINE
  5
B062
102
{ACAD_REACTORS
330
B0AE
102
}
330
18
100
AcDbEntity
  8
本体外線
100
AcDbLine
 10
320.7570949310053
 20
123.938405726284
 30
0.0
 11
323.7570949310053
 21
122.2063549187151
 31
0.0
  0
LINE
  5
B063
330
18
100
AcDbEntity
  8
本体外線
100
AcDbLine
 10
256.7570949310053
 20
123.938405726284
 30
0.0
 11
253.7570949310055
 21
122.2063549187151
 31
0.0
  0
LINE
  5
B064
330
18
100
AcDbEntity
  8
本体外線
100
AcDbLine
 10
258.2570949310053
 20
104.938405726284
 30
0.0
 11
253.7570949310054
 21
112.7326343603439
 31
0.0
  0
LINE
  5
B065
102
{ACAD_REACTORS
330
B0AE
102
}
330
18
100
AcDbEntity
  8
0
100
AcDbLine
 10
311.2570949310056
 20
105.5384057262837
 30
0.0
 11
311.2570949310055
 21
110.0803104685654
 31
0.0
  0
LINE
  5
B066
102
{ACAD_REACTORS
330
B090
330
B0AE
102
}
330
18
100
AcDbEntity
  8
本体外線
100
AcDbLine
 10
310.5070949310053
 20
106.438405726284
 30
0.0
 11
310.5070949310053
 21
122.438405726284
 31
0.0
  0
LINE
  5
B067
102
{ACAD_REACTORS
330
B0AE
102
}
330
18
100
AcDbEntity
  8
本体外線
100
AcDbLine
 10
310.5070949310053
 20
122.438405726284
 30
0.0
 11
311.7570949310053
 21
123.938405726284
 31
0.0
  0
LINE
  5
B068
102
{ACAD_REACTORS
330
B0AE
102
}
330
18
100
AcDbEntity
  8
本体外線
100
AcDbLine
 10
320.7570949310053
 20
123.938405726284
 30
0.0
 11
320.7570949310053
 21
126.938405726284
 31
0.0
  0
LINE
  5
B069
102
{ACAD_REACTORS
330
B0AE
102
}
330
18
100
AcDbEntity
  8
0
100
AcDbLine
 10
311.2570949310054
 20
119.3179147755994
 30
0.0
 11
311.2570949310054
 21
123.3384057262841
 31
0.0
  0
LINE
  5
B06A
330
18
100
AcDbEntity
  8
本体外線
100
AcDbLine
 10
253.7570949310055
 20
122.2063549187151
 30
0.0
 11
256.7570949310053
 21
122.2063549187151
 31
0.0
  0
LINE
  5
B06B
330
18
100
AcDbEntity
  8
本体外線
100
AcDbLine
 10
253.7570949310054
 20
112.7326343603441
 30
0.0
 11
256.7570949310053
 21
112.732634360344
 31
0.0
  0
LINE
  5
B06C
330
18
100
AcDbEntity
  8
本体外線
100
AcDbLine
 10
256.7570949310053
 20
122.2063549187151
 30
0.0
 11
259.2238315377385
 21
123.938405726284
 31
0.0
  0
LINE
  5
B06D
330
18
100
AcDbEntity
  8
本体外線
100
AcDbLine
 10
256.7570949310053
 20
112.7326343603441
 30
0.0
 11
259.2238315377386
 21
104.938405726284
 31
0.0
  0
LINE
  5
B06E
330
18
100
AcDbEntity
  8
本体外線
100
AcDbLine
 10
256.7570949310054
 20
123.938405726284
 30
0.0
 11
256.7570949310053
 21
126.938405726284
 31
0.0
  0
LINE
  5
B06F
330
18
100
AcDbEntity
  8
本体外線
100
AcDbLine
 10
260.0577571899226
 20
122.2063549187152
 30
0.0
 11
260.0577571899226
 21
112.732634360344
 31
0.0
  0
LINE
  5
B070
330
18
100
AcDbEntity
  8
本体外線
100
AcDbLine
 10
260.0577571899226
 20
122.2063549187152
 30
0.0
 11
275.7667138742387
 21
122.2063549187151
 31
0.0
  0
LINE
  5
B071
330
18
100
AcDbEntity
  8
本体外線
100
AcDbLine
 10
260.0577571899226
 20
112.732634360344
 30
0.0
 11
275.7667138742387
 21
112.732634360344
 31
0.0
  0
LINE
  5
B072
330
18
100
AcDbEntity
  8
本体外線
100
AcDbLine
 10
260.0577571899226
 20
122.2063549187152
 30
0.0
 11
262.2238315377383
 21
123.938405726284
 31
0.0
  0
LINE
  5
B073
330
18
100
AcDbEntity
  8
本体外線
100
AcDbLine
 10
260.0577571899226
 20
112.732634360344
 30
0.0
 11
262.2238315377383
 21
104.938405726284
 31
0.0
  0
LINE
  5
B074
330
18
100
AcDbEntity
  8
本体外線
100
AcDbLine
 10
259.2238315377386
 20
123.938405726284
 30
0.0
 11
259.2238315377386
 21
104.938405726284
 31
0.0
  0
ARC
  5
B075
330
18
100
AcDbEntity
  8
本体外線
100
AcDbCircle
 10
289.2335656129569
 20
70.78492124498771
 30
0.0
 40
53.15561999275493
100
AcDbArc
 50
90.51358868043946
 51
104.6756980567432
  0
ARC
  5
B076
330
18
100
AcDbEntity
  8
本体外線
100
AcDbCircle
 10
286.3646079815207
 20
126.2777199942064
 30
0.0
 40
17.1983924928415
100
AcDbArc
 50
231.9597988618384
 51
278.0916272097087
  0
LINE
  5
B077
330
18
100
AcDbEntity
  8
本体外線
100
AcDbLine
 10
275.7667138742387
 20
122.2063549187151
 30
0.0
 11
275.7667138742387
 21
112.732634360344
 31
0.0
  0
ELLIPSE
  5
B078
330
18
100
AcDbEntity
  8
本体内線
  6
HIDDEN
 48
0.2
100
AcDbEllipse
 10
272.0078399964448
 20
172.8695514790495
 30
0.0
 11
-1.608807634863553
 21
0.9592385303296385
 31
0.0
210
0.0
220
0.0
230
1.0
 40
0.6365468230481372
 41
0.0
 42
6.283185307179586
  0
ELLIPSE
  5
B079
330
18
100
AcDbEntity
  8
本体内線
  6
HIDDEN
 48
0.2
100
AcDbEllipse
 10
322.2220957139007
 20
201.8220725747748
 30
0.0
 11
-0.0263211181225406
 21
-1.872887546759015
 31
0.0
210
0.0
220
0.0
230
0.9999999999999998
 40
0.6365468230481372
 41
0.0
 42
6.283185307179586
  0
ELLIPSE
  5
B07A
330
18
100
AcDbEntity
  8
本体外線
100
AcDbEllipse
 10
271.7956272645067
 20
107.2127387886439
 30
0.0
 11
-2.551760649316366
 21
0.1221232386636931
 31
0.0
210
0.0
220
0.0
230
1.0
 40
0.4906466184120604
 41
0.0
 42
6.283185307179586
  0
POINT
  5
B07B
330
18
100
AcDbEntity
  8
本体外線
100
AcDbPoint
 10
256.7570949310053
 20
126.938405726284
 30
0.0
  0
POINT
  5
B07C
330
18
100
AcDbEntity
  8
本体外線
100
AcDbPoint
 10
320.7570949310053
 20
123.938405726284
 30
0.0
  0
POINT
  5
B07D
330
18
100
AcDbEntity
  8
本体外線
100
AcDbPoint
 10
323.7570949310053
 20
122.2063549187152
 30
0.0
  0
POINT
  5
B07E
330
18
100
AcDbEntity
  8
本体外線
100
AcDbPoint
 10
320.7570949310053
 20
126.938405726284
 30
0.0
  0
LINE
  5
B07F
102
{ACAD_REACTORS
330
B0AE
102
}
330
18
100
AcDbEntity
  8
本体外線
100
AcDbLine
 10
319.257155064393
 20
104.9385098803667
 30
0.0
 11
323.757155064393
 21
112.7327385144266
 31
0.0
  0
LINE
  5
B080
330
18
100
AcDbEntity
  8
0
100
AcDbLine
 10
318.7907846733056
 20
105.7307326678574
 30
0.0
 11
322.7907846733058
 21
112.6589358981334
 31
0.0
  0
LINE
  5
B081
330
18
100
AcDbEntity
  8
本体内線
  6
HIDDEN
 48
0.2
100
AcDbLine
 10
319.9350026738849
 20
111.8675530456821
 30
0.0
 11
318.0482513279372
 21
110.778236648205
 31
0.0
  0
LINE
  5
B082
330
18
100
AcDbEntity
  8
本体内線
  6
HIDDEN
 48
0.2
100
AcDbLine
 10
318.0482513279371
 20
110.7782366482048
 30
0.0
 11
318.0482513279369
 21
108.5996038532507
 31
0.0
  0
LINE
  5
B083
330
18
100
AcDbEntity
  8
本体内線
  6
HIDDEN
 48
0.2
100
AcDbLine
 10
322.426980669307
 20
110.4288088792104
 30
0.0
 11
319.9350026738848
 21
111.8675530456821
 31
0.0
  0
LINE
  5
B084
330
18
100
AcDbEntity
  8
本体内線
  6
HIDDEN
 48
0.2
100
AcDbLine
 10
320.540229323359
 20
107.160859686779
 30
0.0
 11
318.0482513279369
 21
108.5996038532507
 31
0.0
  0
LINE
  5
B085
330
18
100
AcDbEntity
  8
0
100
AcDbLine
 10
314.1305306354609
 20
116.0589358981324
 30
0.0
 11
316.0233509584891
 21
116.566115575105
 31
0.0
  0
LINE
  5
B086
330
18
100
AcDbEntity
  8
0
100
AcDbLine
 10
311.5161712815163
 20
111.5307326678574
 30
0.0
 11
312.0233509584887
 21
109.6379123448298
 31
0.0
  0
LINE
  5
B087
330
18
100
AcDbEntity
  8
0
100
AcDbLine
 10
322.7907846733058
 20
111.0589358981323
 30
0.0
 11
314.1305306354609
 21
116.0589358981324
 31
0.0
  0
LINE
  5
B088
330
18
100
AcDbEntity
  8
0
100
AcDbLine
 10
320.1764253193605
 20
106.5307326678575
 30
0.0
 11
311.5161712815163
 21
111.5307326678575
 31
0.0
  0
LWPOLYLINE
  5
B089
102
{ACAD_REACTORS
330
B0AE
102
}
330
18
100
AcDbEntity
  8
0
100
AcDbPolyline
 90
        3
 70
     0
 43
0.0
 10
322.7907846733058
 20
111.0589358981331
 10
322.7907846733058
 20
112.6589358981326
 10
310.5070949310053
 20
119.7509274774916
  0
LWPOLYLINE
  5
B08A
102
{ACAD_REACTORS
330
B0AE
102
}
330
18
100
AcDbEntity
  8
0
100
AcDbPolyline
 90
        3
 70
     0
 43
0.0
 10
320.1764253193605
 20
106.5307326678575
 10
318.7907846733056
 20
105.7307326678574
 10
310.5070949310053
 20
110.5133231704577
  0
LINE
  5
B08B
102
{ACAD_REACTORS
330
B090
102
}
330
18
100
AcDbEntity
  8
中心線
  6
CENTER
 48
0.15
100
AcDbLine
 10
322.3764045813019
 20
108.3412085251374
 30
0.0
 11
309.5070949310052
 21
115.6590244368239
 31
0.0
  0
LINE
  5
B08C
102
{ACAD_REACTORS
330
B090
102
}
330
18
100
AcDbEntity
  8
0
100
AcDbLine
 10
311.0733509584887
 20
110.7637453697495
 30
0.0
 11
314.5733509584886
 21
116.8259231962406
 31
0.0
  0
LINE
  5
B08D
102
{ACAD_REACTORS
330
B090
102
}
330
18
100
AcDbEntity
  8
0
100
AcDbLine
 10
314.5733509584886
 20
116.8259231962406
 30
0.0
 11
310.5070949310053
 21
119.1735772083021
 31
0.0
  0
LINE
  5
B08E
102
{ACAD_REACTORS
330
B090
102
}
330
18
100
AcDbEntity
  8
0
100
AcDbLine
 10
311.0733509584886
 20
110.7637453697495
 30
0.0
 11
310.5070949310053
 21
111.0906734396472
 31
0.0
  0
LINE
  5
B08F
330
18
100
AcDbEntity
  8
0
100
AcDbLine
 10
312.0233509584887
 20
109.6379123448298
 30
0.0
 11
316.0233509584887
 21
116.5661155751052
 31
0.0
  0
HATCH
  5
B090
330
18
100
AcDbEntity
  8
0
100
AcDbHatch
 10
0.0
 20
0.0
 30
0.0
210
0.0
220
0.0
230
1.0
  2
AR-SAND
 70
     0
 71
     1
 91
        2
 92
        7
 72
     0
 73
     1
 93
        4
 10
314.5733509584886
 20
116.8259231962406
 10
310.5070949310053
 20
119.1735772083021
 10
310.5070949310053
 20
115.0903990706981
 10
312.8139984280405
 20
113.7786352250795
 97
        4
330
B08D
330
B066
330
B08B
330
B08C
 92
        7
 72
     0
 73
     1
 93
        4
 10
310.5070949310053
 20
115.0903990706981
 10
310.5070949310053
 20
111.0906734396473
 10
311.0733509584887
 20
110.7637453697495
 10
312.8139984280405
 20
113.7786352250795
 97
        4
330
B066
330
B08E
330
B08C
330
B08B
 75
     0
 76
     1
 52
0.0
 41
0.8
 77
     0
 78
     4
 53
37.5
 43
155.831219090656
 44
-18.43396307590854
 45
-0.0503946864876865
 46
1.541459015210526
 79
     6
 49
0.0
 49
-1.216
 49
0.0
 49
-1.36
 49
0.0
 49
-1.3
 53
7.499999999999999
 43
155.831219090656
 44
-18.43396307590854
 45
1.415821364214181
 46
2.257716852183792
 79
     6
 49
0.0
 49
-0.6560000000000001
 49
0.0
 49
-1.096
 49
0.0
 49
-0.4200000000000001
 53
327.5
 43
154.847219090656
 44
-18.43396307590854
 45
2.491313489401196
 46
0.0045272428295716
 79
     6
 49
0.0
 49
-0.4
 49
0.0
 49
-1.44
 49
0.0
 49
-1.88
 53
317.5
 43
154.847219090656
 44
-18.43396307590854
 45
2.404901283657835
 46
0.7021404519473994
 79
     6
 49
0.0
 49
-0.2
 49
0.0
 49
-0.9439999999999999
 49
0.0
 49
-1.08
 47
0.0251941884523673
 98
        2
 10
312.4018870019349
 20
115.3545101007331
 10
311.4938842755503
 20
113.943635797098
  0
CIRCLE
  5
B091
330
18
100
AcDbEntity
  8
本体外線
100
AcDbCircle
 10
288.7570949310054
 20
201.8414190547273
 30
0.0
 40
21.75
  0
POINT
  5
B092
330
18
100
AcDbEntity
  8
DEFPOINTS
  6
ByBlock
 62
     0
100
AcDbPoint
 10
320.8000348710296
 20
220.3414190547272
 30
0.0
  0
POINT
  5
B093
330
18
100
AcDbEntity
  8
DEFPOINTS
  6
ByBlock
 62
     0
100
AcDbPoint
 10
325.7570949310054
 20
201.841419054727
 30
0.0
  0
LINE
  5
B094
330
18
100
AcDbEntity
  8
0
  6
ByBlock
 62
     6
100
AcDbLine
 10
318.3224580758728
 20
222.3750910402433
 30
0.0
 11
328.8051988782086
 21
228.4273042643171
 31
0.0
  0
LINE
  5
B095
330
18
100
AcDbEntity
  8
0
  6
ByBlock
 62
     6
100
AcDbLine
 10
321.3224580758728
 20
217.1789386175368
 30
0.0
 11
331.8051988782087
 21
223.2311518416105
 31
0.0
  0
LINE
  5
B096
330
18
100
AcDbEntity
  8
0
  6
ByBlock
 62
     6
100
AcDbLine
 10
326.6891734744242
 20
230.0923677737782
 30
0.0
 11
325.4391734744242
 21
232.2574312832393
 31
0.0
  0
LINE
  5
B097
330
18
100
AcDbEntity
  8
0
  6
ByBlock
 62
     6
100
AcDbLine
 10
332.1891734744243
 20
220.5660883321495
 30
0.0
 11
333.4391734744243
 21
218.4010248226884
 31
0.0
  0
LINE
  5
B098
330
18
100
AcDbEntity
  8
0
  6
ByBlock
 62
     6
100
AcDbLine
 10
320.481501721318
 20
240.8443706468681
 30
0.0
 11
327.9391734744242
 21
227.9273042643171
 31
0.0
  0
MTEXT
  5
B099
330
18
100
AcDbEntity
  8
0
  6
ByBlock
 62
     3
100
AcDbMText
 10
323.9097739420344
 20
228.8290811844853
 30
0.0
 40
3.0
 41
0.0
 71
     5
 72
     1
  1
\A1;6
  7
TXT
 11
-0.5000000000000087
 21
0.8660254037844337
 31
0.0
 73
     1
 44
1.0
1001
ACAD
1000
MTEXTBEGIN
1070
    73
1070
     1
1070
    44
1040
1.0
1070
    74
1070
     0
1000
MTEXTEND
  0
LINE
  5
B09A
330
18
100
AcDbEntity
  8
0
  6
ByBlock
 62
     6
100
AcDbLine
 10
327.9391734744242
 20
227.9273042643171
 30
0.0
 11
330.9391734744242
 21
222.7311518416105
 31
0.0
  0
SOLID
  5
B09B
330
18
100
AcDbEntity
  8
0
  6
ByBlock
 62
     6
100
AcDbTrace
 10
327.0500173926677
 20
230.3007011071116
 30
0.0
 11
326.3283295561807
 21
229.8840344404449
 31
0.0
 12
327.9391734744242
 22
227.9273042643171
 32
0.0
 13
327.9391734744242
 23
227.9273042643171
 33
0.0
  0
SOLID
  5
B09C
330
18
100
AcDbEntity
  8
0
  6
ByBlock
 62
     6
100
AcDbTrace
 10
332.5500173926678
 20
220.7744216654828
 30
0.0
 11
331.8283295561808
 21
220.3577549988161
 31
0.0
 12
330.9391734744242
 22
222.7311518416105
 32
0.0
 13
330.9391734744242
 23
222.7311518416105
 33
0.0
  0
POINT
  5
B09D
330
18
100
AcDbEntity
  8
DEFPOINTS
  6
ByBlock
 62
     0
100
AcDbPoint
 10
317.4564326720883
 20
221.8750910402433
 30
0.0
  0
POINT
  5
B09E
330
18
100
AcDbEntity
  8
DEFPOINTS
  6
ByBlock
 62
     0
100
AcDbPoint
 10
320.4564326720884
 20
216.6789386175367
 30
0.0
  0
POINT
  5
B09F
330
18
100
AcDbEntity
  8
DEFPOINTS
  6
ByBlock
 62
     0
100
AcDbPoint
 10
330.9391734744242
 20
222.7311518416105
 30
0.0
  0
DIMENSION
  5
B0A0
330
18
100
AcDbEntity
  8
DIM
100
AcDbDimension
  2
*D27
 10
325.7570949310054
 20
201.841419054727
 30
0.0
 11
339.9654303462264
 21
188.1201869344765
 31
0.0
 70
    34
 71
     5
 42
0.5235987755982921
  3
A
100
AcDb2LineAngularDimension
 13
256.7141549909811
 23
220.3414190547271
 33
0.0
 14
320.8000348710296
 24
183.3414190547272
 34
0.0
 15
251.7570949310054
 25
201.8414190547274
 35
0.0
 16
340.9239145448637
 26
182.8542494989483
 36
0.0
1001
ACAD
1000
DSTYLE
1002
{
1070
    79
1070
     2
1070
   179
1070
     1
1070
   284
1070
     8
1002
}
  0
LINE
  5
B0A1
330
18
100
AcDbEntity
  8
0
  6
ByBlock
 62
     6
100
AcDbLine
 10
326.7570949310055
 20
201.8414190547271
 30
0.0
 11
345.3135554663768
 21
201.8414190547269
 31
0.0
  0
LINE
  5
B0A2
330
18
100
AcDbEntity
  8
0
  6
ByBlock
 62
     6
100
AcDbLine
 10
321.6660602748141
 20
220.8414190547272
 30
0.0
 11
337.736426502769
 21
230.1196493224129
 31
0.0
  0
ARC
  5
B0A3
330
18
100
AcDbEntity
  8
0
  6
ByBlock
 62
     6
100
AcDbCircle
 10
288.7570949310054
 20
201.8414190547272
 30
0.0
 40
55.55646053537136
100
AcDbArc
 50
2.578485662890451
 51
27.4215143371091
  0
SOLID
  5
B0A4
330
18
100
AcDbEntity
  8
0
  6
ByBlock
 62
     6
100
AcDbTrace
 10
344.6738675706557
 20
204.3501610300247
 30
0.0
 11
343.8407451946521
 21
204.3314113354504
 31
0.0
 12
344.3135554663768
 22
201.8414190547269
 32
0.0
 13
344.3135554663768
 23
201.8414190547269
 33
0.0
  0
SOLID
  5
B0A5
330
18
100
AcDbEntity
  8
0
  6
ByBlock
 62
     6
100
AcDbTrace
 10
337.7059315328626
 20
227.2268476162168
 30
0.0
 11
338.4368115222301
 21
227.627171092404
 31
0.0
 12
336.8704010989846
 22
229.6196493224128
 32
0.0
 13
336.8704010989846
 23
229.6196493224128
 33
0.0
  0
MTEXT
  5
B0A6
330
18
100
AcDbEntity
  8
0
  6
ByBlock
 62
     3
100
AcDbMText
 10
339.3952311146775
 20
216.9374947824149
 30
0.0
 40
3.0
 41
0.0
 71
     5
 72
     1
  1
\A1;30°
  7
TXT
 11
-0.2588190451025187
 21
0.965925826289069
 31
0.0
 73
     1
 44
1.0
1001
ACAD
1000
MTEXTBEGIN
1070
    73
1070
     1
1070
    44
1040
1.0
1070
    74
1070
     0
1000
MTEXTEND
  0
POINT
  5
B0A7
330
18
100
AcDbEntity
  8
DEFPOINTS
  6
ByBlock
 62
     0
100
AcDbPoint
 10
325.7570949310054
 20
201.841419054727
 30
0.0
  0
POINT
  5
B0A8
330
18
100
AcDbEntity
  8
DEFPOINTS
  6
ByBlock
 62
     0
100
AcDbPoint
 10
320.8000348710296
 20
220.3414190547272
 30
0.0
  0
LINE
  5
B0A9
330
18
100
AcDbEntity
  8
本体外線
100
AcDbLine
 10
288.7570949310053
 20
122.438405726284
 30
0.0
 11
310.5070949310053
 21
122.438405726284
 31
0.0
  0
LINE
  5
B0AA
330
18
100
AcDbEntity
  8
本体外線
100
AcDbLine
 10
288.7570949310053
 20
106.438405726284
 30
0.0
 11
310.5070949310053
 21
106.438405726284
 31
0.0
  0
LINE
  5
B0AB
102
{ACAD_REACTORS
330
B0AE
102
}
330
18
100
AcDbEntity
  8
本体外線
 48
0.2
100
AcDbLine
 10
311.7570949310053
 20
123.938405726284
 30
0.0
 11
311.7570949310053
 21
126.938405726284
 31
0.0
  0
LINE
  5
B0AC
102
{ACAD_REACTORS
330
B0AE
102
}
330
18
100
AcDbEntity
  8
本体外線
100
AcDbLine
 10
310.5070949310053
 20
106.438405726284
 30
0.0
 11
311.7570949310053
 21
104.938405726284
 31
0.0
  0
LINE
  5
B0AD
330
18
100
AcDbEntity
  8
中心線
  6
CENTER
 48
0.05
100
AcDbLine
 10
288.7570949310053
 20
101.938405726284
 30
0.0
 11
288.7570949310053
 21
129.938405726284
 31
0.0
  0
HATCH
  5
B0AE
330
18
100
AcDbEntity
  8
剖面線
100
AcDbHatch
 10
0.0
 20
0.0
 30
0.0
210
0.0
220
0.0
230
1.0
  2
ANSI31
 70
     0
 71
     1
 91
        4
 92
        7
 72
     0
 73
     1
 93
       10
 10
311.7570949310053
 20
126.938405726284
 10
311.7570949310053
 20
123.938405726284
 10
311.2570949310054
 20
123.3384057262841
 10
311.2570949310054
 20
119.3179147755994
 10
322.7907846733058
 20
112.6589358981326
 10
322.7907846733058
 20
111.0589358981333
 10
323.7570949310053
 20
112.7326343603439
 10
323.7570949310053
 20
122.2063549187152
 10
320.7570949310053
 20
123.938405726284
 10
320.7570949310053
 20
126.938405726284
 97
        9
330
B05C
330
B0AB
330
B067
330
B069
330
B089
330
B07F
330
B05E
330
B062
330
B068
 92
        7
 72
     0
 73
     1
 93
        4
 10
311.2570949310054
 20
123.3384057262841
 10
310.5070949310053
 20
122.438405726284
 10
310.5070949310053
 20
119.7509274774916
 10
311.2570949310054
 20
119.3179147755994
 97
        4
330
B067
330
B066
330
B089
330
B069
 92
        7
 72
     0
 73
     1
 93
        4
 10
311.2570949310054
 20
110.0803104685654
 10
310.5070949310053
 20
110.5133231704577
 10
310.5070949310053
 20
106.438405726284
 10
311.2570949310056
 20
105.5384057262836
 97
        4
330
B08A
330
B066
330
B0AC
330
B065
 92
        7
 72
     0
 73
     1
 93
        6
 10
311.2570949310056
 20
105.5384057262837
 10
311.7570949310053
 20
104.938405726284
 10
319.2570949310054
 20
104.938405726284
 10
320.1764253193608
 20
106.5307326678576
 10
318.7907846733056
 20
105.7307326678574
 10
311.2570949310055
 20
110.0803104685654
 97
        5
330
B065
330
B0AC
330
B05D
330
B07F
330
B08A
 75
     0
 76
     1
 52
0.0
 41
0.5
 77
     0
 78
     1
 53
45.0
 43
-24.67531047443981
 44
21.99505253364919
 45
-1.122532015133643
 46
1.122532015133644
 79
     0
 47
0.07524010670596
 98
        4
 10
316.7566819860792
 20
123.8722419221897
 10
311.1350103204622
 20
121.1380070450982
 10
310.9091092557062
 20
109.0243498342557
 10
312.4904179016803
 20
107.7452682168417
  0
DIMENSION
  5
B0AF
330
18
100
AcDbEntity
  8
DIM
100
AcDbDimension
  2
*D17
 10
337.1777835364974
 20
123.938405726284
 30
0.0
 11
337.1777835364974
 21
125.438405726284
 31
0.0
 70
   160
 71
     5
 42
3.0
  3
A
100
AcDbAlignedDimension
 13
320.7570949310053
 23
126.938405726284
 33
0.0
 14
311.7570949310053
 24
123.938405726284
 34
0.0
 50
90.0
100
AcDbRotatedDimension
1001
ACAD
1000
DSTYLE
1002
{
1070
   284
1070
     8
1002
}
  0
DIMENSION
  5
B0B0
330
18
100
AcDbEntity
  8
DIM
100
AcDbDimension
  2
*D18
 10
320.7570949310053
 20
126.938405726284
 30
0.0
 11
344.2824379095079
 21
119.2425042281158
 31
0.0
 70
    34
 71
     5
 42
0.5235987755982956
  3
A
100
AcDb2LineAngularDimension
 13
320.7570949310053
 23
123.938405726284
 33
0.0
 14
323.7570949310053
 24
122.2063549187151
 34
0.0
 15
256.7570949310053
 25
126.938405726284
 35
0.0
 16
345.8516334890289
 26
115.9134958339425
 36
0.0
1001
ACAD
1000
DSTYLE
1002
{
1070
    79
1070
     2
1070
   179
1070
     1
1070
   284
1070
     8
1002
}
  0
DIMENSION
  5
B0B1
330
18
100
AcDbEntity
  8
DIM
100
AcDbDimension
  2
*D19
 10
320.7570949310053
 20
126.938405726284
 30
0.0
 11
348.5818735539146
 21
111.3604344200102
 31
0.0
 70
    34
  1
30%%d
 71
     5
 42
0.5170303770378562
  3
A
100
AcDb2LineAngularDimension
 13
322.3764045813019
 23
108.3412085251374
 33
0.0
 14
309.5070949310052
 24
115.6590244368239
 34
0.0
 15
256.7570949310053
 25
126.938405726284
 35
0.0
 16
349.3755182621076
 26
105.5032983190602
 36
0.0
1001
ACAD
1000
DSTYLE
1002
{
1070
    79
1070
     2
1070
   179
1070
     1
1070
   284
1070
     8
1002
}
  0
LINE
  5
B0B2
330
18
100
AcDbEntity
  8
mark
100
AcDbLine
 10
311.2570949310053
 20
77.59395116661858
 30
0.0
 11
311.2570949310053
 21
84.49349687951473
 31
0.0
  0
LEADER
  5
B0B3
330
18
100
AcDbEntity
  8
DIM
 62
     6
100
AcDbLeader
  3
A
 76
     2
 10
315.7698148585841
 20
179.5857914043059
 30
0.0
 10
336.1110570748642
 20
164.8763894967845
 30
0.0
  0
MTEXT
  5
B0B4
330
18
100
AcDbEntity
  8
DIM
100
AcDbMText
 10
336.6961232797595
 20
166.2215738025176
 30
0.0
 40
5.0
 41
1.0
 71
     1
 72
     5
  1
\Ftxt.shx,bigfont.shx|c128;1
 73
     1
 44
1.0
1001
ACAD
1000
MTEXTBEGIN
1070
    73
1070
     1
1070
    44
1040
1.0
1070
    74
1070
     0
1000
MTEXTEND
  0
LINE
  5
B0B5
330
18
100
AcDbEntity
  8
0
 62
     1
100
AcDbLine
 10
282.8519845327285
 20
141.1817814658809
 30
0.0
 11
291.9428469731345
 21
141.1817814658809
 31
0.0
  0
LINE
  5
B0B6
330
18
100
AcDbEntity
  8
0
 62
     1
100
AcDbLine
 10
282.8519845327285
 20
139.8100143079457
 30
0.0
 11
291.9428469731345
 21
139.8100143079457
 31
0.0
  0
LWPOLYLINE
  5
B0B7
330
18
100
AcDbEntity
  8
mark
100
AcDbPolyline
 90
        3
 70
     1
 43
0.0
 10
204.0490879528845
 20
37.96472048474993
 10
209.2452403755912
 20
37.96472048474993
 10
206.6471641642378
 20
42.46472048474992
  0
MTEXT
  5
B0B8
330
18
100
AcDbEntity
  8
DIM
 62
     3
100
AcDbMText
 10
207.2094071303062
 20
39.9240285520032
 30
0.0
 40
3.0
 41
0.0
 71
     6
 72
     1
  1
1
  7
TXT
 73
     1
 44
1.0
1001
ACAD
1000
MTEXTBEGIN
1070
    73
1070
     1
1070
    44
1040
1.0
1070
    74
1070
     0
1000
MTEXTEND
  0
MTEXT
  5
B0B9
330
18
100
AcDbEntity
  8
DIM
100
AcDbMText
 10
210.0030517060882
 20
42.46092036580956
 30
0.0
 40
4.5
 41
0.0
 71
     1
 72
     5
  1
{\Ftxt,bigfont|c128;06.04.21外形寸法を変更する}
  7
JL
 73
     1
 44
1.0
1001
ACAD
1000
MTEXTBEGIN
1070
    73
1070
     1
1070
    44
1040
1.0
1070
    74
1070
     0
1000
MTEXTEND
  0
MTEXT
  5
B0BA
330
18
100
AcDbEntity
  8
DIM
100
AcDbMText
 10
249.2956657458349
 20
42.46092036580956
 30
0.0
 40
4.5
 41
0.0
 71
     1
 72
     5
  1
{\Ftxt,bigfont|c128;林}
  7
JL
 73
     1
 44
1.0
1001
ACAD
1000
MTEXTBEGIN
1070
    73
1070
     1
1070
    44
1040
1.0
1070
    74
1070
     0
1000
MTEXTEND
  0
CIRCLE
  5
B0BB
330
18
100
AcDbEntity
  8
DIM
100
AcDbCircle
 10
250.2511356351452
 20
40.18963923313754
 30
0.0
 40
2.5
  0
LWPOLYLINE
  5
B0BC
330
18
100
AcDbEntity
  8
mark
100
AcDbPolyline
 90
        3
 70
     1
 43
0.0
 10
266.7933468792468
 20
139.0954344446913
 10
271.9894993019534
 20
139.0954344446913
 10
269.3914230906001
 20
143.5954344446913
  0
MTEXT
  5
B0BD
330
18
100
AcDbEntity
  8
DIM
 62
     3
100
AcDbMText
 10
269.9536660566685
 20
141.0547425119446
 30
0.0
 40
3.0
 41
0.0
 71
     6
 72
     1
  1
1
  7
TXT
 73
     1
 44
1.0
1001
ACAD
1000
MTEXTBEGIN
1070
    73
1070
     1
1070
    44
1040
1.0
1070
    74
1070
     0
1000
MTEXTEND
  0
MTEXT
  5
B0BE
330
18
100
AcDbEntity
  8
DIM
 62
     3
100
AcDbMText
 10
277.2857673412196
 20
140.5990696366489
 30
0.0
 40
3.0
 41
0.0
 71
     5
 72
     1
  1
%%C48
  7
TXT
 73
     1
 44
1.0
1001
ACAD
1000
MTEXTBEGIN
1070
    73
1070
     1
1070
    44
1040
1.0
1070
    74
1070
     0
1000
MTEXTEND
  0
MTEXT
  5
B0BF
330
18
100
AcDbEntity
  8
0
100
AcDbMText
 10
247.8194827894975
 20
19.37399834316261
 30
0.0
 40
5.0
 41
0.0
 71
     1
 72
     5
  1
\Ftxt.shx,bigfont.shx|c128;呉銘宏
  7
JL
 73
     1
 44
1.0
1001
ACAD
1000
MTEXTBEGIN
1070
    73
1070
     1
1070
    44
1040
1.0
1070
    74
1070
     0
1000
MTEXTEND
  0
LWPOLYLINE
  5
B0C0
330
18
100
AcDbEntity
  8
mark
100
AcDbPolyline
 90
        3
 70
     1
 43
0.0
 10
208.3107617394792
 20
46.13948656290093
 10
205.4240103935311
 20
51.13948656290094
 10
202.537259047583
 20
46.13948656290093
  0
MTEXT
  5
B0C1
330
18
100
AcDbEntity
  8
DIM
100
AcDbMText
 10
204.5481423809315
 20
49.09313096060711
 30
0.0
 40
2.5
 41
9.163114146879252
 71
     1
 72
     5
  1
2
 73
     1
 44
1.0
1001
ACAD
1000
MTEXTBEGIN
1070
    73
1070
     1
1070
    44
1040
1.0
1070
    74
1070
     0
1000
MTEXTEND
  0
MTEXT
  5
B0C2
330
18
100
AcDbEntity
  8
DIM
100
AcDbMText
 10
210.0739602509509
 20
50.60004454535124
 30
0.0
 40
4.5
 41
0.0
 71
     1
 72
     5
  1
{\Ftxt,bigfont|c128;08.08.08 振れ精度の変更  林}
  7
JL
 73
     1
 44
1.0
1001
ACAD
1000
MTEXTBEGIN
1070
    73
1070
     1
1070
    44
1040
1.0
1070
    74
1070
     0
1000
MTEXTEND
  0
CIRCLE
  5
B0C3
330
18
100
AcDbEntity
  8
DIM
100
AcDbCircle
 10
247.8482635449767
 20
48.29022592538445
 30
0.0
 40
2.762409708108862
  0
LWPOLYLINE
  5
B0C4
330
18
100
AcDbEntity
  8
mark
100
AcDbPolyline
 90
        3
 70
     1
 43
0.0
 10
221.672860230714
 20
144.8434922208631
 10
218.7861088847659
 20
149.8434922208631
 10
215.8993575388177
 20
144.8434922208631
  0
MTEXT
  5
B0C5
330
18
100
AcDbEntity
  8
DIM
100
AcDbMText
 10
217.9102408721663
 20
147.7971366185693
 30
0.0
 40
2.5
 41
9.163114146879252
 71
     1
 72
     5
  1
2
 73
     1
 44
1.0
1001
ACAD
1000
MTEXTBEGIN
1070
    73
1070
     1
1070
    44
1040
1.0
1070
    74
1070
     0
1000
MTEXTEND
  0
MTEXT
  5
B0C6
330
18
100
AcDbEntity
  8
DIM
100
AcDbMText
 10
223.437662733511
 20
147.7971366185693
 30
0.0
 40
2.74
 41
9.163114146879252
 71
     1
 72
     5
  1
0.007
 73
     1
 44
1.0
1001
ACAD
1000
MTEXTBEGIN
1070
    73
1070
     1
1070
    44
1040
1.0
1070
    74
1070
     0
1000
MTEXTEND
  0
LINE
  5
B0C7
330
18
100
AcDbEntity
  8
mark
 62
     1
100
AcDbLine
 10
222.8153975856053
 20
141.0877391251593
 30
0.0
 11
233.5494940021793
 21
141.0877391251593
 31
0.0
  0
LINE
  5
B0C8
330
18
100
AcDbEntity
  8
mark
 62
     1
100
AcDbLine
 10
222.8153975856053
 20
140.2579628044126
 30
0.0
 11
233.5494940021793
 21
140.2579628044126
 31
0.0
  0
LWPOLYLINE
  5
B0C9
330
18
100
AcDbEntity
  8
mark
100
AcDbPolyline
 90
        3
 70
     1
 43
0.0
 10
387.1252811937943
 20
2.693733812230448
 10
384.2385298478462
 20
7.693733812230448
 10
381.351778501898
 20
2.693733812230448
  0
MTEXT
  5
B0CA
330
18
100
AcDbEntity
  8
DIM
100
AcDbMText
 10
383.3626618352466
 20
5.647378209936618
 30
0.0
 40
2.5
 41
9.163114146879252
 71
     1
 72
     5
  1
3
 73
     1
 44
1.0
1001
ACAD
1000
MTEXTBEGIN
1070
    73
1070
     1
1070
    44
1040
1.0
1070
    74
1070
     0
1000
MTEXTEND
  0
LWPOLYLINE
  5
B1D6
330
18
100
AcDbEntity
  8
mark
100
AcDbPolyline
 90
        3
 70
     1
 43
0.0
 10
208.3107617394792
 20
54.06479431500745
 10
205.4240103935311
 20
59.06479431500745
 10
202.537259047583
 20
54.06479431500745
  0
MTEXT
  5
B1D7
330
18
100
AcDbEntity
  8
DIM
100
AcDbMText
 10
204.5481423809315
 20
57.01843871271361
 30
0.0
 40
2.5
 41
9.163114146879252
 71
     1
 72
     5
  1
3
 73
     1
 44
1.0
1001
ACAD
1000
MTEXTBEGIN
1070
    73
1070
     1
1070
    44
1040
1.0
1070
    74
1070
     0
1000
MTEXTEND
  0
MTEXT
  5
B1D8
330
18
100
AcDbEntity
  8
DIM
100
AcDbMText
 10
210.0739602509509
 20
58.52535229745774
 30
0.0
 40
4.5
 41
0.0
 71
     1
 72
     5
  1
{\Ftxt,bigfont|c136;13\Ftxt,bigfont|c128;.\Ftxt,bigfont|c136;03\Ftxt,bigfont|c128;.\Ftxt,bigfont|c136;20\Ftxt,bigfont|c128;  熱処理不要.振れ精度の変更  林}
  7
JL
 73
     1
 44
1.0
1001
ACAD
1000
MTEXTBEGIN
1070
    73
1070
     1
1070
    44
1040
1.0
1070
    74
1070
     0
1000
MTEXTEND
  0
CIRCLE
  5
B1D9
330
18
100
AcDbEntity
  8
DIM
100
AcDbCircle
 10
263.1080461318891
 20
56.21553367749095
 30
0.0
 40
2.762409708108862
  0
LWPOLYLINE
  5
B1DB
330
18
100
AcDbEntity
  8
mark
100
AcDbPolyline
 90
        3
 70
     1
 43
0.0
 10
221.672860230714
 20
151.2156258030414
 10
218.7861088847659
 20
156.2156258030414
 10
215.8993575388177
 20
151.2156258030414
  0
MTEXT
  5
B1DC
330
18
100
AcDbEntity
  8
DIM
100
AcDbMText
 10
217.9102408721663
 20
154.1692702007476
 30
0.0
 40
2.5
 41
9.163114146879252
 71
     1
 72
     5
  1
3
 73
     1
 44
1.0
1001
ACAD
1000
MTEXTBEGIN
1070
    73
1070
     1
1070
    44
1040
1.0
1070
    74
1070
     0
1000
MTEXTEND
  0
MTEXT
  5
B1DD
330
18
100
AcDbEntity
  8
DIM
100
AcDbMText
 10
223.437662733511
 20
154.1692702007476
 30
0.0
 40
2.74
 41
9.163114146879252
 71
     1
 72
     5
  1
0.005
 73
     1
 44
1.0
1001
ACAD
1000
MTEXTBEGIN
1070
    73
1070
     1
1070
    44
1040
1.0
1070
    74
1070
     0
1000
MTEXTEND
  0
LINE
  5
B1DE
330
18
100
AcDbEntity
  8
mark
 62
     1
100
AcDbLine
 10
215.8993575388177
 20
146.9017297545418
 30
0.0
 11
233.5494940021793
 21
146.9017297545418
 31
0.0
  0
LINE
  5
B1DF
330
18
100
AcDbEntity
  8
mark
 62
     1
100
AcDbLine
 10
215.8993575388177
 20
146.0719534337951
 30
0.0
 11
233.5494940021793
 21
146.0719534337951
 31
0.0
  0
LINE
  5
B1E1
330
18
100
AcDbEntity
  8
DIM
 62
     1
100
AcDbLine
 10
332.9166615703457
 20
54.5325963908399
 30
0.0
 11
387.253342664764
 21
54.5325963908399
 31
0.0
  0
LINE
  5
B1E2
330
18
100
AcDbEntity
  8
DIM
 62
     1
100
AcDbLine
 10
332.9166615703457
 20
52.79007283056535
 30
0.0
 11
387.253342664764
 21
52.79007283056535
 31
0.0
  0
ENDSEC
  0
SECTION
  2
OBJECTS
  0
DICTIONARY
  5
C
330
0
100
AcDbDictionary
281
     1
  3
ACAD_COLOR
350
AE5D
  3
ACAD_GROUP
350
D
  3
ACAD_LAYOUT
350
5CF3
  3
ACAD_MATERIAL
350
AE5C
  3
ACAD_MLEADERSTYLE
350
AF1E
  3
ACAD_MLINESTYLE
350
1B
  3
ACAD_PLOTSETTINGS
350
5CF4
  3
ACAD_PLOTSTYLENAME
350
5CF1
  3
ACAD_SCALELIST
350
AF0C
  3
ACAD_TABLESTYLE
350
AE5E
  3
ACAD_VISUALSTYLE
350
AEF3
  3
ACDB_RECOMPOSE_DATA
350
B1F7
  3
ACDBHEADERROUNDTRIPXREC
350
B2E1
  3
ACDBVARIABLEDICTIONARY
350
45D
  3
AcmDictionary
350
AF79
  3
AMG
350
AF2C
  3
AMGSNAPSETTINGS
350
AFBA
  3
DWGPROPS
350
B2E0
  0
DICTIONARY
  5
B1F9
330
8
100
AcDbDictionary
280
     1
281
     1
  3
ACAD_XREC_ROUNDTRIP
360
B1FA
  0
DICTIONARY
  5
B1E3
330
E
100
AcDbDictionary
280
     1
281
     1
  3
ADSK_XREC_LAYER_RECONCILED
360
B1E4
  0
DICTIONARY
  5
B1E5
330
B9
100
AcDbDictionary
280
     1
281
     1
  3
ADSK_XREC_LAYER_RECONCILED
360
B1E6
  0
DICTIONARY
  5
B1E7
330
5F8B
100
AcDbDictionary
280
     1
281
     1
  3
ADSK_XREC_LAYER_RECONCILED
360
B1E8
  0
DICTIONARY
  5
B1E9
330
644E
100
AcDbDictionary
280
     1
281
     1
  3
ADSK_XREC_LAYER_RECONCILED
360
B1EA
  0
DICTIONARY
  5
B1EB
330
650D
100
AcDbDictionary
280
     1
281
     1
  3
ADSK_XREC_LAYER_RECONCILED
360
B1EC
  0
DICTIONARY
  5
B1ED
330
650E
100
AcDbDictionary
280
     1
281
     1
  3
ADSK_XREC_LAYER_RECONCILED
360
B1EE
  0
DICTIONARY
  5
B1EF
330
650F
100
AcDbDictionary
280
     1
281
     1
  3
ADSK_XREC_LAYER_RECONCILED
360
B1F0
  0
DICTIONARY
  5
B1F1
330
6510
100
AcDbDictionary
280
     1
281
     1
  3
ADSK_XREC_LAYER_RECONCILED
360
B1F2
  0
DICTIONARY
  5
B1F3
330
AEB7
100
AcDbDictionary
280
     1
281
     1
  3
ADSK_XREC_LAYER_RECONCILED
360
B1F4
  0
DICTIONARY
  5
45F
330
18
100
AcDbDictionary
280
     1
281
     1
  3
ACAD_LAYOUTSELFREF
360
5D8B
  3
ACAD_SORTENTS
360
460
  0
DICTIONARY
  5
5D89
330
15
100
AcDbDictionary
280
     1
281
     1
  3
ACAD_LAYOUTSELFREF
360
5D8A
  0
DICTIONARY
  5
AE5D
102
{ACAD_REACTORS
330
C
102
}
330
C
100
AcDbDictionary
281
     1
  0
DICTIONARY
  5
D
102
{ACAD_REACTORS
330
C
102
}
330
C
100
AcDbDictionary
281
     1
  0
DICTIONARY
  5
5CF3
102
{ACAD_REACTORS
330
C
102
}
330
C
100
AcDbDictionary
281
     1
  3
Model
350
5CF5
  3
配置1
350
5CF6
1001
ACADSTRINGINFO
1000
MIFCodePage
1070
     1
  0
DICTIONARY
  5
AE5C
102
{ACAD_REACTORS
330
C
102
}
330
C
100
AcDbDictionary
281
     1
  3
ByBlock
350
AEE3
  3
ByLayer
350
AEDB
  3
Global
350
AEEB
  0
DICTIONARY
  5
AF1E
102
{ACAD_REACTORS
330
C
102
}
330
C
100
AcDbDictionary
281
     1
  3
Standard
350
AF1F
  0
DICTIONARY
  5
1B
102
{ACAD_REACTORS
330
C
102
}
330
C
100
AcDbDictionary
281
     1
  3
STANDARD
350
1C
  0
DICTIONARY
  5
5CF4
102
{ACAD_REACTORS
330
C
102
}
330
C
100
AcDbDictionary
281
     1
  0
ACDBDICTIONARYWDFLT
  5
5CF1
102
{ACAD_REACTORS
330
C
102
}
330
C
100
AcDbDictionary
281
     1
  3
Normal
350
5CF2
100
AcDbDictionaryWithDefault
340
5CF2
  0
DICTIONARY
  5
AF0C
102
{ACAD_REACTORS
330
C
102
}
330
C
100
AcDbDictionary
281
     1
  3
A0
350
AF0D
  3
A1
350
AF0E
  3
A2
350
AF0F
  3
A3
350
AF10
  3
A4
350
AF11
  3
A5
350
AF12
  3
A6
350
AF13
  3
A7
350
AF14
  3
A8
350
AF15
  3
A9
350
AF16
  3
B0
350
AF17
  3
B1
350
AF18
  3
B2
350
AF19
  3
B3
350
AF1A
  3
B4
350
AF1B
  3
B5
350
AF1C
  3
B6
350
AF1D
  0
DICTIONARY
  5
AE5E
102
{ACAD_REACTORS
330
C
102
}
330
C
100
AcDbDictionary
281
     1
  3
Standard
350
AE5F
  0
DICTIONARY
  5
AEF3
102
{ACAD_REACTORS
330
C
102
}
330
C
100
AcDbDictionary
281
     1
  3
2dWireframe
350
AEF9
  3
Basic
350
AEF8
  3
Brighten
350
AEFF
  3
ColorChange
350
AF03
  3
Conceptual
350
AEFC
  3
Dim
350
AEFE
  3
EdgeColorOff
350
AF0B
  3
Facepattern
350
AF02
  3
Flat
350
AEF4
  3
FlatWithEdges
350
AEF5
  3
Gouraud
350
AEF6
  3
GouraudWithEdges
350
AEF7
  3
Hidden
350
AEFB
  3
JitterOff
350
AF09
  3
Linepattern
350
AF01
  3
OverhangOff
350
AF0A
  3
Realistic
350
AEFD
  3
Shaded
350
AF08
  3
Shaded with edges
350
AF07
  3
Shades of Gray
350
AF04
  3
Sketchy
350
AF05
  3
Thicken
350
AF00
  3
Wireframe
350
AEFA
  3
X-Ray
350
AF06
  0
XRECORD
  5
B1F7
102
{ACAD_REACTORS
330
C
102
}
330
C
100
AcDbXrecord
280
     1
 90
        1
330
AE5F
  0
DICTIONARY
  5
B2E1
102
{ACAD_REACTORS
330
C
102
}
330
C
100
AcDbDictionary
281
     1
  0
DICTIONARY
  5
45D
102
{ACAD_REACTORS
330
C
102
}
330
C
100
AcDbDictionary
281
     1
  3
CANNOSCALE
350
B2CE
  3
CMLEADERSTYLE
350
B2CD
  3
CTABLESTYLE
350
AE6A
  3
DIMASSOC
350
B2D1
  3
INDEXCTL
350
B2CF
  3
PROJECTNAME
350
B2DE
  3
SORTENTS
350
45E
  3
XCLIPFRAME
350
B2D0
  0
DICTIONARY
  5
AF79
102
{ACAD_REACTORS
330
C
102
}
330
C
100
AcDbDictionary
281
     1
  3
AcmStdDictionary
350
AF84
  0
DICTIONARY
  5
AF2C
102
{ACAD_REACTORS
330
C
102
}
330
C
100
AcDbDictionary
281
     1
  0
DICTIONARY
  5
AFBA
102
{ACAD_REACTORS
330
C
102
}
330
C
100
AcDbDictionary
281
     1
  0
XRECORD
  5
B2E0
102
{ACAD_REACTORS
330
C
102
}
330
C
100
AcDbXrecord
280
     1
  1
DWGPROPS COOKIE
  2

  3

  4

  6

  7

  8
USER
  9

300
=
301
=
302
=
303
=
304
=
305
=
306
=
307
=
308
=
309
=
 40
2.647095358796296
 41
2451555.620234838
 42
2457828.68664757
  1

 90
        0
  0
XRECORD
  5
B1FA
102
{ACAD_REACTORS
330
B1F9
102
}
330
B1F9
100
AcDbXrecord
280
     1
102
VTR_0.000_0.000_1.000_1.000_VISUALSTYLE
340
AEF9
102
VTR_0.000_0.000_1.000_1.000_GRIDDISPLAY
 70
     3
102
VTR_0.000_0.000_1.000_1.000_GRIDMAJOR
 70
     5
102
VTR_0.000_0.000_1.000_1.000_DEFAULTLIGHTING
280
     1
102
VTR_0.000_0.000_1.000_1.000_DEFAULTLIGHTINGTYPE
 70
     1
102
VTR_0.000_0.000_1.000_1.000_BRIGHTNESS
141
0.0
102
VTR_0.000_0.000_1.000_1.000_CONTRAST
142
0.0
  0
XRECORD
  5
B1E4
102
{ACAD_REACTORS
330
B1E3
102
}
330
B1E3
100
AcDbXrecord
280
     1
290
     1
  0
XRECORD
  5
B1E6
102
{ACAD_REACTORS
330
B1E5
102
}
330
B1E5
100
AcDbXrecord
280
     1
290
     1
  0
XRECORD
  5
B1E8
102
{ACAD_REACTORS
330
B1E7
102
}
330
B1E7
100
AcDbXrecord
280
     1
290
     1
  0
XRECORD
  5
B1EA
102
{ACAD_REACTORS
330
B1E9
102
}
330
B1E9
100
AcDbXrecord
280
     1
290
     1
  0
XRECORD
  5
B1EC
102
{ACAD_REACTORS
330
B1EB
102
}
330
B1EB
100
AcDbXrecord
280
     1
290
     1
  0
XRECORD
  5
B1EE
102
{ACAD_REACTORS
330
B1ED
102
}
330
B1ED
100
AcDbXrecord
280
     1
290
     1
  0
XRECORD
  5
B1F0
102
{ACAD_REACTORS
330
B1EF
102
}
330
B1EF
100
AcDbXrecord
280
     1
290
     1
  0
XRECORD
  5
B1F2
102
{ACAD_REACTORS
330
B1F1
102
}
330
B1F1
100
AcDbXrecord
280
     1
290
     1
  0
XRECORD
  5
B1F4
102
{ACAD_REACTORS
330
B1F3
102
}
330
B1F3
100
AcDbXrecord
280
     1
290
     1
  0
XRECORD
  5
5D8B
102
{ACAD_REACTORS
330
45F
102
}
330
45F
100
AcDbXrecord
280
     1
340
18
  0
SORTENTSTABLE
  5
460
102
{ACAD_REACTORS
330
45F
102
}
330
45F
100
AcDbSortentsTable
330
18
331
C0
  5
CB
331
64AF
  5
64AF
331
AB22
  5
AB22
331
8100
  5
8100
  0
XRECORD
  5
5D8A
102
{ACAD_REACTORS
330
5D89
102
}
330
5D89
100
AcDbXrecord
280
     1
340
15
  0
LAYOUT
  5
5CF5
102
{ACAD_XDICTIONARY
360
B2E2
102
}
102
{ACAD_REACTORS
330
5CF3
102
}
330
5CF3
100
AcDbPlotSettings
  1

  2
EPSON STYLUS COLOR 440
  4

  6

 40
0.0
 41
0.0
 42
0.0
 43
0.0
 44
0.0
 45
0.0
 46
0.0
 47
0.0
 48
0.0
 49
0.0
140
0.0
141
0.0
142
1.0
143
1.0
 70
  1712
 72
     0
 73
     0
 74
     0
  7
a.ctb
 75
     0
147
1.0
148
0.0
149
0.0
100
AcDbLayout
  1
Model
 70
     1
 71
     0
 10
0.0
 20
0.0
 11
12.0
 21
9.0
 12
0.0
 22
0.0
 32
0.0
 14
0.0
 24
0.0
 34
0.0
 15
0.0
 25
0.0
 35
0.0
146
0.0
 13
0.0
 23
0.0
 33
0.0
 16
1.0
 26
0.0
 36
0.0
 17
0.0
 27
1.0
 37
0.0
 76
     0
330
18
331
AED9
  0
LAYOUT
  5
5CF6
102
{ACAD_XDICTIONARY
360
B2E4
102
}
102
{ACAD_REACTORS
330
5CF3
102
}
330
5CF3
100
AcDbPlotSettings
  1

  2
EPSON STYLUS COLOR 440
  4

  6

 40
0.0
 41
0.0
 42
0.0
 43
0.0
 44
0.0
 45
0.0
 46
0.0
 47
0.0
 48
0.0
 49
0.0
140
0.0
141
0.0
142
1.0
143
1.0
 70
   688
 72
     0
 73
     0
 74
     5
  7
a.ctb
 75
    16
147
1.0
148
0.0
149
0.0
100
AcDbLayout
  1
ｰtｸm1
 70
     1
 71
     1
 10
0.0
 20
0.0
 11
420.0
 21
297.0
 12
0.0
 22
0.0
 32
0.0
 14
1.000000000000000E+20
 24
1.000000000000000E+20
 34
1.000000000000000E+20
 15
-1.000000000000000E+20
 25
-1.000000000000000E+20
 35
-1.000000000000000E+20
146
0.0
 13
0.0
 23
0.0
 33
0.0
 16
1.0
 26
0.0
 36
0.0
 17
0.0
 27
1.0
 37
0.0
 76
     0
330
15
1001
ACADSTRINGINFO
1000
MIFCodePage
1070
     1
  0
MATERIAL
  5
AEE3
102
{ACAD_XDICTIONARY
360
AEE4
102
}
102
{ACAD_REACTORS
330
AE5C
102
}
330
AE5C
100
AcDbMaterial
  1
ByBlock
 72
     0
 73
     2
 43
0.0208333333333333
 43
0.0
 43
0.0
 43
0.0
 43
0.0
 43
0.0208333333333333
 43
0.0
 43
0.0
 43
0.0
 43
0.0
 43
1.0
 43
0.0
 43
0.0
 43
0.0
 43
0.0
 43
1.0
 77
     0
 78
     2
 47
0.0208333333333333
 47
0.0
 47
0.0
 47
0.0
 47
0.0
 47
0.0208333333333333
 47
0.0
 47
0.0
 47
0.0
 47
0.0
 47
1.0
 47
0.0
 47
0.0
 47
0.0
 47
0.0
 47
1.0
171
     0
172
     2
 49
0.0208333333333333
 49
0.0
 49
0.0
 49
0.0
 49
0.0
 49
0.0208333333333333
 49
0.0
 49
0.0
 49
0.0
 49
0.0
 49
1.0
 49
0.0
 49
0.0
 49
0.0
 49
0.0
 49
1.0
175
     0
176
     2
142
0.0208333333333333
142
0.0
142
0.0
142
0.0
142
0.0
142
0.0208333333333333
142
0.0
142
0.0
142
0.0
142
0.0
142
1.0
142
0.0
142
0.0
142
0.0
142
0.0
142
1.0
179
     0
270
     2
144
0.0208333333333333
144
0.0
144
0.0
144
0.0
144
0.0
144
0.0208333333333333
144
0.0
144
0.0
144
0.0
144
0.0
144
1.0
144
0.0
144
0.0
144
0.0
144
0.0
144
1.0
274
     2
147
0.0208333333333333
147
0.0
147
0.0
147
0.0
147
0.0
147
0.0208333333333333
147
0.0
147
0.0
147
0.0
147
0.0
147
1.0
147
0.0
147
0.0
147
0.0
147
0.0
147
1.0
  0
MATERIAL
  5
AEDB
102
{ACAD_XDICTIONARY
360
AEDC
102
}
102
{ACAD_REACTORS
330
AE5C
102
}
330
AE5C
100
AcDbMaterial
  1
ByLayer
 72
     0
 73
     2
 43
0.0208333333333333
 43
0.0
 43
0.0
 43
0.0
 43
0.0
 43
0.0208333333333333
 43
0.0
 43
0.0
 43
0.0
 43
0.0
 43
1.0
 43
0.0
 43
0.0
 43
0.0
 43
0.0
 43
1.0
 77
     0
 78
     2
 47
0.0208333333333333
 47
0.0
 47
0.0
 47
0.0
 47
0.0
 47
0.0208333333333333
 47
0.0
 47
0.0
 47
0.0
 47
0.0
 47
1.0
 47
0.0
 47
0.0
 47
0.0
 47
0.0
 47
1.0
171
     0
172
     2
 49
0.0208333333333333
 49
0.0
 49
0.0
 49
0.0
 49
0.0
 49
0.0208333333333333
 49
0.0
 49
0.0
 49
0.0
 49
0.0
 49
1.0
 49
0.0
 49
0.0
 49
0.0
 49
0.0
 49
1.0
175
     0
176
     2
142
0.0208333333333333
142
0.0
142
0.0
142
0.0
142
0.0
142
0.0208333333333333
142
0.0
142
0.0
142
0.0
142
0.0
142
1.0
142
0.0
142
0.0
142
0.0
142
0.0
142
1.0
179
     0
270
     2
144
0.0208333333333333
144
0.0
144
0.0
144
0.0
144
0.0
144
0.0208333333333333
144
0.0
144
0.0
144
0.0
144
0.0
144
1.0
144
0.0
144
0.0
144
0.0
144
0.0
144
1.0
274
     2
147
0.0208333333333333
147
0.0
147
0.0
147
0.0
147
0.0
147
0.0208333333333333
147
0.0
147
0.0
147
0.0
147
0.0
147
1.0
147
0.0
147
0.0
147
0.0
147
0.0
147
1.0
  0
MATERIAL
  5
AEEB
102
{ACAD_XDICTIONARY
360
AEEC
102
}
102
{ACAD_REACTORS
330
AE5C
102
}
330
AE5C
100
AcDbMaterial
  1
Global
 72
     0
 73
     2
 43
0.0208333333333333
 43
0.0
 43
0.0
 43
0.0
 43
0.0
 43
0.0208333333333333
 43
0.0
 43
0.0
 43
0.0
 43
0.0
 43
1.0
 43
0.0
 43
0.0
 43
0.0
 43
0.0
 43
1.0
 77
     0
 78
     2
 47
0.0208333333333333
 47
0.0
 47
0.0
 47
0.0
 47
0.0
 47
0.0208333333333333
 47
0.0
 47
0.0
 47
0.0
 47
0.0
 47
1.0
 47
0.0
 47
0.0
 47
0.0
 47
0.0
 47
1.0
171
     0
172
     2
 49
0.0208333333333333
 49
0.0
 49
0.0
 49
0.0
 49
0.0
 49
0.0208333333333333
 49
0.0
 49
0.0
 49
0.0
 49
0.0
 49
1.0
 49
0.0
 49
0.0
 49
0.0
 49
0.0
 49
1.0
175
     0
176
     2
142
0.0208333333333333
142
0.0
142
0.0
142
0.0
142
0.0
142
0.0208333333333333
142
0.0
142
0.0
142
0.0
142
0.0
142
1.0
142
0.0
142
0.0
142
0.0
142
0.0
142
1.0
179
     0
270
     2
144
0.0208333333333333
144
0.0
144
0.0
144
0.0
144
0.0
144
0.0208333333333333
144
0.0
144
0.0
144
0.0
144
0.0
144
1.0
144
0.0
144
0.0
144
0.0
144
0.0
144
1.0
274
     2
147
0.0208333333333333
147
0.0
147
0.0
147
0.0
147
0.0
147
0.0208333333333333
147
0.0
147
0.0
147
0.0
147
0.0
147
1.0
147
0.0
147
0.0
147
0.0
147
0.0
147
1.0
  0
ACAD_PROXY_OBJECT
  5
AF1F
102
{ACAD_REACTORS
330
AF1E
102
}
330
AF1E
100
AcDbProxyObject
 90
      499
 91
      515
 95
   983063
 70
     0
 93
      618
310
40901902A4063FBFFFFFE000000000000002040AD7A3703D0AD73F4254DD185B99185C99000000000000000104090141901A00000000000004100000000000000041025764000000000000300FC0
340
12
340
0
340
F
340
0
 94
        0
1001
ACAD_MLEADERVER
1070
     2
1001
ACAD
1000
AcRTDxfName
1000
MLEADERSTYLE
  0
MLINESTYLE
  5
1C
102
{ACAD_REACTORS
330
1B
102
}
330
1B
100
AcDbMlineStyle
  2
STANDARD
 70
     0
  3

 62
   256
 51
90.0
 52
90.0
 71
     2
 49
0.5
 62
   256
  6
BYLAYER
 49
-0.5
 62
   256
  6
BYLAYER
  0
ACDBPLACEHOLDER
  5
5CF2
102
{ACAD_REACTORS
330
5CF1
102
}
330
5CF1
  0
ACAD_PROXY_OBJECT
  5
AF0D
102
{ACAD_REACTORS
330
AF0C
102
}
330
AF0C
100
AcDbProxyObject
 90
      499
 91
      514
 95
   983063
 70
     0
 93
       49
310
904313A3100598
 94
        0
1001
ACAD
1000
AcRTDxfName
1000
SCALE
  0
ACAD_PROXY_OBJECT
  5
AF0E
102
{ACAD_REACTORS
330
AF0C
102
}
330
AF0C
100
AcDbProxyObject
 90
      499
 91
      514
 95
   983063
 70
     0
 93
      113
310
904313A32004000000000000004011
 94
        0
1001
ACAD
1000
AcRTDxfName
1000
SCALE
  0
ACAD_PROXY_OBJECT
  5
AF0F
102
{ACAD_REACTORS
330
AF0C
102
}
330
AF0C
100
AcDbProxyObject
 90
      499
 91
      514
 95
   983063
 70
     0
 93
      113
310
904313A34004000000000000104054
 94
        0
1001
ACAD
1000
AcRTDxfName
1000
SCALE
  0
ACAD_PROXY_OBJECT
  5
AF10
102
{ACAD_REACTORS
330
AF0C
102
}
330
AF0C
100
AcDbProxyObject
 90
      499
 91
      514
 95
   983063
 70
     0
 93
      113
310
904313A35004000000000000144011
 94
        0
1001
ACAD
1000
AcRTDxfName
1000
SCALE
  0
ACAD_PROXY_OBJECT
  5
AF11
102
{ACAD_REACTORS
330
AF0C
102
}
330
AF0C
100
AcDbProxyObject
 90
      499
 91
      514
 95
   983063
 70
     0
 93
      113
310
904313A38004000000000000204054
 94
        0
1001
ACAD
1000
AcRTDxfName
1000
SCALE
  0
ACAD_PROXY_OBJECT
  5
AF12
102
{ACAD_REACTORS
330
AF0C
102
}
330
AF0C
100
AcDbProxyObject
 90
      499
 91
      514
 95
   983063
 70
     0
 93
      121
310
905313A3130004000000000000244064
 94
        0
1001
ACAD
1000
AcRTDxfName
1000
SCALE
  0
ACAD_PROXY_OBJECT
  5
AF13
102
{ACAD_REACTORS
330
AF0C
102
}
330
AF0C
100
AcDbProxyObject
 90
      499
 91
      514
 95
   983063
 70
     0
 93
      121
310
905313A3136004000000000000304009
 94
        0
1001
ACAD
1000
AcRTDxfName
1000
SCALE
  0
ACAD_PROXY_OBJECT
  5
AF14
102
{ACAD_REACTORS
330
AF0C
102
}
330
AF0C
100
AcDbProxyObject
 90
      499
 91
      514
 95
   983063
 70
     0
 93
      121
310
905313A3230004000000000000344064
 94
        0
1001
ACAD
1000
AcRTDxfName
1000
SCALE
  0
ACAD_PROXY_OBJECT
  5
AF15
102
{ACAD_REACTORS
330
AF0C
102
}
330
AF0C
100
AcDbProxyObject
 90
      499
 91
      514
 95
   983063
 70
     0
 93
      121
310
905313A33300040000000000003E4009
 94
        0
1001
ACAD
1000
AcRTDxfName
1000
SCALE
  0
ACAD_PROXY_OBJECT
  5
AF16
102
{ACAD_REACTORS
330
AF0C
102
}
330
AF0C
100
AcDbProxyObject
 90
      499
 91
      514
 95
   983063
 70
     0
 93
      121
310
905313A3430004000000000000444064
 94
        0
1001
ACAD
1000
AcRTDxfName
1000
SCALE
  0
ACAD_PROXY_OBJECT
  5
AF17
102
{ACAD_REACTORS
330
AF0C
102
}
330
AF0C
100
AcDbProxyObject
 90
      499
 91
      514
 95
   983063
 70
     0
 93
      121
310
905313A3530004000000000000494009
 94
        0
1001
ACAD
1000
AcRTDxfName
1000
SCALE
  0
ACAD_PROXY_OBJECT
  5
AF18
102
{ACAD_REACTORS
330
AF0C
102
}
330
AF0C
100
AcDbProxyObject
 90
      499
 91
      514
 95
   983063
 70
     0
 93
      129
310
906313A313030004000000000000594009
 94
        0
1001
ACAD
1000
AcRTDxfName
1000
SCALE
  0
ACAD_PROXY_OBJECT
  5
AF19
102
{ACAD_REACTORS
330
AF0C
102
}
330
AF0C
100
AcDbProxyObject
 90
      499
 91
      514
 95
   983063
 70
     0
 93
      113
310
904323A31000000000000000010140
 94
        0
1001
ACAD
1000
AcRTDxfName
1000
SCALE
  0
ACAD_PROXY_OBJECT
  5
AF1A
102
{ACAD_REACTORS
330
AF0C
102
}
330
AF0C
100
AcDbProxyObject
 90
      499
 91
      514
 95
   983063
 70
     0
 93
      113
310
904343A31000000000000000410159
 94
        0
1001
ACAD
1000
AcRTDxfName
1000
SCALE
  0
ACAD_PROXY_OBJECT
  5
AF1B
102
{ACAD_REACTORS
330
AF0C
102
}
330
AF0C
100
AcDbProxyObject
 90
      499
 91
      514
 95
   983063
 70
     0
 93
      113
310
904383A31000000000000000810140
 94
        0
1001
ACAD
1000
AcRTDxfName
1000
SCALE
  0
ACAD_PROXY_OBJECT
  5
AF1C
102
{ACAD_REACTORS
330
AF0C
102
}
330
AF0C
100
AcDbProxyObject
 90
      499
 91
      514
 95
   983063
 70
     0
 93
      121
310
90531303A31000000000000000910140
 94
        0
1001
ACAD
1000
AcRTDxfName
1000
SCALE
  0
ACAD_PROXY_OBJECT
  5
AF1D
102
{ACAD_REACTORS
330
AF0C
102
}
330
AF0C
100
AcDbProxyObject
 90
      499
 91
      514
 95
   983063
 70
     0
 93
      129
310
9063130303A31000000000000001650102
 94
        0
1001
ACAD
1000
AcRTDxfName
1000
SCALE
  0
TABLESTYLE
  5
AE5F
102
{ACAD_XDICTIONARY
360
B1F5
102
}
102
{ACAD_REACTORS
330
AE5E
102
}
330
AE5E
100
AcDbTableStyle
  3
Standard
 70
     0
 71
     0
 40
1.5
 41
1.5
280
     0
281
     0
  7
STANDARD
140
4.5
170
     2
 62
     0
 63
     7
283
     0
274
    -2
284
     1
 64
     0
275
    -2
285
     1
 65
     0
276
    -2
286
     1
 66
     0
277
    -2
287
     1
 67
     0
278
    -2
288
     1
 68
     0
279
    -2
289
     1
 69
     0
  7
STANDARD
140
6.0
170
     5
 62
     0
 63
     7
283
     0
274
    -2
284
     1
 64
     0
275
    -2
285
     1
 65
     0
276
    -2
286
     1
 66
     0
277
    -2
287
     1
 67
     0
278
    -2
288
     1
 68
     0
279
    -2
289
     1
 69
     0
  7
STANDARD
140
4.5
170
     5
 62
     0
 63
     7
283
     0
274
    -2
284
     1
 64
     0
275
    -2
285
     1
 65
     0
276
    -2
286
     1
 66
     0
277
    -2
287
     1
 67
     0
278
    -2
288
     1
 68
     0
279
    -2
289
     1
 69
     0
  0
ACAD_PROXY_OBJECT
  5
AEF9
102
{ACAD_XDICTIONARY
360
B25F
102
}
102
{ACAD_REACTORS
330
AEF3
102
}
330
AEF3
100
AcDbProxyObject
 90
      499
 91
      513
 95
   983063
 70
     0
 93
      444
310
430C9915DA5C99599C985B59401049028333333333333E3BF0000000000000FB0107901411070040501600405405064090741402480A0340
 94
        0
1001
ACAD
1000
AcDbSavedByObjectVersion
1070
     0
1000
AcRTDxfName
1000
VISUALSTYLE
  0
ACAD_PROXY_OBJECT
  5
AEF8
102
{ACAD_XDICTIONARY
360
B25D
102
}
102
{ACAD_REACTORS
330
AEF3
102
}
330
AEF3
100
AcDbProxyObject
 90
      499
 91
      513
 95
   983063
 70
     0
 93
      396
310
4190985CDA58C0107406404333333333333E3BF0000000000000FB0107A41107004050150841D405064090741402480A035A
 94
        0
1001
ACAD
1000
AcDbSavedByObjectVersion
1070
     0
1000
AcRTDxfName
1000
VISUALSTYLE
  0
ACAD_PROXY_OBJECT
  5
AEFF
102
{ACAD_XDICTIONARY
360
B26B
102
}
102
{ACAD_REACTORS
330
AEF3
102
}
330
AEF3
100
AcDbProxyObject
 90
      499
 91
      513
 95
   983063
 70
     0
 93
      436
310
42509C9A59DA1D195B8010C409028333333333333E3BF0000000000000FB010790141107004050150841D405064090741402480A029954
 94
        0
1001
ACAD
1000
AcDbSavedByObjectVersion
1070
     0
1000
AcRTDxfName
1000
VISUALSTYLE
  0
ACAD_PROXY_OBJECT
  5
AF03
102
{ACAD_XDICTIONARY
360
B273
102
}
102
{ACAD_REACTORS
330
AEF3
102
}
330
AEF3
100
AcDbProxyObject
 90
      499
 91
      513
 95
   983063
 70
     0
 93
      460
310
4310DBDB1BDC90DA185B99D9401104090240C333333333333E3BF0000000000000FB0108901411070040501508421405064090741402480A0358
 94
        0
1001
ACAD
1000
AcDbSavedByObjectVersion
1070
     0
1000
AcRTDxfName
1000
VISUALSTYLE
  0
ACAD_PROXY_OBJECT
  5
AEFC
102
{ACAD_XDICTIONARY
360
B265
102
}
102
{ACAD_REACTORS
330
AEF3
102
}
330
AEF3
100
AcDbProxyObject
 90
      499
 91
      513
 95
   983063
 70
     0
 93
      508
310
42D0DBDB98D95C1D1D585B0010940D028333333333333E3BF0000000000000FB0107902409070040501000000000018199010841D405064090740C02480A0340
 94
        0
1001
ACAD
1000
AcDbSavedByObjectVersion
1070
     0
1000
AcRTDxfName
1000
VISUALSTYLE
  0
ACAD_PROXY_OBJECT
  5
AEFE
102
{ACAD_XDICTIONARY
360
B269
102
}
102
{ACAD_REACTORS
330
AEF3
102
}
330
AEF3
100
AcDbProxyObject
 90
      499
 91
      513
 95
   983063
 70
     0
 93
      420
310
41111A5B4010B409028333333333333E3BF0000000000000FB010790141107004050150841D405064090741402480A02677FFFFFD4
 94
        0
1001
ACAD
1000
AcDbSavedByObjectVersion
1070
     0
1000
AcRTDxfName
1000
VISUALSTYLE
  0
ACAD_PROXY_OBJECT
  5
AF0B
102
{ACAD_XDICTIONARY
360
B283
102
}
102
{ACAD_REACTORS
330
AEF3
102
}
330
AEF3
100
AcDbProxyObject
 90
      499
 91
      513
 95
   983063
 70
     0
 93
      460
310
43515919D950DBDB1BDC93D99980116409028333333333333E3BF0000000000000FB010790141107004050150841D405064090741402480A0350
 94
        0
1001
ACAD
1000
AcDbSavedByObjectVersion
1070
     0
1000
AcRTDxfName
1000
VISUALSTYLE
  0
ACAD_PROXY_OBJECT
  5
AF02
102
{ACAD_XDICTIONARY
360
B271
102
}
102
{ACAD_REACTORS
330
AEF3
102
}
330
AEF3
100
AcDbProxyObject
 90
      499
 91
      513
 95
   983063
 70
     0
 93
      452
310
43119858D95C185D1D195C9B8010F409028333333333333E3BF0000000000000FB010790141107004050150841D405064090741402480A0350
 94
        0
1001
ACAD
1000
AcDbSavedByObjectVersion
1070
     0
1000
AcRTDxfName
1000
VISUALSTYLE
  0
ACAD_PROXY_OBJECT
  5
AEF4
102
{ACAD_XDICTIONARY
360
B255
102
}
102
{ACAD_REACTORS
330
AEF3
102
}
330
AEF3
100
AcDbProxyObject
 90
      499
 91
      513
 95
   983063
 70
     0
 93
      388
310
41519B185D00240901404333333333333E3BF0000000000000F9010740A907004050150841D405064090741402480A1B50
 94
        0
1001
ACAD
1000
AcDbSavedByObjectVersion
1070
     0
1000
AcRTDxfName
1000
VISUALSTYLE
  0
ACAD_PROXY_OBJECT
  5
AEF5
102
{ACAD_XDICTIONARY
360
B257
102
}
102
{ACAD_REACTORS
330
AEF3
102
}
330
AEF3
100
AcDbProxyObject
 90
      499
 91
      513
 95
   983063
 70
     0
 93
      476
310
43919B185D15DA5D1A115919D95CC010140901404333333333333E3BF0000000000000F90107409019070040501600405405064090741402480A1B50
 94
        0
1001
ACAD
1000
AcDbSavedByObjectVersion
1070
     0
1000
AcRTDxfName
1000
VISUALSTYLE
  0
ACAD_PROXY_OBJECT
  5
AEF6
102
{ACAD_XDICTIONARY
360
B259
102
}
102
{ACAD_REACTORS
330
AEF3
102
}
330
AEF3
100
AcDbProxyObject
 90
      499
 91
      513
 95
   983063
 70
     0
 93
      412
310
4211DBDD5C985D590010240902404333333333333E3BF0000000000000F9010740A9070040501641D405064090741402480A1B50
 94
        0
1001
ACAD
1000
AcDbSavedByObjectVersion
1070
     0
1000
AcRTDxfName
1000
VISUALSTYLE
  0
ACAD_PROXY_OBJECT
  5
AEF7
102
{ACAD_XDICTIONARY
360
B25B
102
}
102
{ACAD_REACTORS
330
AEF3
102
}
330
AEF3
100
AcDbProxyObject
 90
      499
 91
      513
 95
   983063
 70
     0
 93
      500
310
4451DBDD5C985D5915DA5D1A115919D95CC010340902404333333333333E3BF0000000000000F90107409019070040501600405405064090741402480A1B50
 94
        0
1001
ACAD
1000
AcDbSavedByObjectVersion
1070
     0
1000
AcRTDxfName
1000
VISUALSTYLE
  0
ACAD_PROXY_OBJECT
  5
AEFB
102
{ACAD_XDICTIONARY
360
B263
102
}
102
{ACAD_REACTORS
330
AEF3
102
}
330
AEF3
100
AcDbProxyObject
 90
      499
 91
      513
 95
   983063
 70
     0
 93
      484
310
41D21A5919195B8010640502408333333333333E3BF0000000000000FB01079024090700405020000000000001110200405405064090740C02480A034A
 94
        0
1001
ACAD
1000
AcDbSavedByObjectVersion
1070
     0
1000
AcRTDxfName
1000
VISUALSTYLE
  0
ACAD_PROXY_OBJECT
  5
AF09
102
{ACAD_XDICTIONARY
360
B27F
102
}
102
{ACAD_REACTORS
330
AEF3
102
}
330
AEF3
100
AcDbProxyObject
 90
      499
 91
      513
 95
   983063
 70
     0
 93
      436
310
42929A5D1D195C93D99980114409028333333333333E3BF0000000000000FB010790141107004050150A41D405064090741402480A0354
 94
        0
1001
ACAD
1000
AcDbSavedByObjectVersion
1070
     0
1000
AcRTDxfName
1000
VISUALSTYLE
  0
ACAD_PROXY_OBJECT
  5
AF01
102
{ACAD_XDICTIONARY
360
B26F
102
}
102
{ACAD_REACTORS
330
AEF3
102
}
330
AEF3
100
AcDbProxyObject
 90
      499
 91
      513
 95
   983063
 70
     0
 93
      452
310
43131A5B995C185D1D195C9B8010E409028333333333333E3BF0000000000000FB010790141107004050750841D405064090741402483A0352
 94
        0
1001
ACAD
1000
AcDbSavedByObjectVersion
1070
     0
1000
AcRTDxfName
1000
VISUALSTYLE
  0
ACAD_PROXY_OBJECT
  5
AF0A
102
{ACAD_XDICTIONARY
360
B281
102
}
102
{ACAD_REACTORS
330
AEF3
102
}
330
AEF3
100
AcDbProxyObject
 90
      499
 91
      513
 95
   983063
 70
     0
 93
      452
310
4313DD995C9A185B99D3D99980115409028333333333333E3BF0000000000000FB010790141107004050150941D405064090741402480A0354
 94
        0
1001
ACAD
1000
AcDbSavedByObjectVersion
1070
     0
1000
AcRTDxfName
1000
VISUALSTYLE
  0
ACAD_PROXY_OBJECT
  5
AEFD
102
{ACAD_XDICTIONARY
360
B267
102
}
102
{ACAD_REACTORS
330
AEF3
102
}
330
AEF3
100
AcDbProxyObject
 90
      499
 91
      513
 95
   983063
 70
     0
 93
      436
310
429499585B1A5CDD1A58C0108409028333333333333E3BF0000000000000F9010740A907004050150800405405064090740C02480A1B44
 94
        0
1001
ACAD
1000
AcDbSavedByObjectVersion
1070
     0
1000
AcRTDxfName
1000
VISUALSTYLE
  0
ACAD_PROXY_OBJECT
  5
AF08
102
{ACAD_XDICTIONARY
360
B27D
102
}
102
{ACAD_REACTORS
330
AEF3
102
}
330
AEF3
100
AcDbProxyObject
 90
      499
 91
      513
 95
   983063
 70
     0
 93
      428
310
41D4DA185919590011B40902404333333333333E3BF0000000000000F9010740A41107004050150800405405064090840C02480A0B41
 94
        0
1001
ACAD
1000
AcDbSavedByObjectVersion
1070
     0
1000
AcRTDxfName
1000
VISUALSTYLE
  0
ACAD_PROXY_OBJECT
  5
AF07
102
{ACAD_XDICTIONARY
360
B27B
102
}
102
{ACAD_REACTORS
330
AEF3
102
}
330
AEF3
100
AcDbProxyObject
 90
      499
 91
      513
 95
   983063
 70
     0
 93
      524
310
4494DA18591959081DDA5D1A08195919D95CC011A40902404333333333333E3BF0000000000000F901074090142907004050250800405405064090740C02480A0B40
 94
        0
1001
ACAD
1000
AcDbSavedByObjectVersion
1070
     0
1000
AcRTDxfName
1000
VISUALSTYLE
  0
ACAD_PROXY_OBJECT
  5
AF04
102
{ACAD_XDICTIONARY
360
B275
102
}
102
{ACAD_REACTORS
330
AEF3
102
}
330
AEF3
100
AcDbProxyObject
 90
      499
 91
      513
 95
   983063
 70
     0
 93
      540
310
43D4DA1859195CC81BD98811DC985E401174090240C333333333333E3BF0000000000000FB01079024090741D01000000000000111010841D405064090740C02480A0340
 94
        0
1001
ACAD
1000
AcDbSavedByObjectVersion
1070
     0
1000
AcRTDxfName
1000
VISUALSTYLE
  0
ACAD_PROXY_OBJECT
  5
AF05
102
{ACAD_XDICTIONARY
360
B277
102
}
102
{ACAD_REACTORS
330
AEF3
102
}
330
AEF3
100
AcDbProxyObject
 90
      499
 91
      513
 95
   983063
 70
     0
 93
      484
310
4214DAD95D18DA1E4011840502408333333333333E3BF0000000000000FB01079024090741D01000000000000111010B41D405064090741802480A034A
 94
        0
1001
ACAD
1000
AcDbSavedByObjectVersion
1070
     0
1000
AcRTDxfName
1000
VISUALSTYLE
  0
ACAD_PROXY_OBJECT
  5
AF00
102
{ACAD_XDICTIONARY
360
B26D
102
}
102
{ACAD_REACTORS
330
AEF3
102
}
330
AEF3
100
AcDbProxyObject
 90
      499
 91
      513
 95
   983063
 70
     0
 93
      420
310
42151A1A58DAD95B8010D409028333333333333E3BF0000000000000FB010790141107004050150C41D405064090741402480A0354
 94
        0
1001
ACAD
1000
AcDbSavedByObjectVersion
1070
     0
1000
AcRTDxfName
1000
VISUALSTYLE
  0
ACAD_PROXY_OBJECT
  5
AEFA
102
{ACAD_XDICTIONARY
360
B261
102
}
102
{ACAD_REACTORS
330
AEF3
102
}
330
AEF3
100
AcDbProxyObject
 90
      499
 91
      513
 95
   983063
 70
     0
 93
      428
310
4295DA5C99599C985B59401059028333333333333E3BF0000000000000FB0107901411070040501600405405064090740C02480A0340
 94
        0
1001
ACAD
1000
AcDbSavedByObjectVersion
1070
     0
1000
AcRTDxfName
1000
VISUALSTYLE
  0
ACAD_PROXY_OBJECT
  5
AF06
102
{ACAD_XDICTIONARY
360
B279
102
}
102
{ACAD_REACTORS
330
AEF3
102
}
330
AEF3
100
AcDbProxyObject
 90
      499
 91
      513
 95
   983063
 70
     0
 93
      412
310
41960B54985E4011940902404000000000000E03F0000000000000FB010740501907004050150841D405064090740C02480A1B41
 94
        0
1001
ACAD
1000
AcDbSavedByObjectVersion
1070
     0
1000
AcRTDxfName
1000
VISUALSTYLE
  0
DICTIONARYVAR
  5
B2CE
102
{ACAD_REACTORS
330
45D
102
}
330
45D
100
DictionaryVariables
280
     0
  1
1:1
  0
DICTIONARYVAR
  5
B2CD
102
{ACAD_REACTORS
330
45D
102
}
330
45D
100
DictionaryVariables
280
     0
  1
STANDARD
  0
DICTIONARYVAR
  5
AE6A
102
{ACAD_REACTORS
330
45D
102
}
330
45D
100
DictionaryVariables
280
     0
  1
STANDARD
  0
DICTIONARYVAR
  5
B2D1
102
{ACAD_REACTORS
330
45D
102
}
330
45D
100
DictionaryVariables
280
     0
  1
1
  0
DICTIONARYVAR
  5
B2CF
102
{ACAD_REACTORS
330
45D
102
}
330
45D
100
DictionaryVariables
280
     0
  1
0
  0
DICTIONARYVAR
  5
B2DE
102
{ACAD_REACTORS
330
45D
102
}
330
45D
100
DictionaryVariables
280
     0
  1

  0
DICTIONARYVAR
  5
45E
102
{ACAD_REACTORS
330
45D
102
}
330
45D
100
DictionaryVariables
280
     0
  1
127
  0
DICTIONARYVAR
  5
B2D0
102
{ACAD_REACTORS
330
45D
102
}
330
45D
100
DictionaryVariables
280
     0
  1
0
  0
DICTIONARY
  5
AF84
102
{ACAD_REACTORS
330
AF79
102
}
330
AF79
100
AcDbDictionary
281
     1
  0
DICTIONARY
  5
B2E2
330
5CF5
100
AcDbDictionary
280
     1
281
     1
  3
ACAD_XREC_ROUNDTRIP
360
B2E3
  0
DICTIONARY
  5
B2E4
330
5CF6
100
AcDbDictionary
280
     1
281
     1
  3
ACAD_XREC_ROUNDTRIP
360
B2E5
  0
DICTIONARY
  5
AEE4
330
AEE3
100
AcDbDictionary
280
     1
281
     1
  3
ACAD_XREC_ROUNDTRIP
360
B253
  3
BUMPTILE
360
AEE6
  3
DIFFUSETILE
360
AEE5
  3
OPACITYTILE
360
AEE9
  3
REFLECTIONTILE
360
AEE8
  3
REFRACTIONTILE
360
AEEA
  3
SPECULARTILE
360
AEE7
  0
DICTIONARY
  5
AEDC
330
AEDB
100
AcDbDictionary
280
     1
281
     1
  3
ACAD_XREC_ROUNDTRIP
360
B252
  3
BUMPTILE
360
AEDE
  3
DIFFUSETILE
360
AEDD
  3
OPACITYTILE
360
AEE1
  3
REFLECTIONTILE
360
AEE0
  3
REFRACTIONTILE
360
AEE2
  3
SPECULARTILE
360
AEDF
  0
DICTIONARY
  5
AEEC
330
AEEB
100
AcDbDictionary
280
     1
281
     1
  3
ACAD_XREC_ROUNDTRIP
360
B254
  3
BUMPTILE
360
AEEE
  3
DIFFUSETILE
360
AEED
  3
OPACITYTILE
360
AEF1
  3
REFLECTIONTILE
360
AEF0
  3
REFRACTIONTILE
360
AEF2
  3
SPECULARTILE
360
AEEF
  0
DICTIONARY
  5
B1F5
330
AE5F
100
AcDbDictionary
280
     1
281
     1
  3
ACAD_ROUNDTRIP_2008_TABLESTYLE_CELLSTYLEMAP
360
B1F6
  3
ACAD_XREC_ROUNDTRIP
360
B249
  0
DICTIONARY
  5
B25F
330
AEF9
100
AcDbDictionary
280
     1
281
     1
  3
ACAD_XREC_ROUNDTRIP
360
B260
  0
DICTIONARY
  5
B25D
330
AEF8
100
AcDbDictionary
280
     1
281
     1
  3
ACAD_XREC_ROUNDTRIP
360
B25E
  0
DICTIONARY
  5
B26B
330
AEFF
100
AcDbDictionary
280
     1
281
     1
  3
ACAD_XREC_ROUNDTRIP
360
B26C
  0
DICTIONARY
  5
B273
330
AF03
100
AcDbDictionary
280
     1
281
     1
  3
ACAD_XREC_ROUNDTRIP
360
B274
  0
DICTIONARY
  5
B265
330
AEFC
100
AcDbDictionary
280
     1
281
     1
  3
ACAD_XREC_ROUNDTRIP
360
B266
  0
DICTIONARY
  5
B269
330
AEFE
100
AcDbDictionary
280
     1
281
     1
  3
ACAD_XREC_ROUNDTRIP
360
B26A
  0
DICTIONARY
  5
B283
330
AF0B
100
AcDbDictionary
280
     1
281
     1
  3
ACAD_XREC_ROUNDTRIP
360
B284
  0
DICTIONARY
  5
B271
330
AF02
100
AcDbDictionary
280
     1
281
     1
  3
ACAD_XREC_ROUNDTRIP
360
B272
  0
DICTIONARY
  5
B255
330
AEF4
100
AcDbDictionary
280
     1
281
     1
  3
ACAD_XREC_ROUNDTRIP
360
B256
  0
DICTIONARY
  5
B257
330
AEF5
100
AcDbDictionary
280
     1
281
     1
  3
ACAD_XREC_ROUNDTRIP
360
B258
  0
DICTIONARY
  5
B259
330
AEF6
100
AcDbDictionary
280
     1
281
     1
  3
ACAD_XREC_ROUNDTRIP
360
B25A
  0
DICTIONARY
  5
B25B
330
AEF7
100
AcDbDictionary
280
     1
281
     1
  3
ACAD_XREC_ROUNDTRIP
360
B25C
  0
DICTIONARY
  5
B263
330
AEFB
100
AcDbDictionary
280
     1
281
     1
  3
ACAD_XREC_ROUNDTRIP
360
B264
  0
DICTIONARY
  5
B27F
330
AF09
100
AcDbDictionary
280
     1
281
     1
  3
ACAD_XREC_ROUNDTRIP
360
B280
  0
DICTIONARY
  5
B26F
330
AF01
100
AcDbDictionary
280
     1
281
     1
  3
ACAD_XREC_ROUNDTRIP
360
B270
  0
DICTIONARY
  5
B281
330
AF0A
100
AcDbDictionary
280
     1
281
     1
  3
ACAD_XREC_ROUNDTRIP
360
B282
  0
DICTIONARY
  5
B267
330
AEFD
100
AcDbDictionary
280
     1
281
     1
  3
ACAD_XREC_ROUNDTRIP
360
B268
  0
DICTIONARY
  5
B27D
330
AF08
100
AcDbDictionary
280
     1
281
     1
  3
ACAD_XREC_ROUNDTRIP
360
B27E
  0
DICTIONARY
  5
B27B
330
AF07
100
AcDbDictionary
280
     1
281
     1
  3
ACAD_XREC_ROUNDTRIP
360
B27C
  0
DICTIONARY
  5
B275
330
AF04
100
AcDbDictionary
280
     1
281
     1
  3
ACAD_XREC_ROUNDTRIP
360
B276
  0
DICTIONARY
  5
B277
330
AF05
100
AcDbDictionary
280
     1
281
     1
  3
ACAD_XREC_ROUNDTRIP
360
B278
  0
DICTIONARY
  5
B26D
330
AF00
100
AcDbDictionary
280
     1
281
     1
  3
ACAD_XREC_ROUNDTRIP
360
B26E
  0
DICTIONARY
  5
B261
330
AEFA
100
AcDbDictionary
280
     1
281
     1
  3
ACAD_XREC_ROUNDTRIP
360
B262
  0
DICTIONARY
  5
B279
330
AF06
100
AcDbDictionary
280
     1
281
     1
  3
ACAD_XREC_ROUNDTRIP
360
B27A
  0
XRECORD
  5
B2E3
102
{ACAD_REACTORS
330
B2E2
102
}
330
B2E2
100
AcDbXrecord
280
     1
102
SHADEPLOT
 70
     0
102
SHADEPLOTRESLEVEL
 70
     2
102
SHADEPLOTCUSTOMDPI
 70
   300
  0
XRECORD
  5
B2E5
102
{ACAD_REACTORS
330
B2E4
102
}
330
B2E4
100
AcDbXrecord
280
     1
102
SHADEPLOT
 70
     0
102
SHADEPLOTRESLEVEL
 70
     2
102
SHADEPLOTCUSTOMDPI
 70
   300
  0
XRECORD
  5
B253
102
{ACAD_REACTORS
330
AEE4
102
}
330
AEE4
100
AcDbXrecord
280
     1
102
MATERIAL
148
0.0
149
0.0
149
0.0
 93
        0
 94
      127
282
     0
 72
     0
 77
     0
171
     0
175
     0
179
     0
273
     0
  0
XRECORD
  5
AEE6
102
{ACAD_REACTORS
330
AEE4
102
}
330
AEE4
100
AcDbXrecord
280
     1
270
     1
271
     1
  0
XRECORD
  5
AEE5
102
{ACAD_REACTORS
330
AEE4
102
}
330
AEE4
100
AcDbXrecord
280
     1
270
     1
271
     1
  0
XRECORD
  5
AEE9
102
{ACAD_REACTORS
330
AEE4
102
}
330
AEE4
100
AcDbXrecord
280
     1
270
     1
271
     1
  0
XRECORD
  5
AEE8
102
{ACAD_REACTORS
330
AEE4
102
}
330
AEE4
100
AcDbXrecord
280
     1
270
     1
271
     1
  0
XRECORD
  5
AEEA
102
{ACAD_REACTORS
330
AEE4
102
}
330
AEE4
100
AcDbXrecord
280
     1
270
     1
271
     1
  0
XRECORD
  5
AEE7
102
{ACAD_REACTORS
330
AEE4
102
}
330
AEE4
100
AcDbXrecord
280
     1
270
     1
271
     1
  0
XRECORD
  5
B252
102
{ACAD_REACTORS
330
AEDC
102
}
330
AEDC
100
AcDbXrecord
280
     1
102
MATERIAL
148
0.0
149
0.0
149
0.0
 93
        0
 94
      127
282
     0
 72
     0
 77
     0
171
     0
175
     0
179
     0
273
     0
  0
XRECORD
  5
AEDE
102
{ACAD_REACTORS
330
AEDC
102
}
330
AEDC
100
AcDbXrecord
280
     1
270
     1
271
     1
  0
XRECORD
  5
AEDD
102
{ACAD_REACTORS
330
AEDC
102
}
330
AEDC
100
AcDbXrecord
280
     1
270
     1
271
     1
  0
XRECORD
  5
AEE1
102
{ACAD_REACTORS
330
AEDC
102
}
330
AEDC
100
AcDbXrecord
280
     1
270
     1
271
     1
  0
XRECORD
  5
AEE0
102
{ACAD_REACTORS
330
AEDC
102
}
330
AEDC
100
AcDbXrecord
280
     1
270
     1
271
     1
  0
XRECORD
  5
AEE2
102
{ACAD_REACTORS
330
AEDC
102
}
330
AEDC
100
AcDbXrecord
280
     1
270
     1
271
     1
  0
XRECORD
  5
AEDF
102
{ACAD_REACTORS
330
AEDC
102
}
330
AEDC
100
AcDbXrecord
280
     1
270
     1
271
     1
  0
XRECORD
  5
B254
102
{ACAD_REACTORS
330
AEEC
102
}
330
AEEC
100
AcDbXrecord
280
     1
102
MATERIAL
148
0.0
149
0.0
149
0.0
 93
        0
 94
      127
282
     0
 72
     0
 77
     0
171
     0
175
     0
179
     0
273
     0
  0
XRECORD
  5
AEEE
102
{ACAD_REACTORS
330
AEEC
102
}
330
AEEC
100
AcDbXrecord
280
     1
270
     1
271
     1
  0
XRECORD
  5
AEED
102
{ACAD_REACTORS
330
AEEC
102
}
330
AEEC
100
AcDbXrecord
280
     1
270
     1
271
     1
  0
XRECORD
  5
AEF1
102
{ACAD_REACTORS
330
AEEC
102
}
330
AEEC
100
AcDbXrecord
280
     1
270
     1
271
     1
  0
XRECORD
  5
AEF0
102
{ACAD_REACTORS
330
AEEC
102
}
330
AEEC
100
AcDbXrecord
280
     1
270
     1
271
     1
  0
XRECORD
  5
AEF2
102
{ACAD_REACTORS
330
AEEC
102
}
330
AEEC
100
AcDbXrecord
280
     1
270
     1
271
     1
  0
XRECORD
  5
AEEF
102
{ACAD_REACTORS
330
AEEC
102
}
330
AEEC
100
AcDbXrecord
280
     1
270
     1
271
     1
  0
ACAD_PROXY_OBJECT
  5
B1F6
102
{ACAD_REACTORS
330
B1F5
102
}
330
B1F5
100
AcDbProxyObject
 90
      499
 91
      578
 95
   983063
 70
     0
 93
     5232
310
40D054060020000020000003200101A412A5058000000C10000000000000006101010000000000003E0FC000000000000F83F0000000000003E0FC000000000000F83F02B5E8DC0F42B1CFC0AD7A3703D0AC73F419019018000000C1003FBFFFFFE02B5E8DC0F42A9CFD029018000000C1003FBFFFFFE02B5E8DC0F42A9CFD
310
049018000000C1003FBFFFFFE02B5E8DC0F42A9CFD089018000000C1003FBFFFFFE02B5E8DC0F42A9CFD109018000000C1003FBFFFFFE02B5E8DC0F42A9CFD209018000000C1003FBFFFFFE02B5E8DC0F42A9CFD01405075F5449544C450041501A8000000C800406904A94160000003040000000000000012404040000000
310
00000F83F0000000000003E0FC000000000000F83F0000000000003E0FC0AD7A3703D0AC73F02B5E8DC0F42B1CFD0640640600000030400FEFFFFFF80AD7A3703D0AA73F40A40600000030400FEFFFFFF80AD7A3703D0AA73F41240600000030400FEFFFFFF80AD7A3703D0AA73F42240600000030400FEFFFFFF80AD7A370
310
3D0AA73F44240600000030400FEFFFFFF80AD7A3703D0AA73F48240600000030400FEFFFFFF80AD7A3703D0AA73F409014217D2115051115480105406A0000003200101A412A5028000000C10000000000000004901010000000000003E0FC000000000000F83F0000000000003E0FC000000000000F83F02B5E8DC0F42B1C
310
FC0AD7A3703D0AC73F419019018000000C1003FBFFFFFE02B5E8DC0F42A9CFD029018000000C1003FBFFFFFE02B5E8DC0F42A9CFD049018000000C1003FBFFFFFE02B5E8DC0F42A9CFD089018000000C1003FBFFFFFE02B5E8DC0F42A9CFD109018000000C1003FBFFFFFE02B5E8DC0F42A9CFD209018000000C1003FBFFFF
310
FE02B5E8DC0F42A9CFD03409065F444154410000
340
F
340
0
340
0
340
0
340
0
340
0
340
0
340
F
340
0
340
0
340
0
340
0
340
0
340
0
340
F
340
0
340
0
340
0
340
0
340
0
340
0
 94
        0
1001
ACAD
1000
AcRTDxfName
1000
CELLSTYLEMAP
  0
XRECORD
  5
B249
102
{ACAD_REACTORS
330
B1F5
102
}
330
B1F5
100
AcDbXrecord
280
     1
102
ACAD_ROUNDTRIP_PRE2007_TABLESTYLE
 90
        4
 91
        0
  1

 92
        4
 93
        0
  2

 94
        4
 95
        0
  3

  0
XRECORD
  5
B260
102
{ACAD_REACTORS
330
B25F
102
}
330
B25F
100
AcDbXrecord
280
     1
102
RTVSPropertyOp0
 70
     1
102
RTVSPropertyOp1
 70
     1
102
RTVSPropertyOp2
 70
     1
102
RTVSPropertyOp3
 70
     1
102
RTVSPropertyOp4
 70
     1
102
RTVSPropertyOp5
 70
     1
102
RTVSPropertyOp6
 70
     1
102
RTVSPropertyOp7
 70
     1
102
RTVSPropertyOp8
 70
     1
102
RTVSPropertyOp9
 70
     1
102
RTVSPropertyOp10
 70
     1
102
RTVSPropertyOp11
 70
     1
102
RTVSPropertyOp12
 70
     1
102
RTVSPropertyOp13
 70
     1
102
RTVSPropertyOp14
 70
     1
102
RTVSPropertyOp15
 70
     1
102
RTVSPropertyOp16
 70
     1
102
RTVSPropertyOp17
 70
     1
102
RTVSPropertyOp18
 70
     1
102
RTVSPropertyOp19
 70
     1
102
RTVSPropertyOp20
 70
     1
102
RTVSPropertyOp21
 70
     1
102
RTVSPropertyOp22
 70
     1
102
RTVSPropertyOp23
 70
     1
102
RTVSPropertyOp24
 70
     1
102
RTVSPropertyOp25
 70
     1
102
RTVSPropertyOp26
 70
     1
102
RTVSPropertyOp27
 70
     1
102
RTVSPropertyOp28
 70
     1
102
RTVSPropertyOp29
 70
     1
102
RTVSPropertyOp30
 70
     1
102
RTVSPropertyOp31
 70
     1
102
RTVSPropertyOp32
 70
     1
  0
XRECORD
  5
B25E
102
{ACAD_REACTORS
330
B25D
102
}
330
B25D
100
AcDbXrecord
280
     1
102
RTVSPropertyOp0
 70
     1
102
RTVSPropertyOp1
 70
     1
102
RTVSPropertyOp2
 70
     1
102
RTVSPropertyOp3
 70
     1
102
RTVSPropertyOp4
 70
     1
102
RTVSPropertyOp5
 70
     1
102
RTVSPropertyOp6
 70
     1
102
RTVSPropertyOp7
 70
     1
102
RTVSPropertyOp8
 70
     1
102
RTVSPropertyOp9
 70
     1
102
RTVSPropertyOp10
 70
     1
102
RTVSPropertyOp11
 70
     1
102
RTVSPropertyOp12
 70
     1
102
RTVSPropertyOp13
 70
     1
102
RTVSPropertyOp14
 70
     1
102
RTVSPropertyOp15
 70
     1
102
RTVSPropertyOp16
 70
     1
102
RTVSPropertyOp17
 70
     1
102
RTVSPropertyOp18
 70
     1
102
RTVSPropertyOp19
 70
     1
102
RTVSPropertyOp20
 70
     1
102
RTVSPropertyOp21
 70
     1
102
RTVSPropertyOp22
 70
     1
102
RTVSPropertyOp23
 70
     1
102
RTVSPropertyOp24
 70
     1
102
RTVSPropertyOp25
 70
     1
102
RTVSPropertyOp26
 70
     1
102
RTVSPropertyOp27
 70
     1
102
RTVSPropertyOp28
 70
     1
102
RTVSPropertyOp29
 70
     1
102
RTVSPropertyOp30
 70
     1
102
RTVSPropertyOp31
 70
     1
102
RTVSPropertyOp32
 70
     1
  0
XRECORD
  5
B26C
102
{ACAD_REACTORS
330
B26B
102
}
330
B26B
100
AcDbXrecord
280
     1
102
RTVSPropertyOp0
 70
     1
102
RTVSPropertyOp1
 70
     1
102
RTVSPropertyOp2
 70
     1
102
RTVSPropertyOp3
 70
     1
102
RTVSPropertyOp4
 70
     1
102
RTVSPropertyOp5
 70
     1
102
RTVSPropertyOp6
 70
     1
102
RTVSPropertyOp7
 70
     1
102
RTVSPropertyOp8
 70
     1
102
RTVSPropertyOp9
 70
     1
102
RTVSPropertyOp10
 70
     1
102
RTVSPropertyOp11
 70
     1
102
RTVSPropertyOp12
 70
     1
102
RTVSPropertyOp13
 70
     1
102
RTVSPropertyOp14
 70
     1
102
RTVSPropertyOp15
 70
     1
102
RTVSPropertyOp16
 70
     1
102
RTVSPropertyOp17
 70
     1
102
RTVSPropertyOp18
 70
     1
102
RTVSPropertyOp19
 70
     1
102
RTVSPropertyOp20
 70
     1
102
RTVSPropertyOp21
 70
     1
102
RTVSPropertyOp22
 70
     1
102
RTVSPropertyOp23
 70
     1
102
RTVSPropertyOp24
 70
     1
102
RTVSPropertyOp25
 70
     1
102
RTVSPropertyOp26
 70
     1
102
RTVSPropertyOp27
 70
     1
102
RTVSPropertyOp28
 70
     1
102
RTVSPropertyOp29
 70
     1
102
RTVSPropertyOp30
 70
     1
102
RTVSPropertyOp31
 70
     1
102
RTVSPropertyOp32
 70
     1
  0
XRECORD
  5
B274
102
{ACAD_REACTORS
330
B273
102
}
330
B273
100
AcDbXrecord
280
     1
102
RTVSPropertyOp0
 70
     1
102
RTVSPropertyOp1
 70
     1
102
RTVSPropertyOp2
 70
     1
102
RTVSPropertyOp3
 70
     1
102
RTVSPropertyOp4
 70
     1
102
RTVSPropertyOp5
 70
     1
102
RTVSPropertyOp6
 70
     1
102
RTVSPropertyOp7
 70
     1
102
RTVSPropertyOp8
 70
     1
102
RTVSPropertyOp9
 70
     1
102
RTVSPropertyOp10
 70
     1
102
RTVSPropertyOp11
 70
     1
102
RTVSPropertyOp12
 70
     1
102
RTVSPropertyOp13
 70
     1
102
RTVSPropertyOp14
 70
     1
102
RTVSPropertyOp15
 70
     1
102
RTVSPropertyOp16
 70
     1
102
RTVSPropertyOp17
 70
     1
102
RTVSPropertyOp18
 70
     1
102
RTVSPropertyOp19
 70
     1
102
RTVSPropertyOp20
 70
     1
102
RTVSPropertyOp21
 70
     1
102
RTVSPropertyOp22
 70
     1
102
RTVSPropertyOp23
 70
     1
102
RTVSPropertyOp24
 70
     1
102
RTVSPropertyOp25
 70
     1
102
RTVSPropertyOp26
 70
     1
102
RTVSPropertyOp27
 70
     1
102
RTVSPropertyOp28
 70
     1
102
RTVSPropertyOp29
 70
     1
102
RTVSPropertyOp30
 70
     1
102
RTVSPropertyOp31
 70
     1
102
RTVSPropertyOp32
 70
     1
  0
XRECORD
  5
B266
102
{ACAD_REACTORS
330
B265
102
}
330
B265
100
AcDbXrecord
280
     1
102
RTVSPropertyOp0
 70
     1
102
RTVSPropertyOp1
 70
     1
102
RTVSPropertyOp2
 70
     1
102
RTVSPropertyOp3
 70
     1
102
RTVSPropertyOp4
 70
     1
102
RTVSPropertyOp5
 70
     1
102
RTVSPropertyOp6
 70
     1
102
RTVSPropertyOp7
 70
     1
102
RTVSPropertyOp8
 70
     1
102
RTVSPropertyOp9
 70
     1
102
RTVSPropertyOp10
 70
     1
102
RTVSPropertyOp11
 70
     1
102
RTVSPropertyOp12
 70
     1
102
RTVSPropertyOp13
 70
     1
102
RTVSPropertyOp14
 70
     1
102
RTVSPropertyOp15
 70
     1
102
RTVSPropertyOp16
 70
     1
102
RTVSPropertyOp17
 70
     1
102
RTVSPropertyOp18
 70
     1
102
RTVSPropertyOp19
 70
     1
102
RTVSPropertyOp20
 70
     1
102
RTVSPropertyOp21
 70
     1
102
RTVSPropertyOp22
 70
     1
102
RTVSPropertyOp23
 70
     1
102
RTVSPropertyOp24
 70
     1
102
RTVSPropertyOp25
 70
     1
102
RTVSPropertyOp26
 70
     1
102
RTVSPropertyOp27
 70
     1
102
RTVSPropertyOp28
 70
     1
102
RTVSPropertyOp29
 70
     1
102
RTVSPropertyOp30
 70
     1
102
RTVSPropertyOp31
 70
     1
102
RTVSPropertyOp32
 70
     1
  0
XRECORD
  5
B26A
102
{ACAD_REACTORS
330
B269
102
}
330
B269
100
AcDbXrecord
280
     1
102
RTVSPropertyOp0
 70
     1
102
RTVSPropertyOp1
 70
     1
102
RTVSPropertyOp2
 70
     1
102
RTVSPropertyOp3
 70
     1
102
RTVSPropertyOp4
 70
     1
102
RTVSPropertyOp5
 70
     1
102
RTVSPropertyOp6
 70
     1
102
RTVSPropertyOp7
 70
     1
102
RTVSPropertyOp8
 70
     1
102
RTVSPropertyOp9
 70
     1
102
RTVSPropertyOp10
 70
     1
102
RTVSPropertyOp11
 70
     1
102
RTVSPropertyOp12
 70
     1
102
RTVSPropertyOp13
 70
     1
102
RTVSPropertyOp14
 70
     1
102
RTVSPropertyOp15
 70
     1
102
RTVSPropertyOp16
 70
     1
102
RTVSPropertyOp17
 70
     1
102
RTVSPropertyOp18
 70
     1
102
RTVSPropertyOp19
 70
     1
102
RTVSPropertyOp20
 70
     1
102
RTVSPropertyOp21
 70
     1
102
RTVSPropertyOp22
 70
     1
102
RTVSPropertyOp23
 70
     1
102
RTVSPropertyOp24
 70
     1
102
RTVSPropertyOp25
 70
     1
102
RTVSPropertyOp26
 70
     1
102
RTVSPropertyOp27
 70
     1
102
RTVSPropertyOp28
 70
     1
102
RTVSPropertyOp29
 70
     1
102
RTVSPropertyOp30
 70
     1
102
RTVSPropertyOp31
 70
     1
102
RTVSPropertyOp32
 70
     1
  0
XRECORD
  5
B284
102
{ACAD_REACTORS
330
B283
102
}
330
B283
100
AcDbXrecord
280
     1
102
RTVSPropertyOp0
 70
     0
102
RTVSPropertyOp1
 70
     0
102
RTVSPropertyOp2
 70
     0
102
RTVSPropertyOp3
 70
     0
102
RTVSPropertyOp4
 70
     0
102
RTVSPropertyOp5
 70
     0
102
RTVSPropertyOp6
 70
     0
102
RTVSPropertyOp7
 70
     0
102
RTVSPropertyOp8
 70
     0
102
RTVSPropertyOp9
 70
     0
102
RTVSPropertyOp10
 70
     0
102
RTVSPropertyOp11
 70
     0
102
RTVSPropertyOp12
 70
     0
102
RTVSPropertyOp13
 70
     0
102
RTVSPropertyOp14
 70
     2
102
RTVSPropertyOp15
 70
     0
102
RTVSPropertyOp16
 70
     0
102
RTVSPropertyOp17
 70
     0
102
RTVSPropertyOp18
 70
     0
102
RTVSPropertyOp19
 70
     0
102
RTVSPropertyOp20
 70
     0
102
RTVSPropertyOp21
 70
     0
102
RTVSPropertyOp22
 70
     0
102
RTVSPropertyOp23
 70
     0
102
RTVSPropertyOp24
 70
     0
102
RTVSPropertyOp25
 70
     0
102
RTVSPropertyOp26
 70
     0
102
RTVSPropertyOp27
 70
     0
102
RTVSPropertyOp28
 70
     0
102
RTVSPropertyOp29
 70
     0
102
RTVSPropertyOp30
 70
     0
102
RTVSPropertyOp31
 70
     0
102
RTVSPropertyOp32
 70
     0
  0
XRECORD
  5
B272
102
{ACAD_REACTORS
330
B271
102
}
330
B271
100
AcDbXrecord
280
     1
102
RTVSPropertyOp0
 70
     1
102
RTVSPropertyOp1
 70
     1
102
RTVSPropertyOp2
 70
     1
102
RTVSPropertyOp3
 70
     1
102
RTVSPropertyOp4
 70
     1
102
RTVSPropertyOp5
 70
     1
102
RTVSPropertyOp6
 70
     1
102
RTVSPropertyOp7
 70
     1
102
RTVSPropertyOp8
 70
     1
102
RTVSPropertyOp9
 70
     1
102
RTVSPropertyOp10
 70
     1
102
RTVSPropertyOp11
 70
     1
102
RTVSPropertyOp12
 70
     1
102
RTVSPropertyOp13
 70
     1
102
RTVSPropertyOp14
 70
     1
102
RTVSPropertyOp15
 70
     1
102
RTVSPropertyOp16
 70
     1
102
RTVSPropertyOp17
 70
     1
102
RTVSPropertyOp18
 70
     1
102
RTVSPropertyOp19
 70
     1
102
RTVSPropertyOp20
 70
     1
102
RTVSPropertyOp21
 70
     1
102
RTVSPropertyOp22
 70
     1
102
RTVSPropertyOp23
 70
     1
102
RTVSPropertyOp24
 70
     1
102
RTVSPropertyOp25
 70
     1
102
RTVSPropertyOp26
 70
     1
102
RTVSPropertyOp27
 70
     1
102
RTVSPropertyOp28
 70
     1
102
RTVSPropertyOp29
 70
     1
102
RTVSPropertyOp30
 70
     1
102
RTVSPropertyOp31
 70
     1
102
RTVSPropertyOp32
 70
     1
  0
XRECORD
  5
B256
102
{ACAD_REACTORS
330
B255
102
}
330
B255
100
AcDbXrecord
280
     1
102
RTVSPropertyOp0
 70
     1
102
RTVSPropertyOp1
 70
     1
102
RTVSPropertyOp2
 70
     1
102
RTVSPropertyOp3
 70
     1
102
RTVSPropertyOp4
 70
     1
102
RTVSPropertyOp5
 70
     1
102
RTVSPropertyOp6
 70
     1
102
RTVSPropertyOp7
 70
     1
102
RTVSPropertyOp8
 70
     1
102
RTVSPropertyOp9
 70
     1
102
RTVSPropertyOp10
 70
     1
102
RTVSPropertyOp11
 70
     1
102
RTVSPropertyOp12
 70
     1
102
RTVSPropertyOp13
 70
     1
102
RTVSPropertyOp14
 70
     1
102
RTVSPropertyOp15
 70
     1
102
RTVSPropertyOp16
 70
     1
102
RTVSPropertyOp17
 70
     1
102
RTVSPropertyOp18
 70
     1
102
RTVSPropertyOp19
 70
     1
102
RTVSPropertyOp20
 70
     1
102
RTVSPropertyOp21
 70
     1
102
RTVSPropertyOp22
 70
     1
102
RTVSPropertyOp23
 70
     1
102
RTVSPropertyOp24
 70
     1
102
RTVSPropertyOp25
 70
     1
102
RTVSPropertyOp26
 70
     1
102
RTVSPropertyOp27
 70
     1
102
RTVSPropertyOp28
 70
     1
102
RTVSPropertyOp29
 70
     1
102
RTVSPropertyOp30
 70
     1
102
RTVSPropertyOp31
 70
     1
102
RTVSPropertyOp32
 70
     1
  0
XRECORD
  5
B258
102
{ACAD_REACTORS
330
B257
102
}
330
B257
100
AcDbXrecord
280
     1
102
RTVSPropertyOp0
 70
     1
102
RTVSPropertyOp1
 70
     1
102
RTVSPropertyOp2
 70
     1
102
RTVSPropertyOp3
 70
     1
102
RTVSPropertyOp4
 70
     1
102
RTVSPropertyOp5
 70
     1
102
RTVSPropertyOp6
 70
     1
102
RTVSPropertyOp7
 70
     1
102
RTVSPropertyOp8
 70
     1
102
RTVSPropertyOp9
 70
     1
102
RTVSPropertyOp10
 70
     1
102
RTVSPropertyOp11
 70
     1
102
RTVSPropertyOp12
 70
     1
102
RTVSPropertyOp13
 70
     1
102
RTVSPropertyOp14
 70
     1
102
RTVSPropertyOp15
 70
     1
102
RTVSPropertyOp16
 70
     1
102
RTVSPropertyOp17
 70
     1
102
RTVSPropertyOp18
 70
     1
102
RTVSPropertyOp19
 70
     1
102
RTVSPropertyOp20
 70
     1
102
RTVSPropertyOp21
 70
     1
102
RTVSPropertyOp22
 70
     1
102
RTVSPropertyOp23
 70
     1
102
RTVSPropertyOp24
 70
     1
102
RTVSPropertyOp25
 70
     1
102
RTVSPropertyOp26
 70
     1
102
RTVSPropertyOp27
 70
     1
102
RTVSPropertyOp28
 70
     1
102
RTVSPropertyOp29
 70
     1
102
RTVSPropertyOp30
 70
     1
102
RTVSPropertyOp31
 70
     1
102
RTVSPropertyOp32
 70
     1
  0
XRECORD
  5
B25A
102
{ACAD_REACTORS
330
B259
102
}
330
B259
100
AcDbXrecord
280
     1
102
RTVSPropertyOp0
 70
     1
102
RTVSPropertyOp1
 70
     1
102
RTVSPropertyOp2
 70
     1
102
RTVSPropertyOp3
 70
     1
102
RTVSPropertyOp4
 70
     1
102
RTVSPropertyOp5
 70
     1
102
RTVSPropertyOp6
 70
     1
102
RTVSPropertyOp7
 70
     1
102
RTVSPropertyOp8
 70
     1
102
RTVSPropertyOp9
 70
     1
102
RTVSPropertyOp10
 70
     1
102
RTVSPropertyOp11
 70
     1
102
RTVSPropertyOp12
 70
     1
102
RTVSPropertyOp13
 70
     1
102
RTVSPropertyOp14
 70
     1
102
RTVSPropertyOp15
 70
     1
102
RTVSPropertyOp16
 70
     1
102
RTVSPropertyOp17
 70
     1
102
RTVSPropertyOp18
 70
     1
102
RTVSPropertyOp19
 70
     1
102
RTVSPropertyOp20
 70
     1
102
RTVSPropertyOp21
 70
     1
102
RTVSPropertyOp22
 70
     1
102
RTVSPropertyOp23
 70
     1
102
RTVSPropertyOp24
 70
     1
102
RTVSPropertyOp25
 70
     1
102
RTVSPropertyOp26
 70
     1
102
RTVSPropertyOp27
 70
     1
102
RTVSPropertyOp28
 70
     1
102
RTVSPropertyOp29
 70
     1
102
RTVSPropertyOp30
 70
     1
102
RTVSPropertyOp31
 70
     1
102
RTVSPropertyOp32
 70
     1
  0
XRECORD
  5
B25C
102
{ACAD_REACTORS
330
B25B
102
}
330
B25B
100
AcDbXrecord
280
     1
102
RTVSPropertyOp0
 70
     1
102
RTVSPropertyOp1
 70
     1
102
RTVSPropertyOp2
 70
     1
102
RTVSPropertyOp3
 70
     1
102
RTVSPropertyOp4
 70
     1
102
RTVSPropertyOp5
 70
     1
102
RTVSPropertyOp6
 70
     1
102
RTVSPropertyOp7
 70
     1
102
RTVSPropertyOp8
 70
     1
102
RTVSPropertyOp9
 70
     1
102
RTVSPropertyOp10
 70
     1
102
RTVSPropertyOp11
 70
     1
102
RTVSPropertyOp12
 70
     1
102
RTVSPropertyOp13
 70
     1
102
RTVSPropertyOp14
 70
     1
102
RTVSPropertyOp15
 70
     1
102
RTVSPropertyOp16
 70
     1
102
RTVSPropertyOp17
 70
     1
102
RTVSPropertyOp18
 70
     1
102
RTVSPropertyOp19
 70
     1
102
RTVSPropertyOp20
 70
     1
102
RTVSPropertyOp21
 70
     1
102
RTVSPropertyOp22
 70
     1
102
RTVSPropertyOp23
 70
     1
102
RTVSPropertyOp24
 70
     1
102
RTVSPropertyOp25
 70
     1
102
RTVSPropertyOp26
 70
     1
102
RTVSPropertyOp27
 70
     1
102
RTVSPropertyOp28
 70
     1
102
RTVSPropertyOp29
 70
     1
102
RTVSPropertyOp30
 70
     1
102
RTVSPropertyOp31
 70
     1
102
RTVSPropertyOp32
 70
     1
  0
XRECORD
  5
B264
102
{ACAD_REACTORS
330
B263
102
}
330
B263
100
AcDbXrecord
280
     1
102
RTVSPropertyOp0
 70
     1
102
RTVSPropertyOp1
 70
     1
102
RTVSPropertyOp2
 70
     1
102
RTVSPropertyOp3
 70
     1
102
RTVSPropertyOp4
 70
     1
102
RTVSPropertyOp5
 70
     1
102
RTVSPropertyOp6
 70
     1
102
RTVSPropertyOp7
 70
     1
102
RTVSPropertyOp8
 70
     1
102
RTVSPropertyOp9
 70
     1
102
RTVSPropertyOp10
 70
     1
102
RTVSPropertyOp11
 70
     1
102
RTVSPropertyOp12
 70
     1
102
RTVSPropertyOp13
 70
     1
102
RTVSPropertyOp14
 70
     1
102
RTVSPropertyOp15
 70
     1
102
RTVSPropertyOp16
 70
     1
102
RTVSPropertyOp17
 70
     1
102
RTVSPropertyOp18
 70
     1
102
RTVSPropertyOp19
 70
     1
102
RTVSPropertyOp20
 70
     1
102
RTVSPropertyOp21
 70
     1
102
RTVSPropertyOp22
 70
     1
102
RTVSPropertyOp23
 70
     1
102
RTVSPropertyOp24
 70
     1
102
RTVSPropertyOp25
 70
     1
102
RTVSPropertyOp26
 70
     1
102
RTVSPropertyOp27
 70
     1
102
RTVSPropertyOp28
 70
     1
102
RTVSPropertyOp29
 70
     1
102
RTVSPropertyOp30
 70
     1
102
RTVSPropertyOp31
 70
     1
102
RTVSPropertyOp32
 70
     1
  0
XRECORD
  5
B280
102
{ACAD_REACTORS
330
B27F
102
}
330
B27F
100
AcDbXrecord
280
     1
102
RTVSPropertyOp0
 70
     0
102
RTVSPropertyOp1
 70
     0
102
RTVSPropertyOp2
 70
     0
102
RTVSPropertyOp3
 70
     0
102
RTVSPropertyOp4
 70
     0
102
RTVSPropertyOp5
 70
     0
102
RTVSPropertyOp6
 70
     0
102
RTVSPropertyOp7
 70
     0
102
RTVSPropertyOp8
 70
     0
102
RTVSPropertyOp9
 70
     0
102
RTVSPropertyOp10
 70
     0
102
RTVSPropertyOp11
 70
     0
102
RTVSPropertyOp12
 70
     0
102
RTVSPropertyOp13
 70
     0
102
RTVSPropertyOp14
 70
     2
102
RTVSPropertyOp15
 70
     0
102
RTVSPropertyOp16
 70
     0
102
RTVSPropertyOp17
 70
     0
102
RTVSPropertyOp18
 70
     0
102
RTVSPropertyOp19
 70
     0
102
RTVSPropertyOp20
 70
     0
102
RTVSPropertyOp21
 70
     0
102
RTVSPropertyOp22
 70
     0
102
RTVSPropertyOp23
 70
     0
102
RTVSPropertyOp24
 70
     0
102
RTVSPropertyOp25
 70
     0
102
RTVSPropertyOp26
 70
     0
102
RTVSPropertyOp27
 70
     0
102
RTVSPropertyOp28
 70
     0
102
RTVSPropertyOp29
 70
     0
102
RTVSPropertyOp30
 70
     0
102
RTVSPropertyOp31
 70
     0
102
RTVSPropertyOp32
 70
     0
  0
XRECORD
  5
B270
102
{ACAD_REACTORS
330
B26F
102
}
330
B26F
100
AcDbXrecord
280
     1
102
RTVSPropertyOp0
 70
     1
102
RTVSPropertyOp1
 70
     1
102
RTVSPropertyOp2
 70
     1
102
RTVSPropertyOp3
 70
     1
102
RTVSPropertyOp4
 70
     1
102
RTVSPropertyOp5
 70
     1
102
RTVSPropertyOp6
 70
     1
102
RTVSPropertyOp7
 70
     1
102
RTVSPropertyOp8
 70
     1
102
RTVSPropertyOp9
 70
     1
102
RTVSPropertyOp10
 70
     1
102
RTVSPropertyOp11
 70
     1
102
RTVSPropertyOp12
 70
     1
102
RTVSPropertyOp13
 70
     1
102
RTVSPropertyOp14
 70
     1
102
RTVSPropertyOp15
 70
     1
102
RTVSPropertyOp16
 70
     1
102
RTVSPropertyOp17
 70
     1
102
RTVSPropertyOp18
 70
     1
102
RTVSPropertyOp19
 70
     1
102
RTVSPropertyOp20
 70
     1
102
RTVSPropertyOp21
 70
     1
102
RTVSPropertyOp22
 70
     1
102
RTVSPropertyOp23
 70
     1
102
RTVSPropertyOp24
 70
     1
102
RTVSPropertyOp25
 70
     1
102
RTVSPropertyOp26
 70
     1
102
RTVSPropertyOp27
 70
     1
102
RTVSPropertyOp28
 70
     1
102
RTVSPropertyOp29
 70
     1
102
RTVSPropertyOp30
 70
     1
102
RTVSPropertyOp31
 70
     1
102
RTVSPropertyOp32
 70
     1
  0
XRECORD
  5
B282
102
{ACAD_REACTORS
330
B281
102
}
330
B281
100
AcDbXrecord
280
     1
102
RTVSPropertyOp0
 70
     0
102
RTVSPropertyOp1
 70
     0
102
RTVSPropertyOp2
 70
     0
102
RTVSPropertyOp3
 70
     0
102
RTVSPropertyOp4
 70
     0
102
RTVSPropertyOp5
 70
     0
102
RTVSPropertyOp6
 70
     0
102
RTVSPropertyOp7
 70
     0
102
RTVSPropertyOp8
 70
     0
102
RTVSPropertyOp9
 70
     0
102
RTVSPropertyOp10
 70
     0
102
RTVSPropertyOp11
 70
     0
102
RTVSPropertyOp12
 70
     0
102
RTVSPropertyOp13
 70
     0
102
RTVSPropertyOp14
 70
     2
102
RTVSPropertyOp15
 70
     0
102
RTVSPropertyOp16
 70
     0
102
RTVSPropertyOp17
 70
     0
102
RTVSPropertyOp18
 70
     0
102
RTVSPropertyOp19
 70
     0
102
RTVSPropertyOp20
 70
     0
102
RTVSPropertyOp21
 70
     0
102
RTVSPropertyOp22
 70
     0
102
RTVSPropertyOp23
 70
     0
102
RTVSPropertyOp24
 70
     0
102
RTVSPropertyOp25
 70
     0
102
RTVSPropertyOp26
 70
     0
102
RTVSPropertyOp27
 70
     0
102
RTVSPropertyOp28
 70
     0
102
RTVSPropertyOp29
 70
     0
102
RTVSPropertyOp30
 70
     0
102
RTVSPropertyOp31
 70
     0
102
RTVSPropertyOp32
 70
     0
  0
XRECORD
  5
B268
102
{ACAD_REACTORS
330
B267
102
}
330
B267
100
AcDbXrecord
280
     1
102
RTVSPropertyOp0
 70
     1
102
RTVSPropertyOp1
 70
     1
102
RTVSPropertyOp2
 70
     1
102
RTVSPropertyOp3
 70
     1
102
RTVSPropertyOp4
 70
     1
102
RTVSPropertyOp5
 70
     1
102
RTVSPropertyOp6
 70
     1
102
RTVSPropertyOp7
 70
     1
102
RTVSPropertyOp8
 70
     1
102
RTVSPropertyOp9
 70
     1
102
RTVSPropertyOp10
 70
     1
102
RTVSPropertyOp11
 70
     1
102
RTVSPropertyOp12
 70
     1
102
RTVSPropertyOp13
 70
     1
102
RTVSPropertyOp14
 70
     1
102
RTVSPropertyOp15
 70
     1
102
RTVSPropertyOp16
 70
     1
102
RTVSPropertyOp17
 70
     1
102
RTVSPropertyOp18
 70
     1
102
RTVSPropertyOp19
 70
     1
102
RTVSPropertyOp20
 70
     1
102
RTVSPropertyOp21
 70
     1
102
RTVSPropertyOp22
 70
     1
102
RTVSPropertyOp23
 70
     1
102
RTVSPropertyOp24
 70
     1
102
RTVSPropertyOp25
 70
     1
102
RTVSPropertyOp26
 70
     1
102
RTVSPropertyOp27
 70
     1
102
RTVSPropertyOp28
 70
     1
102
RTVSPropertyOp29
 70
     1
102
RTVSPropertyOp30
 70
     1
102
RTVSPropertyOp31
 70
     1
102
RTVSPropertyOp32
 70
     1
  0
XRECORD
  5
B27E
102
{ACAD_REACTORS
330
B27D
102
}
330
B27D
100
AcDbXrecord
280
     1
102
RTVSPropertyOp0
 70
     1
102
RTVSPropertyOp1
 70
     1
102
RTVSPropertyOp2
 70
     1
102
RTVSPropertyOp3
 70
     1
102
RTVSPropertyOp4
 70
     1
102
RTVSPropertyOp5
 70
     1
102
RTVSPropertyOp6
 70
     1
102
RTVSPropertyOp7
 70
     1
102
RTVSPropertyOp8
 70
     1
102
RTVSPropertyOp9
 70
     1
102
RTVSPropertyOp10
 70
     1
102
RTVSPropertyOp11
 70
     1
102
RTVSPropertyOp12
 70
     1
102
RTVSPropertyOp13
 70
     1
102
RTVSPropertyOp14
 70
     1
102
RTVSPropertyOp15
 70
     1
102
RTVSPropertyOp16
 70
     1
102
RTVSPropertyOp17
 70
     1
102
RTVSPropertyOp18
 70
     1
102
RTVSPropertyOp19
 70
     1
102
RTVSPropertyOp20
 70
     1
102
RTVSPropertyOp21
 70
     1
102
RTVSPropertyOp22
 70
     1
102
RTVSPropertyOp23
 70
     1
102
RTVSPropertyOp24
 70
     1
102
RTVSPropertyOp25
 70
     1
102
RTVSPropertyOp26
 70
     1
102
RTVSPropertyOp27
 70
     1
102
RTVSPropertyOp28
 70
     1
102
RTVSPropertyOp29
 70
     1
102
RTVSPropertyOp30
 70
     1
102
RTVSPropertyOp31
 70
     1
102
RTVSPropertyOp32
 70
     1
  0
XRECORD
  5
B27C
102
{ACAD_REACTORS
330
B27B
102
}
330
B27B
100
AcDbXrecord
280
     1
102
RTVSPropertyOp0
 70
     1
102
RTVSPropertyOp1
 70
     1
102
RTVSPropertyOp2
 70
     1
102
RTVSPropertyOp3
 70
     1
102
RTVSPropertyOp4
 70
     1
102
RTVSPropertyOp5
 70
     1
102
RTVSPropertyOp6
 70
     1
102
RTVSPropertyOp7
 70
     1
102
RTVSPropertyOp8
 70
     1
102
RTVSPropertyOp9
 70
     1
102
RTVSPropertyOp10
 70
     1
102
RTVSPropertyOp11
 70
     1
102
RTVSPropertyOp12
 70
     1
102
RTVSPropertyOp13
 70
     1
102
RTVSPropertyOp14
 70
     1
102
RTVSPropertyOp15
 70
     1
102
RTVSPropertyOp16
 70
     1
102
RTVSPropertyOp17
 70
     1
102
RTVSPropertyOp18
 70
     1
102
RTVSPropertyOp19
 70
     1
102
RTVSPropertyOp20
 70
     1
102
RTVSPropertyOp21
 70
     1
102
RTVSPropertyOp22
 70
     1
102
RTVSPropertyOp23
 70
     1
102
RTVSPropertyOp24
 70
     1
102
RTVSPropertyOp25
 70
     1
102
RTVSPropertyOp26
 70
     1
102
RTVSPropertyOp27
 70
     1
102
RTVSPropertyOp28
 70
     1
102
RTVSPropertyOp29
 70
     1
102
RTVSPropertyOp30
 70
     1
102
RTVSPropertyOp31
 70
     1
102
RTVSPropertyOp32
 70
     1
  0
XRECORD
  5
B276
102
{ACAD_REACTORS
330
B275
102
}
330
B275
100
AcDbXrecord
280
     1
102
RTVSPropertyOp0
 70
     1
102
RTVSPropertyOp1
 70
     1
102
RTVSPropertyOp2
 70
     1
102
RTVSPropertyOp3
 70
     1
102
RTVSPropertyOp4
 70
     1
102
RTVSPropertyOp5
 70
     1
102
RTVSPropertyOp6
 70
     1
102
RTVSPropertyOp7
 70
     1
102
RTVSPropertyOp8
 70
     1
102
RTVSPropertyOp9
 70
     1
102
RTVSPropertyOp10
 70
     1
102
RTVSPropertyOp11
 70
     1
102
RTVSPropertyOp12
 70
     1
102
RTVSPropertyOp13
 70
     1
102
RTVSPropertyOp14
 70
     1
102
RTVSPropertyOp15
 70
     1
102
RTVSPropertyOp16
 70
     1
102
RTVSPropertyOp17
 70
     1
102
RTVSPropertyOp18
 70
     1
102
RTVSPropertyOp19
 70
     1
102
RTVSPropertyOp20
 70
     1
102
RTVSPropertyOp21
 70
     1
102
RTVSPropertyOp22
 70
     1
102
RTVSPropertyOp23
 70
     1
102
RTVSPropertyOp24
 70
     1
102
RTVSPropertyOp25
 70
     1
102
RTVSPropertyOp26
 70
     1
102
RTVSPropertyOp27
 70
     1
102
RTVSPropertyOp28
 70
     1
102
RTVSPropertyOp29
 70
     1
102
RTVSPropertyOp30
 70
     1
102
RTVSPropertyOp31
 70
     1
102
RTVSPropertyOp32
 70
     1
  0
XRECORD
  5
B278
102
{ACAD_REACTORS
330
B277
102
}
330
B277
100
AcDbXrecord
280
     1
102
RTVSPropertyOp0
 70
     1
102
RTVSPropertyOp1
 70
     1
102
RTVSPropertyOp2
 70
     1
102
RTVSPropertyOp3
 70
     1
102
RTVSPropertyOp4
 70
     1
102
RTVSPropertyOp5
 70
     1
102
RTVSPropertyOp6
 70
     1
102
RTVSPropertyOp7
 70
     1
102
RTVSPropertyOp8
 70
     1
102
RTVSPropertyOp9
 70
     1
102
RTVSPropertyOp10
 70
     1
102
RTVSPropertyOp11
 70
     1
102
RTVSPropertyOp12
 70
     1
102
RTVSPropertyOp13
 70
     1
102
RTVSPropertyOp14
 70
     1
102
RTVSPropertyOp15
 70
     1
102
RTVSPropertyOp16
 70
     1
102
RTVSPropertyOp17
 70
     1
102
RTVSPropertyOp18
 70
     1
102
RTVSPropertyOp19
 70
     1
102
RTVSPropertyOp20
 70
     1
102
RTVSPropertyOp21
 70
     1
102
RTVSPropertyOp22
 70
     1
102
RTVSPropertyOp23
 70
     1
102
RTVSPropertyOp24
 70
     1
102
RTVSPropertyOp25
 70
     1
102
RTVSPropertyOp26
 70
     1
102
RTVSPropertyOp27
 70
     1
102
RTVSPropertyOp28
 70
     1
102
RTVSPropertyOp29
 70
     1
102
RTVSPropertyOp30
 70
     1
102
RTVSPropertyOp31
 70
     1
102
RTVSPropertyOp32
 70
     1
  0
XRECORD
  5
B26E
102
{ACAD_REACTORS
330
B26D
102
}
330
B26D
100
AcDbXrecord
280
     1
102
RTVSPropertyOp0
 70
     1
102
RTVSPropertyOp1
 70
     1
102
RTVSPropertyOp2
 70
     1
102
RTVSPropertyOp3
 70
     1
102
RTVSPropertyOp4
 70
     1
102
RTVSPropertyOp5
 70
     1
102
RTVSPropertyOp6
 70
     1
102
RTVSPropertyOp7
 70
     1
102
RTVSPropertyOp8
 70
     1
102
RTVSPropertyOp9
 70
     1
102
RTVSPropertyOp10
 70
     1
102
RTVSPropertyOp11
 70
     1
102
RTVSPropertyOp12
 70
     1
102
RTVSPropertyOp13
 70
     1
102
RTVSPropertyOp14
 70
     1
102
RTVSPropertyOp15
 70
     1
102
RTVSPropertyOp16
 70
     1
102
RTVSPropertyOp17
 70
     1
102
RTVSPropertyOp18
 70
     1
102
RTVSPropertyOp19
 70
     1
102
RTVSPropertyOp20
 70
     1
102
RTVSPropertyOp21
 70
     1
102
RTVSPropertyOp22
 70
     1
102
RTVSPropertyOp23
 70
     1
102
RTVSPropertyOp24
 70
     1
102
RTVSPropertyOp25
 70
     1
102
RTVSPropertyOp26
 70
     1
102
RTVSPropertyOp27
 70
     1
102
RTVSPropertyOp28
 70
     1
102
RTVSPropertyOp29
 70
     1
102
RTVSPropertyOp30
 70
     1
102
RTVSPropertyOp31
 70
     1
102
RTVSPropertyOp32
 70
     1
  0
XRECORD
  5
B262
102
{ACAD_REACTORS
330
B261
102
}
330
B261
100
AcDbXrecord
280
     1
102
RTVSPropertyOp0
 70
     1
102
RTVSPropertyOp1
 70
     1
102
RTVSPropertyOp2
 70
     1
102
RTVSPropertyOp3
 70
     1
102
RTVSPropertyOp4
 70
     1
102
RTVSPropertyOp5
 70
     1
102
RTVSPropertyOp6
 70
     1
102
RTVSPropertyOp7
 70
     1
102
RTVSPropertyOp8
 70
     1
102
RTVSPropertyOp9
 70
     1
102
RTVSPropertyOp10
 70
     1
102
RTVSPropertyOp11
 70
     1
102
RTVSPropertyOp12
 70
     1
102
RTVSPropertyOp13
 70
     1
102
RTVSPropertyOp14
 70
     1
102
RTVSPropertyOp15
 70
     1
102
RTVSPropertyOp16
 70
     1
102
RTVSPropertyOp17
 70
     1
102
RTVSPropertyOp18
 70
     1
102
RTVSPropertyOp19
 70
     1
102
RTVSPropertyOp20
 70
     1
102
RTVSPropertyOp21
 70
     1
102
RTVSPropertyOp22
 70
     1
102
RTVSPropertyOp23
 70
     1
102
RTVSPropertyOp24
 70
     1
102
RTVSPropertyOp25
 70
     1
102
RTVSPropertyOp26
 70
     1
102
RTVSPropertyOp27
 70
     1
102
RTVSPropertyOp28
 70
     1
102
RTVSPropertyOp29
 70
     1
102
RTVSPropertyOp30
 70
     1
102
RTVSPropertyOp31
 70
     1
102
RTVSPropertyOp32
 70
     1
  0
XRECORD
  5
B27A
102
{ACAD_REACTORS
330
B279
102
}
330
B279
100
AcDbXrecord
280
     1
102
RTVSPropertyOp0
 70
     1
102
RTVSPropertyOp1
 70
     1
102
RTVSPropertyOp2
 70
     1
102
RTVSPropertyOp3
 70
     1
102
RTVSPropertyOp4
 70
     1
102
RTVSPropertyOp5
 70
     1
102
RTVSPropertyOp6
 70
     1
102
RTVSPropertyOp7
 70
     1
102
RTVSPropertyOp8
 70
     1
102
RTVSPropertyOp9
 70
     1
102
RTVSPropertyOp10
 70
     1
102
RTVSPropertyOp11
 70
     1
102
RTVSPropertyOp12
 70
     1
102
RTVSPropertyOp13
 70
     1
102
RTVSPropertyOp14
 70
     1
102
RTVSPropertyOp15
 70
     1
102
RTVSPropertyOp16
 70
     1
102
RTVSPropertyOp17
 70
     1
102
RTVSPropertyOp18
 70
     1
102
RTVSPropertyOp19
 70
     1
102
RTVSPropertyOp20
 70
     1
102
RTVSPropertyOp21
 70
     1
102
RTVSPropertyOp22
 70
     1
102
RTVSPropertyOp23
 70
     1
102
RTVSPropertyOp24
 70
     1
102
RTVSPropertyOp25
 70
     1
102
RTVSPropertyOp26
 70
     1
102
RTVSPropertyOp27
 70
     1
102
RTVSPropertyOp28
 70
     1
102
RTVSPropertyOp29
 70
     1
102
RTVSPropertyOp30
 70
     1
102
RTVSPropertyOp31
 70
     1
102
RTVSPropertyOp32
 70
     1
  0
ENDSEC
  0
EOF
