  0
SECTION
  2
HEADER
  9
$ACADVER
  1
AC1015
  9
$ACADMAINTVER
 70
    20
  9
$DWGCODEPAGE
  3
ANSI_932
  9
$INSBASE
 10
0.0
 20
0.0
 30
0.0
  9
$EXTMIN
 10
-0.0000000000002274
 20
-0.0000000000000568
 30
0.0
  9
$EXTMAX
 10
395.9999999999995
 20
290.0
 30
4.0
  9
$LIMMIN
 10
0.0
 20
0.0
  9
$LIMMAX
 10
420.0
 20
297.0
  9
$ORTHOMODE
 70
     1
  9
$REGENMODE
 70
     1
  9
$FILLMODE
 70
     1
  9
$QTEXTMODE
 70
     0
  9
$MIRRTEXT
 70
     1
  9
$LTSCALE
 40
1.0
  9
$ATTMODE
 70
     1
  9
$TEXTSIZE
 40
2.5
  9
$TRACEWID
 40
1.0
  9
$TEXTSTYLE
  7
TXT
  9
$CLAYER
  8
DIM
  9
$CELTYPE
  6
BYLAYER
  9
$CECOLOR
 62
   256
  9
$CELTSCALE
 40
1.0
  9
$DISPSILH
 70
     0
  9
$DIMSCALE
 40
1.0
  9
$DIMASZ
 40
2.5
  9
$DIMEXO
 40
1.0
  9
$DIMDLI
 40
6.0
  9
$DIMRND
 40
0.0
  9
$DIMDLE
 40
0.0
  9
$DIMEXE
 40
1.0
  9
$DIMTP
 40
0.0
  9
$DIMTM
 40
0.0
  9
$DIMTXT
 40
3.0
  9
$DIMCEN
 40
0.0
  9
$DIMTSZ
 40
0.0
  9
$DIMTOL
 70
     0
  9
$DIMLIM
 70
     0
  9
$DIMTIH
 70
     0
  9
$DIMTOH
 70
     0
  9
$DIMSE1
 70
     0
  9
$DIMSE2
 70
     0
  9
$DIMTAD
 70
     3
  9
$DIMZIN
 70
     8
  9
$DIMBLK
  1

  9
$DIMASO
 70
     1
  9
$DIMSHO
 70
     1
  9
$DIMPOST
  1

  9
$DIMAPOST
  1

  9
$DIMALT
 70
     0
  9
$DIMALTD
 70
     2
  9
$DIMALTF
 40
25.4
  9
$DIMLFAC
 40
1.0
  9
$DIMTOFL
 70
     0
  9
$DIMTVP
 40
0.0
  9
$DIMTIX
 70
     0
  9
$DIMSOXD
 70
     0
  9
$DIMSAH
 70
     0
  9
$DIMBLK1
  1

  9
$DIMBLK2
  1

  9
$DIMSTYLE
  2
A
  9
$DIMCLRD
 70
     6
  9
$DIMCLRE
 70
     6
  9
$DIMCLRT
 70
     3
  9
$DIMTFAC
 40
1.0
  9
$DIMGAP
 40
1.0
  9
$DIMJUST
 70
     0
  9
$DIMSD1
 70
     0
  9
$DIMSD2
 70
     0
  9
$DIMTOLJ
 70
     1
  9
$DIMTZIN
 70
     0
  9
$DIMALTZ
 70
     0
  9
$DIMALTTZ
 70
     0
  9
$DIMUPT
 70
     0
  9
$DIMDEC
 70
     1
  9
$DIMTDEC
 70
     1
  9
$DIMALTU
 70
     2
  9
$DIMALTTD
 70
     2
  9
$DIMTXSTY
  7
TXT
  9
$DIMAUNIT
 70
     0
  9
$DIMADEC
 70
     0
  9
$DIMALTRND
 40
0.0
  9
$DIMAZIN
 70
     0
  9
$DIMDSEP
 70
    46
  9
$DIMATFIT
 70
     3
  9
$DIMFRAC
 70
     0
  9
$DIMLDRBLK
  1

  9
$DIMLUNIT
 70
     2
  9
$DIMLWD
 70
    -2
  9
$DIMLWE
 70
    -2
  9
$DIMTMOVE
 70
     1
  9
$LUNITS
 70
     2
  9
$LUPREC
 70
     2
  9
$SKETCHINC
 40
1.0
  9
$FILLETRAD
 40
1.5
  9
$AUNITS
 70
     0
  9
$AUPREC
 70
     2
  9
$MENU
  1
.
  9
$ELEVATION
 40
0.0
  9
$PELEVATION
 40
0.0
  9
$THICKNESS
 40
0.0
  9
$LIMCHECK
 70
     0
  9
$CHAMFERA
 40
0.0
  9
$CHAMFERB
 40
0.0
  9
$CHAMFERC
 40
1.75
  9
$CHAMFERD
 40
0.0174532925199433
  9
$SKPOLY
 70
     0
  9
$TDCREATE
 40
2451555.620234838
  9
$TDUCREATE
 40
2451555.245234838
  9
$TDUPDATE
 40
2457828.683792674
  9
$TDUUPDATE
 40
2457828.308792674
  9
$TDINDWG
 40
2.5623490162
  9
$TDUSRTIMER
 40
2.5623490162
  9
$USRTIMER
 70
     1
  9
$ANGBASE
 50
0.0
  9
$ANGDIR
 70
     0
  9
$PDMODE
 70
     0
  9
$PDSIZE
 40
0.0
  9
$PLINEWID
 40
0.0
  9
$SPLFRAME
 70
     0
  9
$SPLINETYPE
 70
     6
  9
$SPLINESEGS
 70
     8
  9
$HANDSEED
  5
9C5F
  9
$SURFTAB1
 70
     6
  9
$SURFTAB2
 70
     6
  9
$SURFTYPE
 70
     6
  9
$SURFU
 70
     6
  9
$SURFV
 70
     6
  9
$UCSBASE
  2

  9
$UCSNAME
  2

  9
$UCSORG
 10
0.0
 20
0.0
 30
0.0
  9
$UCSXDIR
 10
1.0
 20
0.0
 30
0.0
  9
$UCSYDIR
 10
0.0
 20
1.0
 30
0.0
  9
$UCSORTHOREF
  2

  9
$UCSORTHOVIEW
 70
     0
  9
$UCSORGTOP
 10
0.0
 20
0.0
 30
0.0
  9
$UCSORGBOTTOM
 10
0.0
 20
0.0
 30
0.0
  9
$UCSORGLEFT
 10
0.0
 20
0.0
 30
0.0
  9
$UCSORGRIGHT
 10
0.0
 20
0.0
 30
0.0
  9
$UCSORGFRONT
 10
0.0
 20
0.0
 30
0.0
  9
$UCSORGBACK
 10
0.0
 20
0.0
 30
0.0
  9
$PUCSBASE
  2

  9
$PUCSNAME
  2

  9
$PUCSORG
 10
0.0
 20
0.0
 30
0.0
  9
$PUCSXDIR
 10
1.0
 20
0.0
 30
0.0
  9
$PUCSYDIR
 10
0.0
 20
1.0
 30
0.0
  9
$PUCSORTHOREF
  2

  9
$PUCSORTHOVIEW
 70
     0
  9
$PUCSORGTOP
 10
0.0
 20
0.0
 30
0.0
  9
$PUCSORGBOTTOM
 10
0.0
 20
0.0
 30
0.0
  9
$PUCSORGLEFT
 10
0.0
 20
0.0
 30
0.0
  9
$PUCSORGRIGHT
 10
0.0
 20
0.0
 30
0.0
  9
$PUCSORGFRONT
 10
0.0
 20
0.0
 30
0.0
  9
$PUCSORGBACK
 10
0.0
 20
0.0
 30
0.0
  9
$USERI1
 70
     0
  9
$USERI2
 70
     0
  9
$USERI3
 70
     0
  9
$USERI4
 70
     0
  9
$USERI5
 70
     0
  9
$USERR1
 40
0.0
  9
$USERR2
 40
0.0
  9
$USERR3
 40
0.0
  9
$USERR4
 40
0.0
  9
$USERR5
 40
0.0
  9
$WORLDVIEW
 70
     1
  9
$SHADEDGE
 70
     3
  9
$SHADEDIF
 70
    70
  9
$TILEMODE
 70
     1
  9
$MAXACTVP
 70
    48
  9
$PINSBASE
 10
0.0
 20
0.0
 30
0.0
  9
$PLIMCHECK
 70
     0
  9
$PEXTMIN
 10
1.000000000000000E+20
 20
1.000000000000000E+20
 30
1.000000000000000E+20
  9
$PEXTMAX
 10
-1.000000000000000E+20
 20
-1.000000000000000E+20
 30
-1.000000000000000E+20
  9
$PLIMMIN
 10
0.0
 20
0.0
  9
$PLIMMAX
 10
420.0
 20
297.0
  9
$UNITMODE
 70
     0
  9
$VISRETAIN
 70
     1
  9
$PLINEGEN
 70
     0
  9
$PSLTSCALE
 70
     1
  9
$TREEDEPTH
 70
  3020
  9
$CMLSTYLE
  2
STANDARD
  9
$CMLJUST
 70
     0
  9
$CMLSCALE
 40
20.0
  9
$PROXYGRAPHICS
 70
     1
  9
$MEASUREMENT
 70
     1
  9
$CELWEIGHT
370
    -1
  9
$ENDCAPS
280
     0
  9
$JOINSTYLE
280
     0
  9
$LWDISPLAY
290
     0
  9
$INSUNITS
 70
     0
  9
$HYPERLINKBASE
  1

  9
$STYLESHEET
  1
LIN.ctb
  9
$XEDIT
290
     1
  9
$CEPSNTYPE
380
     0
  9
$PSTYLEMODE
290
     1
  9
$FINGERPRINTGUID
  2
{1CF51E8A-A506-11D4-A7D9-AF69F5C20846}
  9
$VERSIONGUID
  2
{7282605B-0162-4A34-A299-AF88AFD3DBF3}
  9
$EXTNAMES
290
     1
  9
$PSVPSCALE
 40
0.0
  9
$OLESTARTUP
290
     0
  0
ENDSEC
  0
SECTION
  2
CLASSES
  0
CLASS
  1
DICTIONARYVAR
  2
AcDbDictionaryVar
  3
ObjectDBX Classes
 90
        0
280
     0
281
     0
  0
CLASS
  1
SORTENTSTABLE
  2
AcDbSortentsTable
  3
ObjectDBX Classes
 90
        0
280
     0
281
     0
  0
CLASS
  1
HATCH
  2
AcDbHatch
  3
ObjectDBX Classes
 90
        0
280
     0
281
     1
  0
CLASS
  1
LWPOLYLINE
  2
AcDbPolyline
  3
ObjectDBX Classes
 90
        0
280
     0
281
     1
  0
CLASS
  1
ACDBDICTIONARYWDFLT
  2
AcDbDictionaryWithDefault
  3
ObjectDBX Classes
 90
        0
280
     0
281
     0
  0
CLASS
  1
ACDBPLACEHOLDER
  2
AcDbPlaceHolder
  3
ObjectDBX Classes
 90
        0
280
     0
281
     0
  0
CLASS
  1
LAYOUT
  2
AcDbLayout
  3
ObjectDBX Classes
 90
        0
280
     0
281
     0
  0
CLASS
  1
LONG_TRANSACTION
  2
AcDbLongTransaction
  3
ObjectDBX Classes
 90
    32768
280
     0
281
     0
  0
CLASS
  1
LWPOLYLINE
  2
AcDbPolyline
  3
ObjectDBX Classes
 90
        0
280
     0
281
     1
  0
CLASS
  1
HATCH
  2
AcDbHatch
  3
ObjectDBX Classes
 90
        0
280
     0
281
     1
  0
CLASS
  1
XRECORD
  2
AcDbXrecord
  3
ObjectDBX Classes
 90
        0
280
     0
281
     0
  0
CLASS
  1
TABLESTYLE
  2
AcDbTableStyle
  3
ObjectDBX Classes
 90
     2047
280
     0
281
     0
  0
CLASS
  1
MATERIAL
  2
AcDbMaterial
  3
ObjectDBX Classes
 90
        0
280
     0
281
     0
  0
CLASS
  1
VISUALSTYLE
  2
AcDbVisualStyle
  3
ObjectDBX Classes
 90
     4095
280
     0
281
     0
  0
CLASS
  1
SCALE
  2
AcDbScale
  3
ObjectDBX Classes
 90
     1153
280
     0
281
     0
  0
CLASS
  1
MLEADERSTYLE
  2
AcDbMLeaderStyle
  3
ACDB_MLEADERSTYLE_CLASS
 90
     4095
280
     0
281
     0
  0
CLASS
  1
ACME_DOCUMENT
  2
AcMeDbDoc
  3
AcMeServices
 90
    33792
280
     0
281
     0
  0
CLASS
  1
AMGSETTINGSOBJ
  2
AmgSettingsObj
  3
"AcadM|Product Description: AutoCAD Mechanical|Company: Autodesk, Inc."
 90
    33792
280
     0
281
     0
  0
CLASS
  1
ACMESCOPE
  2
AcMeScope
  3
AcMeServices
 90
    33792
280
     0
281
     0
  0
CLASS
  1
ACMECOMMANDHISTORY
  2
AcMeCommandHistory
  3
AcMeServices
 90
    33792
280
     0
281
     0
  0
CLASS
  1
ACIMSYSVARMAN
  2
AcImSysVarManager
  3
AcMeServices
 90
    33792
280
     0
281
     0
  0
CLASS
  1
ACIMINTSYSVAR
  2
AcImIntSysVar
  3
AcMeServices
 90
    33792
280
     0
281
     0
  0
CLASS
  1
ACMESTATEMGR
  2
AcMeStateMgr
  3
AcMeServices
 90
    33792
280
     0
281
     0
  0
CLASS
  1
ACDBENTITYCACHE
  2
AcMeEntityCache
  3
AcMeServices
 90
    33792
280
     0
281
     0
  0
CLASS
  1
ACGREFMASTER
  2
AcGrefMaster
  3
AcAttribServices
 90
    33792
280
     0
281
     0
  0
CLASS
  1
AM_DRAWING_MGR
  2
AcDmDwgMgr
  3
AcMechDwgViewMgmt
 90
    33792
280
     0
281
     0
  0
CLASS
  1
AM_DWG_DOCUMENT
  2
AcDmDwgDocument
  3
AcMechDwgViewMgmt
 90
    33792
280
     0
281
     0
  0
CLASS
  1
AM_DWG_SHEET
  2
AcDmSheet
  3
AcMechDwgViewMgmt
 90
    33792
280
     0
281
     0
  0
CLASS
  1
AM_VIEWDIMPARMAP
  2
AcDmViewDimParMap
  3
AcMechDwgViewMgmt
 90
    33792
280
     0
281
     0
  0
CLASS
  1
AMDTINTERNALREACTOR
  2
AmdtInternalReactor
  3
AcMeServices
 90
    33792
280
     0
281
     0
  0
CLASS
  1
ACIMREALSYSVAR
  2
AcImRealSysVar
  3
AcMeServices
 90
    33792
280
     0
281
     0
  0
CLASS
  1
AM_DWGMGR_NAME
  2
AcDmDwgMgrName
  3
AcMechDwgViewMgmt
 90
    33792
280
     0
281
     0
  0
CLASS
  1
ACME_DATABASE
  2
AcMeDbDatabase
  3
AcMeServices
 90
    33792
280
     0
281
     0
  0
CLASS
  1
ACRFINSADJUSTERMGR
  2
AcRfInsAdjusterMgr
  3
AcMeServices
 90
    33792
280
     0
281
     0
  0
CLASS
  1
ACGREFACADMASTER
  2
AcGrefacadMaster
  3
AcGrefServices
 90
    33792
280
     0
281
     0
  0
CLASS
  1
AMDTMENUSTATEMGR
  2
AmdtMenuStateMgr
  3
McadcomServices
 90
    33792
280
     0
281
     0
  0
CLASS
  1
AMDTMCOMMENUSTATE
  2
AmdtMcomMenuState
  3
McadcomServices
 90
    33792
280
     0
281
     0
  0
CLASS
  1
AMIMASTER
  2
AmiMaster
  3
AmiServices
 90
    33792
280
     0
281
     0
  0
CLASS
  1
MAPIAMMOUDLE
  2
MApiAmModule
  3
MApiAmServices
 90
    33792
280
     0
281
     0
  0
CLASS
  1
ACIMSTRSYSVAR
  2
AcImStrSysVar
  3
AcMeServices
 90
    33792
280
     0
281
     0
  0
CLASS
  1
AMDTDMMENUSTATE
  2
AmdtDmMenuState
  3
AcMechDwgViewMgmt
 90
    33792
280
     0
281
     0
  0
CLASS
  1
AMDTAMMENUSTATE
  2
AmdtAmMenuState
  3
DesignerAssemblies
 90
    33792
280
     0
281
     0
  0
CLASS
  1
ACAMPROJECT
  2
AcAmProject
  3
DesignerAssemblies
 90
    33792
280
     0
281
     0
  0
CLASS
  1
ACAMGRCOMPDEF
  2
AcAmGrCompDef
  3
DesignerAssemblies
 90
    33792
280
     0
281
     0
  0
CLASS
  1
ACAMCOMPDEF
  2
AcAmCompDef
  3
DesignerAssemblies
 90
    33792
280
     0
281
     0
  0
CLASS
  1
ACAMCOMPDEFMGR
  2
AcAmCompDefMgr
  3
DesignerAssemblies
 90
    33792
280
     0
281
     0
  0
CLASS
  1
AMCONTEXTMGR
  2
AcAmContextMgr
  3
DesignerAssemblies
 90
    33792
280
     0
281
     0
  0
CLASS
  1
ACAMCONTEXTMODELER
  2
AcAmContextModeler
  3
DesignerAssemblies
 90
    33792
280
     0
281
     0
  0
CLASS
  1
ACMDATADICTIONARY
  2
AcmDataDictionary
  3
"AcmSymBB|Product Description: AutoCAD Mechanical|Company: Autodesk, Inc."
 90
    33792
280
     0
281
     0
  0
CLASS
  1
ACAMGRCOMPDEFSET
  2
AcAmGrCompDefSet
  3
DesignerAssemblies
 90
    33792
280
     0
281
     0
  0
CLASS
  1
AMDTBROWSERDBTAB
  2
AmdtBrowserDbTab
  3
McadcomServices
 90
    33792
280
     0
281
     0
  0
CLASS
  1
CBROWSERAPPOBJECT
  2
CBrowserAppObject
  3
McadcomServices
 90
    33792
280
     0
281
     0
  0
CLASS
  1
DM_PLACEHOLDER
  2
AcDmSelsetPlaceholder
  3
AcMechDwgViewMgmt
 90
    33792
280
     0
281
     0
  0
CLASS
  1
EXACXREFPANELOBJECT
  2
ExAcXREFPanelObject
  3
EXAC_ESW
 90
    33793
280
     0
281
     0
  0
CLASS
  1
NPOCOLLECTION
  2
AcDbImpNonPersistentObjectsCollection
  3
ObjectDBX Classes
 90
    33921
280
     0
281
     0
  0
CLASS
  1
ACMSTANDARDISO
  2
AcmStandardISO
  3
"Amdt_StdImp|Product Description: AutoCAD Mechanical|Company: Autodesk, Inc."
 90
    33792
280
     0
281
     0
  0
CLASS
  1
AMDTEDGESTANDARDISO13715
  2
AmdtEdgeStdISO13715
  3
"Amdt_StdImp|Product Description: AutoCAD Mechanical|Company: Autodesk, Inc."
 90
    33792
280
     0
281
     0
  0
CLASS
  1
ACMSURFSTANDARDISO2002
  2
AcmSurfTextStdISO2002
  3
"Amdt_StdImp|Product Description: AutoCAD Mechanical|Company: Autodesk, Inc."
 90
    33792
280
     0
281
     0
  0
CLASS
  1
ACMFCFSTANDARDISO
  2
AcmFCFStdISO
  3
"Amdt_StdImp|Product Description: AutoCAD Mechanical|Company: Autodesk, Inc."
 90
    33792
280
     0
281
     0
  0
CLASS
  1
ACMWELDSTANDARDISO
  2
AcmWeldingStdISO
  3
"Amdt_StdImp|Product Description: AutoCAD Mechanical|Company: Autodesk, Inc."
 90
    33792
280
     0
281
     0
  0
CLASS
  1
ACMIDSTANDARDISO
  2
AcmIdStdISO
  3
"Amdt_StdImp|Product Description: AutoCAD Mechanical|Company: Autodesk, Inc."
 90
    33792
280
     0
281
     0
  0
CLASS
  1
ACMDATUMSTANDARDISO
  2
AcmDatumStdISO
  3
"Amdt_StdImp|Product Description: AutoCAD Mechanical|Company: Autodesk, Inc."
 90
    33792
280
     0
281
     0
  0
CLASS
  1
ACMBOMSTANDARDISO
  2
AcmBOMStdISO
  3
"Amdt_StdImp|Product Description: AutoCAD Mechanical|Company: Autodesk, Inc."
 90
    33792
280
     0
281
     0
  0
CLASS
  1
ACMDETAILSTANDARDISO
  2
AmdtDetailSymStdISO
  3
"Amdt_StdImp|Product Description: AutoCAD Mechanical|Company: Autodesk, Inc."
 90
    33792
280
     0
281
     0
  0
CLASS
  1
ACMSECTIONSTANDARDISO2001
  2
AmdtSectionSymStdISO2001
  3
"Amdt_StdImp|Product Description: AutoCAD Mechanical|Company: Autodesk, Inc."
 90
    33792
280
     0
281
     0
  0
CLASS
  1
ACMCENTERLINESTANDARDISO
  2
AmdtCenterLineStdISO
  3
"Amdt_StdImp|Product Description: AutoCAD Mechanical|Company: Autodesk, Inc."
 90
    33792
280
     0
281
     0
  0
CLASS
  1
ACMTHREADLINESTANDARDISO
  2
AmdtThreadLineStdISO
  3
"Amdt_StdImp|Product Description: AutoCAD Mechanical|Company: Autodesk, Inc."
 90
    33792
280
     0
281
     0
  0
CLASS
  1
ACMNOTESTANDARDISO
  2
AmdtNoteStdISO
  3
"Amdt_StdImp|Product Description: AutoCAD Mechanical|Company: Autodesk, Inc."
 90
    33792
280
     0
281
     0
  0
CLASS
  1
ACMTAPERSTANDARDISO
  2
AcmTaperStdISO
  3
"Amdt_StdImp|Product Description: AutoCAD Mechanical|Company: Autodesk, Inc."
 90
    33792
280
     0
281
     0
  0
CLASS
  1
ACMANOOTATIONVIEWSTANDARDISO
  2
AmdtAnViewStdISO
  3
"Amdt_StdImp|Product Description: AutoCAD Mechanical|Company: Autodesk, Inc."
 90
    33792
280
     0
281
     0
  0
CLASS
  1
ACAMGLAYSTD
  2
AcAmgLayStd
  3
"AmgLay|Product Description: AutoCAD Mechanical|Company: Autodesk, Inc."
 90
    33792
280
     0
281
     0
  0
CLASS
  1
ACAMGDIMSTD
  2
AcAmgDimStd
  3
"AmgDim|Product Description: AutoCAD Mechanical|Company: Autodesk, Inc."
 90
    33792
280
     0
281
     0
  0
CLASS
  1
AMGOBJPROPCFG
  2
AmgObjPropCfg
  3
"AmgLay|Product Description: AutoCAD Mechanical|Company: Autodesk, Inc."
 90
    33793
280
     0
281
     0
  0
CLASS
  1
ACAMGHOLECHARTSTDISO
  2
AcAmgHoleChartStdISO
  3
AmgDim|Product Description: AutoCAD Mechanical|Company: Autodesk, Inc.
 90
    33792
280
     0
281
     0
  0
CLASS
  1
ACAMGTITLESTD
  2
AcAmgTitleStd
  3
"AmgTitle|Product Description: AutoCAD Mechanical|Company: Autodesk, Inc."
 90
    36863
280
     0
281
     0
  0
CLASS
  1
AMDTNOTETEMPLATEDB
  2
AmdtNoteTemplateDB
  3
AcmSymBB|Product Description: AutoCAD Mechanical|Company: Autodesk, Inc.
 90
    33792
280
     0
281
     0
  0
CLASS
  1
ACAMGFILTERDAT
  2
AcAmgFilterDat
  3
"AcadM|Product Description: AutoCAD Mechanical|Company: Autodesk, Inc."
 90
    33792
280
     0
281
     0
  0
CLASS
  1
CELLSTYLEMAP
  2
AcDbCellStyleMap
  3
ObjectDBX Classes
 90
     1152
280
     0
281
     0
  0
ENDSEC
  0
SECTION
  2
TABLES
  0
TABLE
  2
VPORT
  5
8
102
{ACAD_XDICTIONARY
360
9A2D
102
}
330
0
100
AcDbSymbolTable
 70
     2
  0
VPORT
  5
9C58
330
8
100
AcDbSymbolTableRecord
100
AcDbViewportTableRecord
  2
*Active
 70
     0
 10
0.0
 20
0.0
 11
1.0
 21
1.0
 12
436.6926370211628
 22
124.2207516303478
 13
0.0
 23
0.0
 14
10.0
 24
10.0
 15
10.0
 25
10.0
 16
0.0
 26
0.0
 36
1.0
 17
0.0
 27
0.0
 37
0.0
 40
436.5559440213791
 41
2.647181628392484
 42
50.0
 43
0.0
 44
0.0
 50
0.0
 51
0.0
 71
     0
 72
   100
 73
     1
 74
     1
 75
     0
 76
     0
 77
     0
 78
     0
281
     0
 65
     1
110
0.0
120
0.0
130
0.0
111
1.0
121
0.0
131
0.0
112
0.0
122
1.0
132
0.0
 79
     0
146
0.0
  0
ENDTAB
  0
TABLE
  2
LTYPE
  5
5
330
0
100
AcDbSymbolTable
 70
    18
  0
LTYPE
  5
12
330
5
100
AcDbSymbolTableRecord
100
AcDbLinetypeTableRecord
  2
BYBLOCK
 70
     0
  3

 72
    65
 73
     0
 40
0.0
  0
LTYPE
  5
13
330
5
100
AcDbSymbolTableRecord
100
AcDbLinetypeTableRecord
  2
BYLAYER
 70
     0
  3

 72
    65
 73
     0
 40
0.0
  0
LTYPE
  5
14
330
5
100
AcDbSymbolTableRecord
100
AcDbLinetypeTableRecord
  2
CONTINUOUS
 70
     0
  3
Solid line
 72
    65
 73
     0
 40
0.0
  0
LTYPE
  5
9D
330
5
100
AcDbSymbolTableRecord
100
AcDbLinetypeTableRecord
  2
CENTERX2
 70
     0
  3
Center (2x) ________  __  ________  __  _____
 72
    65
 73
     4
 40
101.6
 49
63.5
 74
     0
 49
-12.7
 74
     0
 49
12.7
 74
     0
 49
-12.7
 74
     0
  0
LTYPE
  5
A1
330
5
100
AcDbSymbolTableRecord
100
AcDbLinetypeTableRecord
  2
DASHED
 70
     0
  3
Dashed __ __ __ __ __ __ __ __ __ __ __ __ __ _
 72
    65
 73
     2
 40
19.05
 49
12.7
 74
     0
 49
-6.349999999999999
 74
     0
  0
LTYPE
  5
A2
330
5
100
AcDbSymbolTableRecord
100
AcDbLinetypeTableRecord
  2
DASHED2
 70
     0
  3
Dashed (.5x) _ _ _ _ _ _ _ _ _ _ _ _ _ _ _ _ _
 72
    65
 73
     2
 40
9.524999999999998
 49
6.349999999999999
 74
     0
 49
-3.174999999999999
 74
     0
  0
LTYPE
  5
A5
330
5
100
AcDbSymbolTableRecord
100
AcDbLinetypeTableRecord
  2
DIVIDE2
 70
     0
  3
Divide (.5x) __..__..__..__..__..__..__..__.._
 72
    65
 73
     6
 40
15.875
 49
6.349999999999999
 74
     0
 49
-3.174999999999999
 74
     0
 49
0.0
 74
     0
 49
-3.174999999999999
 74
     0
 49
0.0
 74
     0
 49
-3.174999999999999
 74
     0
  0
LTYPE
  5
650B
330
5
100
AcDbSymbolTableRecord
100
AcDbLinetypeTableRecord
  2
CENTER
 70
     0
  3
Center ____ _ ____ _ ____ _ ____ _ ____ _ ____
 72
    65
 73
     4
 40
50.8
 49
31.75
 74
     0
 49
-6.349999999999999
 74
     0
 49
6.349999999999999
 74
     0
 49
-6.349999999999999
 74
     0
  0
LTYPE
  5
650C
330
5
100
AcDbSymbolTableRecord
100
AcDbLinetypeTableRecord
  2
HIDDEN
 70
     0
  3
Hidden __ __ __ __ __ __ __ __ __ __ __ __ __ _
 72
    65
 73
     2
 40
9.524999999999998
 49
6.349999999999999
 74
     0
 49
-3.174999999999999
 74
     0
  0
LTYPE
  5
9798
330
5
100
AcDbSymbolTableRecord
100
AcDbLinetypeTableRecord
  2
PHANTOM2
 70
     0
  3
Phantom (.5x) ___ _ _ ___ _ _ ___ _ _ ___ _ _
 72
    65
 73
     6
 40
31.75
 49
15.875
 74
     0
 49
-3.174999999999999
 74
     0
 49
3.174999999999999
 74
     0
 49
-3.174999999999999
 74
     0
 49
3.174999999999999
 74
     0
 49
-3.174999999999999
 74
     0
  0
LTYPE
  5
97D8
330
5
100
AcDbSymbolTableRecord
100
AcDbLinetypeTableRecord
  2
AM_ISO02W050
 70
     0
  3
__ __ __ __ __ __ __ __ __ __ __ __ __ __ __
 72
    65
 73
     2
 40
7.5
 49
6.0
 74
     0
 49
-1.5
 74
     0
  0
LTYPE
  5
97D9
330
5
100
AcDbSymbolTableRecord
100
AcDbLinetypeTableRecord
  2
AM_ISO08W050
 70
     0
  3
____ . ____ . ____ . ____ . ____ . ____ . ____
 72
    65
 73
     4
 40
18.0
 49
12.0
 74
     0
 49
-1.5
 74
     0
 49
3.0
 74
     0
 49
-1.5
 74
     0
  0
LTYPE
  5
97DA
330
5
100
AcDbSymbolTableRecord
100
AcDbLinetypeTableRecord
  2
AM_ISO09W050
 70
     0
  3
_____ . . _____ . . _____ . . ____ .. ____
 72
    65
 73
     6
 40
22.5
 49
12.0
 74
     0
 49
-1.5
 74
     0
 49
3.0
 74
     0
 49
-1.5
 74
     0
 49
3.0
 74
     0
 49
-1.5
 74
     0
  0
LTYPE
  5
97DB
330
5
100
AcDbSymbolTableRecord
100
AcDbLinetypeTableRecord
  2
Amconstr
 70
     0
  3
_______________________
 72
    65
 73
     2
 40
9999.0
 49
9999.0
 74
     0
 49
0.0
 74
     0
  0
LTYPE
  5
97DC
330
5
100
AcDbSymbolTableRecord
100
AcDbLinetypeTableRecord
  2
AM_ISO08W050x2
 70
     0
  3
__ . __ . __ . __ . __ . __
 72
    65
 73
     4
 40
9.0
 49
6.0
 74
     0
 49
-0.75
 74
     0
 49
1.5
 74
     0
 49
-0.75
 74
     0
  0
LTYPE
  5
97DD
330
5
100
AcDbSymbolTableRecord
100
AcDbLinetypeTableRecord
  2
AM_ISO02W050x2
 70
     0
  3
 _ _ _ _ _ _ _ _ _ _ _ _
 72
    65
 73
     2
 40
3.75
 49
3.0
 74
     0
 49
-0.75
 74
     0
  0
LTYPE
  5
97E0
330
5
100
AcDbSymbolTableRecord
100
AcDbLinetypeTableRecord
  2
Amzigzag
 70
     0
  3
/\/-/\/-/\/-/\/-/\/-/\/
 72
    65
 73
     2
 40
11.0001
 49
0.0001
 74
     4
 75
   136
340
97DF
 46
0.04
 50
0.0
 44
0.0
 45
0.0
 49
-11.0
 74
     0
  0
LTYPE
  5
97EF
330
5
100
AcDbSymbolTableRecord
100
AcDbLinetypeTableRecord
  2
ACISOWELD
 70
     0
  3
_ _ _ _ _
 72
    65
 73
     2
 40
2.0
 49
2.0
 74
     0
 49
-1.0
 74
     0
  0
LTYPE
  5
97F0
330
5
100
AcDbSymbolTableRecord
100
AcDbLinetypeTableRecord
  2
ACISOTGB
 70
     0
  3
__ . . __ . .
 72
    65
 73
     6
 40
9.0
 49
4.0
 74
     0
 49
-1.0
 74
     0
 49
1.0
 74
     0
 49
-1.0
 74
     0
 49
1.0
 74
     0
 49
-1.0
 74
     0
  0
LTYPE
  5
97F1
330
5
100
AcDbSymbolTableRecord
100
AcDbLinetypeTableRecord
  2
ACISOTGL
 70
     0
  3
_ _ _ _ _
 72
    65
 73
     2
 40
3.0
 49
2.0
 74
     0
 49
-1.0
 74
     0
  0
ENDTAB
  0
TABLE
  2
LAYER
  5
2
330
0
100
AcDbSymbolTable
 70
    10
  0
LAYER
  5
E
102
{ACAD_XDICTIONARY
360
9A17
102
}
330
2
100
AcDbSymbolTableRecord
100
AcDbLayerTableRecord
  2
0
 70
     0
 62
     7
  6
CONTINUOUS
370
    -3
390
5CF2
  0
LAYER
  5
B9
102
{ACAD_XDICTIONARY
360
9A19
102
}
330
2
100
AcDbSymbolTableRecord
100
AcDbLayerTableRecord
  2
DIM
 70
     0
 62
     3
  6
CONTINUOUS
370
    -3
390
5CF2
  0
LAYER
  5
F2
330
2
100
AcDbSymbolTableRecord
100
AcDbLayerTableRecord
  2
DEFPOINTS
 70
     0
 62
     4
  6
CONTINUOUS
290
     0
370
    -3
390
5CF2
  0
LAYER
  5
5F8B
102
{ACAD_XDICTIONARY
360
9A1B
102
}
330
2
100
AcDbSymbolTableRecord
100
AcDbLayerTableRecord
  2
公差
 70
     0
 62
     6
  6
CONTINUOUS
370
    -3
390
5CF2
1001
ACADSTRINGINFO
1000
MIFCodePage
1070
     1
  0
LAYER
  5
644E
102
{ACAD_XDICTIONARY
360
9A1D
102
}
330
2
100
AcDbSymbolTableRecord
100
AcDbLayerTableRecord
  2
図框線
 70
     0
 62
     9
  6
CONTINUOUS
370
    -3
390
5CF2
1001
ACADSTRINGINFO
1000
MIFCodePage
1070
     1
  0
LAYER
  5
650D
102
{ACAD_XDICTIONARY
360
9A1F
102
}
330
2
100
AcDbSymbolTableRecord
100
AcDbLayerTableRecord
  2
中心線
 70
     0
 62
     1
  6
CENTER
370
    -3
390
5CF2
1001
ACADSTRINGINFO
1000
MIFCodePage
1070
     1
  0
LAYER
  5
650E
102
{ACAD_XDICTIONARY
360
9A21
102
}
330
2
100
AcDbSymbolTableRecord
100
AcDbLayerTableRecord
  2
本体内線
 70
     0
 62
     4
  6
HIDDEN
370
    -3
390
5CF2
1001
ACADSTRINGINFO
1000
MIFCodePage
1070
     1
  0
LAYER
  5
650F
102
{ACAD_XDICTIONARY
360
9A23
102
}
330
2
100
AcDbSymbolTableRecord
100
AcDbLayerTableRecord
  2
本体外線
 70
     0
 62
     2
  6
CONTINUOUS
370
    -3
390
5CF2
1001
ACADSTRINGINFO
1000
MIFCodePage
1070
     1
  0
LAYER
  5
6510
102
{ACAD_XDICTIONARY
360
9A25
102
}
330
2
100
AcDbSymbolTableRecord
100
AcDbLayerTableRecord
  2
剖面線
 70
     0
 62
     5
  6
CONTINUOUS
370
    -3
390
5CF2
1001
ACADSTRINGINFO
1000
MIFCodePage
1070
     1
  0
LAYER
  5
96FA
102
{ACAD_XDICTIONARY
360
9A27
102
}
330
2
100
AcDbSymbolTableRecord
100
AcDbLayerTableRecord
  2
mark
 70
     0
 62
     6
  6
CONTINUOUS
370
    -3
390
5CF2
  0
ENDTAB
  0
TABLE
  2
STYLE
  5
3
330
0
100
AcDbSymbolTable
 70
     8
  0
STYLE
  5
F
330
3
100
AcDbSymbolTableRecord
100
AcDbTextStyleTableRecord
  2
STANDARD
 70
     0
 40
0.0
 41
1.0
 50
0.0
 71
     0
 42
2.5
  3
txt
  4

  0
STYLE
  5
BE
330
3
100
AcDbSymbolTableRecord
100
AcDbTextStyleTableRecord
  2
ISOCP3
 70
     0
 40
0.0
 41
1.0
 50
0.0
 71
     0
 42
2.5
  3
isocp3.shx
  4

  0
STYLE
  5
2A37
330
3
100
AcDbSymbolTableRecord
100
AcDbTextStyleTableRecord
  2
TXT
 70
     0
 40
0.0
 41
1.0
 50
0.0
 71
     0
 42
2.5
  3
txt.shx
  4
bigfont.shx
  0
STYLE
  5
5DCB
330
3
100
AcDbSymbolTableRecord
100
AcDbTextStyleTableRecord
  2
LKK
 70
     0
 40
50.0
 41
1.5
 50
0.0
 71
     0
 42
50.0
  3
MS PGothic.ttf
  4

1001
ACAD
1000
MS PGothic
1071
    32818
  0
STYLE
  5
5DCC
330
3
100
AcDbSymbolTableRecord
100
AcDbTextStyleTableRecord
  2
JL
 70
     0
 40
10.0
 41
0.5
 50
0.0
 71
     0
 42
5.0
  3
MS Mincho.ttf
  4

1001
ACAD
1000
MS Mincho
1071
    32785
  0
STYLE
  5
97DF
330
3
100
AcDbSymbolTableRecord
100
AcDbTextStyleTableRecord
  2

 70
     1
 40
0.0
 41
1.0
 50
0.0
 71
     0
 42
2.5
  3
genltshp.shx
  4

  0
STYLE
  5
97ED
330
3
100
AcDbSymbolTableRecord
100
AcDbTextStyleTableRecord
  2
ACISOTS
 70
     0
 40
1.0
 41
1.0
 50
0.0
 71
     0
 42
2.5
  3
isocp.shx
  4
chineset.shx
  0
STYLE
  5
97EE
330
3
100
AcDbSymbolTableRecord
100
AcDbTextStyleTableRecord
  2
ACISOGDT
 70
     0
 40
0.0
 41
1.0
 50
0.0
 71
     0
 42
2.5
  3
amgdt.shx
  4

  0
ENDTAB
  0
TABLE
  2
VIEW
  5
6
330
0
100
AcDbSymbolTable
 70
     0
  0
ENDTAB
  0
TABLE
  2
UCS
  5
7
330
0
100
AcDbSymbolTable
 70
     0
  0
ENDTAB
  0
TABLE
  2
APPID
  5
9
330
0
100
AcDbSymbolTable
 70
    21
  0
APPID
  5
10
330
9
100
AcDbSymbolTableRecord
100
AcDbRegAppTableRecord
  2
ACAD
 70
     0
  0
APPID
  5
96C7
330
9
100
AcDbSymbolTableRecord
100
AcDbRegAppTableRecord
  2
ACAD_PSEXT
 70
     0
  0
APPID
  5
96FB
330
9
100
AcDbSymbolTableRecord
100
AcDbRegAppTableRecord
  2
ACAD_DSTYLE_DIMEXT_LENGTH
 70
     0
  0
APPID
  5
96FC
330
9
100
AcDbSymbolTableRecord
100
AcDbRegAppTableRecord
  2
ACAD_DSTYLE_DIMEXT_ENABLED
 70
     0
  0
APPID
  5
96FD
330
9
100
AcDbSymbolTableRecord
100
AcDbRegAppTableRecord
  2
ACAD_DSTYLE_DIMJOGGED_JOGANGLE_SYMBOL
 70
     0
  0
APPID
  5
96FE
330
9
100
AcDbSymbolTableRecord
100
AcDbRegAppTableRecord
  2
ACAD_DSTYLE_DIMARC_LENGTH_SYMBOL
 70
     0
  0
APPID
  5
975E
330
9
100
AcDbSymbolTableRecord
100
AcDbRegAppTableRecord
  2
ACADSTRINGINFO
 70
     0
  0
APPID
  5
976F
330
9
100
AcDbSymbolTableRecord
100
AcDbRegAppTableRecord
  2
MCAD_NO_VIS
 70
     0
  0
APPID
  5
9770
330
9
100
AcDbSymbolTableRecord
100
AcDbRegAppTableRecord
  2
ACAD_TEMP_GRAPHIC
 70
     0
  0
APPID
  5
979A
330
9
100
AcDbSymbolTableRecord
100
AcDbRegAppTableRecord
  2
AD_DRAW
 70
     0
  0
APPID
  5
979D
330
9
100
AcDbSymbolTableRecord
100
AcDbRegAppTableRecord
  2
ACATTRIBSERVICES
 70
     0
  0
APPID
  5
97B6
330
9
100
AcDbSymbolTableRecord
100
AcDbRegAppTableRecord
  2
DESIGNERASSEMBLIES
 70
     0
  0
APPID
  5
97BB
330
9
100
AcDbSymbolTableRecord
100
AcDbRegAppTableRecord
  2
ACADM_DIM_EDIT
 70
     0
  0
APPID
  5
97BC
330
9
100
AcDbSymbolTableRecord
100
AcDbRegAppTableRecord
  2
AMDT_DM_ADJ
 70
     0
  0
APPID
  5
97D5
330
9
100
AcDbSymbolTableRecord
100
AcDbRegAppTableRecord
  2
ACAD_DSTYLE_DIMJAG
 70
     0
  0
APPID
  5
97D6
330
9
100
AcDbSymbolTableRecord
100
AcDbRegAppTableRecord
  2
ACAD_DSTYLE_DIMBREAK
 70
     0
  0
APPID
  5
9A0D
330
9
100
AcDbSymbolTableRecord
100
AcDbRegAppTableRecord
  2
ACAD_EXEMPT_FROM_CAD_STANDARDS
 70
     0
  0
APPID
  5
9AB5
330
9
100
AcDbSymbolTableRecord
100
AcDbRegAppTableRecord
  2
ACAD_MLEADERVER
 70
     0
  0
APPID
  5
9AB6
330
9
100
AcDbSymbolTableRecord
100
AcDbRegAppTableRecord
  2
ACAD_DSTYLE_DIM_LINETYPE
 70
     0
  0
APPID
  5
9AB7
330
9
100
AcDbSymbolTableRecord
100
AcDbRegAppTableRecord
  2
ACAD_DSTYLE_DIM_EXT1_LINETYPE
 70
     0
  0
APPID
  5
9AB8
330
9
100
AcDbSymbolTableRecord
100
AcDbRegAppTableRecord
  2
ACAD_DSTYLE_DIM_EXT2_LINETYPE
 70
     0
  0
ENDTAB
  0
TABLE
  2
DIMSTYLE
  5
A
330
0
100
AcDbSymbolTable
 70
    10
100
AcDbDimStyleTable
 71
     1
340
1A4
  0
DIMSTYLE
105
1D
330
A
100
AcDbSymbolTableRecord
100
AcDbDimStyleTableRecord
  2
STANDARD
 70
     0
 41
3.0
 42
0.06
 77
     3
140
4.0
144
0.3333333333333333
172
     1
340
F
  0
DIMSTYLE
105
1A4
102
{ACAD_REACTORS
330
98C1
330
98E3
330
98E4
330
98E5
330
98EE
330
985F
330
9860
330
98B1
330
98B2
330
98EF
330
98F0
330
98F1
102
}
330
A
100
AcDbSymbolTableRecord
100
AcDbDimStyleTableRecord
  2
A
 70
     0
 41
2.5
 42
1.0
 43
6.0
 44
1.0
 73
     0
 74
     0
 77
     3
 78
     8
140
3.0
141
0.0
147
1.0
176
     6
177
     6
178
     3
271
     1
272
     1
279
     1
340
2A37
  0
DIMSTYLE
105
6006
330
A
100
AcDbSymbolTableRecord
100
AcDbDimStyleTableRecord
  2
ISO-25
 70
     0
 40
0.0
 41
2.0
 42
0.3
 43
1.0
 44
0.3
 73
     0
 74
     0
 77
     1
 78
     8
140
3.0
147
1.0
172
     1
176
     6
177
     6
178
     3
271
     1
272
     2
284
     8
288
     1
289
     2
340
F
  0
DIMSTYLE
105
97D4
330
A
100
AcDbSymbolTableRecord
100
AcDbDimStyleTableRecord
  2
AM_ISO
 70
     0
  4
"
 41
3.5
 42
1.0
 43
10.0
 44
1.0
 47
0.1
 48
0.1
 73
     0
 74
     0
 77
     1
 78
     8
 79
     2
140
3.5
141
0.0
143
0.0393701
146
0.71
147
1.5
172
     1
176
   256
177
   256
178
     2
271
     2
272
     3
274
     4
283
     0
284
     8
340
F
371
    -1
372
    -1
1001
ACAD_DSTYLE_DIMJAG
1070
   388
1040
1.5
1001
ACAD_DSTYLE_DIMBREAK
1070
   391
1040
3.75
1001
ACAD_DSTYLE_DIMARC_LENGTH_SYMBOL
1070
   379
1070
     1
1001
ACAD_DSTYLE_DIM_LINETYPE
1070
   380
1005
12
1001
ACAD_DSTYLE_DIM_EXT1_LINETYPE
1070
   381
1005
12
1001
ACAD_DSTYLE_DIM_EXT2_LINETYPE
1070
   382
1005
12
  0
DIMSTYLE
105
97E1
330
A
100
AcDbSymbolTableRecord
100
AcDbDimStyleTableRecord
  2
AM_ISO$3
 70
     0
  4
"
 41
3.5
 42
1.0
 43
10.0
 44
1.0
 47
0.1
 48
0.1
 73
     0
 77
     1
 78
     8
 79
     2
140
3.5
141
0.0
143
0.0393701
146
0.71
147
1.5
176
   256
177
   256
178
     2
271
     2
272
     3
274
     4
283
     0
284
     8
288
     1
289
     0
340
F
371
    -1
372
    -1
1001
ACAD_DSTYLE_DIMBREAK
1070
   391
1040
3.75
1001
ACAD_DSTYLE_DIMJAG
1070
   388
1040
1.5
1001
ACAD_DSTYLE_DIMARC_LENGTH_SYMBOL
1070
   379
1070
     1
1001
ACAD_DSTYLE_DIM_LINETYPE
1070
   380
1005
12
1001
ACAD_DSTYLE_DIM_EXT1_LINETYPE
1070
   381
1005
12
1001
ACAD_DSTYLE_DIM_EXT2_LINETYPE
1070
   382
1005
12
  0
DIMSTYLE
105
97E2
330
A
100
AcDbSymbolTableRecord
100
AcDbDimStyleTableRecord
  2
AM_ISO$4
 70
     0
  4
"
 41
3.5
 42
1.0
 43
10.0
 44
1.0
 47
0.1
 48
0.1
 73
     0
 77
     1
 78
     8
 79
     2
140
3.5
141
0.0
143
0.0393701
146
0.71
147
1.5
176
   256
177
   256
178
     2
271
     2
272
     3
274
     4
283
     0
284
     8
288
     1
289
     0
340
F
371
    -1
372
    -1
1001
ACAD_DSTYLE_DIMBREAK
1070
   391
1040
3.75
1001
ACAD_DSTYLE_DIMJAG
1070
   388
1040
1.5
1001
ACAD_DSTYLE_DIMARC_LENGTH_SYMBOL
1070
   379
1070
     1
1001
ACAD_DSTYLE_DIM_LINETYPE
1070
   380
1005
12
1001
ACAD_DSTYLE_DIM_EXT1_LINETYPE
1070
   381
1005
12
1001
ACAD_DSTYLE_DIM_EXT2_LINETYPE
1070
   382
1005
12
  0
DIMSTYLE
105
97E3
330
A
100
AcDbSymbolTableRecord
100
AcDbDimStyleTableRecord
  2
AM_ISO$6
 70
     0
  4
"
 41
3.5
 42
1.0
 43
10.0
 44
1.0
 47
0.1
 48
0.1
 73
     0
 74
     0
 78
     8
 79
     2
140
3.5
141
0.0
143
0.0393701
146
0.71
147
1.5
172
     1
176
   256
177
   256
178
     2
271
     2
272
     3
274
     4
283
     0
284
     8
340
F
371
    -1
372
    -1
1001
ACAD_DSTYLE_DIMBREAK
1070
   391
1040
3.75
1001
ACAD_DSTYLE_DIMJAG
1070
   388
1040
1.5
1001
ACAD_DSTYLE_DIMARC_LENGTH_SYMBOL
1070
   379
1070
     1
1001
ACAD_DSTYLE_DIM_LINETYPE
1070
   380
1005
12
1001
ACAD_DSTYLE_DIM_EXT1_LINETYPE
1070
   381
1005
12
1001
ACAD_DSTYLE_DIM_EXT2_LINETYPE
1070
   382
1005
12
  0
DIMSTYLE
105
97E4
330
A
100
AcDbSymbolTableRecord
100
AcDbDimStyleTableRecord
  2
AM_ISO$7
 70
     0
  4
"
 41
3.5
 42
1.0
 43
10.0
 44
1.0
 47
0.1
 48
0.1
 73
     0
 74
     0
 77
     1
 78
     8
 79
     2
140
3.5
141
0.0
143
0.0393701
146
0.71
147
1.5
172
     1
176
   256
177
   256
178
     2
271
     2
272
     3
274
     4
283
     0
284
     8
340
F
371
    -1
372
    -1
1001
ACAD_DSTYLE_DIMBREAK
1070
   391
1040
3.75
1001
ACAD_DSTYLE_DIMJAG
1070
   388
1040
1.5
1001
ACAD_DSTYLE_DIMARC_LENGTH_SYMBOL
1070
   379
1070
     1
1001
ACAD_DSTYLE_DIM_LINETYPE
1070
   380
1005
12
1001
ACAD_DSTYLE_DIM_EXT1_LINETYPE
1070
   381
1005
12
1001
ACAD_DSTYLE_DIM_EXT2_LINETYPE
1070
   382
1005
12
  0
DIMSTYLE
105
97E5
330
A
100
AcDbSymbolTableRecord
100
AcDbDimStyleTableRecord
  2
AM_ISO$SF
 70
     0
  4
"
 41
3.5
 42
1.0
 43
10.0
 44
1.0
 47
0.1
 48
0.1
 73
     0
 74
     0
 75
     1
 76
     1
 77
     1
 78
     8
 79
     2
140
3.5
141
0.0
143
0.0393701
146
0.71
147
1.5
172
     1
176
   256
177
   256
178
     2
271
     2
272
     3
274
     4
283
     0
284
     8
340
F
371
    -1
372
    -1
1001
ACAD_DSTYLE_DIMBREAK
1070
   391
1040
3.75
1001
ACAD_DSTYLE_DIMJAG
1070
   388
1040
1.5
1001
ACAD_DSTYLE_DIMARC_LENGTH_SYMBOL
1070
   379
1070
     1
1001
ACAD_DSTYLE_DIM_LINETYPE
1070
   380
1005
12
1001
ACAD_DSTYLE_DIM_EXT1_LINETYPE
1070
   381
1005
12
1001
ACAD_DSTYLE_DIM_EXT2_LINETYPE
1070
   382
1005
12
  0
DIMSTYLE
105
97EA
330
A
100
AcDbSymbolTableRecord
100
AcDbDimStyleTableRecord
  2
AM_ISO$SH
 70
     0
  4
"
 41
3.5
 42
1.0
 43
10.0
 44
1.0
 47
0.1
 48
0.1
 73
     0
 74
     0
 75
     1
 76
     1
 77
     1
 78
     8
 79
     2
140
3.5
141
0.0
143
0.0393701
144
2.0
146
0.71
147
1.5
172
     1
173
     1
176
   256
177
   256
178
     2
271
     2
272
     3
274
     4
283
     0
284
     8
340
F
343
97E6
371
    -1
372
    -1
1001
ACAD_DSTYLE_DIMBREAK
1070
   391
1040
3.75
1001
ACAD_DSTYLE_DIMJAG
1070
   388
1040
1.5
1001
ACAD_DSTYLE_DIMARC_LENGTH_SYMBOL
1070
   379
1070
     1
1001
ACAD_DSTYLE_DIM_LINETYPE
1070
   380
1005
12
1001
ACAD_DSTYLE_DIM_EXT1_LINETYPE
1070
   381
1005
12
1001
ACAD_DSTYLE_DIM_EXT2_LINETYPE
1070
   382
1005
12
  0
ENDTAB
  0
TABLE
  2
BLOCK_RECORD
  5
1
330
0
100
AcDbSymbolTable
 70
    28
  0
BLOCK_RECORD
  5
18
102
{ACAD_XDICTIONARY
360
45F
102
}
330
1
100
AcDbSymbolTableRecord
100
AcDbBlockTableRecord
  2
*MODEL_SPACE
340
5CF5
  0
BLOCK_RECORD
  5
15
102
{ACAD_XDICTIONARY
360
5D89
102
}
330
1
100
AcDbSymbolTableRecord
100
AcDbBlockTableRecord
  2
*PAPER_SPACE
340
5CF6
  0
BLOCK_RECORD
  5
639D
330
1
100
AcDbSymbolTableRecord
100
AcDbBlockTableRecord
  2
A$C255C26A2
340
0
102
{BLKREFS
331
9807
102
}
  0
BLOCK_RECORD
  5
6C86
330
1
100
AcDbSymbolTableRecord
100
AcDbBlockTableRecord
  2
*D1
340
0
  0
BLOCK_RECORD
  5
6C9E
330
1
100
AcDbSymbolTableRecord
100
AcDbBlockTableRecord
  2
*D2
340
0
  0
BLOCK_RECORD
  5
7A5F
330
1
100
AcDbSymbolTableRecord
100
AcDbBlockTableRecord
  2
_DOTSMALL
340
0
  0
BLOCK_RECORD
  5
8FA3
330
1
100
AcDbSymbolTableRecord
100
AcDbBlockTableRecord
  2
*D4
340
0
  0
BLOCK_RECORD
  5
8FCD
330
1
100
AcDbSymbolTableRecord
100
AcDbBlockTableRecord
  2
*D5
340
0
  0
BLOCK_RECORD
  5
9085
330
1
100
AcDbSymbolTableRecord
100
AcDbBlockTableRecord
  2
*D6
340
0
  0
BLOCK_RECORD
  5
93DD
330
1
100
AcDbSymbolTableRecord
100
AcDbBlockTableRecord
  2
*D7
340
0
  0
BLOCK_RECORD
  5
93F5
330
1
100
AcDbSymbolTableRecord
100
AcDbBlockTableRecord
  2
*D8
340
0
  0
BLOCK_RECORD
  5
93FF
330
1
100
AcDbSymbolTableRecord
100
AcDbBlockTableRecord
  2
*D9
340
0
  0
BLOCK_RECORD
  5
9571
330
1
100
AcDbSymbolTableRecord
100
AcDbBlockTableRecord
  2
*D10
340
0
  0
BLOCK_RECORD
  5
9589
330
1
100
AcDbSymbolTableRecord
100
AcDbBlockTableRecord
  2
*D11
340
0
  0
BLOCK_RECORD
  5
95C1
330
1
100
AcDbSymbolTableRecord
100
AcDbBlockTableRecord
  2
*D12
340
0
  0
BLOCK_RECORD
  5
95D0
330
1
100
AcDbSymbolTableRecord
100
AcDbBlockTableRecord
  2
*D13
340
0
  0
BLOCK_RECORD
  5
96F4
330
1
100
AcDbSymbolTableRecord
100
AcDbBlockTableRecord
  2
_Open30
340
0
  0
BLOCK_RECORD
  5
97E6
330
1
100
AcDbSymbolTableRecord
100
AcDbBlockTableRecord
  2
GENAXEH
340
0
  0
BLOCK_RECORD
  5
98FF
330
1
100
AcDbSymbolTableRecord
100
AcDbBlockTableRecord
  2
*D16
340
0
  0
BLOCK_RECORD
  5
990D
330
1
100
AcDbSymbolTableRecord
100
AcDbBlockTableRecord
  2
*D17
340
0
  0
BLOCK_RECORD
  5
9919
330
1
100
AcDbSymbolTableRecord
100
AcDbBlockTableRecord
  2
*D18
340
0
  0
BLOCK_RECORD
  5
9924
330
1
100
AcDbSymbolTableRecord
100
AcDbBlockTableRecord
  2
*D19
340
0
  0
BLOCK_RECORD
  5
992F
330
1
100
AcDbSymbolTableRecord
100
AcDbBlockTableRecord
  2
*D20
340
0
  0
BLOCK_RECORD
  5
993B
330
1
100
AcDbSymbolTableRecord
100
AcDbBlockTableRecord
  2
*D21
340
0
  0
BLOCK_RECORD
  5
9947
330
1
100
AcDbSymbolTableRecord
100
AcDbBlockTableRecord
  2
*D22
340
0
  0
BLOCK_RECORD
  5
9953
330
1
100
AcDbSymbolTableRecord
100
AcDbBlockTableRecord
  2
*D23
340
0
  0
BLOCK_RECORD
  5
995F
330
1
100
AcDbSymbolTableRecord
100
AcDbBlockTableRecord
  2
*D24
340
0
  0
BLOCK_RECORD
  5
996C
330
1
100
AcDbSymbolTableRecord
100
AcDbBlockTableRecord
  2
*D25
340
0
  0
BLOCK_RECORD
  5
9979
330
1
100
AcDbSymbolTableRecord
100
AcDbBlockTableRecord
  2
*D26
340
0
  0
BLOCK_RECORD
  5
9987
330
1
100
AcDbSymbolTableRecord
100
AcDbBlockTableRecord
  2
*D27
340
0
  0
ENDTAB
  0
ENDSEC
  0
SECTION
  2
BLOCKS
  0
BLOCK
  5
19
330
18
100
AcDbEntity
  8
0
100
AcDbBlockBegin
  2
*MODEL_SPACE
 70
     0
 10
0.0
 20
0.0
 30
0.0
  3
*MODEL_SPACE
  1

  0
ENDBLK
  5
1A
330
18
100
AcDbEntity
  8
0
100
AcDbBlockEnd
  0
BLOCK
  5
16
330
15
100
AcDbEntity
 67
     1
  8
0
100
AcDbBlockBegin
  2
*PAPER_SPACE
 70
     0
 10
0.0
 20
0.0
 30
0.0
  3
*PAPER_SPACE
  1

  0
ENDBLK
  5
17
330
15
100
AcDbEntity
 67
     1
  8
0
100
AcDbBlockEnd
  0
BLOCK
  5
63A1
330
639D
100
AcDbEntity
  8
0
100
AcDbBlockBegin
  2
A$C255C26A2
 70
     0
 10
0.0
 20
0.0
 30
0.0
  3
A$C255C26A2
  1

  0
LWPOLYLINE
  5
639E
330
639D
100
AcDbEntity
  8
0
100
AcDbPolyline
 90
        3
 70
     1
 43
0.0
 10
7.014806023851633
 20
0.0000006939811783
 10
5.611844869720698
 20
2.430000693981241
 10
8.417767177982568
 20
2.430000693981241
  0
LWPOLYLINE
  5
639F
330
639D
100
AcDbEntity
  8
0
100
AcDbPolyline
 90
        3
 70
     1
 43
0.0
 10
4.20888371558999
 20
0.0000006939811783
 10
2.805922561459283
 20
2.430000693981241
 10
5.611844869720698
 20
2.430000693981241
  0
LWPOLYLINE
  5
63A0
330
639D
100
AcDbEntity
  8
0
100
AcDbPolyline
 90
        3
 70
     1
 43
0.0
 10
1.402961407328348
 20
0.0000006939811783
 10
0.0000002531974133
 20
2.430000693981241
 10
2.805922561459283
 20
2.430000693981241
  0
ENDBLK
  5
63A2
330
639D
100
AcDbEntity
  8
0
100
AcDbBlockEnd
  0
BLOCK
  5
9506
330
6C86
100
AcDbEntity
  8
0
100
AcDbBlockBegin
  2
*D1
 70
     1
 10
0.0
 20
0.0
 30
0.0
  3
*D1
  1

  0
LINE
  5
9507
330
6C86
100
AcDbEntity
  8
0
  6
ByBlock
 62
     6
100
AcDbLine
 10
267.5146209123418
 20
111.4271275156845
 30
0.0
 11
267.5146209123418
 21
129.0238164208873
 31
0.0
  0
LINE
  5
9508
330
6C86
100
AcDbEntity
  8
0
  6
ByBlock
 62
     6
100
AcDbLine
 10
302.5146209123418
 20
111.4271275156845
 30
0.0
 11
302.5146209123418
 21
129.0238164208873
 31
0.0
  0
LINE
  5
9509
330
6C86
100
AcDbEntity
  8
0
  6
ByBlock
 62
     6
100
AcDbLine
 10
270.0146209123418
 20
128.0238164208873
 30
0.0
 11
300.0146209123418
 21
128.0238164208873
 31
0.0
  0
SOLID
  5
950A
330
6C86
100
AcDbEntity
  8
0
  6
ByBlock
 62
     6
100
AcDbTrace
 10
270.0146209123418
 20
128.440483087554
 30
0.0
 11
270.0146209123418
 21
127.6071497542206
 31
0.0
 12
267.5146209123418
 22
128.0238164208873
 32
0.0
 13
267.5146209123418
 23
128.0238164208873
 33
0.0
  0
SOLID
  5
950B
330
6C86
100
AcDbEntity
  8
0
  6
ByBlock
 62
     6
100
AcDbTrace
 10
300.0146209123418
 20
128.440483087554
 30
0.0
 11
300.0146209123418
 21
127.6071497542206
 31
0.0
 12
302.5146209123418
 22
128.0238164208873
 32
0.0
 13
302.5146209123418
 23
128.0238164208873
 33
0.0
  0
MTEXT
  5
950C
330
6C86
100
AcDbEntity
  8
0
  6
ByBlock
 62
     3
100
AcDbMText
 10
285.0146209123418
 20
130.5238164208873
 30
0.0
 40
3.0
 41
0.0
 71
     5
 72
     1
  1
\A1;\U+220535±0.5
  7
TXT
 73
     1
 44
1.0
1001
ACAD
1000
MTEXTBEGIN
1070
    73
1070
     1
1070
    44
1040
1.0
1070
    74
1070
     0
1000
MTEXTEND
  0
POINT
  5
950D
330
6C86
100
AcDbEntity
  8
DEFPOINTS
  6
ByBlock
 62
     0
100
AcDbPoint
 10
267.5146209123418
 20
110.4271275156845
 30
0.0
  0
POINT
  5
950E
330
6C86
100
AcDbEntity
  8
DEFPOINTS
  6
ByBlock
 62
     0
100
AcDbPoint
 10
302.5146209123418
 20
110.4271275156845
 30
0.0
  0
POINT
  5
950F
330
6C86
100
AcDbEntity
  8
DEFPOINTS
  6
ByBlock
 62
     0
100
AcDbPoint
 10
302.5146209123418
 20
128.0238164208873
 30
0.0
  0
ENDBLK
  5
9510
330
6C86
100
AcDbEntity
  8
0
100
AcDbBlockEnd
  0
BLOCK
  5
9511
330
6C9E
100
AcDbEntity
  8
0
100
AcDbBlockBegin
  2
*D2
 70
     1
 10
0.0
 20
0.0
 30
0.0
  3
*D2
  1

  0
LINE
  5
9512
330
6C9E
100
AcDbEntity
  8
0
  6
ByBlock
 62
     6
100
AcDbLine
 10
265.0146209123418
 20
106.9837518427105
 30
0.0
 11
265.0146209123418
 21
136.1034858447683
 31
0.0
  0
LINE
  5
9513
330
6C9E
100
AcDbEntity
  8
0
  6
ByBlock
 62
     6
100
AcDbLine
 10
305.0146209123418
 20
106.9837518427105
 30
0.0
 11
305.0146209123418
 21
136.1034858447683
 31
0.0
  0
LINE
  5
9514
330
6C9E
100
AcDbEntity
  8
0
  6
ByBlock
 62
     6
100
AcDbLine
 10
267.5146209123418
 20
135.1034858447683
 30
0.0
 11
302.5146209123418
 21
135.1034858447683
 31
0.0
  0
MTEXT
  5
9515
330
6C9E
100
AcDbEntity
  8
0
  6
ByBlock
 62
     3
100
AcDbMText
 10
279.4897075431653
 20
138.4159068688565
 30
0.0
 40
3.0
 41
0.0
 71
     5
 72
     1
  1
\A1;\U+220540
  7
TXT
 73
     1
 44
1.0
1001
ACAD
1000
MTEXTBEGIN
1070
    73
1070
     1
1070
    44
1040
1.0
1070
    74
1070
     0
1000
MTEXTEND
  0
SOLID
  5
9516
330
6C9E
100
AcDbEntity
  8
0
  6
ByBlock
 62
     6
100
AcDbTrace
 10
267.5146209123418
 20
135.520152511435
 30
0.0
 11
267.5146209123418
 21
134.6868191781017
 31
0.0
 12
265.0146209123418
 22
135.1034858447683
 32
0.0
 13
265.0146209123418
 23
135.1034858447683
 33
0.0
  0
SOLID
  5
9517
330
6C9E
100
AcDbEntity
  8
0
  6
ByBlock
 62
     6
100
AcDbTrace
 10
302.5146209123418
 20
135.520152511435
 30
0.0
 11
302.5146209123418
 21
134.6868191781017
 31
0.0
 12
305.0146209123418
 22
135.1034858447683
 32
0.0
 13
305.0146209123418
 23
135.1034858447683
 33
0.0
  0
POINT
  5
9518
330
6C9E
100
AcDbEntity
  8
DEFPOINTS
  6
ByBlock
 62
     0
100
AcDbPoint
 10
265.0146209123418
 20
105.9837518427105
 30
0.0
  0
POINT
  5
9519
330
6C9E
100
AcDbEntity
  8
DEFPOINTS
  6
ByBlock
 62
     0
100
AcDbPoint
 10
305.0146209123418
 20
105.9837518427105
 30
0.0
  0
POINT
  5
951A
330
6C9E
100
AcDbEntity
  8
DEFPOINTS
  6
ByBlock
 62
     0
100
AcDbPoint
 10
305.0146209123418
 20
135.1034858447683
 30
0.0
  0
ENDBLK
  5
951B
330
6C9E
100
AcDbEntity
  8
0
100
AcDbBlockEnd
  0
BLOCK
  5
7A64
330
7A5F
100
AcDbEntity
  8
0
100
AcDbBlockBegin
  2
_DOTSMALL
 70
     0
 10
0.0
 20
0.0
 30
0.0
  3
_DOTSMALL
  1

  0
LWPOLYLINE
  5
7A60
330
7A5F
100
AcDbEntity
  8
0
  6
ByBlock
 62
     0
100
AcDbPolyline
 90
        2
 70
     1
 43
0.5
 10
-0.0625
 20
0.0
 42
1.0
 10
0.0625
 20
0.0
 42
1.0
  0
ENDBLK
  5
7A65
330
7A5F
100
AcDbEntity
  8
0
100
AcDbBlockEnd
  0
BLOCK
  5
909F
330
8FA3
100
AcDbEntity
  8
0
100
AcDbBlockBegin
  2
*D4
 70
     1
 10
0.0
 20
0.0
 30
0.0
  3
*D4
  1

  0
LINE
  5
90A0
330
8FA3
100
AcDbEntity
  8
0
  6
ByBlock
 62
     6
100
AcDbLine
 10
275.2968230252605
 20
202.6536139130535
 30
0.0
 11
243.2345807459949
 21
202.6536139130535
 31
0.0
  0
LINE
  5
90A1
330
8FA3
100
AcDbEntity
  8
0
  6
ByBlock
 62
     6
100
AcDbLine
 10
275.2968230252605
 20
166.6536139130535
 30
0.0
 11
243.2345807459949
 21
166.6536139130535
 31
0.0
  0
LINE
  5
90A2
330
8FA3
100
AcDbEntity
  8
0
  6
ByBlock
 62
     6
100
AcDbLine
 10
244.2345807459949
 20
200.1536139130535
 30
0.0
 11
244.2345807459949
 21
169.1536139130534
 31
0.0
  0
MTEXT
  5
90A3
330
8FA3
100
AcDbEntity
  8
0
  6
ByBlock
 62
     3
100
AcDbMText
 10
240.8785908307714
 20
181.3081687036689
 30
0.0
 40
3.0
 41
0.0
 71
     5
 72
     1
  1
\A1;36
  7
TXT
 11
0.0000000000000001
 21
1.0
 31
0.0
 73
     1
 44
1.0
1001
ACAD
1000
MTEXTBEGIN
1070
    73
1070
     1
1070
    44
1040
1.0
1070
    74
1070
     0
1000
MTEXTEND
  0
SOLID
  5
90A4
330
8FA3
100
AcDbEntity
  8
0
  6
ByBlock
 62
     6
100
AcDbTrace
 10
243.8179140793282
 20
200.1536139130535
 30
0.0
 11
244.6512474126615
 21
200.1536139130535
 31
0.0
 12
244.2345807459949
 22
202.6536139130535
 32
0.0
 13
244.2345807459949
 23
202.6536139130535
 33
0.0
  0
SOLID
  5
90A5
330
8FA3
100
AcDbEntity
  8
0
  6
ByBlock
 62
     6
100
AcDbTrace
 10
243.8179140793282
 20
169.1536139130534
 30
0.0
 11
244.6512474126615
 21
169.1536139130534
 31
0.0
 12
244.2345807459949
 22
166.6536139130535
 32
0.0
 13
244.2345807459949
 23
166.6536139130535
 33
0.0
  0
POINT
  5
90A6
330
8FA3
100
AcDbEntity
  8
DEFPOINTS
  6
ByBlock
 62
     0
100
AcDbPoint
 10
276.2968230252605
 20
202.6536139130535
 30
0.0
  0
POINT
  5
90A7
330
8FA3
100
AcDbEntity
  8
DEFPOINTS
  6
ByBlock
 62
     0
100
AcDbPoint
 10
276.2968230252605
 20
166.6536139130535
 30
0.0
  0
POINT
  5
90A8
330
8FA3
100
AcDbEntity
  8
DEFPOINTS
  6
ByBlock
 62
     0
100
AcDbPoint
 10
244.2345807459949
 20
166.6536139130535
 30
0.0
  0
ENDBLK
  5
90A9
330
8FA3
100
AcDbEntity
  8
0
100
AcDbBlockEnd
  0
BLOCK
  5
903E
330
8FCD
100
AcDbEntity
  8
0
100
AcDbBlockBegin
  2
*D5
 70
     1
 10
0.0
 20
0.0
 30
0.0
  3
*D5
  1

  0
LINE
  5
903F
330
8FCD
100
AcDbEntity
  8
0
  6
ByBlock
 62
     6
100
AcDbLine
 10
300.5851289880304
 20
197.6847028262989
 30
0.0
 11
292.2695418702378
 21
212.0877222090811
 31
0.0
  0
LINE
  5
9040
330
8FCD
100
AcDbEntity
  8
0
  6
ByBlock
 62
     6
100
AcDbLine
 10
298.8602892545629
 20
196.6888661418725
 30
0.0
 11
290.5447021367703
 21
211.0918855246546
 31
0.0
  0
LINE
  5
9041
330
8FCD
100
AcDbEntity
  8
0
  6
ByBlock
 62
     6
100
AcDbLine
 10
294.9346053796989
 20
212.4716968052966
 30
0.0
 11
297.09966888916
 21
213.7216968052966
 31
0.0
  0
LINE
  5
9042
330
8FCD
100
AcDbEntity
  8
0
  6
ByBlock
 62
     6
100
AcDbLine
 10
288.8796386273092
 20
208.9758601208702
 30
0.0
 11
286.7145751178481
 21
207.7258601208701
 31
0.0
  0
MTEXT
  5
9043
330
8FCD
100
AcDbEntity
  8
0
  6
ByBlock
 62
     3
100
AcDbMText
 10
290.2564747244458
 20
213.5461650156537
 30
0.0
 40
3.0
 41
0.0
 71
     5
 72
     1
  1
\A1;2
  7
TXT
 11
0.866025403784438
 21
0.500000000000001
 31
0.0
 73
     1
 44
1.0
1001
ACAD
1000
MTEXTBEGIN
1070
    73
1070
     1
1070
    44
1040
1.0
1070
    74
1070
     0
1000
MTEXTEND
  0
LINE
  5
9044
330
8FCD
100
AcDbEntity
  8
0
  6
ByBlock
 62
     6
100
AcDbLine
 10
292.7695418702378
 20
211.2216968052966
 30
0.0
 11
291.0447021367703
 21
210.2258601208702
 31
0.0
  0
SOLID
  5
9045
330
8FCD
100
AcDbEntity
  8
0
  6
ByBlock
 62
     6
100
AcDbTrace
 10
294.7262720463655
 20
212.8325407235401
 30
0.0
 11
295.1429387130322
 21
212.1108528870531
 31
0.0
 12
292.7695418702378
 22
211.2216968052966
 32
0.0
 13
292.7695418702378
 23
211.2216968052966
 33
0.0
  0
SOLID
  5
9046
330
8FCD
100
AcDbEntity
  8
0
  6
ByBlock
 62
     6
100
AcDbTrace
 10
288.6713052939759
 20
209.3367040391137
 30
0.0
 11
289.0879719606425
 21
208.6150162026267
 31
0.0
 12
291.0447021367703
 22
210.2258601208702
 32
0.0
 13
291.0447021367703
 23
210.2258601208702
 33
0.0
  0
POINT
  5
9047
330
8FCD
100
AcDbEntity
  8
DEFPOINTS
  6
ByBlock
 62
     0
100
AcDbPoint
 10
301.0851289880304
 20
196.8186774225145
 30
0.0
  0
POINT
  5
9048
330
8FCD
100
AcDbEntity
  8
DEFPOINTS
  6
ByBlock
 62
     0
100
AcDbPoint
 10
299.3602892545629
 20
195.8228407380881
 30
0.0
  0
POINT
  5
9049
330
8FCD
100
AcDbEntity
  8
DEFPOINTS
  6
ByBlock
 62
     0
100
AcDbPoint
 10
291.0447021367703
 20
210.2258601208702
 30
0.0
  0
ENDBLK
  5
904A
330
8FCD
100
AcDbEntity
  8
0
100
AcDbBlockEnd
  0
BLOCK
  5
9086
330
9085
100
AcDbEntity
  8
0
100
AcDbBlockBegin
  2
*D6
 70
     1
 10
0.0
 20
0.0
 30
0.0
  3
*D6
  1

  0
LINE
  5
9087
330
9085
100
AcDbEntity
  8
0
  6
ByBlock
 62
     6
100
AcDbLine
 10
304.9332051993841
 20
173.1536139130534
 30
0.0
 11
321.5497661815305
 21
163.5600379570052
 31
0.0
  0
LINE
  5
9088
330
9085
100
AcDbEntity
  8
0
  6
ByBlock
 62
     6
100
AcDbLine
 10
308.0146209123421
 20
184.6536139130536
 30
0.0
 11
327.2017728244382
 21
184.6536139130536
 31
0.0
  0
ARC
  5
9089
330
9085
100
AcDbEntity
  8
0
  6
ByBlock
 62
     6
100
AcDbCircle
 10
285.0146209123419
 20
184.6536139130535
 30
0.0
 40
41.18715191209633
100
AcDbArc
 50
333.4783042860032
 51
356.5216957139969
  0
SOLID
  5
908A
330
9085
100
AcDbEntity
  8
0
  6
ByBlock
 62
     6
100
AcDbTrace
 10
322.234457335755
 20
166.0647547120178
 30
0.0
 11
321.5004564120747
 21
166.4593267440741
 31
0.0
 12
320.683740777746
 22
164.0600379570052
 32
0.0
 13
320.683740777746
 23
164.0600379570052
 33
0.0
  0
SOLID
  5
908B
330
9085
100
AcDbEntity
  8
0
  6
ByBlock
 62
     6
100
AcDbTrace
 10
325.7094249179004
 20
182.1674110552724
 30
0.0
 11
326.5423743802368
 21
182.1421199968159
 31
0.0
 12
326.2017728244382
 22
184.6536139130536
 32
0.0
 13
326.2017728244382
 23
184.6536139130536
 33
0.0
  0
MTEXT
  5
908C
330
9085
100
AcDbEntity
  8
0
  6
ByBlock
 62
     3
100
AcDbMText
 10
322.3835400898042
 20
174.6406421974286
 30
0.0
 40
3.0
 41
0.0
 71
     5
 72
     1
  1
\A1;30°
  7
TXT
 11
0.2588190451025214
 21
0.9659258262890681
 31
0.0
 73
     1
 44
1.0
1001
ACAD
1000
MTEXTBEGIN
1070
    73
1070
     1
1070
    44
1040
1.0
1070
    74
1070
     0
1000
MTEXTEND
  0
POINT
  5
908D
330
9085
100
AcDbEntity
  8
DEFPOINTS
  6
ByBlock
 62
     0
100
AcDbPoint
 10
323.717883635327
 20
170.5667783129022
 30
0.0
  0
POINT
  5
908E
330
9085
100
AcDbEntity
  8
DEFPOINTS
  6
ByBlock
 62
     0
100
AcDbPoint
 10
265.9620620290844
 20
195.6536139130534
 30
0.0
  0
POINT
  5
908F
330
9085
100
AcDbEntity
  8
DEFPOINTS
  6
ByBlock
 62
     0
100
AcDbPoint
 10
263.0146209123421
 20
184.6536139130535
 30
0.0
  0
POINT
  5
9090
330
9085
100
AcDbEntity
  8
DEFPOINTS
  6
ByBlock
 62
     0
100
AcDbPoint
 10
307.0146209123421
 20
184.6536139130535
 30
0.0
  0
POINT
  5
9091
330
9085
100
AcDbEntity
  8
DEFPOINTS
  6
ByBlock
 62
     0
100
AcDbPoint
 10
304.0671797955997
 20
173.6536139130534
 30
0.0
  0
ENDBLK
  5
9092
330
9085
100
AcDbEntity
  8
0
100
AcDbBlockEnd
  0
BLOCK
  5
968F
330
93DD
100
AcDbEntity
  8
0
100
AcDbBlockBegin
  2
*D7
 70
     1
 10
0.0
 20
0.0
 30
0.0
  3
*D7
  1

  0
LINE
  5
9690
330
93DD
100
AcDbEntity
  8
0
  6
ByBlock
 62
     6
100
AcDbLine
 10
74.10943426664949
 20
108.7439365346357
 30
0.0
 11
74.10943426664949
 21
72.18960145525534
 31
0.0
  0
LINE
  5
9691
330
93DD
100
AcDbEntity
  8
0
  6
ByBlock
 62
     6
100
AcDbLine
 10
107.1094342666495
 20
108.7439365346357
 30
0.0
 11
107.1094342666495
 21
72.18960145525534
 31
0.0
  0
LINE
  5
9692
330
93DD
100
AcDbEntity
  8
0
  6
ByBlock
 62
     6
100
AcDbLine
 10
76.60943426664949
 20
73.18960145525534
 30
0.0
 11
104.6094342666495
 21
73.18960145525534
 31
0.0
  0
SOLID
  5
9693
330
93DD
100
AcDbEntity
  8
0
  6
ByBlock
 62
     6
100
AcDbTrace
 10
76.60943426664949
 20
73.60626812192201
 30
0.0
 11
76.60943426664949
 21
72.77293478858867
 31
0.0
 12
74.10943426664949
 22
73.18960145525534
 32
0.0
 13
74.10943426664949
 23
73.18960145525534
 33
0.0
  0
SOLID
  5
9694
330
93DD
100
AcDbEntity
  8
0
  6
ByBlock
 62
     6
100
AcDbTrace
 10
104.6094342666495
 20
73.60626812192201
 30
0.0
 11
104.6094342666495
 21
72.77293478858867
 31
0.0
 12
107.1094342666495
 22
73.18960145525534
 32
0.0
 13
107.1094342666495
 23
73.18960145525534
 33
0.0
  0
MTEXT
  5
9695
330
93DD
100
AcDbEntity
  8
0
  6
ByBlock
 62
     3
100
AcDbMText
 10
90.60943426664948
 20
75.68960145525534
 30
0.0
 40
3.0
 41
0.0
 71
     5
 72
     1
  1
\A1;\U+220532±0.5
  7
TXT
 73
     1
 44
1.0
1001
ACAD
1000
MTEXTBEGIN
1070
    73
1070
     1
1070
    44
1040
1.0
1070
    74
1070
     0
1000
MTEXTEND
  0
POINT
  5
9696
330
93DD
100
AcDbEntity
  8
DEFPOINTS
  6
ByBlock
 62
     0
100
AcDbPoint
 10
74.10943426664949
 20
109.7439365346357
 30
0.0
  0
POINT
  5
9697
330
93DD
100
AcDbEntity
  8
DEFPOINTS
  6
ByBlock
 62
     0
100
AcDbPoint
 10
107.1094342666495
 20
109.7439365346357
 30
0.0
  0
POINT
  5
9698
330
93DD
100
AcDbEntity
  8
DEFPOINTS
  6
ByBlock
 62
     0
100
AcDbPoint
 10
107.1094342666495
 20
73.18960145525534
 30
0.0
  0
ENDBLK
  5
9699
330
93DD
100
AcDbEntity
  8
0
100
AcDbBlockEnd
  0
BLOCK
  5
9537
330
93F5
100
AcDbEntity
  8
0
100
AcDbBlockBegin
  2
*D8
 70
     1
 10
0.0
 20
0.0
 30
0.0
  3
*D8
  1

  0
LINE
  5
9538
330
93F5
100
AcDbEntity
  8
0
  6
ByBlock
 62
     6
100
AcDbLine
 10
295.5146209123418
 20
111.4271275156845
 30
0.0
 11
295.5146209123418
 21
122.5877914260495
 31
0.0
  0
LINE
  5
9539
330
93F5
100
AcDbEntity
  8
0
  6
ByBlock
 62
     6
100
AcDbLine
 10
293.0146209123418
 20
121.5877914260495
 30
0.0
 11
274.5146209123419
 21
121.5877914260495
 31
0.0
  0
SOLID
  5
953A
330
93F5
100
AcDbEntity
  8
0
  6
ByBlock
 62
     6
100
AcDbTrace
 10
293.0146209123418
 20
122.0044580927162
 30
0.0
 11
293.0146209123418
 21
121.1711247593828
 31
0.0
 12
295.5146209123418
 22
121.5877914260495
 32
0.0
 13
295.5146209123418
 23
121.5877914260495
 33
0.0
  0
MTEXT
  5
953B
330
93F5
100
AcDbEntity
  8
0
  6
ByBlock
 62
     3
100
AcDbMText
 10
283.7646209123418
 20
124.0877914260495
 30
0.0
 40
3.0
 41
0.0
 71
     5
 72
     1
  1
\A1;\U+220521
  7
TXT
 73
     1
 44
1.0
1001
ACAD
1000
MTEXTBEGIN
1070
    73
1070
     1
1070
    44
1040
1.0
1070
    74
1070
     0
1000
MTEXTEND
  0
POINT
  5
953C
330
93F5
100
AcDbEntity
  8
DEFPOINTS
  6
ByBlock
 62
     0
100
AcDbPoint
 10
295.5146209123418
 20
110.4271275156845
 30
0.0
  0
POINT
  5
953D
330
93F5
100
AcDbEntity
  8
DEFPOINTS
  6
ByBlock
 62
     0
100
AcDbPoint
 10
274.5146209123419
 20
110.427127515684
 30
0.0
  0
POINT
  5
953E
330
93F5
100
AcDbEntity
  8
DEFPOINTS
  6
ByBlock
 62
     0
100
AcDbPoint
 10
274.5146209123419
 20
121.5877914260495
 30
0.0
  0
ENDBLK
  5
953F
330
93F5
100
AcDbEntity
  8
0
100
AcDbBlockEnd
  0
BLOCK
  5
963A
330
93FF
100
AcDbEntity
  8
0
100
AcDbBlockBegin
  2
*D9
 70
     1
 10
0.0
 20
0.0
 30
0.0
  3
*D9
  1

  0
LINE
  5
963B
330
93FF
100
AcDbEntity
  8
0
  6
ByBlock
 62
     6
100
AcDbLine
 10
100.6094342666495
 20
109.2439365346357
 30
0.0
 11
100.6094342666495
 21
88.19902768786642
 31
0.0
  0
LINE
  5
963C
330
93FF
100
AcDbEntity
  8
0
  6
ByBlock
 62
     6
100
AcDbLine
 10
98.10943426664948
 20
89.19902768786641
 30
0.0
 11
80.60943426664943
 21
89.19902768786641
 31
0.0
  0
MTEXT
  5
963D
330
93FF
100
AcDbEntity
  8
0
  6
ByBlock
 62
     3
100
AcDbMText
 10
90.60943426664946
 20
91.69902768786641
 30
0.0
 40
3.0
 41
0.0
 71
     5
 72
     1
  1
\A1;M20X1.0P
  7
TXT
 73
     1
 44
1.0
1001
ACAD
1000
MTEXTBEGIN
1070
    73
1070
     1
1070
    44
1040
1.0
1070
    74
1070
     0
1000
MTEXTEND
  0
SOLID
  5
963E
330
93FF
100
AcDbEntity
  8
0
  6
ByBlock
 62
     6
100
AcDbTrace
 10
98.10943426664948
 20
89.61569435453309
 30
0.0
 11
98.10943426664948
 21
88.78236102119975
 31
0.0
 12
100.6094342666495
 22
89.19902768786641
 32
0.0
 13
100.6094342666495
 23
89.19902768786641
 33
0.0
  0
POINT
  5
963F
330
93FF
100
AcDbEntity
  8
DEFPOINTS
  6
ByBlock
 62
     0
100
AcDbPoint
 10
100.6094342666495
 20
110.2439365346357
 30
0.0
  0
POINT
  5
9640
330
93FF
100
AcDbEntity
  8
DEFPOINTS
  6
ByBlock
 62
     0
100
AcDbPoint
 10
80.60943426664943
 20
109.7439365346357
 30
0.0
  0
POINT
  5
9641
330
93FF
100
AcDbEntity
  8
DEFPOINTS
  6
ByBlock
 62
     0
100
AcDbPoint
 10
80.60943426664943
 20
89.19902768786641
 30
0.0
  0
ENDBLK
  5
9642
330
93FF
100
AcDbEntity
  8
0
100
AcDbBlockEnd
  0
BLOCK
  5
957E
330
9571
100
AcDbEntity
  8
0
100
AcDbBlockBegin
  2
*D10
 70
     1
 10
0.0
 20
0.0
 30
0.0
  3
*D10
  1

  0
LINE
  5
957F
330
9571
100
AcDbEntity
  8
0
  6
ByBlock
 62
     6
100
AcDbLine
 10
266.5146209123418
 20
110.4271275156845
 30
0.0
 11
250.9493532593233
 21
110.4271275156845
 31
0.0
  0
LINE
  5
9580
330
9571
100
AcDbEntity
  8
0
  6
ByBlock
 62
     6
100
AcDbLine
 10
267.5146209123418
 20
92.42712751568454
 30
0.0
 11
250.9493532593233
 21
92.42712751568454
 31
0.0
  0
LINE
  5
9581
330
9571
100
AcDbEntity
  8
0
  6
ByBlock
 62
     6
100
AcDbLine
 10
251.9493532593233
 20
107.9271275156845
 30
0.0
 11
251.9493532593233
 21
94.92712751568454
 31
0.0
  0
SOLID
  5
9582
330
9571
100
AcDbEntity
  8
0
  6
ByBlock
 62
     6
100
AcDbTrace
 10
251.5326865926566
 20
107.9271275156845
 30
0.0
 11
252.36601992599
 21
107.9271275156845
 31
0.0
 12
251.9493532593233
 22
110.4271275156845
 32
0.0
 13
251.9493532593233
 23
110.4271275156845
 33
0.0
  0
SOLID
  5
9583
330
9571
100
AcDbEntity
  8
0
  6
ByBlock
 62
     6
100
AcDbTrace
 10
251.5326865926566
 20
94.92712751568454
 30
0.0
 11
252.36601992599
 21
94.92712751568454
 31
0.0
 12
251.9493532593233
 22
92.42712751568454
 32
0.0
 13
251.9493532593233
 23
92.42712751568454
 33
0.0
  0
MTEXT
  5
9584
330
9571
100
AcDbEntity
  8
0
  6
ByBlock
 62
     3
100
AcDbMText
 10
249.4493532593233
 20
101.4271275156845
 30
0.0
 40
3.0
 41
0.0
 71
     5
 72
     1
  1
\A1;18±0.2
  7
TXT
 11
0.0000000000000001
 21
1.0
 31
0.0
 73
     1
 44
1.0
1001
ACAD
1000
MTEXTBEGIN
1070
    73
1070
     1
1070
    44
1040
1.0
1070
    74
1070
     0
1000
MTEXTEND
  0
POINT
  5
9585
330
9571
100
AcDbEntity
  8
DEFPOINTS
  6
ByBlock
 62
     0
100
AcDbPoint
 10
267.5146209123418
 20
110.4271275156845
 30
0.0
  0
POINT
  5
9586
330
9571
100
AcDbEntity
  8
DEFPOINTS
  6
ByBlock
 62
     0
100
AcDbPoint
 10
268.5146209123418
 20
92.42712751568454
 30
0.0
  0
POINT
  5
9587
330
9571
100
AcDbEntity
  8
DEFPOINTS
  6
ByBlock
 62
     0
100
AcDbPoint
 10
251.9493532593233
 20
92.42712751568454
 30
0.0
  0
ENDBLK
  5
9588
330
9571
100
AcDbEntity
  8
0
100
AcDbBlockEnd
  0
BLOCK
  5
966D
330
9589
100
AcDbEntity
  8
0
100
AcDbBlockBegin
  2
*D11
 70
     1
 10
0.0
 20
0.0
 30
0.0
  3
*D11
  1

  0
LINE
  5
966E
330
9589
100
AcDbEntity
  8
0
  6
ByBlock
 62
     6
100
AcDbLine
 10
102.1094342666495
 20
124.7439365346357
 30
0.0
 11
127.6079598663884
 21
124.7439365346357
 31
0.0
  0
LINE
  5
966F
330
9589
100
AcDbEntity
  8
0
  6
ByBlock
 62
     6
100
AcDbLine
 10
109.1094342666495
 20
127.7439365346357
 30
0.0
 11
127.6079598663884
 21
127.7439365346357
 31
0.0
  0
LINE
  5
9670
330
9589
100
AcDbEntity
  8
0
  6
ByBlock
 62
     6
100
AcDbLine
 10
126.6079598663884
 20
122.2439365346357
 30
0.0
 11
126.6079598663884
 21
119.7439365346357
 31
0.0
  0
LINE
  5
9671
330
9589
100
AcDbEntity
  8
0
  6
ByBlock
 62
     6
100
AcDbLine
 10
126.6079598663884
 20
130.2439365346357
 30
0.0
 11
126.6079598663884
 21
132.7439365346357
 31
0.0
  0
MTEXT
  5
9672
330
9589
100
AcDbEntity
  8
0
  6
ByBlock
 62
     3
100
AcDbMText
 10
124.1079598663884
 20
126.2439365346357
 30
0.0
 40
3.0
 41
0.0
 71
     5
 72
     1
  1
\A1;3
  7
TXT
 11
0.0000000000000001
 21
1.0
 31
0.0
 73
     1
 44
1.0
1001
ACAD
1000
MTEXTBEGIN
1070
    73
1070
     1
1070
    44
1040
1.0
1070
    74
1070
     0
1000
MTEXTEND
  0
LINE
  5
9673
330
9589
100
AcDbEntity
  8
0
  6
ByBlock
 62
     6
100
AcDbLine
 10
126.6079598663884
 20
124.7439365346357
 30
0.0
 11
126.6079598663884
 21
127.7439365346357
 31
0.0
  0
SOLID
  5
9674
330
9589
100
AcDbEntity
  8
0
  6
ByBlock
 62
     6
100
AcDbTrace
 10
126.1912931997217
 20
122.2439365346357
 30
0.0
 11
127.0246265330551
 21
122.2439365346357
 31
0.0
 12
126.6079598663884
 22
124.7439365346357
 32
0.0
 13
126.6079598663884
 23
124.7439365346357
 33
0.0
  0
SOLID
  5
9675
330
9589
100
AcDbEntity
  8
0
  6
ByBlock
 62
     6
100
AcDbTrace
 10
126.1912931997217
 20
130.2439365346357
 30
0.0
 11
127.0246265330551
 21
130.2439365346357
 31
0.0
 12
126.6079598663884
 22
127.7439365346357
 32
0.0
 13
126.6079598663884
 23
127.7439365346357
 33
0.0
  0
POINT
  5
9676
330
9589
100
AcDbEntity
  8
DEFPOINTS
  6
ByBlock
 62
     0
100
AcDbPoint
 10
101.1094342666495
 20
124.7439365346357
 30
0.0
  0
POINT
  5
9677
330
9589
100
AcDbEntity
  8
DEFPOINTS
  6
ByBlock
 62
     0
100
AcDbPoint
 10
108.1094342666495
 20
127.7439365346357
 30
0.0
  0
POINT
  5
9678
330
9589
100
AcDbEntity
  8
DEFPOINTS
  6
ByBlock
 62
     0
100
AcDbPoint
 10
126.6079598663884
 20
127.7439365346357
 30
0.0
  0
ENDBLK
  5
9679
330
9589
100
AcDbEntity
  8
0
100
AcDbBlockEnd
  0
BLOCK
  5
95C2
330
95C1
100
AcDbEntity
  8
0
100
AcDbBlockBegin
  2
*D12
 70
     1
 10
0.0
 20
0.0
 30
0.0
  3
*D12
  1

  0
LINE
  5
95C3
330
95C1
100
AcDbEntity
  8
0
  6
ByBlock
 62
     6
100
AcDbLine
 10
305.8806463161263
 20
105.4837518427105
 30
0.0
 11
326.866729636163
 21
93.36743098865209
 31
0.0
  0
LINE
  5
95C4
330
95C1
100
AcDbEntity
  8
0
  6
ByBlock
 62
     6
100
AcDbLine
 10
303.5146209123418
 20
110.4271275156845
 30
0.0
 11
331.4378615437012
 21
110.4271275156845
 31
0.0
  0
ARC
  5
95C5
330
95C1
100
AcDbEntity
  8
0
  6
ByBlock
 62
     6
100
AcDbCircle
 10
297.3184684896349
 20
110.4271275156845
 30
0.0
 40
33.11939305406629
100
AcDbArc
 50
334.3259692965261
 51
355.6740307034752
  0
SOLID
  5
95C6
330
95C1
100
AcDbEntity
  8
0
  6
ByBlock
 62
     6
100
AcDbTrace
 10
327.5365490619851
 20
95.88356386385701
 30
0.0
 11
326.799649490048
 21
96.27269554506966
 31
0.0
 12
326.0007042323786
 22
93.86743098865208
 32
0.0
 13
326.0007042323786
 23
93.86743098865208
 33
0.0
  0
SOLID
  5
95C7
330
95C1
100
AcDbEntity
  8
0
  6
ByBlock
 62
     6
100
AcDbTrace
 10
329.9271361548673
 20
107.9446346781698
 30
0.0
 11
330.759875744809
 21
107.9131828135488
 31
0.0
 12
330.4378615437012
 22
110.4271275156845
 32
0.0
 13
330.4378615437012
 23
110.4271275156845
 33
0.0
  0
MTEXT
  5
95C8
330
95C1
100
AcDbEntity
  8
0
  6
ByBlock
 62
     3
100
AcDbMText
 10
326.8945310258537
 20
102.5022454438127
 30
0.0
 40
3.0
 41
0.0
 71
     5
 72
     1
  1
\A1;30°
  7
TXT
 11
0.2588190451025119
 21
0.9659258262890705
 31
0.0
 73
     1
 44
1.0
1001
ACAD
1000
MTEXTBEGIN
1070
    73
1070
     1
1070
    44
1040
1.0
1070
    74
1070
     0
1000
MTEXTEND
  0
POINT
  5
95C9
330
95C1
100
AcDbEntity
  8
DEFPOINTS
  6
ByBlock
 62
     0
100
AcDbPoint
 10
328.4405177474492
 20
99.09962795647409
 30
0.0
  0
POINT
  5
95CA
330
95C1
100
AcDbEntity
  8
DEFPOINTS
  6
ByBlock
 62
     0
100
AcDbPoint
 10
267.5146209123418
 20
110.4271275156846
 30
0.0
  0
POINT
  5
95CB
330
95C1
100
AcDbEntity
  8
DEFPOINTS
  6
ByBlock
 62
     0
100
AcDbPoint
 10
302.5146209123418
 20
107.4271275156845
 30
0.0
  0
POINT
  5
95CC
330
95C1
100
AcDbEntity
  8
DEFPOINTS
  6
ByBlock
 62
     0
100
AcDbPoint
 10
305.0146209123418
 20
105.9837518427105
 30
0.0
  0
POINT
  5
95CD
330
95C1
100
AcDbEntity
  8
DEFPOINTS
  6
ByBlock
 62
     0
100
AcDbPoint
 10
302.5146209123418
 20
110.4271275156845
 30
0.0
  0
ENDBLK
  5
95CE
330
95C1
100
AcDbEntity
  8
0
100
AcDbBlockEnd
  0
BLOCK
  5
95DF
330
95D0
100
AcDbEntity
  8
0
100
AcDbBlockBegin
  2
*D13
 70
     1
 10
0.0
 20
0.0
 30
0.0
  3
*D13
  1

  0
LINE
  5
95E0
330
95D0
100
AcDbEntity
  8
0
  6
ByBlock
 62
     6
100
AcDbLine
 10
305.0036620140825
 20
94.47037313527065
 30
0.0
 11
329.825456108773
 21
80.37062425153697
 31
0.0
  0
LINE
  5
95E1
330
95D0
100
AcDbEntity
  8
0
  6
ByBlock
 62
     6
100
AcDbLine
 10
303.5146209123418
 20
110.4271275156846
 30
0.0
 11
337.7662407047445
 21
110.4271275156846
 31
0.0
  0
ARC
  5
95E2
330
95D0
100
AcDbEntity
  8
0
  6
ByBlock
 62
     6
100
AcDbCircle
 10
276.9127169258957
 20
110.4271275156845
 30
0.0
 40
59.85352377884875
100
AcDbArc
 50
332.7950729111802
 51
357.6066594878666
  0
SOLID
  5
95E3
330
95D0
100
AcDbEntity
  8
0
  6
ByBlock
 62
     6
100
AcDbTrace
 10
330.5115827897631
 20
82.86544113747448
 30
0.0
 11
329.7785533625698
 21
83.26181508126138
 31
0.0
 12
328.9559462448057
 22
80.86453982778818
 32
0.0
 13
328.9559462448057
 23
80.86453982778818
 33
0.0
  0
SOLID
  5
95E4
330
95D0
100
AcDbEntity
  8
0
  6
ByBlock
 62
     6
100
AcDbTrace
 10
336.297454119558
 20
107.9363745675462
 30
0.0
 11
337.1306057019373
 21
107.9189709695473
 31
0.0
 12
336.7662407047445
 22
110.4271275156846
 32
0.0
 13
336.7662407047445
 23
110.4271275156846
 33
0.0
  0
MTEXT
  5
95E5
330
95D0
100
AcDbEntity
  8
0
  6
ByBlock
 62
     3
100
AcDbMText
 10
332.3636666178247
 20
95.77725147135801
 30
0.0
 40
3.0
 41
0.0
 71
     5
 72
     1
  1
\A1;30°
  7
TXT
 11
0.255431141438065
 21
0.9668272503315405
 31
0.0
 73
     1
 44
1.0
1001
ACAD
1000
MTEXTBEGIN
1070
    73
1070
     1
1070
    44
1040
1.0
1070
    74
1070
     0
1000
MTEXTEND
  0
POINT
  5
95E6
330
95D0
100
AcDbEntity
  8
DEFPOINTS
  6
ByBlock
 62
     0
100
AcDbPoint
 10
333.2517062644295
 20
90.21914421556777
 30
0.0
  0
POINT
  5
95E7
330
95D0
100
AcDbEntity
  8
DEFPOINTS
  6
ByBlock
 62
     0
100
AcDbPoint
 10
267.5146209123418
 20
110.4271275156845
 30
0.0
  0
POINT
  5
95E8
330
95D0
100
AcDbEntity
  8
DEFPOINTS
  6
ByBlock
 62
     0
100
AcDbPoint
 10
304.1341521501152
 20
94.96428871152188
 30
0.0
  0
POINT
  5
95E9
330
95D0
100
AcDbEntity
  8
DEFPOINTS
  6
ByBlock
 62
     0
100
AcDbPoint
 10
293.5146209123418
 20
100.9965973812485
 30
0.0
  0
POINT
  5
95EA
330
95D0
100
AcDbEntity
  8
DEFPOINTS
  6
ByBlock
 62
     0
100
AcDbPoint
 10
302.5146209123418
 20
110.4271275156846
 30
0.0
  0
ENDBLK
  5
95EB
330
95D0
100
AcDbEntity
  8
0
100
AcDbBlockEnd
  0
BLOCK
  5
96F5
330
96F4
100
AcDbEntity
  8
0
100
AcDbBlockBegin
  2
_Open30
 70
     0
 10
0.0
 20
0.0
 30
0.0
  3
_Open30
  1

  0
LINE
  5
96F6
330
96F4
100
AcDbEntity
  8
0
  6
ByBlock
 62
     0
370
    -2
100
AcDbLine
 10
-1.0
 20
0.26794919
 30
0.0
 11
0.0
 21
0.0
 31
0.0
  0
LINE
  5
96F7
330
96F4
100
AcDbEntity
  8
0
  6
ByBlock
 62
     0
370
    -2
100
AcDbLine
 10
0.0
 20
0.0
 30
0.0
 11
-1.0
 21
-0.26794919
 31
0.0
  0
LINE
  5
96F8
330
96F4
100
AcDbEntity
  8
0
  6
ByBlock
 62
     0
370
    -2
100
AcDbLine
 10
0.0
 20
0.0
 30
0.0
 11
-1.0
 21
0.0
 31
0.0
  0
ENDBLK
  5
96F9
330
96F4
100
AcDbEntity
  8
0
100
AcDbBlockEnd
  0
BLOCK
  5
97E8
330
97E6
100
AcDbEntity
  8
0
100
AcDbBlockBegin
  2
GENAXEH
 70
     0
 10
0.0
 20
0.0
 30
0.0
  3
GENAXEH
  1

  0
LINE
  5
97E7
330
97E6
100
AcDbEntity
  8
0
100
AcDbLine
 10
-1.0
 20
0.0
 30
0.0
 11
1.0
 21
0.0
 31
0.0
  0
ENDBLK
  5
97E9
330
97E6
100
AcDbEntity
  8
0
100
AcDbBlockEnd
  0
BLOCK
  5
9900
330
98FF
100
AcDbEntity
  8
0
100
AcDbBlockBegin
  2
*D16
 70
     1
 10
0.0
 20
0.0
 30
0.0
  3
*D16
  1

  0
LINE
  5
9995
330
98FF
100
AcDbEntity
  8
DIM
 62
     6
370
    -2
100
AcDbLine
 10
308.5280185536916
 20
190.4704229320045
 30
0.0
 11
325.1445795358379
 21
180.8768469759564
 31
0.0
  0
LINE
  5
9996
330
98FF
100
AcDbEntity
  8
DIM
 62
     6
370
    -2
100
AcDbLine
 10
311.6094342666495
 20
201.9704229320047
 30
0.0
 11
330.7965861787456
 21
201.9704229320048
 31
0.0
  0
ARC
  5
9997
330
98FF
100
AcDbEntity
  8
DIM
 62
     6
370
    -2
100
AcDbCircle
 10
288.6094342666492
 20
201.9704229320047
 30
0.0
 40
41.18715191209633
100
AcDbArc
 50
333.4783042860032
 51
356.5216957139969
  0
SOLID
  5
9998
330
98FF
100
AcDbEntity
  8
DIM
 62
     6
100
AcDbTrace
 10
325.8292706900625
 20
183.381563730969
 30
0.0
 11
325.0952697663822
 21
183.7761357630253
 31
0.0
 12
324.2785541320535
 22
181.3768469759565
 32
0.0
 13
324.2785541320535
 23
181.3768469759565
 33
0.0
  0
SOLID
  5
9999
330
98FF
100
AcDbEntity
  8
DIM
 62
     6
100
AcDbTrace
 10
329.3042382722078
 20
199.4842200742235
 30
0.0
 11
330.1371877345442
 21
199.458929015767
 31
0.0
 12
329.7965861787456
 22
201.9704229320048
 32
0.0
 13
329.7965861787456
 23
201.9704229320048
 33
0.0
  0
MTEXT
  5
999A
330
98FF
100
AcDbEntity
  8
DIM
 62
     3
100
AcDbMText
 10
325.9783534441116
 20
191.9574512163797
 30
0.0
 40
3.0
 41
0.0
 71
     5
 72
     1
  1
\A1;30°
  7
TXT
 11
0.2588190451025205
 21
0.9659258262890682
 31
0.0
 73
     1
 44
1.0
1001
ACAD
1000
MTEXTBEGIN
1070
    73
1070
     1
1070
    44
1040
1.0
1070
    74
1070
     0
1000
MTEXTEND
  0
POINT
  5
999B
330
98FF
100
AcDbEntity
  8
DEFPOINTS
 62
     0
100
AcDbPoint
 10
327.3126969896344
 20
187.8835873318534
 30
0.0
  0
POINT
  5
999C
330
98FF
100
AcDbEntity
  8
DEFPOINTS
 62
     0
100
AcDbPoint
 10
269.5568753833918
 20
212.9704229320046
 30
0.0
  0
POINT
  5
999D
330
98FF
100
AcDbEntity
  8
DEFPOINTS
 62
     0
100
AcDbPoint
 10
266.6094342666495
 20
201.9704229320046
 30
0.0
  0
POINT
  5
999E
330
98FF
100
AcDbEntity
  8
DEFPOINTS
 62
     0
100
AcDbPoint
 10
310.6094342666495
 20
201.9704229320047
 30
0.0
  0
POINT
  5
999F
330
98FF
100
AcDbEntity
  8
DEFPOINTS
 62
     0
100
AcDbPoint
 10
307.6619931499071
 20
190.9704229320045
 30
0.0
  0
ENDBLK
  5
9901
330
98FF
100
AcDbEntity
  8
0
100
AcDbBlockEnd
  0
BLOCK
  5
990E
330
990D
100
AcDbEntity
  8
0
100
AcDbBlockBegin
  2
*D17
 70
     1
 10
0.0
 20
0.0
 30
0.0
  3
*D17
  1

  0
LINE
  5
99A0
330
990D
100
AcDbEntity
  8
DIM
 62
     6
370
    -2
100
AcDbLine
 10
272.1094342666493
 20
108.7439365346357
 30
0.0
 11
272.1094342666493
 21
72.18960145525534
 31
0.0
  0
LINE
  5
99A1
330
990D
100
AcDbEntity
  8
DIM
 62
     6
370
    -2
100
AcDbLine
 10
305.1094342666492
 20
108.7439365346357
 30
0.0
 11
305.1094342666492
 21
72.18960145525534
 31
0.0
  0
LINE
  5
99A2
330
990D
100
AcDbEntity
  8
DIM
 62
     6
370
    -2
100
AcDbLine
 10
274.6094342666493
 20
73.18960145525534
 30
0.0
 11
302.6094342666493
 21
73.18960145525534
 31
0.0
  0
SOLID
  5
99A3
330
990D
100
AcDbEntity
  8
DIM
 62
     6
100
AcDbTrace
 10
274.6094342666493
 20
73.60626812192201
 30
0.0
 11
274.6094342666493
 21
72.77293478858867
 31
0.0
 12
272.1094342666493
 22
73.18960145525534
 32
0.0
 13
272.1094342666493
 23
73.18960145525534
 33
0.0
  0
SOLID
  5
99A4
330
990D
100
AcDbEntity
  8
DIM
 62
     6
100
AcDbTrace
 10
302.6094342666493
 20
73.60626812192201
 30
0.0
 11
302.6094342666493
 21
72.77293478858867
 31
0.0
 12
305.1094342666492
 22
73.18960145525534
 32
0.0
 13
305.1094342666492
 23
73.18960145525534
 33
0.0
  0
MTEXT
  5
99A5
330
990D
100
AcDbEntity
  8
DIM
 62
     3
100
AcDbMText
 10
288.6094342666492
 20
75.68960145525534
 30
0.0
 40
3.0
 41
0.0
 71
     5
 72
     1
  1
\A1;%%c32%%p0.5
  7
TXT
 73
     1
 44
1.0
1001
ACAD
1000
MTEXTBEGIN
1070
    73
1070
     1
1070
    44
1040
1.0
1070
    74
1070
     0
1000
MTEXTEND
  0
POINT
  5
99A6
330
990D
100
AcDbEntity
  8
DEFPOINTS
 62
     0
100
AcDbPoint
 10
272.1094342666493
 20
109.7439365346357
 30
0.0
  0
POINT
  5
99A7
330
990D
100
AcDbEntity
  8
DEFPOINTS
 62
     0
100
AcDbPoint
 10
305.1094342666492
 20
109.7439365346357
 30
0.0
  0
POINT
  5
99A8
330
990D
100
AcDbEntity
  8
DEFPOINTS
 62
     0
100
AcDbPoint
 10
305.1094342666492
 20
73.18960145525534
 30
0.0
  0
ENDBLK
  5
990F
330
990D
100
AcDbEntity
  8
0
100
AcDbBlockEnd
  0
BLOCK
  5
991A
330
9919
100
AcDbEntity
  8
0
100
AcDbBlockBegin
  2
*D18
 70
     1
 10
0.0
 20
0.0
 30
0.0
  3
*D18
  1

  0
LINE
  5
99A9
330
9919
100
AcDbEntity
  8
DIM
 62
     6
370
    -2
100
AcDbLine
 10
299.1094342666493
 20
128.7439365346357
 30
0.0
 11
299.1094342666493
 21
139.9046004450007
 31
0.0
  0
LINE
  5
99AA
330
9919
100
AcDbEntity
  8
DIM
 62
     6
370
    -2
100
AcDbLine
 10
296.6094342666492
 20
138.9046004450007
 30
0.0
 11
280.6094342666494
 21
138.9046004450007
 31
0.0
  0
SOLID
  5
99AB
330
9919
100
AcDbEntity
  8
DIM
 62
     6
100
AcDbTrace
 10
296.6094342666492
 20
139.3212671116673
 30
0.0
 11
296.6094342666492
 21
138.487933778334
 31
0.0
 12
299.1094342666493
 22
138.9046004450007
 32
0.0
 13
299.1094342666493
 23
138.9046004450007
 33
0.0
  0
SOLID
  5
99AC
330
9919
100
AcDbEntity
  8
DIM
 62
     6
100
AcDbTrace
 10
280.6094342666494
 20
139.3212671116673
 30
0.0
 11
280.6094342666494
 21
138.487933778334
 31
0.0
 12
278.1094342666494
 22
138.9046004450007
 32
0.0
 13
278.1094342666494
 23
138.9046004450007
 33
0.0
  0
MTEXT
  5
99AD
330
9919
100
AcDbEntity
  8
DIM
 62
     3
100
AcDbMText
 10
288.6094342666493
 20
141.4046004450007
 30
0.0
 40
3.0
 41
0.0
 71
     5
 72
     1
  1
\A1;%%c21
  7
TXT
 73
     1
 44
1.0
1001
ACAD
1000
MTEXTBEGIN
1070
    73
1070
     1
1070
    44
1040
1.0
1070
    74
1070
     0
1000
MTEXTEND
  0
POINT
  5
99AE
330
9919
100
AcDbEntity
  8
DEFPOINTS
 62
     0
100
AcDbPoint
 10
299.1094342666493
 20
127.7439365346357
 30
0.0
  0
POINT
  5
99AF
330
9919
100
AcDbEntity
  8
DEFPOINTS
 62
     0
100
AcDbPoint
 10
278.1094342666494
 20
127.7439365346352
 30
0.0
  0
POINT
  5
99B0
330
9919
100
AcDbEntity
  8
DEFPOINTS
 62
     0
100
AcDbPoint
 10
278.1094342666494
 20
138.9046004450007
 30
0.0
  0
ENDBLK
  5
991B
330
9919
100
AcDbEntity
  8
0
100
AcDbBlockEnd
  0
BLOCK
  5
9925
330
9924
100
AcDbEntity
  8
0
100
AcDbBlockBegin
  2
*D19
 70
     1
 10
0.0
 20
0.0
 30
0.0
  3
*D19
  1

  0
LINE
  5
99B1
330
9924
100
AcDbEntity
  8
DIM
 62
     6
370
    -2
100
AcDbLine
 10
298.6094342666492
 20
109.2439365346357
 30
0.0
 11
298.6094342666492
 21
88.19902768786642
 31
0.0
  0
LINE
  5
99B2
330
9924
100
AcDbEntity
  8
DIM
 62
     6
370
    -2
100
AcDbLine
 10
296.1094342666493
 20
89.19902768786641
 30
0.0
 11
281.1094342666492
 21
89.19902768786641
 31
0.0
  0
MTEXT
  5
99B3
330
9924
100
AcDbEntity
  8
DIM
 62
     3
100
AcDbMText
 10
288.6094342666492
 20
91.69902768786641
 30
0.0
 40
3.0
 41
0.0
 71
     5
 72
     1
  1
\A1;M20X1.0P
  7
TXT
 73
     1
 44
1.0
1001
ACAD
1000
MTEXTBEGIN
1070
    73
1070
     1
1070
    44
1040
1.0
1070
    74
1070
     0
1000
MTEXTEND
  0
SOLID
  5
99B4
330
9924
100
AcDbEntity
  8
DIM
 62
     6
100
AcDbTrace
 10
296.1094342666493
 20
89.61569435453309
 30
0.0
 11
296.1094342666493
 21
88.78236102119975
 31
0.0
 12
298.6094342666492
 22
89.19902768786641
 32
0.0
 13
298.6094342666492
 23
89.19902768786641
 33
0.0
  0
SOLID
  5
99B5
330
9924
100
AcDbEntity
  8
DIM
 62
     6
100
AcDbTrace
 10
281.1094342666492
 20
89.61569435453309
 30
0.0
 11
281.1094342666492
 21
88.78236102119975
 31
0.0
 12
278.6094342666492
 22
89.19902768786641
 32
0.0
 13
278.6094342666492
 23
89.19902768786641
 33
0.0
  0
POINT
  5
99B6
330
9924
100
AcDbEntity
  8
DEFPOINTS
 62
     0
100
AcDbPoint
 10
298.6094342666492
 20
110.2439365346357
 30
0.0
  0
POINT
  5
99B7
330
9924
100
AcDbEntity
  8
DEFPOINTS
 62
     0
100
AcDbPoint
 10
278.6094342666492
 20
109.7439365346357
 30
0.0
  0
POINT
  5
99B8
330
9924
100
AcDbEntity
  8
DEFPOINTS
 62
     0
100
AcDbPoint
 10
278.6094342666492
 20
89.19902768786641
 30
0.0
  0
ENDBLK
  5
9926
330
9924
100
AcDbEntity
  8
0
100
AcDbBlockEnd
  0
BLOCK
  5
9930
330
992F
100
AcDbEntity
  8
0
100
AcDbBlockBegin
  2
*D20
 70
     1
 10
0.0
 20
0.0
 30
0.0
  3
*D20
  1

  0
LINE
  5
99B9
330
992F
100
AcDbEntity
  8
DIM
 62
     6
370
    -2
100
AcDbLine
 10
270.1094342666493
 20
127.7439365346357
 30
0.0
 11
254.5441666136308
 21
127.7439365346357
 31
0.0
  0
LINE
  5
99BA
330
992F
100
AcDbEntity
  8
DIM
 62
     6
370
    -2
100
AcDbLine
 10
271.1094342666493
 20
109.7439365346357
 30
0.0
 11
254.5441666136308
 21
109.7439365346357
 31
0.0
  0
LINE
  5
99BB
330
992F
100
AcDbEntity
  8
DIM
 62
     6
370
    -2
100
AcDbLine
 10
255.5441666136307
 20
125.2439365346357
 30
0.0
 11
255.5441666136307
 21
112.2439365346357
 31
0.0
  0
SOLID
  5
99BC
330
992F
100
AcDbEntity
  8
DIM
 62
     6
100
AcDbTrace
 10
255.1274999469641
 20
125.2439365346357
 30
0.0
 11
255.9608332802974
 21
125.2439365346357
 31
0.0
 12
255.5441666136307
 22
127.7439365346357
 32
0.0
 13
255.5441666136307
 23
127.7439365346357
 33
0.0
  0
SOLID
  5
99BD
330
992F
100
AcDbEntity
  8
DIM
 62
     6
100
AcDbTrace
 10
255.1274999469641
 20
112.2439365346357
 30
0.0
 11
255.9608332802974
 21
112.2439365346357
 31
0.0
 12
255.5441666136307
 22
109.7439365346357
 32
0.0
 13
255.5441666136307
 23
109.7439365346357
 33
0.0
  0
MTEXT
  5
99BE
330
992F
100
AcDbEntity
  8
DIM
 62
     3
100
AcDbMText
 10
253.0441666136307
 20
118.7439365346357
 30
0.0
 40
3.0
 41
0.0
 71
     5
 72
     1
  1
\A1;18%%p0.2
  7
TXT
 11
0.0000000000000001
 21
1.0
 31
0.0
 73
     1
 44
1.0
1001
ACAD
1000
MTEXTBEGIN
1070
    73
1070
     1
1070
    44
1040
1.0
1070
    74
1070
     0
1000
MTEXTEND
  0
POINT
  5
99BF
330
992F
100
AcDbEntity
  8
DEFPOINTS
 62
     0
100
AcDbPoint
 10
271.1094342666493
 20
127.7439365346357
 30
0.0
  0
POINT
  5
99C0
330
992F
100
AcDbEntity
  8
DEFPOINTS
 62
     0
100
AcDbPoint
 10
272.1094342666493
 20
109.7439365346357
 30
0.0
  0
POINT
  5
99C1
330
992F
100
AcDbEntity
  8
DEFPOINTS
 62
     0
100
AcDbPoint
 10
255.5441666136307
 20
109.7439365346357
 30
0.0
  0
ENDBLK
  5
9931
330
992F
100
AcDbEntity
  8
0
100
AcDbBlockEnd
  0
BLOCK
  5
993C
330
993B
100
AcDbEntity
  8
0
100
AcDbBlockBegin
  2
*D21
 70
     1
 10
0.0
 20
0.0
 30
0.0
  3
*D21
  1

  0
LINE
  5
99C2
330
993B
100
AcDbEntity
  8
DIM
 62
     6
370
    -2
100
AcDbLine
 10
271.1094342666493
 20
128.7439365346357
 30
0.0
 11
271.1094342666493
 21
146.3406254398385
 31
0.0
  0
LINE
  5
99C3
330
993B
100
AcDbEntity
  8
DIM
 62
     6
370
    -2
100
AcDbLine
 10
306.1094342666493
 20
128.7439365346357
 30
0.0
 11
306.1094342666493
 21
146.3406254398385
 31
0.0
  0
LINE
  5
99C4
330
993B
100
AcDbEntity
  8
DIM
 62
     6
370
    -2
100
AcDbLine
 10
273.6094342666492
 20
145.3406254398385
 30
0.0
 11
303.6094342666493
 21
145.3406254398385
 31
0.0
  0
SOLID
  5
99C5
330
993B
100
AcDbEntity
  8
DIM
 62
     6
100
AcDbTrace
 10
273.6094342666492
 20
145.7572921065051
 30
0.0
 11
273.6094342666492
 21
144.9239587731718
 31
0.0
 12
271.1094342666493
 22
145.3406254398385
 32
0.0
 13
271.1094342666493
 23
145.3406254398385
 33
0.0
  0
SOLID
  5
99C6
330
993B
100
AcDbEntity
  8
DIM
 62
     6
100
AcDbTrace
 10
303.6094342666493
 20
145.7572921065051
 30
0.0
 11
303.6094342666493
 21
144.9239587731718
 31
0.0
 12
306.1094342666493
 22
145.3406254398385
 32
0.0
 13
306.1094342666493
 23
145.3406254398385
 33
0.0
  0
MTEXT
  5
99C7
330
993B
100
AcDbEntity
  8
DIM
 62
     3
100
AcDbMText
 10
288.6094342666492
 20
147.8406254398385
 30
0.0
 40
3.0
 41
0.0
 71
     5
 72
     1
  1
\A1;%%c35%%p0.5
  7
TXT
 73
     1
 44
1.0
1001
ACAD
1000
MTEXTBEGIN
1070
    73
1070
     1
1070
    44
1040
1.0
1070
    74
1070
     0
1000
MTEXTEND
  0
POINT
  5
99C8
330
993B
100
AcDbEntity
  8
DEFPOINTS
 62
     0
100
AcDbPoint
 10
271.1094342666493
 20
127.7439365346357
 30
0.0
  0
POINT
  5
99C9
330
993B
100
AcDbEntity
  8
DEFPOINTS
 62
     0
100
AcDbPoint
 10
306.1094342666493
 20
127.7439365346357
 30
0.0
  0
POINT
  5
99CA
330
993B
100
AcDbEntity
  8
DEFPOINTS
 62
     0
100
AcDbPoint
 10
306.1094342666493
 20
145.3406254398385
 30
0.0
  0
ENDBLK
  5
993D
330
993B
100
AcDbEntity
  8
0
100
AcDbBlockEnd
  0
BLOCK
  5
9948
330
9947
100
AcDbEntity
  8
0
100
AcDbBlockBegin
  2
*D22
 70
     1
 10
0.0
 20
0.0
 30
0.0
  3
*D22
  1

  0
LINE
  5
99CB
330
9947
100
AcDbEntity
  8
DIM
 62
     6
370
    -2
100
AcDbLine
 10
268.6094342666493
 20
124.3005608616617
 30
0.0
 11
268.6094342666493
 21
153.4202948637195
 31
0.0
  0
LINE
  5
99CC
330
9947
100
AcDbEntity
  8
DIM
 62
     6
370
    -2
100
AcDbLine
 10
308.6094342666493
 20
124.3005608616617
 30
0.0
 11
308.6094342666493
 21
153.4202948637195
 31
0.0
  0
LINE
  5
99CD
330
9947
100
AcDbEntity
  8
DIM
 62
     6
370
    -2
100
AcDbLine
 10
271.1094342666493
 20
152.4202948637195
 30
0.0
 11
306.1094342666493
 21
152.4202948637195
 31
0.0
  0
MTEXT
  5
99CE
330
9947
100
AcDbEntity
  8
DIM
 62
     3
100
AcDbMText
 10
283.0845208974727
 20
155.7327158878077
 30
0.0
 40
3.0
 41
0.0
 71
     5
 72
     1
  1
\A1;%%c40
  7
TXT
 73
     1
 44
1.0
1001
ACAD
1000
MTEXTBEGIN
1070
    73
1070
     1
1070
    44
1040
1.0
1070
    74
1070
     0
1000
MTEXTEND
  0
SOLID
  5
99CF
330
9947
100
AcDbEntity
  8
DIM
 62
     6
100
AcDbTrace
 10
271.1094342666493
 20
152.8369615303861
 30
0.0
 11
271.1094342666493
 21
152.0036281970528
 31
0.0
 12
268.6094342666493
 22
152.4202948637195
 32
0.0
 13
268.6094342666493
 23
152.4202948637195
 33
0.0
  0
SOLID
  5
99D0
330
9947
100
AcDbEntity
  8
DIM
 62
     6
100
AcDbTrace
 10
306.1094342666493
 20
152.8369615303861
 30
0.0
 11
306.1094342666493
 21
152.0036281970528
 31
0.0
 12
308.6094342666493
 22
152.4202948637195
 32
0.0
 13
308.6094342666493
 23
152.4202948637195
 33
0.0
  0
POINT
  5
99D1
330
9947
100
AcDbEntity
  8
DEFPOINTS
 62
     0
100
AcDbPoint
 10
268.6094342666493
 20
123.3005608616617
 30
0.0
  0
POINT
  5
99D2
330
9947
100
AcDbEntity
  8
DEFPOINTS
 62
     0
100
AcDbPoint
 10
308.6094342666493
 20
123.3005608616617
 30
0.0
  0
POINT
  5
99D3
330
9947
100
AcDbEntity
  8
DEFPOINTS
 62
     0
100
AcDbPoint
 10
308.6094342666493
 20
152.4202948637195
 30
0.0
  0
ENDBLK
  5
9949
330
9947
100
AcDbEntity
  8
0
100
AcDbBlockEnd
  0
BLOCK
  5
9954
330
9953
100
AcDbEntity
  8
0
100
AcDbBlockBegin
  2
*D23
 70
     1
 10
0.0
 20
0.0
 30
0.0
  3
*D23
  1

  0
LINE
  5
99D4
330
9953
100
AcDbEntity
  8
DIM
 62
     6
370
    -2
100
AcDbLine
 10
278.891636379568
 20
219.9704229320047
 30
0.0
 11
246.8293941003024
 21
219.9704229320047
 31
0.0
  0
LINE
  5
99D5
330
9953
100
AcDbEntity
  8
DIM
 62
     6
370
    -2
100
AcDbLine
 10
278.891636379568
 20
183.9704229320046
 30
0.0
 11
246.8293941003024
 21
183.9704229320046
 31
0.0
  0
LINE
  5
99D6
330
9953
100
AcDbEntity
  8
DIM
 62
     6
370
    -2
100
AcDbLine
 10
247.8293941003024
 20
217.4704229320047
 30
0.0
 11
247.8293941003023
 21
186.4704229320046
 31
0.0
  0
MTEXT
  5
99D7
330
9953
100
AcDbEntity
  8
DIM
 62
     3
100
AcDbMText
 10
244.4734041850789
 20
198.6249777226201
 30
0.0
 40
3.0
 41
0.0
 71
     5
 72
     1
  1
\A1;36
  7
TXT
 11
0.0000000000000001
 21
1.0
 31
0.0
 73
     1
 44
1.0
1001
ACAD
1000
MTEXTBEGIN
1070
    73
1070
     1
1070
    44
1040
1.0
1070
    74
1070
     0
1000
MTEXTEND
  0
SOLID
  5
99D8
330
9953
100
AcDbEntity
  8
DIM
 62
     6
100
AcDbTrace
 10
247.4127274336357
 20
217.4704229320047
 30
0.0
 11
248.246060766969
 21
217.4704229320047
 31
0.0
 12
247.8293941003024
 22
219.9704229320047
 32
0.0
 13
247.8293941003024
 23
219.9704229320047
 33
0.0
  0
SOLID
  5
99D9
330
9953
100
AcDbEntity
  8
DIM
 62
     6
100
AcDbTrace
 10
247.4127274336357
 20
186.4704229320046
 30
0.0
 11
248.246060766969
 21
186.4704229320046
 31
0.0
 12
247.8293941003023
 22
183.9704229320046
 32
0.0
 13
247.8293941003023
 23
183.9704229320046
 33
0.0
  0
POINT
  5
99DA
330
9953
100
AcDbEntity
  8
DEFPOINTS
 62
     0
100
AcDbPoint
 10
279.8916363795679
 20
219.9704229320047
 30
0.0
  0
POINT
  5
99DB
330
9953
100
AcDbEntity
  8
DEFPOINTS
 62
     0
100
AcDbPoint
 10
279.8916363795679
 20
183.9704229320046
 30
0.0
  0
POINT
  5
99DC
330
9953
100
AcDbEntity
  8
DEFPOINTS
 62
     0
100
AcDbPoint
 10
247.8293941003023
 20
183.9704229320046
 30
0.0
  0
ENDBLK
  5
9955
330
9953
100
AcDbEntity
  8
0
100
AcDbBlockEnd
  0
BLOCK
  5
9960
330
995F
100
AcDbEntity
  8
0
100
AcDbBlockBegin
  2
*D24
 70
     1
 10
0.0
 20
0.0
 30
0.0
  3
*D24
  1

  0
LINE
  5
99DD
330
995F
100
AcDbEntity
  8
DIM
 62
     6
370
    -2
100
AcDbLine
 10
304.1799423423378
 20
215.0015118452501
 30
0.0
 11
295.8643552245452
 21
229.4045312280322
 31
0.0
  0
LINE
  5
99DE
330
995F
100
AcDbEntity
  8
DIM
 62
     6
370
    -2
100
AcDbLine
 10
302.4551026088703
 20
214.0056751608237
 30
0.0
 11
294.1395154910777
 21
228.4086945436058
 31
0.0
  0
LINE
  5
99DF
330
995F
100
AcDbEntity
  8
DIM
 62
     6
370
    -2
100
AcDbLine
 10
298.5294187340063
 20
229.7885058242477
 30
0.0
 11
300.6944822434674
 21
231.0385058242478
 31
0.0
  0
LINE
  5
99E0
330
995F
100
AcDbEntity
  8
DIM
 62
     6
370
    -2
100
AcDbLine
 10
292.4744519816167
 20
226.2926691398213
 30
0.0
 11
290.3093884721556
 21
225.0426691398213
 31
0.0
  0
MTEXT
  5
99E1
330
995F
100
AcDbEntity
  8
DIM
 62
     3
100
AcDbMText
 10
293.8512880787532
 20
230.8629740346049
 30
0.0
 40
3.0
 41
0.0
 71
     5
 72
     1
  1
\A1;2
  7
TXT
 11
0.866025403784438
 21
0.500000000000001
 31
0.0
 73
     1
 44
1.0
1001
ACAD
1000
MTEXTBEGIN
1070
    73
1070
     1
1070
    44
1040
1.0
1070
    74
1070
     0
1000
MTEXTEND
  0
SOLID
  5
99E2
330
995F
100
AcDbEntity
  8
DIM
 62
     6
100
AcDbTrace
 10
298.321085400673
 20
230.1493497424913
 30
0.0
 11
298.7377520673396
 21
229.4276619060042
 31
0.0
 12
296.3643552245452
 22
228.5385058242478
 32
0.0
 13
296.3643552245452
 23
228.5385058242478
 33
0.0
  0
SOLID
  5
99E3
330
995F
100
AcDbEntity
  8
DIM
 62
     6
100
AcDbTrace
 10
292.2661186482833
 20
226.6535130580649
 30
0.0
 11
292.68278531495
 21
225.9318252215778
 31
0.0
 12
294.6395154910777
 22
227.5426691398213
 32
0.0
 13
294.6395154910777
 23
227.5426691398213
 33
0.0
  0
POINT
  5
99E4
330
995F
100
AcDbEntity
  8
DEFPOINTS
 62
     0
100
AcDbPoint
 10
304.6799423423378
 20
214.1354864414657
 30
0.0
  0
POINT
  5
99E5
330
995F
100
AcDbEntity
  8
DEFPOINTS
 62
     0
100
AcDbPoint
 10
302.9551026088703
 20
213.1396497570392
 30
0.0
  0
POINT
  5
99E6
330
995F
100
AcDbEntity
  8
DEFPOINTS
 62
     0
100
AcDbPoint
 10
294.6395154910777
 20
227.5426691398213
 30
0.0
  0
ENDBLK
  5
9961
330
995F
100
AcDbEntity
  8
0
100
AcDbBlockEnd
  0
BLOCK
  5
996D
330
996C
100
AcDbEntity
  8
0
100
AcDbBlockBegin
  2
*D25
 70
     1
 10
0.0
 20
0.0
 30
0.0
  3
*D25
  1

  0
LINE
  5
99E7
330
996C
100
AcDbEntity
  8
DIM
 62
     6
370
    -2
100
AcDbLine
 10
300.1094342666493
 20
124.7439365346357
 30
0.0
 11
325.6079598663882
 21
124.7439365346357
 31
0.0
  0
LINE
  5
99E8
330
996C
100
AcDbEntity
  8
DIM
 62
     6
370
    -2
100
AcDbLine
 10
307.1094342666492
 20
127.7439365346357
 30
0.0
 11
325.6079598663882
 21
127.7439365346357
 31
0.0
  0
LINE
  5
99E9
330
996C
100
AcDbEntity
  8
DIM
 62
     6
370
    -2
100
AcDbLine
 10
324.6079598663882
 20
122.2439365346357
 30
0.0
 11
324.6079598663882
 21
119.7439365346357
 31
0.0
  0
LINE
  5
99EA
330
996C
100
AcDbEntity
  8
DIM
 62
     6
370
    -2
100
AcDbLine
 10
324.6079598663883
 20
130.2439365346357
 30
0.0
 11
324.6079598663883
 21
132.7439365346357
 31
0.0
  0
MTEXT
  5
99EB
330
996C
100
AcDbEntity
  8
DIM
 62
     3
100
AcDbMText
 10
322.1079598663882
 20
126.2439365346357
 30
0.0
 40
3.0
 41
0.0
 71
     5
 72
     1
  1
\A1;3
  7
TXT
 11
0.0000000000000001
 21
1.0
 31
0.0
 73
     1
 44
1.0
1001
ACAD
1000
MTEXTBEGIN
1070
    73
1070
     1
1070
    44
1040
1.0
1070
    74
1070
     0
1000
MTEXTEND
  0
SOLID
  5
99EC
330
996C
100
AcDbEntity
  8
DIM
 62
     6
100
AcDbTrace
 10
324.1912931997215
 20
122.2439365346357
 30
0.0
 11
325.0246265330549
 21
122.2439365346357
 31
0.0
 12
324.6079598663882
 22
124.7439365346357
 32
0.0
 13
324.6079598663882
 23
124.7439365346357
 33
0.0
  0
SOLID
  5
99ED
330
996C
100
AcDbEntity
  8
DIM
 62
     6
100
AcDbTrace
 10
324.1912931997216
 20
130.2439365346357
 30
0.0
 11
325.024626533055
 21
130.2439365346357
 31
0.0
 12
324.6079598663882
 22
127.7439365346357
 32
0.0
 13
324.6079598663882
 23
127.7439365346357
 33
0.0
  0
POINT
  5
99EE
330
996C
100
AcDbEntity
  8
DEFPOINTS
 62
     0
100
AcDbPoint
 10
299.1094342666493
 20
124.7439365346357
 30
0.0
  0
POINT
  5
99EF
330
996C
100
AcDbEntity
  8
DEFPOINTS
 62
     0
100
AcDbPoint
 10
306.1094342666493
 20
127.7439365346357
 30
0.0
  0
POINT
  5
99F0
330
996C
100
AcDbEntity
  8
DEFPOINTS
 62
     0
100
AcDbPoint
 10
324.6079598663882
 20
127.7439365346357
 30
0.0
  0
ENDBLK
  5
996E
330
996C
100
AcDbEntity
  8
0
100
AcDbBlockEnd
  0
BLOCK
  5
997A
330
9979
100
AcDbEntity
  8
0
100
AcDbBlockBegin
  2
*D26
 70
     1
 10
0.0
 20
0.0
 30
0.0
  3
*D26
  1

  0
LINE
  5
99F1
330
9979
100
AcDbEntity
  8
DIM
 62
     6
370
    -2
100
AcDbLine
 10
309.4754596704337
 20
122.8005608616617
 30
0.0
 11
330.4615429904706
 21
110.6842400076032
 31
0.0
  0
LINE
  5
99F2
330
9979
100
AcDbEntity
  8
DIM
 62
     6
370
    -2
100
AcDbLine
 10
307.1094342666493
 20
127.7439365346357
 30
0.0
 11
335.0326748980088
 21
127.7439365346357
 31
0.0
  0
ARC
  5
99F3
330
9979
100
AcDbEntity
  8
DIM
 62
     6
370
    -2
100
AcDbCircle
 10
300.9132818439423
 20
127.7439365346357
 30
0.0
 40
33.11939305406638
100
AcDbArc
 50
334.325969296526
 51
355.6740307034753
  0
SOLID
  5
99F4
330
9979
100
AcDbEntity
  8
DIM
 62
     6
100
AcDbTrace
 10
331.1313624162926
 20
113.2003728828081
 30
0.0
 11
330.3944628443555
 21
113.5895045640207
 31
0.0
 12
329.5955175866861
 22
111.1842400076032
 32
0.0
 13
329.5955175866861
 23
111.1842400076032
 33
0.0
  0
SOLID
  5
99F5
330
9979
100
AcDbEntity
  8
DIM
 62
     6
100
AcDbTrace
 10
333.5219495091748
 20
125.2614436971211
 30
0.0
 11
334.3546890991165
 21
125.2299918325001
 31
0.0
 12
334.0326748980087
 22
127.7439365346357
 32
0.0
 13
334.0326748980087
 23
127.7439365346357
 33
0.0
  0
MTEXT
  5
99F6
330
9979
100
AcDbEntity
  8
DIM
 62
     3
100
AcDbMText
 10
330.4893443801612
 20
119.8190544627639
 30
0.0
 40
3.0
 41
0.0
 71
     5
 72
     1
  1
\A1;30°
  7
TXT
 11
0.2588190451025136
 21
0.9659258262890702
 31
0.0
 73
     1
 44
1.0
1001
ACAD
1000
MTEXTBEGIN
1070
    73
1070
     1
1070
    44
1040
1.0
1070
    74
1070
     0
1000
MTEXTEND
  0
POINT
  5
99F7
330
9979
100
AcDbEntity
  8
DEFPOINTS
 62
     0
100
AcDbPoint
 10
332.0353311017567
 20
116.4164369754252
 30
0.0
  0
POINT
  5
99F8
330
9979
100
AcDbEntity
  8
DEFPOINTS
 62
     0
100
AcDbPoint
 10
271.1094342666493
 20
127.7439365346357
 30
0.0
  0
POINT
  5
99F9
330
9979
100
AcDbEntity
  8
DEFPOINTS
 62
     0
100
AcDbPoint
 10
306.1094342666493
 20
124.7439365346357
 30
0.0
  0
POINT
  5
99FA
330
9979
100
AcDbEntity
  8
DEFPOINTS
 62
     0
100
AcDbPoint
 10
308.6094342666493
 20
123.3005608616617
 30
0.0
  0
POINT
  5
99FB
330
9979
100
AcDbEntity
  8
DEFPOINTS
 62
     0
100
AcDbPoint
 10
306.1094342666493
 20
127.7439365346357
 30
0.0
  0
ENDBLK
  5
997B
330
9979
100
AcDbEntity
  8
0
100
AcDbBlockEnd
  0
BLOCK
  5
9988
330
9987
100
AcDbEntity
  8
0
100
AcDbBlockBegin
  2
*D27
 70
     1
 10
0.0
 20
0.0
 30
0.0
  3
*D27
  1

  0
LINE
  5
99FC
330
9987
100
AcDbEntity
  8
DIM
 62
     6
370
    -2
100
AcDbLine
 10
308.59847536839
 20
111.7871821542218
 30
0.0
 11
333.4202694630805
 21
97.68743327048813
 31
0.0
  0
LINE
  5
99FD
330
9987
100
AcDbEntity
  8
DIM
 62
     6
370
    -2
100
AcDbLine
 10
307.1094342666492
 20
127.7439365346357
 30
0.0
 11
341.361054059052
 21
127.7439365346357
 31
0.0
  0
ARC
  5
99FE
330
9987
100
AcDbEntity
  8
DIM
 62
     6
370
    -2
100
AcDbCircle
 10
280.5075302802032
 20
127.7439365346357
 30
0.0
 40
59.85352377884877
100
AcDbArc
 50
332.7950729111802
 51
357.6066594878666
  0
SOLID
  5
99FF
330
9987
100
AcDbEntity
  8
DIM
 62
     6
100
AcDbTrace
 10
334.1063961440704
 20
100.1822501564257
 30
0.0
 11
333.3733667168772
 21
100.5786241002125
 31
0.0
 12
332.5507595991132
 22
98.18134884673934
 32
0.0
 13
332.5507595991132
 23
98.18134884673934
 33
0.0
  0
SOLID
  5
9A00
330
9987
100
AcDbEntity
  8
DIM
 62
     6
100
AcDbTrace
 10
339.8922674738656
 20
125.2531835864973
 30
0.0
 11
340.7254190562448
 21
125.2357799884984
 31
0.0
 12
340.361054059052
 22
127.7439365346357
 32
0.0
 13
340.361054059052
 23
127.7439365346357
 33
0.0
  0
MTEXT
  5
9A01
330
9987
100
AcDbEntity
  8
DIM
 62
     3
100
AcDbMText
 10
335.9584799721322
 20
113.0940604903091
 30
0.0
 40
3.0
 41
0.0
 71
     5
 72
     1
  1
\A1;30%%d
  7
TXT
 11
0.2554311414380641
 21
0.9668272503315407
 31
0.0
 73
     1
 44
1.0
1001
ACAD
1000
MTEXTBEGIN
1070
    73
1070
     1
1070
    44
1040
1.0
1070
    74
1070
     0
1000
MTEXTEND
  0
POINT
  5
9A02
330
9987
100
AcDbEntity
  8
DEFPOINTS
 62
     0
100
AcDbPoint
 10
336.8465196187369
 20
107.5359532345189
 30
0.0
  0
POINT
  5
9A03
330
9987
100
AcDbEntity
  8
DEFPOINTS
 62
     0
100
AcDbPoint
 10
271.1094342666493
 20
127.7439365346357
 30
0.0
  0
POINT
  5
9A04
330
9987
100
AcDbEntity
  8
DEFPOINTS
 62
     0
100
AcDbPoint
 10
307.7289655044227
 20
112.281097730473
 30
0.0
  0
POINT
  5
9A05
330
9987
100
AcDbEntity
  8
DEFPOINTS
 62
     0
100
AcDbPoint
 10
297.1094342666492
 20
118.3134064001996
 30
0.0
  0
POINT
  5
9A06
330
9987
100
AcDbEntity
  8
DEFPOINTS
 62
     0
100
AcDbPoint
 10
306.1094342666493
 20
127.7439365346357
 30
0.0
  0
ENDBLK
  5
9989
330
9987
100
AcDbEntity
  8
0
100
AcDbBlockEnd
  0
ENDSEC
  0
SECTION
  2
ENTITIES
  0
MTEXT
  5
C0
330
18
100
AcDbEntity
  8
0
100
AcDbMText
 10
41.26970765600413
 20
233.6950877649332
 30
0.0
 40
2.5
 41
0.0
 71
     1
 72
     5
  1

  7
ISOCP3
 73
     1
 44
1.0
1001
ACAD
1000
MTEXTBEGIN
1070
    73
1070
     1
1070
    44
1040
1.0
1070
    74
1070
     0
1000
MTEXTEND
  0
LINE
  5
64AF
330
18
100
AcDbEntity
  8
図框線
100
AcDbLine
 10
197.9999999999997
 20
289.9999999999999
 30
0.0
 11
197.9999999999997
 21
-0.0000000000000568
 31
0.0
  0
MTEXT
  5
8100
330
18
100
AcDbEntity
  8
0
 62
     3
100
AcDbMText
 10
271.8936002556579
 20
231.0795154942946
 30
0.0
 40
4.0
 41
0.0
 71
     6
 72
     1
  1
\A1;
  7
TXT
 73
     1
 44
1.0
1001
ACAD
1000
MTEXTBEGIN
1070
    73
1070
     1
1070
    44
1040
1.0
1070
    74
1070
     0
1000
MTEXTEND
  0
MTEXT
  5
97FF
330
18
100
AcDbEntity
  8
DIM
100
AcDbMText
 10
295.1642436203353
 20
234.9166387696008
 30
0.0
 40
2.0
 41
9.555074525974475
 71
     1
 72
     5
  1
+0.15\P+0
  7
TXT
 11
0.8660254037844387
 21
0.5
 31
0.0
 73
     1
 44
1.0
1001
ACAD
1000
MTEXTBEGIN
1070
    73
1070
     1
1070
    44
1040
1.0
1070
    74
1070
     0
1000
MTEXTEND
  0
MTEXT
  5
9800
330
18
100
AcDbEntity
  8
DIM
100
AcDbMText
 10
241.7495587980095
 20
203.0181746897735
 30
0.0
 40
2.0
 41
8.84945634767439
 71
     1
 72
     5
  1
+0\P-0.5
  7
TXT
 11
0.0000000000000001
 21
1.0
 31
0.0
 73
     1
 44
1.0
1001
ACAD
1000
MTEXTBEGIN
1070
    73
1070
     1
1070
    44
1040
1.0
1070
    74
1070
     0
1000
MTEXTEND
  0
MTEXT
  5
9801
330
18
100
AcDbEntity
  8
DIM
100
AcDbMText
 10
288.9110528712505
 20
158.7211037575256
 30
0.0
 40
2.0
 41
11.48459459716352
 71
     1
 72
     5
  1
+0\P-0.2
  7
TXT
 73
     1
 44
1.0
1001
ACAD
1000
MTEXTBEGIN
1070
    73
1070
     1
1070
    44
1040
1.0
1070
    74
1070
     0
1000
MTEXTEND
  0
MTEXT
  5
9802
330
18
100
AcDbEntity
  8
0
100
AcDbMText
 10
215.8194827894974
 20
19.37399834316261
 30
0.0
 40
5.0
 41
0.0
 71
     1
 72
     5
  1
\Ftxt.shx,bigfont.shx|c128;呉銘宏
  7
JL
 73
     1
 44
1.0
1001
ACAD
1000
MTEXTBEGIN
1070
    73
1070
     1
1070
    44
1040
1.0
1070
    74
1070
     0
1000
MTEXTEND
  0
MTEXT
  5
9803
330
18
100
AcDbEntity
  8
0
100
AcDbMText
 10
279.2351766519634
 20
29.2278230533891
 30
0.0
 40
4.5
 41
0.0
 71
     1
 72
     5
  1
\Ftxt.shx,bigfont.shx|c128;1 : 1
  7
JL
 73
     1
 44
1.0
1001
ACAD
1000
MTEXTBEGIN
1070
    73
1070
     1
1070
    44
1040
1.0
1070
    74
1070
     0
1000
MTEXTEND
  0
MTEXT
  5
9804
330
18
100
AcDbEntity
  8
0
 48
2.0
370
    25
100
AcDbMText
 10
344.1234268906312
 20
3.636969934829039
 30
0.0
 40
4.5
 41
0.0
 71
     5
 72
     1
  1
\Ftxt.shx,bigfont.shx|c128;N L 4 0 1 1 7
 73
     1
 44
1.0
1001
ACAD
1000
MTEXTBEGIN
1070
    73
1070
     1
1070
    44
1040
1.0
1070
    74
1070
     0
1000
MTEXTEND
  0
MTEXT
  5
9805
330
18
100
AcDbEntity
  8
0
 48
2.0
100
AcDbMText
 10
376.1300746997772
 20
22.17550270047843
 30
0.0
 40
4.5
 41
0.0
 71
     5
 72
     1
  1
\P\Ftxt.shx,bigfont.shx|c128;SFZ20X1.0P
 73
     1
 44
1.0
1001
ACAD
1000
MTEXTBEGIN
1070
    73
1070
     1
1070
    44
1040
1.0
1070
    74
1070
     0
1000
MTEXTEND
  0
MTEXT
  5
9806
330
18
100
AcDbEntity
  8
0
100
AcDbMText
 10
214.0234810910952
 20
28.64592585511957
 30
0.0
 40
4.5
 41
0.0
 71
     1
 72
     5
  1
\Ftxt.shx,bigfont.shx|c128;05.03.09
  7
JL
 73
     1
 44
1.0
1001
ACAD
1000
MTEXTBEGIN
1070
    73
1070
     1
1070
    44
1040
1.0
1070
    74
1070
     0
1000
MTEXTEND
  0
INSERT
  5
9807
330
18
100
AcDbEntity
  8
mark
100
AcDbBlockReference
  2
A$C255C26A2
 10
276.464145944524
 20
127.7439358406545
 30
0.0
  0
LEADER
  5
9808
330
18
100
AcDbEntity
  8
DIM
 62
     6
100
AcDbLeader
  3
A
 76
     2
 10
299.3623867217473
 20
185.1070302277354
 30
0.0
 10
320.8232362806593
 20
174.4906575936132
 30
0.0
  0
LEADER
  5
9809
330
18
100
AcDbEntity
  8
DIM
 62
     6
100
AcDbLeader
  3
A
 76
     2
 10
306.8594342666493
 20
112.7750254478812
 30
0.0
 10
319.625199965983
 20
99.4708285936997
 30
0.0
  0
MTEXT
  5
980A
330
18
100
AcDbEntity
  8
DIM
100
AcDbMText
 10
320.8298094244656
 20
144.2231308951387
 30
0.0
 40
5.0
 41
1.0
 71
     1
 72
     5
  1
\Ftxt.shx,bigfont.shx|c128;3
 73
     1
 44
1.0
1001
ACAD
1000
MTEXTBEGIN
1070
    73
1070
     1
1070
    44
1040
1.0
1070
    74
1070
     0
1000
MTEXTEND
  0
MTEXT
  5
980B
330
18
100
AcDbEntity
  8
DIM
100
AcDbMText
 10
321.3527065655105
 20
174.5655614569044
 30
0.0
 40
5.0
 41
1.0
 71
     1
 72
     5
  1
\Ftxt.shx,bigfont.shx|c128;1
 73
     1
 44
1.0
1001
ACAD
1000
MTEXTBEGIN
1070
    73
1070
     1
1070
    44
1040
1.0
1070
    74
1070
     0
1000
MTEXTEND
  0
MTEXT
  5
980C
330
18
100
AcDbEntity
  8
DIM
100
AcDbMText
 10
319.6956010928229
 20
99.56317939909382
 30
0.0
 40
5.0
 41
1.0
 71
     1
 72
     5
  1
\Ftxt.shx,bigfont.shx|c128;2
 73
     1
 44
1.0
1001
ACAD
1000
MTEXTBEGIN
1070
    73
1070
     1
1070
    44
1040
1.0
1070
    74
1070
     0
1000
MTEXTEND
  0
LINE
  5
980D
330
18
100
AcDbEntity
  8
図框線
100
AcDbLine
 10
395.9999999999995
 20
289.9999999999999
 30
0.0
 11
395.9999999999995
 21
-0.0000000000000568
 31
0.0
  0
LINE
  5
980E
330
18
100
AcDbEntity
  8
図框線
370
    30
100
AcDbLine
 10
197.9999999999995
 20
0.0
 30
0.0
 11
197.9999999999995
 21
290.0
 31
0.0
  0
LINE
  5
980F
330
18
100
AcDbEntity
  8
0
 62
     7
 48
5.0
100
AcDbLine
 39
4.0
 10
247.9475051563429
 20
27.8953239783782
 30
0.0
 11
253.2793088720521
 21
29.22827490730549
 31
0.0
  0
MTEXT
  5
9810
330
18
100
AcDbEntity
  8
0
100
AcDbMText
 10
213.9786697715872
 20
9.63134010478825
 30
0.0
 40
6.0
 41
0.0
 71
     1
 72
     5
  1
\Ftxt.shx,bigfont.shx|c128;日機株式会社
  7
LKK
 73
     1
 44
1.0
1001
ACAD
1000
MTEXTBEGIN
1070
    73
1070
     1
1070
    44
1040
1.0
1070
    74
1070
     0
1000
MTEXTEND
  0
LINE
  5
9811
330
18
100
AcDbEntity
  8
図框線
100
AcDbLine
 10
197.9999999999997
 20
0.0
 30
0.0
 11
395.9999999999995
 21
0.0
 31
0.0
  0
LINE
  5
9812
330
18
100
AcDbEntity
  8
図框線
100
AcDbLine
 10
197.9999999999997
 20
12.0
 30
0.0
 11
395.9999999999995
 21
12.00000000000005
 31
0.0
  0
LINE
  5
9813
330
18
100
AcDbEntity
  8
図框線
100
AcDbLine
 10
197.9999999999997
 20
22.0
 30
0.0
 11
293.9999999999998
 21
22.0
 31
0.0
  0
LINE
  5
9814
330
18
100
AcDbEntity
  8
図框線
100
AcDbLine
 10
197.9999999999997
 20
32.0
 30
0.0
 11
395.9999999999995
 21
32.0
 31
0.0
  0
LINE
  5
9815
330
18
100
AcDbEntity
  8
図框線
100
AcDbLine
 10
209.9999999999998
 20
32.0
 30
0.0
 11
209.9999999999998
 21
12.0
 31
0.0
  0
LINE
  5
9816
330
18
100
AcDbEntity
  8
図框線
100
AcDbLine
 10
229.9999999999998
 20
32.0
 30
0.0
 11
229.9999999999998
 21
12.0
 31
0.0
  0
MTEXT
  5
9817
330
18
100
AcDbEntity
  8
0
100
AcDbMText
 10
200.9494442488206
 20
29.04715033351227
 30
0.0
 40
4.5
 41
0.0
 71
     1
 72
     5
  1
\Ftxt.shx,bigfont.shx|c128;日 付
  7
JL
 73
     1
 44
1.0
1001
ACAD
1000
MTEXTBEGIN
1070
    73
1070
     1
1070
    44
1040
1.0
1070
    74
1070
     0
1000
MTEXTEND
  0
MTEXT
  5
9818
330
18
100
AcDbEntity
  8
0
100
AcDbMText
 10
201.0957123649098
 20
19.83833899470915
 30
0.0
 40
4.5
 41
0.0
 71
     1
 72
     5
  1
\Ftxt.shx,bigfont.shx|c128;製 図
  7
JL
 73
     1
 44
1.0
1001
ACAD
1000
MTEXTBEGIN
1070
    73
1070
     1
1070
    44
1040
1.0
1070
    74
1070
     0
1000
MTEXTEND
  0
LINE
  5
9819
330
18
100
AcDbEntity
  8
0
 62
     7
370
    25
100
AcDbLine
 10
253.2793088720521
 20
23.89647119159633
 30
0.0
 11
253.2793088720521
 21
29.22827490730549
 31
0.0
  0
MTEXT
  5
981A
330
18
100
AcDbEntity
  8
0
100
AcDbMText
 10
264.7025406733253
 20
29.42231870267847
 30
0.0
 40
4.5
 41
0.0
 71
     1
 72
     5
  1
\Ftxt.shx,bigfont.shx|c128;尺 度
  7
JL
 73
     1
 44
1.0
1001
ACAD
1000
MTEXTBEGIN
1070
    73
1070
     1
1070
    44
1040
1.0
1070
    74
1070
     0
1000
MTEXTEND
  0
LINE
  5
981B
330
18
100
AcDbEntity
  8
図框線
100
AcDbLine
 10
261.9999999999998
 20
32.0
 30
0.0
 11
261.9999999999998
 21
12.0
 31
0.0
  0
LINE
  5
981C
330
18
100
AcDbEntity
  8
0
 62
     7
370
    25
100
AcDbLine
 10
239.2833241183155
 20
23.23894871736115
 30
0.0
 11
239.2833241183155
 21
29.67466750005656
 31
0.0
  0
CIRCLE
  5
981D
330
18
100
AcDbEntity
  8
0
 62
     7
100
AcDbCircle
 10
239.2833241183155
 20
26.5623730494508
 30
0.0
 40
2.665901857854641
  0
LINE
  5
981E
330
18
100
AcDbEntity
  8
0
 62
     7
370
    25
100
AcDbLine
 10
247.1803028110605
 20
26.56237304945091
 30
0.0
 11
253.7579732190313
 21
26.56237304945091
 31
0.0
  0
LINE
  5
981F
330
18
100
AcDbEntity
  8
0
 62
     7
100
AcDbLine
 10
247.9475051563429
 20
25.22942212052362
 30
0.0
 11
253.2793088720521
 21
23.89647119159633
 31
0.0
  0
LINE
  5
9820
330
18
100
AcDbEntity
  8
図框線
100
AcDbLine
 10
241.9999999999998
 20
21.99999999999989
 30
0.0
 11
241.9999999999998
 21
12.0
 31
0.0
  0
LINE
  5
9821
330
18
100
AcDbEntity
  8
0
 62
     7
370
    25
100
AcDbLine
 10
235.9517253284391
 20
26.5623730494508
 30
0.0
 11
242.8139159467689
 21
26.56237304945091
 31
0.0
  0
CIRCLE
  5
9822
330
18
100
AcDbEntity
  8
0
 62
     7
100
AcDbCircle
 10
239.2833241183155
 20
26.5623730494508
 30
0.0
 40
1.33295092892732
  0
MTEXT
  5
9823
330
18
100
AcDbEntity
  8
0
100
AcDbMText
 10
233.1208651803974
 20
19.39982343168049
 30
0.0
 40
4.5
 41
0.0
 71
     1
 72
     5
  1
\Ftxt.shx,bigfont.shx|c128;検 図
  7
JL
 73
     1
 44
1.0
1001
ACAD
1000
MTEXTBEGIN
1070
    73
1070
     1
1070
    44
1040
1.0
1070
    74
1070
     0
1000
MTEXTEND
  0
LINE
  5
9824
330
18
100
AcDbEntity
  8
0
 62
     7
370
    25
100
AcDbLine
 10
247.9475051563429
 20
25.22942212052362
 30
0.0
 11
247.9475051563429
 21
27.8953239783782
 31
0.0
  0
MTEXT
  5
9825
330
18
100
AcDbEntity
  8
0
100
AcDbMText
 10
264.9950741833748
 20
19.62882052001464
 30
0.0
 40
4.5
 41
0.0
 71
     1
 72
     5
  1
\Ftxt.shx,bigfont.shx|c128;承 認
  7
JL
 73
     1
 44
1.0
1001
ACAD
1000
MTEXTBEGIN
1070
    73
1070
     1
1070
    44
1040
1.0
1070
    74
1070
     0
1000
MTEXTEND
  0
LINE
  5
9826
330
18
100
AcDbEntity
  8
図框線
100
AcDbLine
 10
330.6157900786388
 20
43.13491348924492
 30
0.0
 11
390.6157900786388
 21
43.13491348924481
 31
0.0
  0
LINE
  5
9827
330
18
100
AcDbEntity
  8
図框線
100
AcDbLine
 10
330.6157900786388
 20
50.33491348924497
 30
0.0
 11
390.6157900786388
 21
50.33491348924497
 31
0.0
  0
LINE
  5
9828
330
18
100
AcDbEntity
  8
図框線
100
AcDbLine
 10
330.6157900786388
 20
57.5349134892449
 30
0.0
 11
390.6157900786388
 21
57.53491348924478
 31
0.0
  0
LINE
  5
9829
330
18
100
AcDbEntity
  8
図框線
100
AcDbLine
 10
330.6157900786388
 20
64.73491348924494
 30
0.0
 11
390.6157900786388
 21
64.73491348924483
 31
0.0
  0
LINE
  5
982A
330
18
100
AcDbEntity
  8
図框線
100
AcDbLine
 10
330.6157900786388
 20
35.93491348924488
 30
0.0
 11
390.6157900786388
 21
35.93491348924488
 31
0.0
  0
MTEXT
  5
982B
330
18
100
AcDbEntity
  8
0
 62
     7
 48
2.0
100
AcDbMText
 10
360.5011900445102
 20
65.52808189982909
 30
0.0
 40
4.8
 41
0.0
 71
     5
 72
     1
  1
\P\Ftxt.shx,bigfont.shx|c128;諸　　　　元
 73
     1
 44
1.0
1001
ACAD
1000
MTEXTBEGIN
1070
    73
1070
     1
1070
    44
1040
1.0
1070
    74
1070
     0
1000
MTEXTEND
  0
LINE
  5
982C
330
18
100
AcDbEntity
  8
図框線
100
AcDbLine
 10
330.6157900786388
 20
64.73491348924483
 30
0.0
 11
330.6157900786388
 21
35.93491348924488
 31
0.0
  0
MTEXT
  5
982D
330
18
100
AcDbEntity
  8
0
100
AcDbMText
 10
334.138225892319
 20
56.00840432212407
 30
0.0
 40
4.4
 41
163.916286842249
 71
     1
 72
     5
  1
\Ftxt.shx,bigfont.shx|c128;熱　処　理
  7
JL
 73
     1
 44
1.0
1001
ACAD
1000
MTEXTBEGIN
1070
    73
1070
     1
1070
    44
1040
1.0
1070
    74
1070
     0
1000
MTEXTEND
  0
LINE
  5
982E
330
18
100
AcDbEntity
  8
図框線
100
AcDbLine
 10
354.6157900786389
 20
57.53491348924478
 30
0.0
 11
354.6157900786389
 21
35.93491348924488
 31
0.0
  0
MTEXT
  5
982F
330
18
100
AcDbEntity
  8
0
100
AcDbMText
 10
295.657025562638
 20
11.15332144655735
 30
0.0
 40
5.0
 41
0.0
 71
     1
 72
     5
  1
\Ftxt.shx,bigfont.shx|c128;図  面  番  号
  7
JL
 73
     1
 44
1.0
1001
ACAD
1000
MTEXTBEGIN
1070
    73
1070
     1
1070
    44
1040
1.0
1070
    74
1070
     0
1000
MTEXTEND
  0
MTEXT
  5
9830
330
18
100
AcDbEntity
  8
0
 62
     7
 48
2.0
100
AcDbMText
 10
319.826085065386
 20
22.29156825453561
 30
0.0
 40
4.5
 41
0.0
 71
     5
 72
     1
  1
\P\Ftxt.shx,bigfont.shx|c128;    精密ロックナット
 73
     1
 44
1.0
1001
ACAD
1000
MTEXTBEGIN
1070
    73
1070
     1
1070
    44
1040
1.0
1070
    74
1070
     0
1000
MTEXTEND
  0
MTEXT
  5
9831
330
18
100
AcDbEntity
  8
0
370
    25
100
AcDbMText
 10
296.8002923053596
 20
29.80688815403971
 30
0.0
 40
5.0
 41
0.0
 71
     1
 72
     5
  1
\Ftxt.shx,bigfont.shx|c128;品  名
  7
JL
 73
     1
 44
1.0
1001
ACAD
1000
MTEXTBEGIN
1070
    73
1070
     1
1070
    44
1040
1.0
1070
    74
1070
     0
1000
MTEXTEND
  0
LINE
  5
9832
330
18
100
AcDbEntity
  8
図框線
100
AcDbLine
 10
293.9999999999998
 20
32.0
 30
0.0
 11
293.9999999999998
 21
0.19104161092514
 31
0.0
  0
LINE
  5
9833
330
18
100
AcDbEntity
  8
図框線
100
AcDbLine
 10
273.9999999999998
 20
32.0
 30
0.0
 11
273.9999999999998
 21
12.0
 31
0.0
  0
LINE
  5
9834
330
18
100
AcDbEntity
  8
図框線
100
AcDbLine
 10
351.2235601908681
 20
32.0
 30
0.0
 11
351.2235601908681
 21
12.0
 31
0.0
  0
MTEXT
  5
9835
330
18
100
AcDbEntity
  8
0
100
AcDbMText
 10
333.8579515249398
 20
49.00617587486397
 30
0.0
 40
4.4
 41
163.6058628849672
 71
     1
 72
     5
  1
\Ftxt.shx,bigfont.shx|c128;表 面 処 理
  7
JL
 73
     1
 44
1.0
1001
ACAD
1000
MTEXTBEGIN
1070
    73
1070
     1
1070
    44
1040
1.0
1070
    74
1070
     0
1000
MTEXTEND
  0
MTEXT
  5
9836
330
18
100
AcDbEntity
  8
0
100
AcDbMText
 10
334.1480173733748
 20
41.71770302125605
 30
0.0
 40
4.4
 41
166.1718
 71
     1
 72
     5
  1
\Ftxt.shx,bigfont.shx|c128;等     　級
  7
JL
 73
     1
 44
1.0
1001
ACAD
1000
MTEXTBEGIN
1070
    73
1070
     1
1070
    44
1040
1.0
1070
    74
1070
     0
1000
MTEXTEND
  0
LINE
  5
9837
330
18
100
AcDbEntity
  8
図框線
100
AcDbLine
 10
390.6157900786388
 20
64.73491348924483
 30
0.0
 11
390.6157900786388
 21
35.93491348924499
 31
0.0
  0
MTEXT
  5
9838
330
18
100
AcDbEntity
  8
0
100
AcDbMText
 10
359.3627933880814
 20
55.83344641471445
 30
0.0
 40
4.4
 41
291.8960056857887
 71
     1
 72
     5
  1
\Ftxt.shx,bigfont.shx|c128;調質　HRC30%%d%%p２%%d
  7
JL
 73
     1
 44
1.0
1001
ACAD
1000
MTEXTBEGIN
1070
    73
1070
     1
1070
    44
1040
1.0
1070
    74
1070
     0
1000
MTEXTEND
  0
MTEXT
  5
9839
330
18
100
AcDbEntity
  8
0
370
    25
100
AcDbMText
 10
355.2494735287421
 20
29.58569764093568
 30
0.0
 40
5.0
 41
0.0
 71
     1
 72
     5
  1
\Ftxt.shx,bigfont.shx|c128;型  番
  7
JL
 73
     1
 44
1.0
1001
ACAD
1000
MTEXTBEGIN
1070
    73
1070
     1
1070
    44
1040
1.0
1070
    74
1070
     0
1000
MTEXTEND
  0
MTEXT
  5
983A
330
18
100
AcDbEntity
  8
0
100
AcDbMText
 10
370.7872651223388
 20
11.23700203391422
 30
0.0
 40
5.0
 41
0.0
 71
     1
 72
     5
  1
\Ftxt.shx,bigfont.shx|c128;変更
  7
JL
 73
     1
 44
1.0
1001
ACAD
1000
MTEXTBEGIN
1070
    73
1070
     1
1070
    44
1040
1.0
1070
    74
1070
     0
1000
MTEXTEND
  0
LINE
  5
983B
330
18
100
AcDbEntity
  8
図框線
100
AcDbLine
 10
368.9999999999998
 20
12.00907027842731
 30
0.0
 11
368.9999999999998
 21
0.0
 31
0.0
  0
MTEXT
  5
983C
330
18
100
AcDbEntity
  8
0
100
AcDbMText
 10
359.6234323895178
 20
41.7183135927072
 30
0.0
 40
4.4
 41
290.783364796891
 71
     1
 72
     5
  1
\Ftxt.shx,bigfont.shx|c128;ＩＳＯ - ４Ｈ
  7
JL
 73
     1
 44
1.0
1001
ACAD
1000
MTEXTBEGIN
1070
    73
1070
     1
1070
    44
1040
1.0
1070
    74
1070
     0
1000
MTEXTEND
  0
MTEXT
  5
983D
330
18
100
AcDbEntity
  8
0
100
AcDbMText
 10
359.7978935876481
 20
48.65328293790913
 30
0.0
 40
4.4
 41
291.4548
 71
     1
 72
     5
  1
\Ftxt.shx,bigfont.shx|c128;黒  　    染
  7
JL
 73
     1
 44
1.0
1001
ACAD
1000
MTEXTBEGIN
1070
    73
1070
     1
1070
    44
1040
1.0
1070
    74
1070
     0
1000
MTEXTEND
  0
MTEXT
  5
983E
330
18
100
AcDbEntity
  8
0
100
AcDbMText
 10
258.0631860075898
 20
270.095850257545
 30
0.0
 40
5.0
 41
0.0
 71
     1
 72
     5
  1
\Ftxt.shx,bigfont.shx|c128;M6X1.0P-6L
  7
JL
 73
     1
 44
1.0
1001
ACAD
1000
MTEXTBEGIN
1070
    73
1070
     1
1070
    44
1040
1.0
1070
    74
1070
     0
1000
MTEXTEND
  0
MTEXT
  5
983F
330
18
100
AcDbEntity
  8
0
100
AcDbMText
 10
258.0631860075898
 20
262.095850257545
 30
0.0
 40
5.0
 41
0.0
 71
     1
 72
     5
  1
\Ftxt.shx,bigfont.shx|c128;%%c5.2X5L
  7
JL
 73
     1
 44
1.0
1001
ACAD
1000
MTEXTBEGIN
1070
    73
1070
     1
1070
    44
1040
1.0
1070
    74
1070
     0
1000
MTEXTEND
  0
LINE
  5
9840
330
18
100
AcDbEntity
  8
図框線
100
AcDbLine
 10
197.9999999999995
 20
263.9999999999999
 30
0.0
 11
395.9999999999995
 21
263.9999999999999
 31
0.0
  0
LINE
  5
9841
330
18
100
AcDbEntity
  8
図框線
100
AcDbLine
 10
197.9999999999995
 20
271.9999999999999
 30
0.0
 11
395.9999999999995
 21
271.9999999999999
 31
0.0
  0
LINE
  5
9842
330
18
100
AcDbEntity
  8
図框線
 62
     9
100
AcDbLine
 10
197.9999999999995
 20
279.9999999999999
 30
0.0
 11
395.9999999999995
 21
279.9999999999999
 31
0.0
  0
LINE
  5
9843
330
18
100
AcDbEntity
  8
図框線
100
AcDbLine
 10
197.9999999999995
 20
290.0
 30
0.0
 11
395.9999999999995
 21
290.0
 31
0.0
  0
MTEXT
  5
9844
330
18
100
AcDbEntity
  8
0
100
AcDbMText
 10
257.4163025968171
 20
287.3155952051104
 30
0.0
 40
5.0
 41
0.0
 71
     1
 72
     5
  1
\Ftxt.shx,bigfont.shx|c128;図    番 / 規　　格
  7
JL
 73
     1
 44
1.0
1001
ACAD
1000
MTEXTBEGIN
1070
    73
1070
     1
1070
    44
1040
1.0
1070
    74
1070
     0
1000
MTEXTEND
  0
LINE
  5
9845
330
18
100
AcDbEntity
  8
図框線
100
AcDbLine
 10
197.9999999999995
 20
263.9999999999999
 30
0.0
 11
395.9999999999995
 21
263.9999999999999
 31
0.0
  0
LINE
  5
9846
330
18
100
AcDbEntity
  8
図框線
100
AcDbLine
 10
197.9999999999995
 20
255.9999999999999
 30
0.0
 11
395.9999999999995
 21
255.9999999999999
 31
0.0
  0
MTEXT
  5
9847
330
18
100
AcDbEntity
  8
0
100
AcDbMText
 10
220.0143491414122
 20
286.7888025819827
 30
0.0
 40
5.0
 41
0.0
 71
     1
 72
     5
  1
\Ftxt.shx,bigfont.shx|c128;品　          名
  7
JL
 73
     1
 44
1.0
1001
ACAD
1000
MTEXTBEGIN
1070
    73
1070
     1
1070
    44
1040
1.0
1070
    74
1070
     0
1000
MTEXTEND
  0
MTEXT
  5
9848
330
18
100
AcDbEntity
  8
0
100
AcDbMText
 10
216.865037613042
 20
270.5298549795346
 30
0.0
 40
6.0
 41
0.0
 71
     1
 72
     5
  1
\Ftxt.shx,bigfont.shx|c128;セットスクリュ-
  7
JL
 73
     1
 44
1.0
1001
ACAD
1000
MTEXTBEGIN
1070
    73
1070
     1
1070
    44
1040
1.0
1070
    74
1070
     0
1000
MTEXTEND
  0
MTEXT
  5
9849
330
18
100
AcDbEntity
  8
0
100
AcDbMText
 10
216.6694145900471
 20
278.3660650505403
 30
0.0
 40
6.0
 41
0.0
 71
     1
 72
     5
  1
\Ftxt.shx,bigfont.shx|c128;ロックナット　  
  7
JL
 73
     1
 44
1.0
1001
ACAD
1000
MTEXTBEGIN
1070
    73
1070
     1
1070
    44
1040
1.0
1070
    74
1070
     0
1000
MTEXTEND
  0
MTEXT
  5
984A
330
18
100
AcDbEntity
  8
0
100
AcDbMText
 10
216.865037613042
 20
262.5298549795346
 30
0.0
 40
6.0
 41
0.0
 71
     1
 72
     5
  1
\Ftxt.shx,bigfont.shx|c128;ロックピン 
  7
JL
 73
     1
 44
1.0
1001
ACAD
1000
MTEXTBEGIN
1070
    73
1070
     1
1070
    44
1040
1.0
1070
    74
1070
     0
1000
MTEXTEND
  0
LINE
  5
984B
330
18
100
AcDbEntity
  8
図框線
100
AcDbLine
 10
212.9999999999995
 20
289.9999999999998
 30
0.0
 11
212.9999999999999
 21
255.9999999999999
 31
0.0
  0
MTEXT
  5
984C
330
18
100
AcDbEntity
  8
0
100
AcDbMText
 10
204.2152890873903
 20
262.7436409356394
 30
0.0
 40
5.0
 41
0.0
 71
     1
 72
     5
  1
\Ftxt.shx,bigfont.shx|c128;3
  7
JL
 73
     1
 44
1.0
1001
ACAD
1000
MTEXTBEGIN
1070
    73
1070
     1
1070
    44
1040
1.0
1070
    74
1070
     0
1000
MTEXTEND
  0
MTEXT
  5
984D
330
18
100
AcDbEntity
  8
0
100
AcDbMText
 10
205.1019570266666
 20
278.5798510066454
 30
0.0
 40
5.0
 41
0.0
 71
     1
 72
     5
  1
\Ftxt.shx,bigfont.shx|c128;1
  7
JL
 73
     1
 44
1.0
1001
ACAD
1000
MTEXTBEGIN
1070
    73
1070
     1
1070
    44
1040
1.0
1070
    74
1070
     0
1000
MTEXTEND
  0
MTEXT
  5
984E
330
18
100
AcDbEntity
  8
0
100
AcDbMText
 10
204.2152890873903
 20
270.7436409356394
 30
0.0
 40
5.0
 41
0.0
 71
     1
 72
     5
  1
\Ftxt.shx,bigfont.shx|c128;2
  7
JL
 73
     1
 44
1.0
1001
ACAD
1000
MTEXTBEGIN
1070
    73
1070
     1
1070
    44
1040
1.0
1070
    74
1070
     0
1000
MTEXTEND
  0
MTEXT
  5
984F
330
18
100
AcDbEntity
  8
0
100
AcDbMText
 10
200.2090839918421
 20
287.0885254164057
 30
0.0
 40
5.0
 41
0.0
 71
     1
 72
     5
  1
\Ftxt.shx,bigfont.shx|c128;照   号
  7
JL
 73
     1
 44
1.0
1001
ACAD
1000
MTEXTBEGIN
1070
    73
1070
     1
1070
    44
1040
1.0
1070
    74
1070
     0
1000
MTEXTEND
  0
LINE
  5
9850
330
18
100
AcDbEntity
  8
図框線
 62
     9
100
AcDbLine
 10
252.9999999999995
 20
289.9999999999998
 30
0.0
 11
252.9999999999995
 21
256.0
 31
0.0
  0
MTEXT
  5
9851
330
18
100
AcDbEntity
  8
0
100
AcDbMText
 10
344.3353765925376
 20
287.5804049742369
 30
0.0
 40
5.0
 41
0.0
 71
     1
 72
     5
  1
\Ftxt.shx,bigfont.shx|c128;備           考
  7
JL
 73
     1
 44
1.0
1001
ACAD
1000
MTEXTBEGIN
1070
    73
1070
     1
1070
    44
1040
1.0
1070
    74
1070
     0
1000
MTEXTEND
  0
LINE
  5
9852
330
18
100
AcDbEntity
  8
図框線
 62
     9
100
AcDbLine
 10
292.9999999999996
 20
289.9999999999999
 30
0.0
 11
292.9999999999996
 21
255.9999999999999
 31
0.0
  0
MTEXT
  5
9853
330
18
100
AcDbEntity
  8
0
100
AcDbMText
 10
294.7838702977636
 20
262.3660650505403
 30
0.0
 40
5.0
 41
0.0
 71
     1
 72
     5
  1
\Ftxt.shx,bigfont.shx|c128;C3604
  7
JL
 73
     1
 44
1.0
1001
ACAD
1000
MTEXTBEGIN
1070
    73
1070
     1
1070
    44
1040
1.0
1070
    74
1070
     0
1000
MTEXTEND
  0
MTEXT
  5
9854
330
18
100
AcDbEntity
  8
0
100
AcDbMText
 10
294.7838702977636
 20
278.3660650505403
 30
0.0
 40
5.0
 41
0.0
 71
     1
 72
     5
  1
\Ftxt.shx,bigfont.shx|c128;SCM-440
  7
JL
 73
     1
 44
1.0
1001
ACAD
1000
MTEXTBEGIN
1070
    73
1070
     1
1070
    44
1040
1.0
1070
    74
1070
     0
1000
MTEXTEND
  0
MTEXT
  5
9855
330
18
100
AcDbEntity
  8
0
100
AcDbMText
 10
294.7838702977636
 20
270.3660650505403
 30
0.0
 40
5.0
 41
0.0
 71
     1
 72
     5
  1
\Ftxt.shx,bigfont.shx|c128;SCM435
  7
JL
 73
     1
 44
1.0
1001
ACAD
1000
MTEXTBEGIN
1070
    73
1070
     1
1070
    44
1040
1.0
1070
    74
1070
     0
1000
MTEXTEND
  0
MTEXT
  5
9856
330
18
100
AcDbEntity
  8
0
100
AcDbMText
 10
297.8003249944539
 20
287.5804049742369
 30
0.0
 40
5.0
 41
0.0
 71
     1
 72
     5
  1
\Ftxt.shx,bigfont.shx|c128;材　質
  7
JL
 73
     1
 44
1.0
1001
ACAD
1000
MTEXTBEGIN
1070
    73
1070
     1
1070
    44
1040
1.0
1070
    74
1070
     0
1000
MTEXTEND
  0
LINE
  5
9857
330
18
100
AcDbEntity
  8
図框線
 62
     9
100
AcDbLine
 10
312.9999999999995
 20
289.9999999999999
 30
0.0
 11
312.9999999999995
 21
255.9999999999999
 31
0.0
  0
LINE
  5
9858
330
18
100
AcDbEntity
  8
図框線
100
AcDbLine
 10
327.9999999999995
 20
289.9999999999999
 30
0.0
 11
327.9999999999995
 21
255.9999999999999
 31
0.0
  0
MTEXT
  5
9859
330
18
100
AcDbEntity
  8
0
100
AcDbMText
 10
319.2152890873901
 20
262.7436409356394
 30
0.0
 40
5.0
 41
0.0
 71
     1
 72
     5
  1
\Ftxt.shx,bigfont.shx|c128;3
  7
JL
 73
     1
 44
1.0
1001
ACAD
1000
MTEXTBEGIN
1070
    73
1070
     1
1070
    44
1040
1.0
1070
    74
1070
     0
1000
MTEXTEND
  0
MTEXT
  5
985A
330
18
100
AcDbEntity
  8
0
100
AcDbMText
 10
320.1019570266665
 20
278.5798510066454
 30
0.0
 40
5.0
 41
0.0
 71
     1
 72
     5
  1
\Ftxt.shx,bigfont.shx|c128;1
  7
JL
 73
     1
 44
1.0
1001
ACAD
1000
MTEXTBEGIN
1070
    73
1070
     1
1070
    44
1040
1.0
1070
    74
1070
     0
1000
MTEXTEND
  0
MTEXT
  5
985B
330
18
100
AcDbEntity
  8
0
100
AcDbMText
 10
319.2152890873901
 20
270.7436409356394
 30
0.0
 40
5.0
 41
0.0
 71
     1
 72
     5
  1
\Ftxt.shx,bigfont.shx|c128;3
  7
JL
 73
     1
 44
1.0
1001
ACAD
1000
MTEXTBEGIN
1070
    73
1070
     1
1070
    44
1040
1.0
1070
    74
1070
     0
1000
MTEXTEND
  0
MTEXT
  5
985C
330
18
100
AcDbEntity
  8
0
100
AcDbMText
 10
314.4337403119168
 20
287.5804049742369
 30
0.0
 40
5.0
 41
0.0
 71
     1
 72
     5
  1
\Ftxt.shx,bigfont.shx|c128;数   量
  7
JL
 73
     1
 44
1.0
1001
ACAD
1000
MTEXTBEGIN
1070
    73
1070
     1
1070
    44
1040
1.0
1070
    74
1070
     0
1000
MTEXTEND
  0
LEADER
  5
985D
330
18
100
AcDbEntity
  8
DIM
 62
     6
100
AcDbLeader
  3
A
 73
     0
 75
     1
 40
3.0
 41
4.0
 76
     3
 10
298.6094342666492
 20
124.2439365346357
 30
0.0
 10
290.8201968617459
 20
133.2331041275467
 30
0.0
 10
288.3201968617459
 20
133.2331041275467
 30
0.0
340
985E
  0
MTEXT
  5
985E
102
{ACAD_REACTORS
330
985D
102
}
330
18
100
AcDbEntity
  8
DIM
 62
     3
100
AcDbMText
 10
287.3201968617459
 20
135.7331041275467
 30
0.0
 40
3.0
 41
0.0
 71
     6
 72
     1
  1
\A1;C1
  7
TXT
 73
     1
 44
1.0
1001
ACAD
1000
MTEXTBEGIN
1070
    73
1070
     1
1070
    44
1040
1.0
1070
    74
1070
     0
1000
MTEXTEND
  0
DIMENSION
  5
985F
330
18
100
AcDbEntity
  8
DIM
100
AcDbDimension
  2
*D21
 10
306.1094342666493
 20
145.3406254398385
 30
0.0
 11
288.6094342666492
 21
147.8406254398385
 31
0.0
 70
    32
  1
%%c<>%%p0.5
 71
     5
 42
35.0
  3
A
100
AcDbAlignedDimension
 13
271.1094342666493
 23
127.7439365346357
 33
0.0
 14
306.1094342666493
 24
127.7439365346357
 34
0.0
100
AcDbRotatedDimension
  0
DIMENSION
  5
9860
330
18
100
AcDbEntity
  8
DIM
100
AcDbDimension
  2
*D22
 10
308.6094342666493
 20
152.4202948637195
 30
0.0
 11
283.0845208974727
 21
153.2327158878076
 31
0.0
 70
   160
  1
%%c<>
 71
     5
 42
40.0
  3
A
100
AcDbAlignedDimension
 13
268.6094342666493
 23
123.3005608616617
 33
0.0
 14
308.6094342666493
 24
123.3005608616617
 34
0.0
100
AcDbRotatedDimension
  0
LEADER
  5
9861
330
18
100
AcDbEntity
  8
DIM
 62
     6
100
AcDbLeader
  3
A
 76
     2
 10
300.6534731862126
 20
117.9204869900331
 30
0.0
 10
322.0855672180489
 20
138.7958547243619
 30
0.0
1001
ACAD
1000
DSTYLE
1002
{
1070
   341
1005
7A5F
1070
   173
1070
     1
1070
   343
1005
7A5F
1070
   344
1005
7A5F
1002
}
  0
LINE
  5
9862
330
18
100
AcDbEntity
  8
中心線
  6
CENTER
 48
0.15
100
AcDbLine
 10
288.6094342666492
 20
223.9704229320047
 30
0.0
 11
288.6094342666492
 21
179.9704229320047
 31
0.0
  0
LINE
  5
9863
330
18
100
AcDbEntity
  8
中心線
  6
CENTER
 48
0.15
100
AcDbLine
 10
266.6094342666495
 20
201.9704229320047
 30
0.0
 11
310.6094342666495
 21
201.9704229320048
 31
0.0
  0
LINE
  5
9864
330
18
100
AcDbEntity
  8
本体外線
100
AcDbLine
 10
304.5440931227337
 20
189.8837920060513
 30
0.0
 11
302.9551026088705
 21
190.80119610697
 31
0.0
  0
LINE
  5
9865
330
18
100
AcDbEntity
  8
本体外線
100
AcDbLine
 10
302.9551026088705
 20
190.80119610697
 30
0.0
 11
305.4551026088704
 21
195.1313231258921
 31
0.0
  0
LINE
  5
9866
330
18
100
AcDbEntity
  8
本体外線
100
AcDbLine
 10
305.4551026088704
 20
195.1313231258921
 30
0.0
 11
307.0440931227337
 21
194.2139190249735
 31
0.0
  0
LINE
  5
9867
330
18
100
AcDbEntity
  8
本体外線
 48
0.08
100
AcDbLine
 10
288.6094342666492
 20
109.7439365346357
 30
0.0
 11
288.6094342666493
 21
127.7439365346357
 31
0.0
  0
LINE
  5
9868
102
{ACAD_REACTORS
330
98D5
102
}
330
18
100
AcDbEntity
  8
本体外線
100
AcDbLine
 10
271.1094342666493
 20
127.7439365346357
 30
0.0
 11
306.1094342666493
 21
127.7439365346357
 31
0.0
  0
LINE
  5
9869
102
{ACAD_REACTORS
330
98D5
102
}
330
18
100
AcDbEntity
  8
本体外線
100
AcDbLine
 10
308.6094342666493
 20
123.3005608616617
 30
0.0
 11
308.6094342666493
 21
115.8061143611268
 31
0.0
  0
LINE
  5
986A
102
{ACAD_REACTORS
330
98D5
102
}
330
18
100
AcDbEntity
  8
本体外線
100
AcDbLine
 10
272.1094342666493
 20
109.7439365346357
 30
0.0
 11
305.1094342666492
 21
109.7439365346357
 31
0.0
  0
LINE
  5
986B
330
18
100
AcDbEntity
  8
本体外線
100
AcDbLine
 10
271.1094342666493
 20
124.7439365346357
 30
0.0
 11
299.1094342666493
 21
124.7439365346357
 31
0.0
  0
LINE
  5
986C
102
{ACAD_REACTORS
330
98D5
102
}
330
18
100
AcDbEntity
  8
本体外線
100
AcDbLine
 10
298.1094342666493
 20
123.7439365346357
 30
0.0
 11
299.1094342666493
 21
124.7439365346357
 31
0.0
  0
LINE
  5
986D
102
{ACAD_REACTORS
330
98D5
102
}
330
18
100
AcDbEntity
  8
0
100
AcDbLine
 10
304.6401627635465
 20
110.5311344487175
 30
0.0
 11
307.6435632417977
 21
115.7331766725254
 31
0.0
  0
LINE
  5
986E
330
18
100
AcDbEntity
  8
本体内線
  6
HIDDEN
 48
0.1
100
AcDbLine
 10
305.7437971909698
 20
114.389837754805
 30
0.0
 11
304.8570458450222
 21
113.8778716265178
 31
0.0
  0
LINE
  5
986F
330
18
100
AcDbEntity
  8
本体内線
  6
HIDDEN
 48
0.1
100
AcDbLine
 10
304.8570458450221
 20
113.8778716265175
 30
0.0
 11
304.8570458450219
 21
112.8539393699425
 31
0.0
  0
LINE
  5
9870
330
18
100
AcDbEntity
  8
0
100
AcDbLine
 10
302.3440103408398
 20
116.9540817906672
 30
0.0
 11
304.510035744624
 21
117.5344665483965
 31
0.0
  0
LINE
  5
9871
330
18
100
AcDbEntity
  8
0
100
AcDbLine
 10
300.9296509868948
 20
114.5043395294742
 30
0.0
 11
301.5100357446241
 21
112.3383141256899
 31
0.0
  0
LINE
  5
9872
330
18
100
AcDbEntity
  8
0
100
AcDbLine
 10
304.510035744624
 20
117.5344665483965
 30
0.0
 11
301.5100357446241
 21
112.3383141256899
 31
0.0
  0
LINE
  5
9873
330
18
100
AcDbEntity
  8
0
100
AcDbLine
 10
306.0258034096016
 20
111.3311344487174
 30
0.0
 11
301.0028560676517
 21
114.2311344487175
 31
0.0
  0
LINE
  5
9874
330
18
100
AcDbEntity
  8
0
100
AcDbLine
 10
302.6206158998481
 20
117.0331766725258
 30
0.0
 11
302.6172154215966
 21
117.027286871424
 31
0.0
  0
LINE
  5
9875
330
18
100
AcDbEntity
  8
中心線
  6
CENTER
 48
0.15
100
AcDbLine
 10
307.7289655044227
 20
112.281097730473
 30
0.0
 11
297.1094342666493
 21
118.3134064001996
 31
0.0
  0
LWPOLYLINE
  5
9876
102
{ACAD_REACTORS
330
98D5
102
}
330
18
100
AcDbEntity
  8
本体外線
100
AcDbPolyline
 90
        2
 70
     0
 43
0.0
 10
305.1094342666492
 20
109.7439365346358
 10
308.6094342666493
 20
115.8061143611268
  0
LINE
  5
9877
330
18
100
AcDbEntity
  8
0
100
AcDbLine
 10
302.8868306638673
 20
117.8942741695318
 30
0.0
 11
298.1094342666493
 21
120.6525052654912
 31
0.0
  0
LINE
  5
9878
330
18
100
AcDbEntity
  8
0
100
AcDbLine
 10
300.3868306638673
 20
113.5641471506097
 30
0.0
 11
298.1094342666492
 21
114.879002573595
 31
0.0
  0
LINE
  5
9879
102
{ACAD_REACTORS
330
98D5
102
}
330
18
100
AcDbEntity
  8
0
100
AcDbLine
 10
307.6435632417977
 20
114.1331766725259
 30
0.0
 11
307.6435632417977
 21
115.7331766725254
 31
0.0
  0
LINE
  5
987A
330
18
100
AcDbEntity
  8
0
100
AcDbLine
 10
306.0292038878527
 20
111.3370242498189
 30
0.0
 11
304.6435632417978
 21
110.5370242498189
 31
0.0
  0
LINE
  5
987B
330
18
100
AcDbEntity
  8
本体内線
  6
HIDDEN
 48
0.1
100
AcDbLine
 10
307.2797592377992
 20
113.503049653603
 30
0.0
 11
305.7437971909698
 21
114.389837754805
 31
0.0
  0
LINE
  5
987C
330
18
100
AcDbEntity
  8
本体内線
  6
HIDDEN
 48
0.1
100
AcDbLine
 10
306.3930078918513
 20
111.9671512687404
 30
0.0
 11
304.857045845022
 21
112.8539393699425
 31
0.0
  0
LINE
  5
987D
330
18
100
AcDbEntity
  8
0
100
AcDbLine
 10
307.6435632417977
 20
114.1331766725259
 30
0.0
 11
302.6206158998481
 21
117.0331766725258
 31
0.0
  0
ARC
  5
987E
330
18
100
AcDbEntity
  8
本体外線
100
AcDbCircle
 10
288.6094342666492
 20
201.9704229320046
 30
0.0
 40
20.0
100
AcDbArc
 50
217.1807557814582
 51
244.1580672368331
  0
LINE
  5
987F
330
18
100
AcDbEntity
  8
本体外線
100
AcDbLine
 10
304.5440931227337
 20
214.057053857958
 30
0.0
 11
302.9551026088705
 21
213.1396497570393
 31
0.0
  0
LINE
  5
9880
330
18
100
AcDbEntity
  8
本体外線
100
AcDbLine
 10
302.9551026088705
 20
213.1396497570393
 30
0.0
 11
305.4551026088704
 21
208.8095227381172
 31
0.0
  0
LINE
  5
9881
330
18
100
AcDbEntity
  8
本体外線
100
AcDbLine
 10
305.4551026088704
 20
208.8095227381172
 30
0.0
 11
307.0440931227337
 21
209.7269268390358
 31
0.0
  0
LINE
  5
9882
330
18
100
AcDbEntity
  8
本体外線
100
AcDbLine
 10
272.6747754105649
 20
189.8837920060513
 30
0.0
 11
274.2637659244281
 21
190.80119610697
 31
0.0
  0
LINE
  5
9883
330
18
100
AcDbEntity
  8
本体外線
100
AcDbLine
 10
274.2637659244281
 20
190.80119610697
 30
0.0
 11
271.7637659244281
 21
195.1313231258921
 31
0.0
  0
LINE
  5
9884
330
18
100
AcDbEntity
  8
本体外線
100
AcDbLine
 10
271.7637659244281
 20
195.1313231258921
 30
0.0
 11
270.1747754105649
 21
194.2139190249735
 31
0.0
  0
LINE
  5
9885
330
18
100
AcDbEntity
  8
本体外線
100
AcDbLine
 10
272.6747754105649
 20
214.057053857958
 30
0.0
 11
274.2637659244281
 21
213.1396497570393
 31
0.0
  0
LINE
  5
9886
330
18
100
AcDbEntity
  8
本体外線
100
AcDbLine
 10
274.2637659244281
 20
213.1396497570393
 30
0.0
 11
271.7637659244281
 21
208.8095227381172
 31
0.0
  0
LINE
  5
9887
330
18
100
AcDbEntity
  8
本体外線
100
AcDbLine
 10
271.7637659244281
 20
208.8095227381172
 30
0.0
 11
270.1747754105649
 21
209.7269268390358
 31
0.0
  0
ARC
  5
9888
330
18
100
AcDbEntity
  8
本体外線
100
AcDbCircle
 10
288.6094342666492
 20
201.9704229320046
 30
0.0
 40
20.0
100
AcDbArc
 50
157.1807557814584
 51
202.8192442185417
  0
ARC
  5
9889
330
18
100
AcDbEntity
  8
本体外線
100
AcDbCircle
 10
288.6094342666492
 20
201.9704229320046
 30
0.0
 40
20.0
100
AcDbArc
 50
337.1807557814583
 51
22.8192442185416
  0
ARC
  5
988A
330
18
100
AcDbEntity
  8
本体外線
100
AcDbCircle
 10
288.6094342666492
 20
201.9704229320046
 30
0.0
 40
20.0
100
AcDbArc
 50
37.18075578145816
 51
64.15806723683314
  0
LINE
  5
988B
102
{ACAD_REACTORS
330
98D5
102
}
330
18
100
AcDbEntity
  8
本体外線
100
AcDbLine
 10
306.1094342666493
 20
127.7439365346357
 30
0.0
 11
306.1094342666493
 21
124.7439365346357
 31
0.0
  0
LINE
  5
988C
102
{ACAD_REACTORS
330
98D5
102
}
330
18
100
AcDbEntity
  8
本体外線
100
AcDbLine
 10
306.1094342666493
 20
124.7439365346357
 30
0.0
 11
308.6094342666493
 21
123.3005608616617
 31
0.0
  0
LINE
  5
988D
330
18
100
AcDbEntity
  8
本体外線
100
AcDbLine
 10
268.6094342666493
 20
123.3005608616617
 30
0.0
 11
268.6094342666493
 21
115.8061143611268
 31
0.0
  0
LWPOLYLINE
  5
988E
330
18
100
AcDbEntity
  8
本体外線
100
AcDbPolyline
 90
        2
 70
     0
 43
0.0
 10
272.1094342666493
 20
109.7439365346358
 10
268.6094342666493
 20
115.8061143611268
  0
LINE
  5
988F
330
18
100
AcDbEntity
  8
本体外線
100
AcDbLine
 10
271.1094342666493
 20
127.7439365346357
 30
0.0
 11
271.1094342666493
 21
124.7439365346357
 31
0.0
  0
LINE
  5
9890
330
18
100
AcDbEntity
  8
本体外線
100
AcDbLine
 10
271.1094342666493
 20
124.7439365346357
 30
0.0
 11
268.6094342666493
 21
123.3005608616617
 31
0.0
  0
POINT
  5
9891
330
18
100
AcDbEntity
  8
本体外線
100
AcDbPoint
 10
278.1094342666492
 20
109.7439365346357
 30
0.0
  0
POINT
  5
9892
330
18
100
AcDbEntity
  8
本体外線
100
AcDbPoint
 10
299.1094342666493
 20
109.7439365346357
 30
0.0
  0
LINE
  5
9893
330
18
100
AcDbEntity
  8
本体外線
100
AcDbLine
 10
279.8916363795679
 20
183.9704229320046
 30
0.0
 11
297.3272321537306
 21
183.9704229320046
 31
0.0
  0
LINE
  5
9894
330
18
100
AcDbEntity
  8
本体外線
100
AcDbLine
 10
279.8916363795679
 20
219.9704229320047
 30
0.0
 11
297.3272321537306
 21
219.9704229320046
 31
0.0
  0
ARC
  5
9895
330
18
100
AcDbEntity
  8
本体外線
100
AcDbCircle
 10
288.6094342666492
 20
201.9704229320046
 30
0.0
 40
20.0
100
AcDbArc
 50
115.8419327631668
 51
142.8192442185418
  0
ARC
  5
9896
330
18
100
AcDbEntity
  8
本体外線
100
AcDbCircle
 10
288.6094342666492
 20
201.9704229320046
 30
0.0
 40
20.0
100
AcDbArc
 50
295.8419327631669
 51
322.8192442185418
  0
LINE
  5
9897
330
18
100
AcDbEntity
  8
本体外線
100
AcDbLine
 10
279.8916363795679
 20
115.8061143611268
 30
0.0
 11
272.6747754105649
 21
115.8061143611268
 31
0.0
  0
LINE
  5
9898
330
18
100
AcDbEntity
  8
本体外線
100
AcDbLine
 10
279.8916363795679
 20
123.3605608616617
 30
0.0
 11
272.6747754105649
 21
123.3605608616617
 31
0.0
  0
LINE
  5
9899
330
18
100
AcDbEntity
  8
本体外線
100
AcDbLine
 10
271.7637659244281
 20
124.7439365346357
 30
0.0
 11
271.7637659244281
 21
110.3426516659309
 31
0.0
  0
LINE
  5
989A
330
18
100
AcDbEntity
  8
本体外線
100
AcDbLine
 10
270.1747754105649
 20
123.3605608616617
 30
0.0
 11
270.1747754105649
 21
115.8061143611268
 31
0.0
  0
LINE
  5
989B
330
18
100
AcDbEntity
  8
本体外線
100
AcDbLine
 10
270.1747754105649
 20
115.8061143611268
 30
0.0
 11
271.7637659244281
 21
110.3426516659309
 31
0.0
  0
LINE
  5
989C
330
18
100
AcDbEntity
  8
本体外線
100
AcDbLine
 10
270.1747754105649
 20
123.3605608616617
 30
0.0
 11
271.7637659244281
 21
124.7439365346357
 31
0.0
  0
LINE
  5
989D
330
18
100
AcDbEntity
  8
本体外線
100
AcDbLine
 10
272.6747754105649
 20
123.3605608616617
 30
0.0
 11
272.6747754105649
 21
115.8061143611268
 31
0.0
  0
LINE
  5
989E
330
18
100
AcDbEntity
  8
本体外線
100
AcDbLine
 10
270.1747754105649
 20
123.3605608616617
 30
0.0
 11
268.7133573151034
 21
123.3605608616617
 31
0.0
  0
LINE
  5
989F
330
18
100
AcDbEntity
  8
本体外線
100
AcDbLine
 10
270.1747754105649
 20
115.8061143611268
 30
0.0
 11
268.6094342666493
 21
115.8061143611268
 31
0.0
  0
LINE
  5
98A0
330
18
100
AcDbEntity
  8
本体外線
100
AcDbLine
 10
274.2637659244281
 20
124.7439365346357
 30
0.0
 11
272.6747754105649
 21
123.3605608616617
 31
0.0
  0
LINE
  5
98A1
330
18
100
AcDbEntity
  8
本体外線
100
AcDbLine
 10
272.6747754105649
 20
115.8061143611268
 30
0.0
 11
274.2637659244281
 21
109.7439365346357
 31
0.0
  0
LINE
  5
98A2
330
18
100
AcDbEntity
  8
本体外線
100
AcDbLine
 10
279.8916363795679
 20
123.3605608616617
 30
0.0
 11
279.8916363795679
 21
115.8061143611268
 31
0.0
  0
ARC
  5
98A3
330
18
100
AcDbEntity
  8
本体外線
100
AcDbCircle
 10
288.6094342666492
 20
96.58320992409898
 30
0.0
 40
28.16072661053676
100
AcDbArc
 50
90.0
 51
108.033493534597
  0
ARC
  5
98A4
330
18
100
AcDbEntity
  8
本体外線
100
AcDbCircle
 10
288.6094342666492
 20
142.5834652986895
 30
0.0
 40
28.16072661053676
100
AcDbArc
 50
251.9665064654029
 51
270.0
  0
ELLIPSE
  5
98A5
330
18
100
AcDbEntity
  8
本体内線
  6
HIDDEN
 48
0.2
100
AcDbEllipse
 10
279.2915435859245
 20
218.0844651675727
 30
0.0
 11
1.121820924271439
 21
0.6476836126106696
 31
0.0
210
0.0
220
0.0
230
0.9999999999999998
 40
0.5585665638569112
 41
-3.141592653589793
 42
3.141592653589793
  0
ELLIPSE
  5
98A6
330
18
100
AcDbEntity
  8
本体外線
100
AcDbEllipse
 10
279.497491549944
 20
112.7292106600707
 30
0.0
 11
-3.000000000000021
 21
0.0000000000000007
 31
0.0
210
0.0
220
0.0
230
1.0
 40
0.4999999999999918
 41
0.0
 42
6.283185307179586
  0
LINE
  5
98A7
102
{ACAD_REACTORS
330
98D5
102
}
330
18
100
AcDbEntity
  8
0
100
AcDbLine
 10
308.332983086574
 20
115.3272868714239
 30
0.0
 11
298.1094342666493
 21
121.2298555346809
 31
0.0
  0
LINE
  5
98A8
102
{ACAD_REACTORS
330
98D5
102
}
330
18
100
AcDbEntity
  8
0
100
AcDbLine
 10
305.3329830865739
 20
110.1311344487174
 30
0.0
 11
298.1094342666493
 21
114.3016523044054
 31
0.0
  0
LWPOLYLINE
  5
98A9
330
18
100
AcDbEntity
  8
0
100
AcDbPolyline
 90
        2
 70
     0
 43
0.0
 10
300.3868306638673
 20
113.5641471506097
 10
302.8868306638673
 20
117.8942741695318
  0
CIRCLE
  5
98AA
330
18
100
AcDbEntity
  8
本体外線
100
AcDbCircle
 10
288.6094342666496
 20
201.9704229320047
 30
0.0
 40
17.5
  0
ELLIPSE
  5
98AB
330
18
100
AcDbEntity
  8
本体内線
  6
HIDDEN
 48
0.2
100
AcDbEllipse
 10
279.3132096733532
 20
185.8438717750265
 30
0.0
 11
-1.121820924271438
 21
0.6476836126106709
 31
0.0
210
0.0
220
0.0
230
1.0
 40
0.5585665638569112
 41
-3.141592653589793
 42
3.141592653589793
  0
ELLIPSE
  5
98AC
330
18
100
AcDbEntity
  8
本体内線
  6
HIDDEN
 48
0.2
100
AcDbEllipse
 10
307.2235495406685
 20
201.9829318534135
 30
0.0
 11
-0.0000000000000014
 21
-1.29536722522134
 31
0.0
210
0.0
220
0.0
230
1.0
 40
0.5585665638569112
 41
-3.141592653589793
 42
3.141592653589793
  0
ARC
  5
98AD
330
18
100
AcDbEntity
  8
0
100
AcDbCircle
 10
288.6094342666496
 20
201.9704229320047
 30
0.0
 40
10.0
100
AcDbArc
 50
170.2217772714949
 51
104.3248018910799
  0
CIRCLE
  5
98AE
330
18
100
AcDbEntity
  8
本体外線
100
AcDbCircle
 10
288.6094342666496
 20
201.9704229320047
 30
0.0
 40
9.5
  0
LINE
  5
98AF
330
18
100
AcDbEntity
  8
中心線
  6
CENTER
 48
0.15
100
AcDbLine
 10
269.5568753833919
 20
190.9704229320048
 30
0.0
 11
307.6619931499072
 21
212.9704229320049
 31
0.0
  0
LINE
  5
98B0
330
18
100
AcDbEntity
  8
中心線
  6
CENTER
 48
0.15
100
AcDbLine
 10
269.5568753833919
 20
212.9704229320047
 30
0.0
 11
307.6619931499072
 21
190.9704229320046
 31
0.0
  0
DIMENSION
  5
98B1
330
18
100
AcDbEntity
  8
DIM
100
AcDbDimension
  2
*D23
 10
247.8293941003023
 20
183.9704229320046
 30
0.0
 11
246.9734041850788
 21
198.6249777226201
 31
0.0
 70
   160
 71
     5
 42
36.00000000000003
  3
A
100
AcDbAlignedDimension
 13
279.8916363795679
 23
219.9704229320047
 33
0.0
 14
279.8916363795679
 24
183.9704229320046
 34
0.0
 50
90.0
100
AcDbRotatedDimension
  0
DIMENSION
  5
98B2
330
18
100
AcDbEntity
  8
DIM
100
AcDbDimension
  2
*D24
 10
294.6395154910777
 20
227.5426691398213
 30
0.0
 11
295.1012880787532
 21
228.6979105251438
 31
0.0
 70
   161
 71
     5
 42
1.991673368852843
  3
A
100
AcDbAlignedDimension
 13
304.6799423423379
 23
214.1354864414657
 33
0.0
 14
302.9551026088704
 24
213.1396497570393
 34
0.0
  0
LINE
  5
98B3
330
18
100
AcDbEntity
  8
DIM
 62
     6
100
AcDbLine
 10
300.6944822434675
 20
231.0385058242478
 30
0.0
 11
305.6721972720371
 21
233.9123909359417
 31
0.0
  0
LINE
  5
98B4
330
18
100
AcDbEntity
  8
0
  6
ByBlock
 62
     6
100
AcDbLine
 10
305.4101185265181
 20
214.557053857958
 30
0.0
 11
317.5369660976032
 21
221.558492567545
 31
0.0
  0
LINE
  5
98B5
330
18
100
AcDbEntity
  8
0
  6
ByBlock
 62
     6
100
AcDbLine
 10
307.910118526518
 20
210.2269268390357
 30
0.0
 11
320.0369660976031
 21
217.2283655486228
 31
0.0
  0
LINE
  5
98B6
330
18
100
AcDbEntity
  8
0
  6
ByBlock
 62
     6
100
AcDbLine
 10
315.4209406938188
 20
223.2235560770062
 30
0.0
 11
314.1709406938189
 21
225.3886195864674
 31
0.0
  0
LINE
  5
98B7
330
18
100
AcDbEntity
  8
0
  6
ByBlock
 62
     6
100
AcDbLine
 10
320.4209406938186
 20
214.5633020391617
 30
0.0
 11
321.6709406938185
 21
212.3982385297005
 31
0.0
  0
LINE
  5
98B8
330
18
100
AcDbEntity
  8
0
  6
ByBlock
 62
     6
100
AcDbLine
 10
309.9168732923634
 20
232.7568804646112
 30
0.0
 11
316.6709406938188
 21
221.0584925675451
 31
0.0
  0
MTEXT
  5
98B9
330
18
100
AcDbEntity
  8
0
  6
ByBlock
 62
     3
100
AcDbMText
 10
312.3249625866772
 20
221.7948822687503
 30
0.0
 40
3.0
 41
0.0
 71
     5
 72
     1
  1
\A1;5
  7
TXT
 11
-0.4999999999999741
 21
0.8660254037844536
 31
0.0
 73
     1
 44
1.0
1001
ACAD
1000
MTEXTBEGIN
1070
    73
1070
     1
1070
    44
1040
1.0
1070
    74
1070
     0
1000
MTEXTEND
  0
LINE
  5
98BA
330
18
100
AcDbEntity
  8
0
  6
ByBlock
 62
     6
100
AcDbLine
 10
316.6709406938188
 20
221.0584925675451
 30
0.0
 11
319.1709406938187
 21
216.7283655486228
 31
0.0
  0
SOLID
  5
98BB
330
18
100
AcDbEntity
  8
0
  6
ByBlock
 62
     6
100
AcDbTrace
 10
315.7817846120623
 20
223.4318894103395
 30
0.0
 11
315.0600967755753
 21
223.0152227436729
 31
0.0
 12
316.6709406938188
 22
221.0584925675451
 32
0.0
 13
316.6709406938188
 23
221.0584925675451
 33
0.0
  0
SOLID
  5
98BC
330
18
100
AcDbEntity
  8
0
  6
ByBlock
 62
     6
100
AcDbTrace
 10
320.7817846120621
 20
214.771635372495
 30
0.0
 11
320.0600967755751
 21
214.3549687058284
 31
0.0
 12
319.1709406938187
 22
216.7283655486228
 32
0.0
 13
319.1709406938187
 23
216.7283655486228
 33
0.0
  0
POINT
  5
98BD
330
18
100
AcDbEntity
  8
DEFPOINTS
  6
ByBlock
 62
     0
100
AcDbPoint
 10
304.5440931227337
 20
214.057053857958
 30
0.0
  0
POINT
  5
98BE
330
18
100
AcDbEntity
  8
DEFPOINTS
  6
ByBlock
 62
     0
100
AcDbPoint
 10
307.0440931227336
 20
209.7269268390357
 30
0.0
  0
POINT
  5
98BF
330
18
100
AcDbEntity
  8
DEFPOINTS
  6
ByBlock
 62
     0
100
AcDbPoint
 10
319.1709406938187
 20
216.7283655486228
 30
0.0
  0
MTEXT
  5
98C0
330
18
100
AcDbEntity
  8
DIM
100
AcDbMText
 10
308.481554096154
 20
222.7282049437466
 30
0.0
 40
2.0
 41
9.555074525974475
 71
     1
 72
     5
  1
+0.15\P+0
  7
TXT
 11
-0.4999999999999999
 21
0.8660254037844387
 31
0.0
 73
     1
 44
1.0
1001
ACAD
1000
MTEXTBEGIN
1070
    73
1070
     1
1070
    44
1040
1.0
1070
    74
1070
     0
1000
MTEXTEND
  0
DIMENSION
  5
98C1
330
18
100
AcDbEntity
  8
DIM
100
AcDbDimension
  2
*D16
 10
307.6619931499072
 20
190.9704229320045
 30
0.0
 11
325.9783534441116
 21
191.9574512163797
 31
0.0
 70
    34
 71
     5
 42
0.5235987755983019
  3
A
100
AcDb2LineAngularDimension
 13
266.6094342666495
 23
201.9704229320047
 33
0.0
 14
310.6094342666495
 24
201.9704229320048
 34
0.0
 15
269.5568753833919
 25
212.9704229320047
 35
0.0
 16
327.3126969896344
 26
187.8835873318534
 36
0.0
1001
ACAD
1000
DSTYLE
1002
{
1070
    79
1070
     2
1070
   179
1070
     1
1002
}
  0
LINE
  5
98C2
330
18
100
AcDbEntity
  8
0
  6
ByBlock
 62
     6
100
AcDbLine
 10
311.6094342666496
 20
201.9704229320048
 30
0.0
 11
330.8542293729597
 21
201.9704229320049
 31
0.0
  0
LINE
  5
98C3
330
18
100
AcDbEntity
  8
0
  6
ByBlock
 62
     6
100
AcDbLine
 10
308.5280185536916
 20
213.4704229320049
 30
0.0
 11
325.1945000063825
 21
223.09282048516
 31
0.0
  0
ARC
  5
98C4
330
18
100
AcDbEntity
  8
0
  6
ByBlock
 62
     6
100
AcDbCircle
 10
288.6094342666493
 20
201.9704229320047
 30
0.0
 40
41.2447951063103
100
AcDbArc
 50
3.473441562347217
 51
26.52655843765334
  0
SOLID
  5
98C5
330
18
100
AcDbEntity
  8
0
  6
ByBlock
 62
     6
100
AcDbTrace
 10
330.194937504372
 20
204.4819023924625
 30
0.0
 11
329.3619869695527
 21
204.4566466804634
 31
0.0
 12
329.8542293729596
 22
201.9704229320049
 32
0.0
 13
329.8542293729596
 23
201.9704229320049
 33
0.0
  0
SOLID
  5
98C6
330
18
100
AcDbEntity
  8
0
  6
ByBlock
 62
     6
100
AcDbTrace
 10
325.1452920506571
 20
220.1935663577992
 30
0.0
 11
325.879276229906
 21
220.588169537027
 31
0.0
 12
324.3284746025981
 22
222.59282048516
 32
0.0
 13
324.3284746025981
 23
222.59282048516
 33
0.0
  0
MTEXT
  5
98C7
330
18
100
AcDbEntity
  8
0
  6
ByBlock
 62
     3
100
AcDbMText
 10
325.8020572395813
 20
212.8459697107233
 30
0.0
 40
3.0
 41
0.0
 71
     5
 72
     1
  1
\A1;30°
  7
TXT
 11
-0.258819045102523
 21
0.9659258262890675
 31
0.0
 73
     1
 44
1.0
1001
ACAD
1000
MTEXTBEGIN
1070
    73
1070
     1
1070
    44
1040
1.0
1070
    74
1070
     0
1000
MTEXTEND
  0
POINT
  5
98C8
330
18
100
AcDbEntity
  8
DEFPOINTS
  6
ByBlock
 62
     0
100
AcDbPoint
 10
329.2276282587436
 20
209.1325064404616
 30
0.0
  0
POINT
  5
98C9
330
18
100
AcDbEntity
  8
DEFPOINTS
  6
ByBlock
 62
     0
100
AcDbPoint
 10
310.6094342666495
 20
201.9704229320048
 30
0.0
  0
POINT
  5
98CA
330
18
100
AcDbEntity
  8
DEFPOINTS
  6
ByBlock
 62
     0
100
AcDbPoint
 10
307.6619931499072
 20
212.9704229320048
 30
0.0
  0
POINT
  5
98CB
330
18
100
AcDbEntity
  8
DEFPOINTS
  6
ByBlock
 62
     0
100
AcDbPoint
 10
307.6619931499072
 20
212.9704229320048
 30
0.0
  0
POINT
  5
98CC
330
18
100
AcDbEntity
  8
DEFPOINTS
  6
ByBlock
 62
     0
100
AcDbPoint
 10
310.6094342666495
 20
201.9704229320048
 30
0.0
  0
LINE
  5
98CD
330
18
100
AcDbEntity
  8
本体外線
100
AcDbLine
 10
288.6094342666493
 20
123.7439365346357
 30
0.0
 11
298.1094342666493
 21
123.7439365346357
 31
0.0
  0
LINE
  5
98CE
330
18
100
AcDbEntity
  8
本体外線
100
AcDbLine
 10
288.6094342666492
 20
110.7439365346357
 30
0.0
 11
298.1094342666492
 21
110.7439365346357
 31
0.0
  0
LINE
  5
98CF
102
{ACAD_REACTORS
330
98D5
102
}
330
18
100
AcDbEntity
  8
0
 48
0.08
100
AcDbLine
 10
298.6094342666492
 20
110.2439365346357
 30
0.0
 11
298.6094342666492
 21
114.0129771698105
 31
0.0
  0
LINE
  5
98D0
102
{ACAD_REACTORS
330
98D5
102
}
330
18
100
AcDbEntity
  8
本体外線
 48
0.08
100
AcDbLine
 10
298.1094342666492
 20
110.7439365346357
 30
0.0
 11
298.1094342666493
 21
123.7439365346357
 31
0.0
  0
LINE
  5
98D1
102
{ACAD_REACTORS
330
98D5
102
}
330
18
100
AcDbEntity
  8
本体外線
 48
0.08
100
AcDbLine
 10
299.1094342666493
 20
124.7439365346357
 30
0.0
 11
299.1094342666493
 21
127.7439365346357
 31
0.0
  0
LINE
  5
98D2
102
{ACAD_REACTORS
330
98D5
102
}
330
18
100
AcDbEntity
  8
本体外線
100
AcDbLine
 10
298.1094342666493
 20
110.7439365346357
 30
0.0
 11
299.1094342666493
 21
109.7439365346357
 31
0.0
  0
LINE
  5
98D3
102
{ACAD_REACTORS
330
98D5
102
}
330
18
100
AcDbEntity
  8
0
 48
0.08
100
AcDbLine
 10
298.6094342666492
 20
120.941180400086
 30
0.0
 11
298.6094342666492
 21
124.2439365346357
 31
0.0
  0
LINE
  5
98D4
330
18
100
AcDbEntity
  8
中心線
  6
CENTER
 48
0.05
100
AcDbLine
 10
288.6094342666492
 20
106.7439365346357
 30
0.0
 11
288.6094342666493
 21
130.7439365346357
 31
0.0
  0
HATCH
  5
98D5
330
18
100
AcDbEntity
  8
剖面線
100
AcDbHatch
 10
0.0
 20
0.0
 30
0.0
210
0.0
220
0.0
230
1.0
  2
ANSI31
 70
     0
 71
     1
 91
        4
 92
        7
 72
     0
 73
     1
 93
       12
 10
306.1094342666493
 20
124.7439365346357
 10
306.1094342666493
 20
127.7439365346357
 10
299.1094342666493
 20
127.7439365346357
 10
299.1094342666493
 20
124.7439365346357
 10
298.6094342666492
 20
124.2439365346357
 10
298.6094342666492
 20
120.941180400086
 10
307.6401627635464
 20
115.727286871424
 10
307.6435632417977
 20
115.7331766725255
 10
307.6435632417977
 20
115.7253236043902
 10
308.332983086574
 20
115.327286871424
 10
308.6094342666493
 20
115.8061143611268
 10
308.6094342666493
 20
123.3005608616617
 97
       11
330
988B
330
9868
330
98D1
330
986C
330
98D3
330
98A7
330
986D
330
9879
330
9876
330
9869
330
988C
 92
        7
 72
     0
 73
     1
 93
        4
 10
298.6094342666492
 20
124.2439365346357
 10
298.1094342666493
 20
123.7439365346357
 10
298.1094342666493
 20
121.2298555346808
 10
298.6094342666492
 20
120.941180400086
 97
        4
330
986C
330
98D0
330
98A7
330
98D3
 92
        7
 72
     0
 73
     1
 93
        5
 10
305.1094342666492
 20
109.7439365346357
 10
305.3329830865739
 20
110.1311344487174
 10
298.6094342666492
 20
114.0129771698106
 10
298.6094342666492
 20
110.2439365346357
 10
299.1094342666493
 20
109.7439365346357
 97
        5
330
98CF
330
98D2
330
986A
330
9876
330
98A8
 92
        7
 72
     0
 73
     1
 93
        4
 10
298.6094342666492
 20
114.0129771698106
 10
298.1094342666492
 20
114.3016523044054
 10
298.1094342666492
 20
110.7439365346357
 10
298.6094342666492
 20
110.2439365346357
 97
        4
330
98A8
330
98D0
330
98D2
330
98CF
 75
     0
 76
     1
 52
0.0
 41
0.5
 77
     0
 78
     1
 53
45.0
 43
3.594813354307461
 44
17.31680901895117
 45
-1.122532015133643
 46
1.122532015133644
 79
     0
 47
0.0603204684276314
 98
        4
 10
303.5995785710259
 20
124.4009471348962
 10
298.4078580402875
 20
122.4706922807936
 10
299.9774476075959
 20
110.8288414458228
 10
298.4682274661584
 20
112.0352511668877
  0
LINE
  5
98D6
330
18
100
AcDbEntity
  8
0
 62
     6
100
AcDbLine
 10
255.5441666136308
 20
127.7439365346357
 30
0.0
 11
255.5441666136308
 21
141.3580183242495
 31
0.0
  0
LINE
  5
98D7
330
18
100
AcDbEntity
  8
0
 62
     6
100
AcDbLine
 10
255.5441666136308
 20
141.3580183242495
 30
0.0
 11
249.1902238298182
 21
141.3580183242495
 31
0.0
  0
TOLERANCE
  5
98D8
330
18
100
AcDbEntity
  8
0
  6
ByBlock
100
AcDbFcf
  3
A
 10
225.4415571631515
 20
141.3580183242495
 30
0.0
  1
{\Fgdt;h}%%v0.005%%v%%vA%%v%%v
1001
ACAD
1000
DSTYLE
1002
{
1070
   140
1040
2.743999999999999
1070
   147
1040
0.6859999999999999
1002
}
  0
LINE
  5
98D9
330
18
100
AcDbEntity
  8
mark
100
AcDbLine
 10
298.6094342666492
 20
83.60970216048031
 30
0.0
 11
300.4343509631004
 21
81.65395396903017
 31
0.0
  0
HATCH
  5
98DA
330
18
100
AcDbEntity
  8
mark
100
AcDbHatch
 10
0.0
 20
0.0
 30
0.0
210
0.0
220
0.0
230
1.0
  2
SOLID
 70
     1
 71
     0
 91
        1
 92
        7
 72
     0
 73
     1
 93
        3
 10
298.6071860377441
 20
79.64232537051924
 10
300.4446502149442
 20
81.61194096100672
 10
298.6071860377441
 20
83.5815565514942
 97
        0
 75
     0
 76
     1
 47
0.2359147607200769
 98
        1
 10
299.1828180302058
 20
82.03489297238979
  0
LINE
  5
98DB
330
18
100
AcDbEntity
  8
mark
100
AcDbLine
 10
308.7768845406292
 20
78.02664636071114
 30
0.0
 11
308.7768845406292
 21
85.31924394075344
 31
0.0
  0
LINE
  5
98DC
330
18
100
AcDbEntity
  8
mark
100
AcDbLine
 10
308.7768845406292
 20
85.31924394075344
 30
0.0
 11
316.3941550316506
 21
85.31924394075344
 31
0.0
  0
LINE
  5
98DD
330
18
100
AcDbEntity
  8
mark
100
AcDbLine
 10
316.3941550316506
 20
78.02664636071114
 30
0.0
 11
316.3941550316506
 21
85.31924394075344
 31
0.0
  0
LINE
  5
98DE
330
18
100
AcDbEntity
  8
mark
100
AcDbLine
 10
308.7768845406292
 20
78.02664636071114
 30
0.0
 11
316.3941550316506
 21
78.02664636071114
 31
0.0
  0
LINE
  5
98DF
330
18
100
AcDbEntity
  8
mark
100
AcDbLine
 10
308.7768845406292
 20
81.67294515073226
 30
0.0
 11
300.4069489050464
 21
81.67294515073228
 31
0.0
  0
MTEXT
  5
98E0
330
18
100
AcDbEntity
  8
DIM
100
AcDbMText
 10
310.9015456255972
 20
84.66559760872518
 30
0.0
 40
6.0
 41
4.709751971108957
 71
     1
 72
     5
  1
A
  7
ISOCP3
 73
     1
 44
1.0
1001
ACAD
1000
MTEXTBEGIN
1070
    73
1070
     1
1070
    44
1040
1.0
1070
    74
1070
     0
1000
MTEXTEND
  0
MTEXT
  5
98E1
102
{ACAD_REACTORS
330
98E2
102
}
330
18
100
AcDbEntity
  8
DIM
 62
     3
100
AcDbMText
 10
288.0185713111421
 20
101.6337585527162
 30
0.0
 40
3.0
 41
0.0
 71
     6
 72
     1
  1
\A1;C1
  7
TXT
 73
     1
 44
1.0
1001
ACAD
1000
MTEXTBEGIN
1070
    73
1070
     1
1070
    44
1040
1.0
1070
    74
1070
     0
1000
MTEXTEND
  0
LEADER
  5
98E2
330
18
100
AcDbEntity
  8
DIM
 62
     6
100
AcDbLeader
  3
A
 73
     0
 75
     1
 40
3.0
 41
4.0
 76
     3
 10
298.6094342666492
 20
110.2439365346357
 30
0.0
 10
291.5185713111421
 20
99.13375855271624
 30
0.0
 10
289.0185713111421
 20
99.13375855271624
 30
0.0
340
98E1
  0
DIMENSION
  5
98E3
330
18
100
AcDbEntity
  8
DIM
100
AcDbDimension
  2
*D17
 10
305.1094342666492
 20
73.18960145525534
 30
0.0
 11
288.6094342666492
 21
75.68960145525534
 31
0.0
 70
    32
  1
%%c32%%p0.5
 71
     5
 42
33.0
  3
A
100
AcDbAlignedDimension
 13
272.1094342666493
 23
109.7439365346357
 33
0.0
 14
305.1094342666492
 24
109.7439365346357
 34
0.0
100
AcDbRotatedDimension
  0
DIMENSION
  5
98E4
330
18
100
AcDbEntity
  8
DIM
100
AcDbDimension
  2
*D18
 10
278.1094342666494
 20
138.9046004450007
 30
0.0
 11
288.6094342666493
 21
141.4046004450007
 31
0.0
 70
    32
  1
%%c<>
 71
     5
 42
20.99999999999988
  3
A
100
AcDbAlignedDimension
 13
299.1094342666493
 23
127.7439365346357
 33
0.0
 14
278.1094342666494
 24
127.7439365346352
 34
0.0
100
AcDbRotatedDimension
1001
ACAD
1000
DSTYLE
1002
{
1070
    76
1070
     1
1070
   173
1070
     1
1070
     7
1000
_NONE
1002
}
  0
DIMENSION
  5
98E5
330
18
100
AcDbEntity
  8
DIM
100
AcDbDimension
  2
*D19
 10
278.6094342666492
 20
89.19902768786641
 30
0.0
 11
288.6094342666492
 21
89.19902768786641
 31
0.0
 70
   160
  1
M<>X1.0P
 71
     5
 42
20.00000000000006
  3
A
100
AcDbAlignedDimension
 13
298.6094342666492
 23
110.2439365346357
 33
0.0
 14
278.6094342666492
 24
109.7439365346357
 34
0.0
100
AcDbRotatedDimension
1001
ACAD
1000
DSTYLE
1002
{
1070
    76
1070
     1
1070
   173
1070
     1
1070
     7
1000
_NONE
1002
}
  0
LINE
  5
98E6
330
18
100
AcDbEntity
  8
DIM
 62
     6
100
AcDbLine
 10
278.1094342666494
 20
138.9046004450007
 30
0.0
 11
279.8804395839047
 21
139.8345321542089
 31
0.0
  0
LINE
  5
98E7
330
18
100
AcDbEntity
  8
DIM
 62
     6
100
AcDbLine
 10
278.1094342666494
 20
138.9046004450007
 30
0.0
 11
279.8804395839047
 21
137.9746687357924
 31
0.0
  0
LINE
  5
98E8
330
18
100
AcDbEntity
  8
DIM
 62
     6
100
AcDbLine
 10
277.3746808976353
 20
138.9046004450007
 30
0.0
 11
279.1456862148907
 21
139.8345321542089
 31
0.0
  0
LINE
  5
98E9
330
18
100
AcDbEntity
  8
DIM
 62
     6
100
AcDbLine
 10
277.3746808976353
 20
138.9046004450007
 30
0.0
 11
279.1456862148907
 21
137.9746687357924
 31
0.0
  0
LINE
  5
98EA
330
18
100
AcDbEntity
  8
DIM
 62
     6
100
AcDbLine
 10
278.6094342666492
 20
89.19902768786641
 30
0.0
 11
280.3804395839046
 21
90.12895939707465
 31
0.0
  0
LINE
  5
98EB
330
18
100
AcDbEntity
  8
DIM
 62
     6
100
AcDbLine
 10
278.6094342666492
 20
89.19902768786641
 30
0.0
 11
280.3804395839046
 21
88.26909597865819
 31
0.0
  0
LINE
  5
98EC
330
18
100
AcDbEntity
  8
DIM
 62
     6
100
AcDbLine
 10
277.8746808976352
 20
89.19902768786641
 30
0.0
 11
279.6456862148905
 21
90.12895939707465
 31
0.0
  0
LINE
  5
98ED
330
18
100
AcDbEntity
  8
DIM
 62
     6
100
AcDbLine
 10
277.8746808976352
 20
89.19902768786641
 30
0.0
 11
279.6456862148905
 21
88.26909597865819
 31
0.0
  0
DIMENSION
  5
98EE
330
18
100
AcDbEntity
  8
DIM
100
AcDbDimension
  2
*D20
 10
255.5441666136307
 20
109.7439365346357
 30
0.0
 11
253.0441666136307
 21
118.7439365346357
 31
0.0
 70
    32
  1
<>%%p0.2
 71
     5
 42
18.00000000000001
  3
A
100
AcDbAlignedDimension
 13
271.1094342666493
 23
127.7439365346357
 33
0.0
 14
272.1094342666493
 24
109.7439365346357
 34
0.0
 50
90.0
100
AcDbRotatedDimension
  0
DIMENSION
  5
98EF
330
18
100
AcDbEntity
  8
DIM
100
AcDbDimension
  2
*D25
 10
324.6079598663882
 20
127.7439365346357
 30
0.0
 11
324.6079598663882
 21
126.2439365346357
 31
0.0
 70
   160
 71
     5
 42
3.0
  3
A
100
AcDbAlignedDimension
 13
299.1094342666493
 23
124.7439365346357
 33
0.0
 14
306.1094342666493
 24
127.7439365346357
 34
0.0
 50
90.0
100
AcDbRotatedDimension
  0
DIMENSION
  5
98F0
330
18
100
AcDbEntity
  8
DIM
100
AcDbDimension
  2
*D26
 10
306.1094342666493
 20
127.7439365346357
 30
0.0
 11
330.4893443801612
 21
119.8190544627639
 31
0.0
 70
    34
 71
     5
 42
0.523598775598277
  3
A
100
AcDb2LineAngularDimension
 13
306.1094342666493
 23
124.7439365346357
 33
0.0
 14
308.6094342666493
 24
123.3005608616617
 34
0.0
 15
271.1094342666493
 25
127.7439365346357
 35
0.0
 16
332.0353311017567
 26
116.4164369754252
 36
0.0
1001
ACAD
1000
DSTYLE
1002
{
1070
    79
1070
     2
1070
   179
1070
     1
1002
}
  0
DIMENSION
  5
98F1
330
18
100
AcDbEntity
  8
DIM
100
AcDbDimension
  2
*D27
 10
306.1094342666493
 20
127.7439365346357
 30
0.0
 11
335.9584799721321
 21
113.0940604903091
 31
0.0
 70
    34
  1
30%%d
 71
     5
 42
0.5165872225229986
  3
A
100
AcDb2LineAngularDimension
 13
307.7289655044227
 23
112.281097730473
 33
0.0
 14
297.1094342666493
 24
118.3134064001996
 34
0.0
 15
271.1094342666493
 25
127.7439365346357
 35
0.0
 16
336.8465196187369
 26
107.5359532345189
 36
0.0
1001
ACAD
1000
DSTYLE
1002
{
1070
    79
1070
     2
1070
   179
1070
     1
1002
}
  0
LINE
  5
98F2
330
18
100
AcDbEntity
  8
mark
100
AcDbLine
 10
298.6094342666492
 20
89.19902768786641
 30
0.0
 11
298.6094342666492
 21
83.60970216048031
 31
0.0
  0
MTEXT
  5
98F3
330
18
100
AcDbEntity
  8
0
100
AcDbMText
 10
247.8194827894975
 20
19.3739983431626
 30
0.0
 40
5.0
 41
0.0
 71
     1
 72
     5
  1
\Ftxt.shx,bigfont.shx|c128;小柳
  7
JL
 73
     1
 44
1.0
1001
ACAD
1000
MTEXTBEGIN
1070
    73
1070
     1
1070
    44
1040
1.0
1070
    74
1070
     0
1000
MTEXTEND
  0
LWPOLYLINE
  5
98F4
330
18
100
AcDbEntity
  8
mark
100
AcDbPolyline
 90
        3
 70
     1
 43
0.0
 10
207.2595552564895
 20
36.43289571148839
 10
204.3728039105414
 20
41.43289571148838
 10
201.4860525645932
 20
36.43289571148839
  0
MTEXT
  5
98F5
330
18
100
AcDbEntity
  8
DIM
100
AcDbMText
 10
203.9211060222608
 20
39.81046199211946
 30
0.0
 40
2.5
 41
9.163114146879252
 71
     1
 72
     5
  1
1
 73
     1
 44
1.0
1001
ACAD
1000
MTEXTBEGIN
1070
    73
1070
     1
1070
    44
1040
1.0
1070
    74
1070
     0
1000
MTEXTEND
  0
MTEXT
  5
98F6
330
18
100
AcDbEntity
  8
DIM
100
AcDbMText
 10
209.0227537679612
 20
40.89345369393868
 30
0.0
 40
4.5
 41
0.0
 71
     1
 72
     5
  1
{\Ftxt,bigfont|c128;08.08.08 振れ精度の変更  林}
  7
JL
 73
     1
 44
1.0
1001
ACAD
1000
MTEXTBEGIN
1070
    73
1070
     1
1070
    44
1040
1.0
1070
    74
1070
     0
1000
MTEXTEND
  0
CIRCLE
  5
98F7
330
18
100
AcDbEntity
  8
DIM
100
AcDbCircle
 10
246.7970570619869
 20
38.58363507397189
 30
0.0
 40
2.762409708108862
  0
LWPOLYLINE
  5
98F8
330
18
100
AcDbEntity
  8
mark
100
AcDbPolyline
 90
        3
 70
     1
 43
0.0
 10
232.2455458019912
 20
145.7477509761413
 10
229.3587944560431
 20
150.7477509761413
 10
226.472043110095
 20
145.7477509761413
  0
MTEXT
  5
98F9
330
18
100
AcDbEntity
  8
DIM
100
AcDbMText
 10
228.9070965677626
 20
149.1253172567724
 30
0.0
 40
2.5
 41
9.163114146879252
 71
     1
 72
     5
  1
1
 73
     1
 44
1.0
1001
ACAD
1000
MTEXTBEGIN
1070
    73
1070
     1
1070
    44
1040
1.0
1070
    74
1070
     0
1000
MTEXTEND
  0
MTEXT
  5
98FA
330
18
100
AcDbEntity
  8
DIM
100
AcDbMText
 10
233.758329130169
 20
149.1253172567724
 30
0.0
 40
2.74
 41
9.163114146879252
 71
     1
 72
     5
  1
0.007
 73
     1
 44
1.0
1001
ACAD
1000
MTEXTBEGIN
1070
    73
1070
     1
1070
    44
1040
1.0
1070
    74
1070
     0
1000
MTEXTEND
  0
LINE
  5
98FB
330
18
100
AcDbEntity
  8
mark
 62
     1
100
AcDbLine
 10
232.8137617083187
 20
141.7915381433696
 30
0.0
 11
244.1053937567829
 21
141.7915381433696
 31
0.0
  0
LINE
  5
98FC
330
18
100
AcDbEntity
  8
mark
 62
     1
100
AcDbLine
 10
232.8137617083187
 20
140.7569800913912
 30
0.0
 11
244.1053937567829
 21
140.7569800913912
 31
0.0
  0
LWPOLYLINE
  5
98FD
330
18
100
AcDbEntity
  8
mark
100
AcDbPolyline
 90
        3
 70
     1
 43
0.0
 10
386.9374076903184
 20
2.989415144716076
 10
384.0506563443704
 20
7.989415144716076
 10
381.1639049984222
 20
2.989415144716076
  0
MTEXT
  5
98FE
330
18
100
AcDbEntity
  8
DIM
100
AcDbMText
 10
383.2377421534893
 20
6.366981425347148
 30
0.0
 40
2.5
 41
9.163114146879252
 71
     1
 72
     5
  1
2
 73
     1
 44
1.0
1001
ACAD
1000
MTEXTBEGIN
1070
    73
1070
     1
1070
    44
1040
1.0
1070
    74
1070
     0
1000
MTEXTEND
  0
LWPOLYLINE
  5
9A09
330
18
100
AcDbEntity
  8
mark
100
AcDbPolyline
 90
        3
 70
     1
 43
0.0
 10
207.2595552564895
 20
43.77479534859932
 10
204.3728039105414
 20
48.77479534859933
 10
201.4860525645932
 20
43.77479534859932
  0
MTEXT
  5
9A0A
330
18
100
AcDbEntity
  8
DIM
100
AcDbMText
 10
203.5449758449854
 20
47.1523616292304
 30
0.0
 40
2.5
 41
9.163114146879252
 71
     1
 72
     5
  1
2
 73
     1
 44
1.0
1001
ACAD
1000
MTEXTBEGIN
1070
    73
1070
     1
1070
    44
1040
1.0
1070
    74
1070
     0
1000
MTEXTEND
  0
MTEXT
  5
9A0B
330
18
100
AcDbEntity
  8
DIM
100
AcDbMText
 10
209.0227537679612
 20
48.23535333104962
 30
0.0
 40
4.5
 41
0.0
 71
     1
 72
     5
  1
{\Ftxt,bigfont|c136;13.\Ftxt,bigfont|c128;.\Ftxt,bigfont|c136;03\Ftxt,bigfont|c128;.\Ftxt,bigfont|c136;20\Ftxt,bigfont|c128; 熱処理不要.振れ精度の変更  林}
  7
JL
 73
     1
 44
1.0
1001
ACAD
1000
MTEXTBEGIN
1070
    73
1070
     1
1070
    44
1040
1.0
1070
    74
1070
     0
1000
MTEXTEND
  0
CIRCLE
  5
9A0C
330
18
100
AcDbEntity
  8
DIM
100
AcDbCircle
 10
261.4661395183444
 20
45.92553471108283
 30
0.0
 40
2.762409708108862
  0
LWPOLYLINE
  5
9A0F
330
18
100
AcDbEntity
  8
mark
100
AcDbPolyline
 90
        3
 70
     1
 43
0.0
 10
232.2455458019912
 20
152.2029597623972
 10
229.3587944560431
 20
157.2029597623972
 10
226.472043110095
 20
152.2029597623972
  0
MTEXT
  5
9A10
330
18
100
AcDbEntity
  8
DIM
100
AcDbMText
 10
228.5548121115472
 20
155.5805260430282
 30
0.0
 40
2.5
 41
9.163114146879252
 71
     1
 72
     5
  1
2
 73
     1
 44
1.0
1001
ACAD
1000
MTEXTBEGIN
1070
    73
1070
     1
1070
    44
1040
1.0
1070
    74
1070
     0
1000
MTEXTEND
  0
MTEXT
  5
9A11
330
18
100
AcDbEntity
  8
DIM
100
AcDbMText
 10
233.758329130169
 20
155.5805260430282
 30
0.0
 40
2.74
 41
9.163114146879252
 71
     1
 72
     5
  1
0.005
 73
     1
 44
1.0
1001
ACAD
1000
MTEXTBEGIN
1070
    73
1070
     1
1070
    44
1040
1.0
1070
    74
1070
     0
1000
MTEXTEND
  0
LINE
  5
9A12
330
18
100
AcDbEntity
  8
mark
 62
     1
100
AcDbLine
 10
226.4720431100949
 20
148.2803595022449
 30
0.0
 11
244.1053937567829
 21
148.2803595022449
 31
0.0
  0
LINE
  5
9A13
330
18
100
AcDbEntity
  8
mark
 62
     1
100
AcDbLine
 10
226.4720431100949
 20
147.2458014502665
 30
0.0
 11
244.1053937567829
 21
147.2458014502665
 31
0.0
  0
LINE
  5
9A15
330
18
100
AcDbEntity
  8
DIM
 62
     1
100
AcDbLine
 10
333.6213645439964
 20
54.80405565100159
 30
0.0
 11
386.6557955137025
 21
54.80405565100159
 31
0.0
  0
LINE
  5
9A16
330
18
100
AcDbEntity
  8
DIM
 62
     1
100
AcDbLine
 10
333.6213645439964
 20
52.88982905949445
 30
0.0
 11
386.6557955137025
 21
52.88982905949445
 31
0.0
  0
ENDSEC
  0
SECTION
  2
OBJECTS
  0
DICTIONARY
  5
C
330
0
100
AcDbDictionary
281
     1
  3
ACAD_2007HEADERVARS_RT
350
9B7A
  3
ACAD_COLOR
350
96BB
  3
ACAD_GROUP
350
D
  3
ACAD_LAYOUT
350
5CF3
  3
ACAD_MATERIAL
350
96BA
  3
ACAD_MLEADERSTYLE
350
975C
  3
ACAD_MLINESTYLE
350
1B
  3
ACAD_PLOTSETTINGS
350
5CF4
  3
ACAD_PLOTSTYLENAME
350
5CF1
  3
ACAD_SCALELIST
350
974A
  3
ACAD_TABLESTYLE
350
96BC
  3
ACAD_VISUALSTYLE
350
9731
  3
ACDB_RECOMPOSE_DATA
350
9B78
  3
ACDBHEADERROUNDTRIPXREC
350
9C5A
  3
ACDBVARIABLEDICTIONARY
350
45D
  3
AcmDictionary
350
97B7
  3
AMG
350
976A
  3
AMGSNAPSETTINGS
350
97F8
  3
DWGPROPS
350
9C59
  0
DICTIONARY
  5
9A2D
330
8
100
AcDbDictionary
280
     1
281
     1
  3
ACAD_XREC_ROUNDTRIP
360
9B7F
  0
DICTIONARY
  5
9A17
330
E
100
AcDbDictionary
280
     1
281
     1
  3
ADSK_XREC_LAYER_RECONCILED
360
9A18
  0
DICTIONARY
  5
9A19
330
B9
100
AcDbDictionary
280
     1
281
     1
  3
ADSK_XREC_LAYER_RECONCILED
360
9A1A
  0
DICTIONARY
  5
9A1B
330
5F8B
100
AcDbDictionary
280
     1
281
     1
  3
ADSK_XREC_LAYER_RECONCILED
360
9A1C
  0
DICTIONARY
  5
9A1D
330
644E
100
AcDbDictionary
280
     1
281
     1
  3
ADSK_XREC_LAYER_RECONCILED
360
9A1E
  0
DICTIONARY
  5
9A1F
330
650D
100
AcDbDictionary
280
     1
281
     1
  3
ADSK_XREC_LAYER_RECONCILED
360
9A20
  0
DICTIONARY
  5
9A21
330
650E
100
AcDbDictionary
280
     1
281
     1
  3
ADSK_XREC_LAYER_RECONCILED
360
9A22
  0
DICTIONARY
  5
9A23
330
650F
100
AcDbDictionary
280
     1
281
     1
  3
ADSK_XREC_LAYER_RECONCILED
360
9A24
  0
DICTIONARY
  5
9A25
330
6510
100
AcDbDictionary
280
     1
281
     1
  3
ADSK_XREC_LAYER_RECONCILED
360
9A26
  0
DICTIONARY
  5
9A27
330
96FA
100
AcDbDictionary
280
     1
281
     1
  3
ADSK_XREC_LAYER_RECONCILED
360
9A28
  0
DICTIONARY
  5
45F
330
18
100
AcDbDictionary
280
     1
281
     1
  3
ACAD_LAYOUTSELFREF
360
5D8B
  3
ACAD_SORTENTS
360
460
  0
DICTIONARY
  5
5D89
330
15
100
AcDbDictionary
280
     1
281
     1
  3
ACAD_LAYOUTSELFREF
360
5D8A
  0
DICTIONARY
  5
9B7A
102
{ACAD_REACTORS
330
C
102
}
330
C
100
AcDbDictionary
281
     1
  3
DIMARCSYM
350
9B7B
  3
DIMLTEX1
350
9B7D
  3
DIMLTEX2
350
9B7E
  3
DIMLTYPE
350
9B7C
  0
DICTIONARY
  5
96BB
102
{ACAD_REACTORS
330
C
102
}
330
C
100
AcDbDictionary
281
     1
  0
DICTIONARY
  5
D
102
{ACAD_REACTORS
330
C
102
}
330
C
100
AcDbDictionary
281
     1
  0
DICTIONARY
  5
5CF3
102
{ACAD_REACTORS
330
C
102
}
330
C
100
AcDbDictionary
281
     1
  3
Model
350
5CF5
  3
配置1
350
5CF6
1001
ACADSTRINGINFO
1000
MIFCodePage
1070
     1
  0
DICTIONARY
  5
96BA
102
{ACAD_REACTORS
330
C
102
}
330
C
100
AcDbDictionary
281
     1
  3
ByBlock
350
9721
  3
ByLayer
350
9719
  3
Global
350
9729
  0
DICTIONARY
  5
975C
102
{ACAD_REACTORS
330
C
102
}
330
C
100
AcDbDictionary
281
     1
  3
Standard
350
975D
  0
DICTIONARY
  5
1B
102
{ACAD_REACTORS
330
C
102
}
330
C
100
AcDbDictionary
281
     1
  3
STANDARD
350
1C
  0
DICTIONARY
  5
5CF4
102
{ACAD_REACTORS
330
C
102
}
330
C
100
AcDbDictionary
281
     1
  0
ACDBDICTIONARYWDFLT
  5
5CF1
102
{ACAD_REACTORS
330
C
102
}
330
C
100
AcDbDictionary
281
     1
  3
Normal
350
5CF2
100
AcDbDictionaryWithDefault
340
5CF2
  0
DICTIONARY
  5
974A
102
{ACAD_REACTORS
330
C
102
}
330
C
100
AcDbDictionary
281
     1
  3
A0
350
974B
  3
A1
350
974C
  3
A2
350
974D
  3
A3
350
974E
  3
A4
350
974F
  3
A5
350
9750
  3
A6
350
9751
  3
A7
350
9752
  3
A8
350
9753
  3
A9
350
9754
  3
B0
350
9755
  3
B1
350
9756
  3
B2
350
9757
  3
B3
350
9758
  3
B4
350
9759
  3
B5
350
975A
  3
B6
350
975B
  0
DICTIONARY
  5
96BC
102
{ACAD_REACTORS
330
C
102
}
330
C
100
AcDbDictionary
281
     1
  3
Standard
350
96BD
  0
DICTIONARY
  5
9731
102
{ACAD_REACTORS
330
C
102
}
330
C
100
AcDbDictionary
281
     1
  3
2dWireframe
350
9737
  3
Basic
350
9736
  3
Brighten
350
973D
  3
ColorChange
350
9741
  3
Conceptual
350
973A
  3
Dim
350
973C
  3
EdgeColorOff
350
9749
  3
Facepattern
350
9740
  3
Flat
350
9732
  3
FlatWithEdges
350
9733
  3
Gouraud
350
9734
  3
GouraudWithEdges
350
9735
  3
Hidden
350
9739
  3
JitterOff
350
9747
  3
Linepattern
350
973F
  3
OverhangOff
350
9748
  3
Realistic
350
973B
  3
Shaded
350
9746
  3
Shaded with edges
350
9745
  3
Shades of Gray
350
9742
  3
Sketchy
350
9743
  3
Thicken
350
973E
  3
Wireframe
350
9738
  3
X-Ray
350
9744
  0
XRECORD
  5
9B78
102
{ACAD_REACTORS
330
C
102
}
330
C
100
AcDbXrecord
280
     1
 90
        1
330
96BD
  0
DICTIONARY
  5
9C5A
102
{ACAD_REACTORS
330
C
102
}
330
C
100
AcDbDictionary
281
     1
  0
DICTIONARY
  5
45D
102
{ACAD_REACTORS
330
C
102
}
330
C
100
AcDbDictionary
281
     1
  3
CANNOSCALE
350
9AFA
  3
CMLEADERSTYLE
350
9AF9
  3
CTABLESTYLE
350
96D1
  3
DIMASSOC
350
9AFD
  3
INDEXCTL
350
9AFB
  3
PROJECTNAME
350
9C57
  3
SORTENTS
350
45E
  3
XCLIPFRAME
350
9C4A
  0
DICTIONARY
  5
97B7
102
{ACAD_REACTORS
330
C
102
}
330
C
100
AcDbDictionary
281
     1
  3
AcmStdDictionary
350
97C2
  0
DICTIONARY
  5
976A
102
{ACAD_REACTORS
330
C
102
}
330
C
100
AcDbDictionary
281
     1
  0
DICTIONARY
  5
97F8
102
{ACAD_REACTORS
330
C
102
}
330
C
100
AcDbDictionary
281
     1
  0
XRECORD
  5
9C59
102
{ACAD_REACTORS
330
C
102
}
330
C
100
AcDbXrecord
280
     1
  1
DWGPROPS COOKIE
  2

  3

  4

  6

  7

  8
USER
  9

300
=
301
=
302
=
303
=
304
=
305
=
306
=
307
=
308
=
309
=
 40
2.562347858796296
 41
2451555.620234838
 42
2457828.683792674
  1

 90
        0
  0
XRECORD
  5
9B7F
102
{ACAD_REACTORS
330
9A2D
102
}
330
9A2D
100
AcDbXrecord
280
     1
102
VTR_0.000_0.000_1.000_1.000_VISUALSTYLE
340
9737
102
VTR_0.000_0.000_1.000_1.000_GRIDDISPLAY
 70
     3
102
VTR_0.000_0.000_1.000_1.000_GRIDMAJOR
 70
     5
102
VTR_0.000_0.000_1.000_1.000_DEFAULTLIGHTING
280
     1
102
VTR_0.000_0.000_1.000_1.000_DEFAULTLIGHTINGTYPE
 70
     1
102
VTR_0.000_0.000_1.000_1.000_BRIGHTNESS
141
0.0
102
VTR_0.000_0.000_1.000_1.000_CONTRAST
142
0.0
  0
XRECORD
  5
9A18
102
{ACAD_REACTORS
330
9A17
102
}
330
9A17
100
AcDbXrecord
280
     1
290
     1
  0
XRECORD
  5
9A1A
102
{ACAD_REACTORS
330
9A19
102
}
330
9A19
100
AcDbXrecord
280
     1
290
     1
  0
XRECORD
  5
9A1C
102
{ACAD_REACTORS
330
9A1B
102
}
330
9A1B
100
AcDbXrecord
280
     1
290
     1
  0
XRECORD
  5
9A1E
102
{ACAD_REACTORS
330
9A1D
102
}
330
9A1D
100
AcDbXrecord
280
     1
290
     1
  0
XRECORD
  5
9A20
102
{ACAD_REACTORS
330
9A1F
102
}
330
9A1F
100
AcDbXrecord
280
     1
290
     1
  0
XRECORD
  5
9A22
102
{ACAD_REACTORS
330
9A21
102
}
330
9A21
100
AcDbXrecord
280
     1
290
     1
  0
XRECORD
  5
9A24
102
{ACAD_REACTORS
330
9A23
102
}
330
9A23
100
AcDbXrecord
280
     1
290
     1
  0
XRECORD
  5
9A26
102
{ACAD_REACTORS
330
9A25
102
}
330
9A25
100
AcDbXrecord
280
     1
290
     1
  0
XRECORD
  5
9A28
102
{ACAD_REACTORS
330
9A27
102
}
330
9A27
100
AcDbXrecord
280
     1
290
     1
  0
XRECORD
  5
5D8B
102
{ACAD_REACTORS
330
45F
102
}
330
45F
100
AcDbXrecord
280
     1
340
18
  0
SORTENTSTABLE
  5
460
102
{ACAD_REACTORS
330
45F
102
}
330
45F
100
AcDbSortentsTable
330
18
331
C0
  5
CB
  0
XRECORD
  5
5D8A
102
{ACAD_REACTORS
330
5D89
102
}
330
5D89
100
AcDbXrecord
280
     1
340
15
  0
XRECORD
  5
9B7B
102
{ACAD_REACTORS
330
9B7A
102
}
330
9B7A
100
AcDbXrecord
280
     1
 70
     1
  0
XRECORD
  5
9B7D
102
{ACAD_REACTORS
330
9B7A
102
}
330
9B7A
100
AcDbXrecord
280
     1
340
12
  0
XRECORD
  5
9B7E
102
{ACAD_REACTORS
330
9B7A
102
}
330
9B7A
100
AcDbXrecord
280
     1
340
12
  0
XRECORD
  5
9B7C
102
{ACAD_REACTORS
330
9B7A
102
}
330
9B7A
100
AcDbXrecord
280
     1
340
12
  0
LAYOUT
  5
5CF5
102
{ACAD_XDICTIONARY
360
9C5B
102
}
102
{ACAD_REACTORS
330
5CF3
102
}
330
5CF3
100
AcDbPlotSettings
  1

  2
hp LaserJet 1300 PCL 6
  4
A4
  6

 40
5.027083396911621
 41
5.069413185119628
 42
5.027084350585937
 43
5.027069091796875
 44
209.9733276367187
 45
296.9683227539062
 46
2.027468885224564
 47
0.0
 48
0.0
 49
0.0
140
197.9999999999997
141
290.0
142
1.0
143
1.010904379871544
 70
 11956
 72
     1
 73
     0
 74
     4
  7
LIN.ctb
 75
     0
147
0.9892132430241025
148
0.0
149
0.0
100
AcDbLayout
  1
Model
 70
     1
 71
     0
 10
0.0
 20
0.0
 11
12.0
 21
9.0
 12
0.0
 22
0.0
 32
0.0
 14
0.0
 24
0.0
 34
0.0
 15
0.0
 25
0.0
 35
0.0
146
0.0
 13
0.0
 23
0.0
 33
0.0
 16
1.0
 26
0.0
 36
0.0
 17
0.0
 27
1.0
 37
0.0
 76
     0
330
18
331
9717
1001
ACAD_PSEXT
1000
hp LaserJet 1300 PCL 6
1000
hp LaserJet 1300 PCL 6
1000
HP 1300
1000

1070
     0
  0
LAYOUT
  5
5CF6
102
{ACAD_XDICTIONARY
360
9C5D
102
}
102
{ACAD_REACTORS
330
5CF3
102
}
330
5CF3
100
AcDbPlotSettings
  1

  2
EPSON STYLUS COLOR 440
  4

  6

 40
0.0
 41
0.0
 42
0.0
 43
0.0
 44
0.0
 45
0.0
 46
0.0
 47
0.0
 48
0.0
 49
0.0
140
0.0
141
0.0
142
1.0
143
1.0
 70
   688
 72
     0
 73
     0
 74
     5
  7
LIN.ctb
 75
    16
147
1.0
148
0.0
149
0.0
100
AcDbLayout
  1
ｰtｸm1
 70
     1
 71
     1
 10
0.0
 20
0.0
 11
420.0
 21
297.0
 12
0.0
 22
0.0
 32
0.0
 14
1.000000000000000E+20
 24
1.000000000000000E+20
 34
1.000000000000000E+20
 15
-1.000000000000000E+20
 25
-1.000000000000000E+20
 35
-1.000000000000000E+20
146
0.0
 13
0.0
 23
0.0
 33
0.0
 16
1.0
 26
0.0
 36
0.0
 17
0.0
 27
1.0
 37
0.0
 76
     0
330
15
1001
ACADSTRINGINFO
1000
MIFCodePage
1070
     1
  0
MATERIAL
  5
9721
102
{ACAD_XDICTIONARY
360
9722
102
}
102
{ACAD_REACTORS
330
96BA
102
}
330
96BA
100
AcDbMaterial
  1
ByBlock
 72
     0
 73
     2
 43
0.0208333333333333
 43
0.0
 43
0.0
 43
0.0
 43
0.0
 43
0.0208333333333333
 43
0.0
 43
0.0
 43
0.0
 43
0.0
 43
1.0
 43
0.0
 43
0.0
 43
0.0
 43
0.0
 43
1.0
 77
     0
 78
     2
 47
0.0208333333333333
 47
0.0
 47
0.0
 47
0.0
 47
0.0
 47
0.0208333333333333
 47
0.0
 47
0.0
 47
0.0
 47
0.0
 47
1.0
 47
0.0
 47
0.0
 47
0.0
 47
0.0
 47
1.0
171
     0
172
     2
 49
0.0208333333333333
 49
0.0
 49
0.0
 49
0.0
 49
0.0
 49
0.0208333333333333
 49
0.0
 49
0.0
 49
0.0
 49
0.0
 49
1.0
 49
0.0
 49
0.0
 49
0.0
 49
0.0
 49
1.0
175
     0
176
     2
142
0.0208333333333333
142
0.0
142
0.0
142
0.0
142
0.0
142
0.0208333333333333
142
0.0
142
0.0
142
0.0
142
0.0
142
1.0
142
0.0
142
0.0
142
0.0
142
0.0
142
1.0
179
     0
270
     2
144
0.0208333333333333
144
0.0
144
0.0
144
0.0
144
0.0
144
0.0208333333333333
144
0.0
144
0.0
144
0.0
144
0.0
144
1.0
144
0.0
144
0.0
144
0.0
144
0.0
144
1.0
274
     2
147
0.0208333333333333
147
0.0
147
0.0
147
0.0
147
0.0
147
0.0208333333333333
147
0.0
147
0.0
147
0.0
147
0.0
147
1.0
147
0.0
147
0.0
147
0.0
147
0.0
147
1.0
  0
MATERIAL
  5
9719
102
{ACAD_XDICTIONARY
360
971A
102
}
102
{ACAD_REACTORS
330
96BA
102
}
330
96BA
100
AcDbMaterial
  1
ByLayer
 72
     0
 73
     2
 43
0.0208333333333333
 43
0.0
 43
0.0
 43
0.0
 43
0.0
 43
0.0208333333333333
 43
0.0
 43
0.0
 43
0.0
 43
0.0
 43
1.0
 43
0.0
 43
0.0
 43
0.0
 43
0.0
 43
1.0
 77
     0
 78
     2
 47
0.0208333333333333
 47
0.0
 47
0.0
 47
0.0
 47
0.0
 47
0.0208333333333333
 47
0.0
 47
0.0
 47
0.0
 47
0.0
 47
1.0
 47
0.0
 47
0.0
 47
0.0
 47
0.0
 47
1.0
171
     0
172
     2
 49
0.0208333333333333
 49
0.0
 49
0.0
 49
0.0
 49
0.0
 49
0.0208333333333333
 49
0.0
 49
0.0
 49
0.0
 49
0.0
 49
1.0
 49
0.0
 49
0.0
 49
0.0
 49
0.0
 49
1.0
175
     0
176
     2
142
0.0208333333333333
142
0.0
142
0.0
142
0.0
142
0.0
142
0.0208333333333333
142
0.0
142
0.0
142
0.0
142
0.0
142
1.0
142
0.0
142
0.0
142
0.0
142
0.0
142
1.0
179
     0
270
     2
144
0.0208333333333333
144
0.0
144
0.0
144
0.0
144
0.0
144
0.0208333333333333
144
0.0
144
0.0
144
0.0
144
0.0
144
1.0
144
0.0
144
0.0
144
0.0
144
0.0
144
1.0
274
     2
147
0.0208333333333333
147
0.0
147
0.0
147
0.0
147
0.0
147
0.0208333333333333
147
0.0
147
0.0
147
0.0
147
0.0
147
1.0
147
0.0
147
0.0
147
0.0
147
0.0
147
1.0
  0
MATERIAL
  5
9729
102
{ACAD_XDICTIONARY
360
972A
102
}
102
{ACAD_REACTORS
330
96BA
102
}
330
96BA
100
AcDbMaterial
  1
Global
 72
     0
 73
     2
 43
0.0208333333333333
 43
0.0
 43
0.0
 43
0.0
 43
0.0
 43
0.0208333333333333
 43
0.0
 43
0.0
 43
0.0
 43
0.0
 43
1.0
 43
0.0
 43
0.0
 43
0.0
 43
0.0
 43
1.0
 77
     0
 78
     2
 47
0.0208333333333333
 47
0.0
 47
0.0
 47
0.0
 47
0.0
 47
0.0208333333333333
 47
0.0
 47
0.0
 47
0.0
 47
0.0
 47
1.0
 47
0.0
 47
0.0
 47
0.0
 47
0.0
 47
1.0
171
     0
172
     2
 49
0.0208333333333333
 49
0.0
 49
0.0
 49
0.0
 49
0.0
 49
0.0208333333333333
 49
0.0
 49
0.0
 49
0.0
 49
0.0
 49
1.0
 49
0.0
 49
0.0
 49
0.0
 49
0.0
 49
1.0
175
     0
176
     2
142
0.0208333333333333
142
0.0
142
0.0
142
0.0
142
0.0
142
0.0208333333333333
142
0.0
142
0.0
142
0.0
142
0.0
142
1.0
142
0.0
142
0.0
142
0.0
142
0.0
142
1.0
179
     0
270
     2
144
0.0208333333333333
144
0.0
144
0.0
144
0.0
144
0.0
144
0.0208333333333333
144
0.0
144
0.0
144
0.0
144
0.0
144
1.0
144
0.0
144
0.0
144
0.0
144
0.0
144
1.0
274
     2
147
0.0208333333333333
147
0.0
147
0.0
147
0.0
147
0.0
147
0.0208333333333333
147
0.0
147
0.0
147
0.0
147
0.0
147
1.0
147
0.0
147
0.0
147
0.0
147
0.0
147
1.0
  0
ACAD_PROXY_OBJECT
  5
975D
102
{ACAD_REACTORS
330
975C
102
}
330
975C
100
AcDbProxyObject
 90
      499
 91
      515
 95
   983063
 70
     0
 93
      618
310
40901902A4063FBFFFFFE000000000000002040AD7A3703D0AD73F4254DD185B99185C99000000000000000104090141901A00000000000004100000000000000041025764000000000000300FC0
340
12
340
0
340
F
340
0
 94
        0
1001
ACAD_MLEADERVER
1070
     2
1001
ACAD
1000
AcRTDxfName
1000
MLEADERSTYLE
  0
MLINESTYLE
  5
1C
102
{ACAD_REACTORS
330
1B
102
}
330
1B
100
AcDbMlineStyle
  2
STANDARD
 70
     0
  3

 62
   256
 51
90.0
 52
90.0
 71
     2
 49
0.5
 62
   256
  6
BYLAYER
 49
-0.5
 62
   256
  6
BYLAYER
  0
ACDBPLACEHOLDER
  5
5CF2
102
{ACAD_REACTORS
330
5CF1
102
}
330
5CF1
  0
ACAD_PROXY_OBJECT
  5
974B
102
{ACAD_REACTORS
330
974A
102
}
330
974A
100
AcDbProxyObject
 90
      499
 91
      514
 95
   983063
 70
     0
 93
       49
310
904313A3100598
 94
        0
1001
ACAD
1000
AcRTDxfName
1000
SCALE
  0
ACAD_PROXY_OBJECT
  5
974C
102
{ACAD_REACTORS
330
974A
102
}
330
974A
100
AcDbProxyObject
 90
      499
 91
      514
 95
   983063
 70
     0
 93
      113
310
904313A32004000000000000004011
 94
        0
1001
ACAD
1000
AcRTDxfName
1000
SCALE
  0
ACAD_PROXY_OBJECT
  5
974D
102
{ACAD_REACTORS
330
974A
102
}
330
974A
100
AcDbProxyObject
 90
      499
 91
      514
 95
   983063
 70
     0
 93
      113
310
904313A34004000000000000104054
 94
        0
1001
ACAD
1000
AcRTDxfName
1000
SCALE
  0
ACAD_PROXY_OBJECT
  5
974E
102
{ACAD_REACTORS
330
974A
102
}
330
974A
100
AcDbProxyObject
 90
      499
 91
      514
 95
   983063
 70
     0
 93
      113
310
904313A35004000000000000144011
 94
        0
1001
ACAD
1000
AcRTDxfName
1000
SCALE
  0
ACAD_PROXY_OBJECT
  5
974F
102
{ACAD_REACTORS
330
974A
102
}
330
974A
100
AcDbProxyObject
 90
      499
 91
      514
 95
   983063
 70
     0
 93
      113
310
904313A38004000000000000204054
 94
        0
1001
ACAD
1000
AcRTDxfName
1000
SCALE
  0
ACAD_PROXY_OBJECT
  5
9750
102
{ACAD_REACTORS
330
974A
102
}
330
974A
100
AcDbProxyObject
 90
      499
 91
      514
 95
   983063
 70
     0
 93
      121
310
905313A3130004000000000000244064
 94
        0
1001
ACAD
1000
AcRTDxfName
1000
SCALE
  0
ACAD_PROXY_OBJECT
  5
9751
102
{ACAD_REACTORS
330
974A
102
}
330
974A
100
AcDbProxyObject
 90
      499
 91
      514
 95
   983063
 70
     0
 93
      121
310
905313A3136004000000000000304009
 94
        0
1001
ACAD
1000
AcRTDxfName
1000
SCALE
  0
ACAD_PROXY_OBJECT
  5
9752
102
{ACAD_REACTORS
330
974A
102
}
330
974A
100
AcDbProxyObject
 90
      499
 91
      514
 95
   983063
 70
     0
 93
      121
310
905313A3230004000000000000344064
 94
        0
1001
ACAD
1000
AcRTDxfName
1000
SCALE
  0
ACAD_PROXY_OBJECT
  5
9753
102
{ACAD_REACTORS
330
974A
102
}
330
974A
100
AcDbProxyObject
 90
      499
 91
      514
 95
   983063
 70
     0
 93
      121
310
905313A33300040000000000003E4009
 94
        0
1001
ACAD
1000
AcRTDxfName
1000
SCALE
  0
ACAD_PROXY_OBJECT
  5
9754
102
{ACAD_REACTORS
330
974A
102
}
330
974A
100
AcDbProxyObject
 90
      499
 91
      514
 95
   983063
 70
     0
 93
      121
310
905313A3430004000000000000444064
 94
        0
1001
ACAD
1000
AcRTDxfName
1000
SCALE
  0
ACAD_PROXY_OBJECT
  5
9755
102
{ACAD_REACTORS
330
974A
102
}
330
974A
100
AcDbProxyObject
 90
      499
 91
      514
 95
   983063
 70
     0
 93
      121
310
905313A3530004000000000000494009
 94
        0
1001
ACAD
1000
AcRTDxfName
1000
SCALE
  0
ACAD_PROXY_OBJECT
  5
9756
102
{ACAD_REACTORS
330
974A
102
}
330
974A
100
AcDbProxyObject
 90
      499
 91
      514
 95
   983063
 70
     0
 93
      129
310
906313A313030004000000000000594009
 94
        0
1001
ACAD
1000
AcRTDxfName
1000
SCALE
  0
ACAD_PROXY_OBJECT
  5
9757
102
{ACAD_REACTORS
330
974A
102
}
330
974A
100
AcDbProxyObject
 90
      499
 91
      514
 95
   983063
 70
     0
 93
      113
310
904323A31000000000000000010140
 94
        0
1001
ACAD
1000
AcRTDxfName
1000
SCALE
  0
ACAD_PROXY_OBJECT
  5
9758
102
{ACAD_REACTORS
330
974A
102
}
330
974A
100
AcDbProxyObject
 90
      499
 91
      514
 95
   983063
 70
     0
 93
      113
310
904343A31000000000000000410159
 94
        0
1001
ACAD
1000
AcRTDxfName
1000
SCALE
  0
ACAD_PROXY_OBJECT
  5
9759
102
{ACAD_REACTORS
330
974A
102
}
330
974A
100
AcDbProxyObject
 90
      499
 91
      514
 95
   983063
 70
     0
 93
      113
310
904383A31000000000000000810140
 94
        0
1001
ACAD
1000
AcRTDxfName
1000
SCALE
  0
ACAD_PROXY_OBJECT
  5
975A
102
{ACAD_REACTORS
330
974A
102
}
330
974A
100
AcDbProxyObject
 90
      499
 91
      514
 95
   983063
 70
     0
 93
      121
310
90531303A31000000000000000910140
 94
        0
1001
ACAD
1000
AcRTDxfName
1000
SCALE
  0
ACAD_PROXY_OBJECT
  5
975B
102
{ACAD_REACTORS
330
974A
102
}
330
974A
100
AcDbProxyObject
 90
      499
 91
      514
 95
   983063
 70
     0
 93
      129
310
9063130303A31000000000000001650102
 94
        0
1001
ACAD
1000
AcRTDxfName
1000
SCALE
  0
TABLESTYLE
  5
96BD
102
{ACAD_XDICTIONARY
360
9A29
102
}
102
{ACAD_REACTORS
330
96BC
102
}
330
96BC
100
AcDbTableStyle
  3
Standard
 70
     0
 71
     0
 40
1.5
 41
1.5
280
     0
281
     0
  7
STANDARD
140
4.5
170
     2
 62
     0
 63
     7
283
     0
274
    -2
284
     1
 64
     0
275
    -2
285
     1
 65
     0
276
    -2
286
     1
 66
     0
277
    -2
287
     1
 67
     0
278
    -2
288
     1
 68
     0
279
    -2
289
     1
 69
     0
  7
STANDARD
140
6.0
170
     5
 62
     0
 63
     7
283
     0
274
    -2
284
     1
 64
     0
275
    -2
285
     1
 65
     0
276
    -2
286
     1
 66
     0
277
    -2
287
     1
 67
     0
278
    -2
288
     1
 68
     0
279
    -2
289
     1
 69
     0
  7
STANDARD
140
4.5
170
     5
 62
     0
 63
     7
283
     0
274
    -2
284
     1
 64
     0
275
    -2
285
     1
 65
     0
276
    -2
286
     1
 66
     0
277
    -2
287
     1
 67
     0
278
    -2
288
     1
 68
     0
279
    -2
289
     1
 69
     0
  0
ACAD_PROXY_OBJECT
  5
9737
102
{ACAD_XDICTIONARY
360
9BE0
102
}
102
{ACAD_REACTORS
330
9731
102
}
330
9731
100
AcDbProxyObject
 90
      499
 91
      513
 95
   983063
 70
     0
 93
      444
310
430C9915DA5C99599C985B59401049028333333333333E3BF0000000000000FB0107901411070040501600405405064090741402480A0340
 94
        0
1001
ACAD
1000
AcDbSavedByObjectVersion
1070
     0
1000
AcRTDxfName
1000
VISUALSTYLE
  0
ACAD_PROXY_OBJECT
  5
9736
102
{ACAD_XDICTIONARY
360
9BDE
102
}
102
{ACAD_REACTORS
330
9731
102
}
330
9731
100
AcDbProxyObject
 90
      499
 91
      513
 95
   983063
 70
     0
 93
      396
310
4190985CDA58C0107406404333333333333E3BF0000000000000FB0107A41107004050150841D405064090741402480A035A
 94
        0
1001
ACAD
1000
AcDbSavedByObjectVersion
1070
     0
1000
AcRTDxfName
1000
VISUALSTYLE
  0
ACAD_PROXY_OBJECT
  5
973D
102
{ACAD_XDICTIONARY
360
9BEC
102
}
102
{ACAD_REACTORS
330
9731
102
}
330
9731
100
AcDbProxyObject
 90
      499
 91
      513
 95
   983063
 70
     0
 93
      436
310
42509C9A59DA1D195B8010C409028333333333333E3BF0000000000000FB010790141107004050150841D405064090741402480A029954
 94
        0
1001
ACAD
1000
AcDbSavedByObjectVersion
1070
     0
1000
AcRTDxfName
1000
VISUALSTYLE
  0
ACAD_PROXY_OBJECT
  5
9741
102
{ACAD_XDICTIONARY
360
9BF4
102
}
102
{ACAD_REACTORS
330
9731
102
}
330
9731
100
AcDbProxyObject
 90
      499
 91
      513
 95
   983063
 70
     0
 93
      460
310
4310DBDB1BDC90DA185B99D9401104090240C333333333333E3BF0000000000000FB0108901411070040501508421405064090741402480A0358
 94
        0
1001
ACAD
1000
AcDbSavedByObjectVersion
1070
     0
1000
AcRTDxfName
1000
VISUALSTYLE
  0
ACAD_PROXY_OBJECT
  5
973A
102
{ACAD_XDICTIONARY
360
9BE6
102
}
102
{ACAD_REACTORS
330
9731
102
}
330
9731
100
AcDbProxyObject
 90
      499
 91
      513
 95
   983063
 70
     0
 93
      508
310
42D0DBDB98D95C1D1D585B0010940D028333333333333E3BF0000000000000FB0107902409070040501000000000018199010841D405064090740C02480A0340
 94
        0
1001
ACAD
1000
AcDbSavedByObjectVersion
1070
     0
1000
AcRTDxfName
1000
VISUALSTYLE
  0
ACAD_PROXY_OBJECT
  5
973C
102
{ACAD_XDICTIONARY
360
9BEA
102
}
102
{ACAD_REACTORS
330
9731
102
}
330
9731
100
AcDbProxyObject
 90
      499
 91
      513
 95
   983063
 70
     0
 93
      420
310
41111A5B4010B409028333333333333E3BF0000000000000FB010790141107004050150841D405064090741402480A02677FFFFFD4
 94
        0
1001
ACAD
1000
AcDbSavedByObjectVersion
1070
     0
1000
AcRTDxfName
1000
VISUALSTYLE
  0
ACAD_PROXY_OBJECT
  5
9749
102
{ACAD_XDICTIONARY
360
9C04
102
}
102
{ACAD_REACTORS
330
9731
102
}
330
9731
100
AcDbProxyObject
 90
      499
 91
      513
 95
   983063
 70
     0
 93
      460
310
43515919D950DBDB1BDC93D99980116409028333333333333E3BF0000000000000FB010790141107004050150841D405064090741402480A0350
 94
        0
1001
ACAD
1000
AcDbSavedByObjectVersion
1070
     0
1000
AcRTDxfName
1000
VISUALSTYLE
  0
ACAD_PROXY_OBJECT
  5
9740
102
{ACAD_XDICTIONARY
360
9BF2
102
}
102
{ACAD_REACTORS
330
9731
102
}
330
9731
100
AcDbProxyObject
 90
      499
 91
      513
 95
   983063
 70
     0
 93
      452
310
43119858D95C185D1D195C9B8010F409028333333333333E3BF0000000000000FB010790141107004050150841D405064090741402480A0350
 94
        0
1001
ACAD
1000
AcDbSavedByObjectVersion
1070
     0
1000
AcRTDxfName
1000
VISUALSTYLE
  0
ACAD_PROXY_OBJECT
  5
9732
102
{ACAD_XDICTIONARY
360
9BD6
102
}
102
{ACAD_REACTORS
330
9731
102
}
330
9731
100
AcDbProxyObject
 90
      499
 91
      513
 95
   983063
 70
     0
 93
      388
310
41519B185D00240901404333333333333E3BF0000000000000F9010740A907004050150841D405064090741402480A1B50
 94
        0
1001
ACAD
1000
AcDbSavedByObjectVersion
1070
     0
1000
AcRTDxfName
1000
VISUALSTYLE
  0
ACAD_PROXY_OBJECT
  5
9733
102
{ACAD_XDICTIONARY
360
9BD8
102
}
102
{ACAD_REACTORS
330
9731
102
}
330
9731
100
AcDbProxyObject
 90
      499
 91
      513
 95
   983063
 70
     0
 93
      476
310
43919B185D15DA5D1A115919D95CC010140901404333333333333E3BF0000000000000F90107409019070040501600405405064090741402480A1B50
 94
        0
1001
ACAD
1000
AcDbSavedByObjectVersion
1070
     0
1000
AcRTDxfName
1000
VISUALSTYLE
  0
ACAD_PROXY_OBJECT
  5
9734
102
{ACAD_XDICTIONARY
360
9BDA
102
}
102
{ACAD_REACTORS
330
9731
102
}
330
9731
100
AcDbProxyObject
 90
      499
 91
      513
 95
   983063
 70
     0
 93
      412
310
4211DBDD5C985D590010240902404333333333333E3BF0000000000000F9010740A9070040501641D405064090741402480A1B50
 94
        0
1001
ACAD
1000
AcDbSavedByObjectVersion
1070
     0
1000
AcRTDxfName
1000
VISUALSTYLE
  0
ACAD_PROXY_OBJECT
  5
9735
102
{ACAD_XDICTIONARY
360
9BDC
102
}
102
{ACAD_REACTORS
330
9731
102
}
330
9731
100
AcDbProxyObject
 90
      499
 91
      513
 95
   983063
 70
     0
 93
      500
310
4451DBDD5C985D5915DA5D1A115919D95CC010340902404333333333333E3BF0000000000000F90107409019070040501600405405064090741402480A1B50
 94
        0
1001
ACAD
1000
AcDbSavedByObjectVersion
1070
     0
1000
AcRTDxfName
1000
VISUALSTYLE
  0
ACAD_PROXY_OBJECT
  5
9739
102
{ACAD_XDICTIONARY
360
9BE4
102
}
102
{ACAD_REACTORS
330
9731
102
}
330
9731
100
AcDbProxyObject
 90
      499
 91
      513
 95
   983063
 70
     0
 93
      484
310
41D21A5919195B8010640502408333333333333E3BF0000000000000FB01079024090700405020000000000001110200405405064090740C02480A0340
 94
        0
1001
ACAD
1000
AcDbSavedByObjectVersion
1070
     0
1000
AcRTDxfName
1000
VISUALSTYLE
  0
ACAD_PROXY_OBJECT
  5
9747
102
{ACAD_XDICTIONARY
360
9C00
102
}
102
{ACAD_REACTORS
330
9731
102
}
330
9731
100
AcDbProxyObject
 90
      499
 91
      513
 95
   983063
 70
     0
 93
      436
310
42929A5D1D195C93D99980114409028333333333333E3BF0000000000000FB010790141107004050150A41D405064090741402480A0354
 94
        0
1001
ACAD
1000
AcDbSavedByObjectVersion
1070
     0
1000
AcRTDxfName
1000
VISUALSTYLE
  0
ACAD_PROXY_OBJECT
  5
973F
102
{ACAD_XDICTIONARY
360
9BF0
102
}
102
{ACAD_REACTORS
330
9731
102
}
330
9731
100
AcDbProxyObject
 90
      499
 91
      513
 95
   983063
 70
     0
 93
      452
310
43131A5B995C185D1D195C9B8010E409028333333333333E3BF0000000000000FB010790141107004050750841D405064090741402483A0352
 94
        0
1001
ACAD
1000
AcDbSavedByObjectVersion
1070
     0
1000
AcRTDxfName
1000
VISUALSTYLE
  0
ACAD_PROXY_OBJECT
  5
9748
102
{ACAD_XDICTIONARY
360
9C02
102
}
102
{ACAD_REACTORS
330
9731
102
}
330
9731
100
AcDbProxyObject
 90
      499
 91
      513
 95
   983063
 70
     0
 93
      452
310
4313DD995C9A185B99D3D99980115409028333333333333E3BF0000000000000FB010790141107004050150941D405064090741402480A0354
 94
        0
1001
ACAD
1000
AcDbSavedByObjectVersion
1070
     0
1000
AcRTDxfName
1000
VISUALSTYLE
  0
ACAD_PROXY_OBJECT
  5
973B
102
{ACAD_XDICTIONARY
360
9BE8
102
}
102
{ACAD_REACTORS
330
9731
102
}
330
9731
100
AcDbProxyObject
 90
      499
 91
      513
 95
   983063
 70
     0
 93
      436
310
429499585B1A5CDD1A58C0108409028333333333333E3BF0000000000000F9010740A907004050150800405405064090740C02480A1B44
 94
        0
1001
ACAD
1000
AcDbSavedByObjectVersion
1070
     0
1000
AcRTDxfName
1000
VISUALSTYLE
  0
ACAD_PROXY_OBJECT
  5
9746
102
{ACAD_XDICTIONARY
360
9BFE
102
}
102
{ACAD_REACTORS
330
9731
102
}
330
9731
100
AcDbProxyObject
 90
      499
 91
      513
 95
   983063
 70
     0
 93
      428
310
41D4DA185919590011B40902404333333333333E3BF0000000000000F9010740A41107004050150800405405064090840C02480A0B41
 94
        0
1001
ACAD
1000
AcDbSavedByObjectVersion
1070
     0
1000
AcRTDxfName
1000
VISUALSTYLE
  0
ACAD_PROXY_OBJECT
  5
9745
102
{ACAD_XDICTIONARY
360
9BFC
102
}
102
{ACAD_REACTORS
330
9731
102
}
330
9731
100
AcDbProxyObject
 90
      499
 91
      513
 95
   983063
 70
     0
 93
      524
310
4494DA18591959081DDA5D1A08195919D95CC011A40902404333333333333E3BF0000000000000F901074090142907004050250800405405064090740C02480A0B40
 94
        0
1001
ACAD
1000
AcDbSavedByObjectVersion
1070
     0
1000
AcRTDxfName
1000
VISUALSTYLE
  0
ACAD_PROXY_OBJECT
  5
9742
102
{ACAD_XDICTIONARY
360
9BF6
102
}
102
{ACAD_REACTORS
330
9731
102
}
330
9731
100
AcDbProxyObject
 90
      499
 91
      513
 95
   983063
 70
     0
 93
      540
310
43D4DA1859195CC81BD98811DC985E401174090240C333333333333E3BF0000000000000FB01079024090741D01000000000000111010841D405064090740C02480A0340
 94
        0
1001
ACAD
1000
AcDbSavedByObjectVersion
1070
     0
1000
AcRTDxfName
1000
VISUALSTYLE
  0
ACAD_PROXY_OBJECT
  5
9743
102
{ACAD_XDICTIONARY
360
9BF8
102
}
102
{ACAD_REACTORS
330
9731
102
}
330
9731
100
AcDbProxyObject
 90
      499
 91
      513
 95
   983063
 70
     0
 93
      484
310
4214DAD95D18DA1E4011840502408333333333333E3BF0000000000000FB01079024090741D01000000000000111010B41D405064090741802480A0340
 94
        0
1001
ACAD
1000
AcDbSavedByObjectVersion
1070
     0
1000
AcRTDxfName
1000
VISUALSTYLE
  0
ACAD_PROXY_OBJECT
  5
973E
102
{ACAD_XDICTIONARY
360
9BEE
102
}
102
{ACAD_REACTORS
330
9731
102
}
330
9731
100
AcDbProxyObject
 90
      499
 91
      513
 95
   983063
 70
     0
 93
      420
310
42151A1A58DAD95B8010D409028333333333333E3BF0000000000000FB010790141107004050150C41D405064090741402480A0354
 94
        0
1001
ACAD
1000
AcDbSavedByObjectVersion
1070
     0
1000
AcRTDxfName
1000
VISUALSTYLE
  0
ACAD_PROXY_OBJECT
  5
9738
102
{ACAD_XDICTIONARY
360
9BE2
102
}
102
{ACAD_REACTORS
330
9731
102
}
330
9731
100
AcDbProxyObject
 90
      499
 91
      513
 95
   983063
 70
     0
 93
      428
310
4295DA5C99599C985B59401059028333333333333E3BF0000000000000FB0107901411070040501600405405064090740C02480A0340
 94
        0
1001
ACAD
1000
AcDbSavedByObjectVersion
1070
     0
1000
AcRTDxfName
1000
VISUALSTYLE
  0
ACAD_PROXY_OBJECT
  5
9744
102
{ACAD_XDICTIONARY
360
9BFA
102
}
102
{ACAD_REACTORS
330
9731
102
}
330
9731
100
AcDbProxyObject
 90
      499
 91
      513
 95
   983063
 70
     0
 93
      412
310
41960B54985E4011940902404000000000000E03F0000000000000FB010740501907004050150841D405064090740C02480A1B41
 94
        0
1001
ACAD
1000
AcDbSavedByObjectVersion
1070
     0
1000
AcRTDxfName
1000
VISUALSTYLE
  0
DICTIONARYVAR
  5
9AFA
102
{ACAD_REACTORS
330
45D
102
}
330
45D
100
DictionaryVariables
280
     0
  1
1:1
  0
DICTIONARYVAR
  5
9AF9
102
{ACAD_REACTORS
330
45D
102
}
330
45D
100
DictionaryVariables
280
     0
  1
STANDARD
  0
DICTIONARYVAR
  5
96D1
102
{ACAD_REACTORS
330
45D
102
}
330
45D
100
DictionaryVariables
280
     0
  1
STANDARD
  0
DICTIONARYVAR
  5
9AFD
102
{ACAD_REACTORS
330
45D
102
}
330
45D
100
DictionaryVariables
280
     0
  1
1
  0
DICTIONARYVAR
  5
9AFB
102
{ACAD_REACTORS
330
45D
102
}
330
45D
100
DictionaryVariables
280
     0
  1
0
  0
DICTIONARYVAR
  5
9C57
102
{ACAD_REACTORS
330
45D
102
}
330
45D
100
DictionaryVariables
280
     0
  1

  0
DICTIONARYVAR
  5
45E
102
{ACAD_REACTORS
330
45D
102
}
330
45D
100
DictionaryVariables
280
     0
  1
127
  0
DICTIONARYVAR
  5
9C4A
102
{ACAD_REACTORS
330
45D
102
}
330
45D
100
DictionaryVariables
280
     0
  1
0
  0
DICTIONARY
  5
97C2
102
{ACAD_REACTORS
330
97B7
102
}
330
97B7
100
AcDbDictionary
281
     1
  0
DICTIONARY
  5
9C5B
330
5CF5
100
AcDbDictionary
280
     1
281
     1
  3
ACAD_XREC_ROUNDTRIP
360
9C5C
  0
DICTIONARY
  5
9C5D
330
5CF6
100
AcDbDictionary
280
     1
281
     1
  3
ACAD_XREC_ROUNDTRIP
360
9C5E
  0
DICTIONARY
  5
9722
330
9721
100
AcDbDictionary
280
     1
281
     1
  3
ACAD_XREC_ROUNDTRIP
360
9BD4
  3
BUMPTILE
360
9724
  3
DIFFUSETILE
360
9723
  3
OPACITYTILE
360
9727
  3
REFLECTIONTILE
360
9726
  3
REFRACTIONTILE
360
9728
  3
SPECULARTILE
360
9725
  0
DICTIONARY
  5
971A
330
9719
100
AcDbDictionary
280
     1
281
     1
  3
ACAD_XREC_ROUNDTRIP
360
9BD3
  3
BUMPTILE
360
971C
  3
DIFFUSETILE
360
971B
  3
OPACITYTILE
360
971F
  3
REFLECTIONTILE
360
971E
  3
REFRACTIONTILE
360
9720
  3
SPECULARTILE
360
971D
  0
DICTIONARY
  5
972A
330
9729
100
AcDbDictionary
280
     1
281
     1
  3
ACAD_XREC_ROUNDTRIP
360
9BD5
  3
BUMPTILE
360
972C
  3
DIFFUSETILE
360
972B
  3
OPACITYTILE
360
972F
  3
REFLECTIONTILE
360
972E
  3
REFRACTIONTILE
360
9730
  3
SPECULARTILE
360
972D
  0
DICTIONARY
  5
9A29
330
96BD
100
AcDbDictionary
280
     1
281
     1
  3
ACAD_ROUNDTRIP_2008_TABLESTYLE_CELLSTYLEMAP
360
9B77
  3
ACAD_XREC_ROUNDTRIP
360
9BD0
  0
DICTIONARY
  5
9BE0
330
9737
100
AcDbDictionary
280
     1
281
     1
  3
ACAD_XREC_ROUNDTRIP
360
9BE1
  0
DICTIONARY
  5
9BDE
330
9736
100
AcDbDictionary
280
     1
281
     1
  3
ACAD_XREC_ROUNDTRIP
360
9BDF
  0
DICTIONARY
  5
9BEC
330
973D
100
AcDbDictionary
280
     1
281
     1
  3
ACAD_XREC_ROUNDTRIP
360
9BED
  0
DICTIONARY
  5
9BF4
330
9741
100
AcDbDictionary
280
     1
281
     1
  3
ACAD_XREC_ROUNDTRIP
360
9BF5
  0
DICTIONARY
  5
9BE6
330
973A
100
AcDbDictionary
280
     1
281
     1
  3
ACAD_XREC_ROUNDTRIP
360
9BE7
  0
DICTIONARY
  5
9BEA
330
973C
100
AcDbDictionary
280
     1
281
     1
  3
ACAD_XREC_ROUNDTRIP
360
9BEB
  0
DICTIONARY
  5
9C04
330
9749
100
AcDbDictionary
280
     1
281
     1
  3
ACAD_XREC_ROUNDTRIP
360
9C05
  0
DICTIONARY
  5
9BF2
330
9740
100
AcDbDictionary
280
     1
281
     1
  3
ACAD_XREC_ROUNDTRIP
360
9BF3
  0
DICTIONARY
  5
9BD6
330
9732
100
AcDbDictionary
280
     1
281
     1
  3
ACAD_XREC_ROUNDTRIP
360
9BD7
  0
DICTIONARY
  5
9BD8
330
9733
100
AcDbDictionary
280
     1
281
     1
  3
ACAD_XREC_ROUNDTRIP
360
9BD9
  0
DICTIONARY
  5
9BDA
330
9734
100
AcDbDictionary
280
     1
281
     1
  3
ACAD_XREC_ROUNDTRIP
360
9BDB
  0
DICTIONARY
  5
9BDC
330
9735
100
AcDbDictionary
280
     1
281
     1
  3
ACAD_XREC_ROUNDTRIP
360
9BDD
  0
DICTIONARY
  5
9BE4
330
9739
100
AcDbDictionary
280
     1
281
     1
  3
ACAD_XREC_ROUNDTRIP
360
9BE5
  0
DICTIONARY
  5
9C00
330
9747
100
AcDbDictionary
280
     1
281
     1
  3
ACAD_XREC_ROUNDTRIP
360
9C01
  0
DICTIONARY
  5
9BF0
330
973F
100
AcDbDictionary
280
     1
281
     1
  3
ACAD_XREC_ROUNDTRIP
360
9BF1
  0
DICTIONARY
  5
9C02
330
9748
100
AcDbDictionary
280
     1
281
     1
  3
ACAD_XREC_ROUNDTRIP
360
9C03
  0
DICTIONARY
  5
9BE8
330
973B
100
AcDbDictionary
280
     1
281
     1
  3
ACAD_XREC_ROUNDTRIP
360
9BE9
  0
DICTIONARY
  5
9BFE
330
9746
100
AcDbDictionary
280
     1
281
     1
  3
ACAD_XREC_ROUNDTRIP
360
9BFF
  0
DICTIONARY
  5
9BFC
330
9745
100
AcDbDictionary
280
     1
281
     1
  3
ACAD_XREC_ROUNDTRIP
360
9BFD
  0
DICTIONARY
  5
9BF6
330
9742
100
AcDbDictionary
280
     1
281
     1
  3
ACAD_XREC_ROUNDTRIP
360
9BF7
  0
DICTIONARY
  5
9BF8
330
9743
100
AcDbDictionary
280
     1
281
     1
  3
ACAD_XREC_ROUNDTRIP
360
9BF9
  0
DICTIONARY
  5
9BEE
330
973E
100
AcDbDictionary
280
     1
281
     1
  3
ACAD_XREC_ROUNDTRIP
360
9BEF
  0
DICTIONARY
  5
9BE2
330
9738
100
AcDbDictionary
280
     1
281
     1
  3
ACAD_XREC_ROUNDTRIP
360
9BE3
  0
DICTIONARY
  5
9BFA
330
9744
100
AcDbDictionary
280
     1
281
     1
  3
ACAD_XREC_ROUNDTRIP
360
9BFB
  0
XRECORD
  5
9C5C
102
{ACAD_REACTORS
330
9C5B
102
}
330
9C5B
100
AcDbXrecord
280
     1
102
SHADEPLOT
 70
     0
102
SHADEPLOTRESLEVEL
 70
     2
102
SHADEPLOTCUSTOMDPI
 70
   300
  0
XRECORD
  5
9C5E
102
{ACAD_REACTORS
330
9C5D
102
}
330
9C5D
100
AcDbXrecord
280
     1
102
SHADEPLOT
 70
     0
102
SHADEPLOTRESLEVEL
 70
     2
102
SHADEPLOTCUSTOMDPI
 70
   300
  0
XRECORD
  5
9BD4
102
{ACAD_REACTORS
330
9722
102
}
330
9722
100
AcDbXrecord
280
     1
102
MATERIAL
148
0.0
149
0.0
149
0.0
 93
        0
 94
      127
282
     0
 72
     0
 77
     0
171
     0
175
     0
179
     0
273
     0
  0
XRECORD
  5
9724
102
{ACAD_REACTORS
330
9722
102
}
330
9722
100
AcDbXrecord
280
     1
270
     1
271
     1
  0
XRECORD
  5
9723
102
{ACAD_REACTORS
330
9722
102
}
330
9722
100
AcDbXrecord
280
     1
270
     1
271
     1
  0
XRECORD
  5
9727
102
{ACAD_REACTORS
330
9722
102
}
330
9722
100
AcDbXrecord
280
     1
270
     1
271
     1
  0
XRECORD
  5
9726
102
{ACAD_REACTORS
330
9722
102
}
330
9722
100
AcDbXrecord
280
     1
270
     1
271
     1
  0
XRECORD
  5
9728
102
{ACAD_REACTORS
330
9722
102
}
330
9722
100
AcDbXrecord
280
     1
270
     1
271
     1
  0
XRECORD
  5
9725
102
{ACAD_REACTORS
330
9722
102
}
330
9722
100
AcDbXrecord
280
     1
270
     1
271
     1
  0
XRECORD
  5
9BD3
102
{ACAD_REACTORS
330
971A
102
}
330
971A
100
AcDbXrecord
280
     1
102
MATERIAL
148
0.0
149
0.0
149
0.0
 93
        0
 94
      127
282
     0
 72
     0
 77
     0
171
     0
175
     0
179
     0
273
     0
  0
XRECORD
  5
971C
102
{ACAD_REACTORS
330
971A
102
}
330
971A
100
AcDbXrecord
280
     1
270
     1
271
     1
  0
XRECORD
  5
971B
102
{ACAD_REACTORS
330
971A
102
}
330
971A
100
AcDbXrecord
280
     1
270
     1
271
     1
  0
XRECORD
  5
971F
102
{ACAD_REACTORS
330
971A
102
}
330
971A
100
AcDbXrecord
280
     1
270
     1
271
     1
  0
XRECORD
  5
971E
102
{ACAD_REACTORS
330
971A
102
}
330
971A
100
AcDbXrecord
280
     1
270
     1
271
     1
  0
XRECORD
  5
9720
102
{ACAD_REACTORS
330
971A
102
}
330
971A
100
AcDbXrecord
280
     1
270
     1
271
     1
  0
XRECORD
  5
971D
102
{ACAD_REACTORS
330
971A
102
}
330
971A
100
AcDbXrecord
280
     1
270
     1
271
     1
  0
XRECORD
  5
9BD5
102
{ACAD_REACTORS
330
972A
102
}
330
972A
100
AcDbXrecord
280
     1
102
MATERIAL
148
0.0
149
0.0
149
0.0
 93
        0
 94
      127
282
     0
 72
     0
 77
     0
171
     0
175
     0
179
     0
273
     0
  0
XRECORD
  5
972C
102
{ACAD_REACTORS
330
972A
102
}
330
972A
100
AcDbXrecord
280
     1
270
     1
271
     1
  0
XRECORD
  5
972B
102
{ACAD_REACTORS
330
972A
102
}
330
972A
100
AcDbXrecord
280
     1
270
     1
271
     1
  0
XRECORD
  5
972F
102
{ACAD_REACTORS
330
972A
102
}
330
972A
100
AcDbXrecord
280
     1
270
     1
271
     1
  0
XRECORD
  5
972E
102
{ACAD_REACTORS
330
972A
102
}
330
972A
100
AcDbXrecord
280
     1
270
     1
271
     1
  0
XRECORD
  5
9730
102
{ACAD_REACTORS
330
972A
102
}
330
972A
100
AcDbXrecord
280
     1
270
     1
271
     1
  0
XRECORD
  5
972D
102
{ACAD_REACTORS
330
972A
102
}
330
972A
100
AcDbXrecord
280
     1
270
     1
271
     1
  0
ACAD_PROXY_OBJECT
  5
9B77
102
{ACAD_REACTORS
330
9A29
102
}
330
9A29
100
AcDbProxyObject
 90
      499
 91
      577
 95
   983063
 70
     0
 93
     5232
310
40D054060020000020000003200101A412A5058000000C10000000000000006101010000000000003E0FC000000000000F83F0000000000003E0FC000000000000F83F02B5E8DC0F42B1CFC0AD7A3703D0AC73F419019018000000C1003FBFFFFFE02B5E8DC0F42A9CFD029018000000C1003FBFFFFFE02B5E8DC0F42A9CFD
310
049018000000C1003FBFFFFFE02B5E8DC0F42A9CFD089018000000C1003FBFFFFFE02B5E8DC0F42A9CFD109018000000C1003FBFFFFFE02B5E8DC0F42A9CFD209018000000C1003FBFFFFFE02B5E8DC0F42A9CFD01405075F5449544C450041501A8000000C800406904A94160000003040000000000000012404040000000
310
00000F83F0000000000003E0FC000000000000F83F0000000000003E0FC0AD7A3703D0AC73F02B5E8DC0F42B1CFD0640640600000030400FEFFFFFF80AD7A3703D0AA73F40A40600000030400FEFFFFFF80AD7A3703D0AA73F41240600000030400FEFFFFFF80AD7A3703D0AA73F42240600000030400FEFFFFFF80AD7A370
310
3D0AA73F44240600000030400FEFFFFFF80AD7A3703D0AA73F48240600000030400FEFFFFFF80AD7A3703D0AA73F409014217D2115051115480105406A0000003200101A412A5028000000C10000000000000004901010000000000003E0FC000000000000F83F0000000000003E0FC000000000000F83F02B5E8DC0F42B1C
310
FC0AD7A3703D0AC73F419019018000000C1003FBFFFFFE02B5E8DC0F42A9CFD029018000000C1003FBFFFFFE02B5E8DC0F42A9CFD049018000000C1003FBFFFFFE02B5E8DC0F42A9CFD089018000000C1003FBFFFFFE02B5E8DC0F42A9CFD109018000000C1003FBFFFFFE02B5E8DC0F42A9CFD209018000000C1003FBFFFF
310
FE02B5E8DC0F42A9CFD03409065F444154410000
340
F
340
0
340
0
340
0
340
0
340
0
340
0
340
F
340
0
340
0
340
0
340
0
340
0
340
0
340
F
340
0
340
0
340
0
340
0
340
0
340
0
 94
        0
1001
ACAD
1000
AcRTDxfName
1000
CELLSTYLEMAP
  0
XRECORD
  5
9BD0
102
{ACAD_REACTORS
330
9A29
102
}
330
9A29
100
AcDbXrecord
280
     1
102
ACAD_ROUNDTRIP_PRE2007_TABLESTYLE
 90
        4
 91
        0
  1

 92
        4
 93
        0
  2

 94
        4
 95
        0
  3

  0
XRECORD
  5
9BE1
102
{ACAD_REACTORS
330
9BE0
102
}
330
9BE0
100
AcDbXrecord
280
     1
102
RTVSPropertyOp0
 70
     1
102
RTVSPropertyOp1
 70
     1
102
RTVSPropertyOp2
 70
     1
102
RTVSPropertyOp3
 70
     1
102
RTVSPropertyOp4
 70
     1
102
RTVSPropertyOp5
 70
     1
102
RTVSPropertyOp6
 70
     1
102
RTVSPropertyOp7
 70
     1
102
RTVSPropertyOp8
 70
     1
102
RTVSPropertyOp9
 70
     1
102
RTVSPropertyOp10
 70
     1
102
RTVSPropertyOp11
 70
     1
102
RTVSPropertyOp12
 70
     1
102
RTVSPropertyOp13
 70
     1
102
RTVSPropertyOp14
 70
     1
102
RTVSPropertyOp15
 70
     1
102
RTVSPropertyOp16
 70
     1
102
RTVSPropertyOp17
 70
     1
102
RTVSPropertyOp18
 70
     1
102
RTVSPropertyOp19
 70
     1
102
RTVSPropertyOp20
 70
     1
102
RTVSPropertyOp21
 70
     1
102
RTVSPropertyOp22
 70
     1
102
RTVSPropertyOp23
 70
     1
102
RTVSPropertyOp24
 70
     1
102
RTVSPropertyOp25
 70
     1
102
RTVSPropertyOp26
 70
     1
102
RTVSPropertyOp27
 70
     1
102
RTVSPropertyOp28
 70
     1
102
RTVSPropertyOp29
 70
     1
102
RTVSPropertyOp30
 70
     1
102
RTVSPropertyOp31
 70
     1
102
RTVSPropertyOp32
 70
     1
  0
XRECORD
  5
9BDF
102
{ACAD_REACTORS
330
9BDE
102
}
330
9BDE
100
AcDbXrecord
280
     1
102
RTVSPropertyOp0
 70
     1
102
RTVSPropertyOp1
 70
     1
102
RTVSPropertyOp2
 70
     1
102
RTVSPropertyOp3
 70
     1
102
RTVSPropertyOp4
 70
     1
102
RTVSPropertyOp5
 70
     1
102
RTVSPropertyOp6
 70
     1
102
RTVSPropertyOp7
 70
     1
102
RTVSPropertyOp8
 70
     1
102
RTVSPropertyOp9
 70
     1
102
RTVSPropertyOp10
 70
     1
102
RTVSPropertyOp11
 70
     1
102
RTVSPropertyOp12
 70
     1
102
RTVSPropertyOp13
 70
     1
102
RTVSPropertyOp14
 70
     1
102
RTVSPropertyOp15
 70
     1
102
RTVSPropertyOp16
 70
     1
102
RTVSPropertyOp17
 70
     1
102
RTVSPropertyOp18
 70
     1
102
RTVSPropertyOp19
 70
     1
102
RTVSPropertyOp20
 70
     1
102
RTVSPropertyOp21
 70
     1
102
RTVSPropertyOp22
 70
     1
102
RTVSPropertyOp23
 70
     1
102
RTVSPropertyOp24
 70
     1
102
RTVSPropertyOp25
 70
     1
102
RTVSPropertyOp26
 70
     1
102
RTVSPropertyOp27
 70
     1
102
RTVSPropertyOp28
 70
     1
102
RTVSPropertyOp29
 70
     1
102
RTVSPropertyOp30
 70
     1
102
RTVSPropertyOp31
 70
     1
102
RTVSPropertyOp32
 70
     1
  0
XRECORD
  5
9BED
102
{ACAD_REACTORS
330
9BEC
102
}
330
9BEC
100
AcDbXrecord
280
     1
102
RTVSPropertyOp0
 70
     1
102
RTVSPropertyOp1
 70
     1
102
RTVSPropertyOp2
 70
     1
102
RTVSPropertyOp3
 70
     1
102
RTVSPropertyOp4
 70
     1
102
RTVSPropertyOp5
 70
     1
102
RTVSPropertyOp6
 70
     1
102
RTVSPropertyOp7
 70
     1
102
RTVSPropertyOp8
 70
     1
102
RTVSPropertyOp9
 70
     1
102
RTVSPropertyOp10
 70
     1
102
RTVSPropertyOp11
 70
     1
102
RTVSPropertyOp12
 70
     1
102
RTVSPropertyOp13
 70
     1
102
RTVSPropertyOp14
 70
     1
102
RTVSPropertyOp15
 70
     1
102
RTVSPropertyOp16
 70
     1
102
RTVSPropertyOp17
 70
     1
102
RTVSPropertyOp18
 70
     1
102
RTVSPropertyOp19
 70
     1
102
RTVSPropertyOp20
 70
     1
102
RTVSPropertyOp21
 70
     1
102
RTVSPropertyOp22
 70
     1
102
RTVSPropertyOp23
 70
     1
102
RTVSPropertyOp24
 70
     1
102
RTVSPropertyOp25
 70
     1
102
RTVSPropertyOp26
 70
     1
102
RTVSPropertyOp27
 70
     1
102
RTVSPropertyOp28
 70
     1
102
RTVSPropertyOp29
 70
     1
102
RTVSPropertyOp30
 70
     1
102
RTVSPropertyOp31
 70
     1
102
RTVSPropertyOp32
 70
     1
  0
XRECORD
  5
9BF5
102
{ACAD_REACTORS
330
9BF4
102
}
330
9BF4
100
AcDbXrecord
280
     1
102
RTVSPropertyOp0
 70
     1
102
RTVSPropertyOp1
 70
     1
102
RTVSPropertyOp2
 70
     1
102
RTVSPropertyOp3
 70
     1
102
RTVSPropertyOp4
 70
     1
102
RTVSPropertyOp5
 70
     1
102
RTVSPropertyOp6
 70
     1
102
RTVSPropertyOp7
 70
     1
102
RTVSPropertyOp8
 70
     1
102
RTVSPropertyOp9
 70
     1
102
RTVSPropertyOp10
 70
     1
102
RTVSPropertyOp11
 70
     1
102
RTVSPropertyOp12
 70
     1
102
RTVSPropertyOp13
 70
     1
102
RTVSPropertyOp14
 70
     1
102
RTVSPropertyOp15
 70
     1
102
RTVSPropertyOp16
 70
     1
102
RTVSPropertyOp17
 70
     1
102
RTVSPropertyOp18
 70
     1
102
RTVSPropertyOp19
 70
     1
102
RTVSPropertyOp20
 70
     1
102
RTVSPropertyOp21
 70
     1
102
RTVSPropertyOp22
 70
     1
102
RTVSPropertyOp23
 70
     1
102
RTVSPropertyOp24
 70
     1
102
RTVSPropertyOp25
 70
     1
102
RTVSPropertyOp26
 70
     1
102
RTVSPropertyOp27
 70
     1
102
RTVSPropertyOp28
 70
     1
102
RTVSPropertyOp29
 70
     1
102
RTVSPropertyOp30
 70
     1
102
RTVSPropertyOp31
 70
     1
102
RTVSPropertyOp32
 70
     1
  0
XRECORD
  5
9BE7
102
{ACAD_REACTORS
330
9BE6
102
}
330
9BE6
100
AcDbXrecord
280
     1
102
RTVSPropertyOp0
 70
     1
102
RTVSPropertyOp1
 70
     1
102
RTVSPropertyOp2
 70
     1
102
RTVSPropertyOp3
 70
     1
102
RTVSPropertyOp4
 70
     1
102
RTVSPropertyOp5
 70
     1
102
RTVSPropertyOp6
 70
     1
102
RTVSPropertyOp7
 70
     1
102
RTVSPropertyOp8
 70
     1
102
RTVSPropertyOp9
 70
     1
102
RTVSPropertyOp10
 70
     1
102
RTVSPropertyOp11
 70
     1
102
RTVSPropertyOp12
 70
     1
102
RTVSPropertyOp13
 70
     1
102
RTVSPropertyOp14
 70
     1
102
RTVSPropertyOp15
 70
     1
102
RTVSPropertyOp16
 70
     1
102
RTVSPropertyOp17
 70
     1
102
RTVSPropertyOp18
 70
     1
102
RTVSPropertyOp19
 70
     1
102
RTVSPropertyOp20
 70
     1
102
RTVSPropertyOp21
 70
     1
102
RTVSPropertyOp22
 70
     1
102
RTVSPropertyOp23
 70
     1
102
RTVSPropertyOp24
 70
     1
102
RTVSPropertyOp25
 70
     1
102
RTVSPropertyOp26
 70
     1
102
RTVSPropertyOp27
 70
     1
102
RTVSPropertyOp28
 70
     1
102
RTVSPropertyOp29
 70
     1
102
RTVSPropertyOp30
 70
     1
102
RTVSPropertyOp31
 70
     1
102
RTVSPropertyOp32
 70
     1
  0
XRECORD
  5
9BEB
102
{ACAD_REACTORS
330
9BEA
102
}
330
9BEA
100
AcDbXrecord
280
     1
102
RTVSPropertyOp0
 70
     1
102
RTVSPropertyOp1
 70
     1
102
RTVSPropertyOp2
 70
     1
102
RTVSPropertyOp3
 70
     1
102
RTVSPropertyOp4
 70
     1
102
RTVSPropertyOp5
 70
     1
102
RTVSPropertyOp6
 70
     1
102
RTVSPropertyOp7
 70
     1
102
RTVSPropertyOp8
 70
     1
102
RTVSPropertyOp9
 70
     1
102
RTVSPropertyOp10
 70
     1
102
RTVSPropertyOp11
 70
     1
102
RTVSPropertyOp12
 70
     1
102
RTVSPropertyOp13
 70
     1
102
RTVSPropertyOp14
 70
     1
102
RTVSPropertyOp15
 70
     1
102
RTVSPropertyOp16
 70
     1
102
RTVSPropertyOp17
 70
     1
102
RTVSPropertyOp18
 70
     1
102
RTVSPropertyOp19
 70
     1
102
RTVSPropertyOp20
 70
     1
102
RTVSPropertyOp21
 70
     1
102
RTVSPropertyOp22
 70
     1
102
RTVSPropertyOp23
 70
     1
102
RTVSPropertyOp24
 70
     1
102
RTVSPropertyOp25
 70
     1
102
RTVSPropertyOp26
 70
     1
102
RTVSPropertyOp27
 70
     1
102
RTVSPropertyOp28
 70
     1
102
RTVSPropertyOp29
 70
     1
102
RTVSPropertyOp30
 70
     1
102
RTVSPropertyOp31
 70
     1
102
RTVSPropertyOp32
 70
     1
  0
XRECORD
  5
9C05
102
{ACAD_REACTORS
330
9C04
102
}
330
9C04
100
AcDbXrecord
280
     1
102
RTVSPropertyOp0
 70
     0
102
RTVSPropertyOp1
 70
     0
102
RTVSPropertyOp2
 70
     0
102
RTVSPropertyOp3
 70
     0
102
RTVSPropertyOp4
 70
     0
102
RTVSPropertyOp5
 70
     0
102
RTVSPropertyOp6
 70
     0
102
RTVSPropertyOp7
 70
     0
102
RTVSPropertyOp8
 70
     0
102
RTVSPropertyOp9
 70
     0
102
RTVSPropertyOp10
 70
     0
102
RTVSPropertyOp11
 70
     0
102
RTVSPropertyOp12
 70
     0
102
RTVSPropertyOp13
 70
     0
102
RTVSPropertyOp14
 70
     2
102
RTVSPropertyOp15
 70
     0
102
RTVSPropertyOp16
 70
     0
102
RTVSPropertyOp17
 70
     0
102
RTVSPropertyOp18
 70
     0
102
RTVSPropertyOp19
 70
     0
102
RTVSPropertyOp20
 70
     0
102
RTVSPropertyOp21
 70
     0
102
RTVSPropertyOp22
 70
     0
102
RTVSPropertyOp23
 70
     0
102
RTVSPropertyOp24
 70
     0
102
RTVSPropertyOp25
 70
     0
102
RTVSPropertyOp26
 70
     0
102
RTVSPropertyOp27
 70
     0
102
RTVSPropertyOp28
 70
     0
102
RTVSPropertyOp29
 70
     0
102
RTVSPropertyOp30
 70
     0
102
RTVSPropertyOp31
 70
     0
102
RTVSPropertyOp32
 70
     0
  0
XRECORD
  5
9BF3
102
{ACAD_REACTORS
330
9BF2
102
}
330
9BF2
100
AcDbXrecord
280
     1
102
RTVSPropertyOp0
 70
     1
102
RTVSPropertyOp1
 70
     1
102
RTVSPropertyOp2
 70
     1
102
RTVSPropertyOp3
 70
     1
102
RTVSPropertyOp4
 70
     1
102
RTVSPropertyOp5
 70
     1
102
RTVSPropertyOp6
 70
     1
102
RTVSPropertyOp7
 70
     1
102
RTVSPropertyOp8
 70
     1
102
RTVSPropertyOp9
 70
     1
102
RTVSPropertyOp10
 70
     1
102
RTVSPropertyOp11
 70
     1
102
RTVSPropertyOp12
 70
     1
102
RTVSPropertyOp13
 70
     1
102
RTVSPropertyOp14
 70
     1
102
RTVSPropertyOp15
 70
     1
102
RTVSPropertyOp16
 70
     1
102
RTVSPropertyOp17
 70
     1
102
RTVSPropertyOp18
 70
     1
102
RTVSPropertyOp19
 70
     1
102
RTVSPropertyOp20
 70
     1
102
RTVSPropertyOp21
 70
     1
102
RTVSPropertyOp22
 70
     1
102
RTVSPropertyOp23
 70
     1
102
RTVSPropertyOp24
 70
     1
102
RTVSPropertyOp25
 70
     1
102
RTVSPropertyOp26
 70
     1
102
RTVSPropertyOp27
 70
     1
102
RTVSPropertyOp28
 70
     1
102
RTVSPropertyOp29
 70
     1
102
RTVSPropertyOp30
 70
     1
102
RTVSPropertyOp31
 70
     1
102
RTVSPropertyOp32
 70
     1
  0
XRECORD
  5
9BD7
102
{ACAD_REACTORS
330
9BD6
102
}
330
9BD6
100
AcDbXrecord
280
     1
102
RTVSPropertyOp0
 70
     1
102
RTVSPropertyOp1
 70
     1
102
RTVSPropertyOp2
 70
     1
102
RTVSPropertyOp3
 70
     1
102
RTVSPropertyOp4
 70
     1
102
RTVSPropertyOp5
 70
     1
102
RTVSPropertyOp6
 70
     1
102
RTVSPropertyOp7
 70
     1
102
RTVSPropertyOp8
 70
     1
102
RTVSPropertyOp9
 70
     1
102
RTVSPropertyOp10
 70
     1
102
RTVSPropertyOp11
 70
     1
102
RTVSPropertyOp12
 70
     1
102
RTVSPropertyOp13
 70
     1
102
RTVSPropertyOp14
 70
     1
102
RTVSPropertyOp15
 70
     1
102
RTVSPropertyOp16
 70
     1
102
RTVSPropertyOp17
 70
     1
102
RTVSPropertyOp18
 70
     1
102
RTVSPropertyOp19
 70
     1
102
RTVSPropertyOp20
 70
     1
102
RTVSPropertyOp21
 70
     1
102
RTVSPropertyOp22
 70
     1
102
RTVSPropertyOp23
 70
     1
102
RTVSPropertyOp24
 70
     1
102
RTVSPropertyOp25
 70
     1
102
RTVSPropertyOp26
 70
     1
102
RTVSPropertyOp27
 70
     1
102
RTVSPropertyOp28
 70
     1
102
RTVSPropertyOp29
 70
     1
102
RTVSPropertyOp30
 70
     1
102
RTVSPropertyOp31
 70
     1
102
RTVSPropertyOp32
 70
     1
  0
XRECORD
  5
9BD9
102
{ACAD_REACTORS
330
9BD8
102
}
330
9BD8
100
AcDbXrecord
280
     1
102
RTVSPropertyOp0
 70
     1
102
RTVSPropertyOp1
 70
     1
102
RTVSPropertyOp2
 70
     1
102
RTVSPropertyOp3
 70
     1
102
RTVSPropertyOp4
 70
     1
102
RTVSPropertyOp5
 70
     1
102
RTVSPropertyOp6
 70
     1
102
RTVSPropertyOp7
 70
     1
102
RTVSPropertyOp8
 70
     1
102
RTVSPropertyOp9
 70
     1
102
RTVSPropertyOp10
 70
     1
102
RTVSPropertyOp11
 70
     1
102
RTVSPropertyOp12
 70
     1
102
RTVSPropertyOp13
 70
     1
102
RTVSPropertyOp14
 70
     1
102
RTVSPropertyOp15
 70
     1
102
RTVSPropertyOp16
 70
     1
102
RTVSPropertyOp17
 70
     1
102
RTVSPropertyOp18
 70
     1
102
RTVSPropertyOp19
 70
     1
102
RTVSPropertyOp20
 70
     1
102
RTVSPropertyOp21
 70
     1
102
RTVSPropertyOp22
 70
     1
102
RTVSPropertyOp23
 70
     1
102
RTVSPropertyOp24
 70
     1
102
RTVSPropertyOp25
 70
     1
102
RTVSPropertyOp26
 70
     1
102
RTVSPropertyOp27
 70
     1
102
RTVSPropertyOp28
 70
     1
102
RTVSPropertyOp29
 70
     1
102
RTVSPropertyOp30
 70
     1
102
RTVSPropertyOp31
 70
     1
102
RTVSPropertyOp32
 70
     1
  0
XRECORD
  5
9BDB
102
{ACAD_REACTORS
330
9BDA
102
}
330
9BDA
100
AcDbXrecord
280
     1
102
RTVSPropertyOp0
 70
     1
102
RTVSPropertyOp1
 70
     1
102
RTVSPropertyOp2
 70
     1
102
RTVSPropertyOp3
 70
     1
102
RTVSPropertyOp4
 70
     1
102
RTVSPropertyOp5
 70
     1
102
RTVSPropertyOp6
 70
     1
102
RTVSPropertyOp7
 70
     1
102
RTVSPropertyOp8
 70
     1
102
RTVSPropertyOp9
 70
     1
102
RTVSPropertyOp10
 70
     1
102
RTVSPropertyOp11
 70
     1
102
RTVSPropertyOp12
 70
     1
102
RTVSPropertyOp13
 70
     1
102
RTVSPropertyOp14
 70
     1
102
RTVSPropertyOp15
 70
     1
102
RTVSPropertyOp16
 70
     1
102
RTVSPropertyOp17
 70
     1
102
RTVSPropertyOp18
 70
     1
102
RTVSPropertyOp19
 70
     1
102
RTVSPropertyOp20
 70
     1
102
RTVSPropertyOp21
 70
     1
102
RTVSPropertyOp22
 70
     1
102
RTVSPropertyOp23
 70
     1
102
RTVSPropertyOp24
 70
     1
102
RTVSPropertyOp25
 70
     1
102
RTVSPropertyOp26
 70
     1
102
RTVSPropertyOp27
 70
     1
102
RTVSPropertyOp28
 70
     1
102
RTVSPropertyOp29
 70
     1
102
RTVSPropertyOp30
 70
     1
102
RTVSPropertyOp31
 70
     1
102
RTVSPropertyOp32
 70
     1
  0
XRECORD
  5
9BDD
102
{ACAD_REACTORS
330
9BDC
102
}
330
9BDC
100
AcDbXrecord
280
     1
102
RTVSPropertyOp0
 70
     1
102
RTVSPropertyOp1
 70
     1
102
RTVSPropertyOp2
 70
     1
102
RTVSPropertyOp3
 70
     1
102
RTVSPropertyOp4
 70
     1
102
RTVSPropertyOp5
 70
     1
102
RTVSPropertyOp6
 70
     1
102
RTVSPropertyOp7
 70
     1
102
RTVSPropertyOp8
 70
     1
102
RTVSPropertyOp9
 70
     1
102
RTVSPropertyOp10
 70
     1
102
RTVSPropertyOp11
 70
     1
102
RTVSPropertyOp12
 70
     1
102
RTVSPropertyOp13
 70
     1
102
RTVSPropertyOp14
 70
     1
102
RTVSPropertyOp15
 70
     1
102
RTVSPropertyOp16
 70
     1
102
RTVSPropertyOp17
 70
     1
102
RTVSPropertyOp18
 70
     1
102
RTVSPropertyOp19
 70
     1
102
RTVSPropertyOp20
 70
     1
102
RTVSPropertyOp21
 70
     1
102
RTVSPropertyOp22
 70
     1
102
RTVSPropertyOp23
 70
     1
102
RTVSPropertyOp24
 70
     1
102
RTVSPropertyOp25
 70
     1
102
RTVSPropertyOp26
 70
     1
102
RTVSPropertyOp27
 70
     1
102
RTVSPropertyOp28
 70
     1
102
RTVSPropertyOp29
 70
     1
102
RTVSPropertyOp30
 70
     1
102
RTVSPropertyOp31
 70
     1
102
RTVSPropertyOp32
 70
     1
  0
XRECORD
  5
9BE5
102
{ACAD_REACTORS
330
9BE4
102
}
330
9BE4
100
AcDbXrecord
280
     1
102
RTVSPropertyOp0
 70
     1
102
RTVSPropertyOp1
 70
     1
102
RTVSPropertyOp2
 70
     1
102
RTVSPropertyOp3
 70
     1
102
RTVSPropertyOp4
 70
     1
102
RTVSPropertyOp5
 70
     1
102
RTVSPropertyOp6
 70
     1
102
RTVSPropertyOp7
 70
     1
102
RTVSPropertyOp8
 70
     1
102
RTVSPropertyOp9
 70
     1
102
RTVSPropertyOp10
 70
     1
102
RTVSPropertyOp11
 70
     1
102
RTVSPropertyOp12
 70
     1
102
RTVSPropertyOp13
 70
     1
102
RTVSPropertyOp14
 70
     1
102
RTVSPropertyOp15
 70
     1
102
RTVSPropertyOp16
 70
     1
102
RTVSPropertyOp17
 70
     1
102
RTVSPropertyOp18
 70
     1
102
RTVSPropertyOp19
 70
     1
102
RTVSPropertyOp20
 70
     1
102
RTVSPropertyOp21
 70
     1
102
RTVSPropertyOp22
 70
     1
102
RTVSPropertyOp23
 70
     1
102
RTVSPropertyOp24
 70
     1
102
RTVSPropertyOp25
 70
     1
102
RTVSPropertyOp26
 70
     1
102
RTVSPropertyOp27
 70
     1
102
RTVSPropertyOp28
 70
     1
102
RTVSPropertyOp29
 70
     1
102
RTVSPropertyOp30
 70
     1
102
RTVSPropertyOp31
 70
     1
102
RTVSPropertyOp32
 70
     1
  0
XRECORD
  5
9C01
102
{ACAD_REACTORS
330
9C00
102
}
330
9C00
100
AcDbXrecord
280
     1
102
RTVSPropertyOp0
 70
     0
102
RTVSPropertyOp1
 70
     0
102
RTVSPropertyOp2
 70
     0
102
RTVSPropertyOp3
 70
     0
102
RTVSPropertyOp4
 70
     0
102
RTVSPropertyOp5
 70
     0
102
RTVSPropertyOp6
 70
     0
102
RTVSPropertyOp7
 70
     0
102
RTVSPropertyOp8
 70
     0
102
RTVSPropertyOp9
 70
     0
102
RTVSPropertyOp10
 70
     0
102
RTVSPropertyOp11
 70
     0
102
RTVSPropertyOp12
 70
     0
102
RTVSPropertyOp13
 70
     0
102
RTVSPropertyOp14
 70
     2
102
RTVSPropertyOp15
 70
     0
102
RTVSPropertyOp16
 70
     0
102
RTVSPropertyOp17
 70
     0
102
RTVSPropertyOp18
 70
     0
102
RTVSPropertyOp19
 70
     0
102
RTVSPropertyOp20
 70
     0
102
RTVSPropertyOp21
 70
     0
102
RTVSPropertyOp22
 70
     0
102
RTVSPropertyOp23
 70
     0
102
RTVSPropertyOp24
 70
     0
102
RTVSPropertyOp25
 70
     0
102
RTVSPropertyOp26
 70
     0
102
RTVSPropertyOp27
 70
     0
102
RTVSPropertyOp28
 70
     0
102
RTVSPropertyOp29
 70
     0
102
RTVSPropertyOp30
 70
     0
102
RTVSPropertyOp31
 70
     0
102
RTVSPropertyOp32
 70
     0
  0
XRECORD
  5
9BF1
102
{ACAD_REACTORS
330
9BF0
102
}
330
9BF0
100
AcDbXrecord
280
     1
102
RTVSPropertyOp0
 70
     1
102
RTVSPropertyOp1
 70
     1
102
RTVSPropertyOp2
 70
     1
102
RTVSPropertyOp3
 70
     1
102
RTVSPropertyOp4
 70
     1
102
RTVSPropertyOp5
 70
     1
102
RTVSPropertyOp6
 70
     1
102
RTVSPropertyOp7
 70
     1
102
RTVSPropertyOp8
 70
     1
102
RTVSPropertyOp9
 70
     1
102
RTVSPropertyOp10
 70
     1
102
RTVSPropertyOp11
 70
     1
102
RTVSPropertyOp12
 70
     1
102
RTVSPropertyOp13
 70
     1
102
RTVSPropertyOp14
 70
     1
102
RTVSPropertyOp15
 70
     1
102
RTVSPropertyOp16
 70
     1
102
RTVSPropertyOp17
 70
     1
102
RTVSPropertyOp18
 70
     1
102
RTVSPropertyOp19
 70
     1
102
RTVSPropertyOp20
 70
     1
102
RTVSPropertyOp21
 70
     1
102
RTVSPropertyOp22
 70
     1
102
RTVSPropertyOp23
 70
     1
102
RTVSPropertyOp24
 70
     1
102
RTVSPropertyOp25
 70
     1
102
RTVSPropertyOp26
 70
     1
102
RTVSPropertyOp27
 70
     1
102
RTVSPropertyOp28
 70
     1
102
RTVSPropertyOp29
 70
     1
102
RTVSPropertyOp30
 70
     1
102
RTVSPropertyOp31
 70
     1
102
RTVSPropertyOp32
 70
     1
  0
XRECORD
  5
9C03
102
{ACAD_REACTORS
330
9C02
102
}
330
9C02
100
AcDbXrecord
280
     1
102
RTVSPropertyOp0
 70
     0
102
RTVSPropertyOp1
 70
     0
102
RTVSPropertyOp2
 70
     0
102
RTVSPropertyOp3
 70
     0
102
RTVSPropertyOp4
 70
     0
102
RTVSPropertyOp5
 70
     0
102
RTVSPropertyOp6
 70
     0
102
RTVSPropertyOp7
 70
     0
102
RTVSPropertyOp8
 70
     0
102
RTVSPropertyOp9
 70
     0
102
RTVSPropertyOp10
 70
     0
102
RTVSPropertyOp11
 70
     0
102
RTVSPropertyOp12
 70
     0
102
RTVSPropertyOp13
 70
     0
102
RTVSPropertyOp14
 70
     2
102
RTVSPropertyOp15
 70
     0
102
RTVSPropertyOp16
 70
     0
102
RTVSPropertyOp17
 70
     0
102
RTVSPropertyOp18
 70
     0
102
RTVSPropertyOp19
 70
     0
102
RTVSPropertyOp20
 70
     0
102
RTVSPropertyOp21
 70
     0
102
RTVSPropertyOp22
 70
     0
102
RTVSPropertyOp23
 70
     0
102
RTVSPropertyOp24
 70
     0
102
RTVSPropertyOp25
 70
     0
102
RTVSPropertyOp26
 70
     0
102
RTVSPropertyOp27
 70
     0
102
RTVSPropertyOp28
 70
     0
102
RTVSPropertyOp29
 70
     0
102
RTVSPropertyOp30
 70
     0
102
RTVSPropertyOp31
 70
     0
102
RTVSPropertyOp32
 70
     0
  0
XRECORD
  5
9BE9
102
{ACAD_REACTORS
330
9BE8
102
}
330
9BE8
100
AcDbXrecord
280
     1
102
RTVSPropertyOp0
 70
     1
102
RTVSPropertyOp1
 70
     1
102
RTVSPropertyOp2
 70
     1
102
RTVSPropertyOp3
 70
     1
102
RTVSPropertyOp4
 70
     1
102
RTVSPropertyOp5
 70
     1
102
RTVSPropertyOp6
 70
     1
102
RTVSPropertyOp7
 70
     1
102
RTVSPropertyOp8
 70
     1
102
RTVSPropertyOp9
 70
     1
102
RTVSPropertyOp10
 70
     1
102
RTVSPropertyOp11
 70
     1
102
RTVSPropertyOp12
 70
     1
102
RTVSPropertyOp13
 70
     1
102
RTVSPropertyOp14
 70
     1
102
RTVSPropertyOp15
 70
     1
102
RTVSPropertyOp16
 70
     1
102
RTVSPropertyOp17
 70
     1
102
RTVSPropertyOp18
 70
     1
102
RTVSPropertyOp19
 70
     1
102
RTVSPropertyOp20
 70
     1
102
RTVSPropertyOp21
 70
     1
102
RTVSPropertyOp22
 70
     1
102
RTVSPropertyOp23
 70
     1
102
RTVSPropertyOp24
 70
     1
102
RTVSPropertyOp25
 70
     1
102
RTVSPropertyOp26
 70
     1
102
RTVSPropertyOp27
 70
     1
102
RTVSPropertyOp28
 70
     1
102
RTVSPropertyOp29
 70
     1
102
RTVSPropertyOp30
 70
     1
102
RTVSPropertyOp31
 70
     1
102
RTVSPropertyOp32
 70
     1
  0
XRECORD
  5
9BFF
102
{ACAD_REACTORS
330
9BFE
102
}
330
9BFE
100
AcDbXrecord
280
     1
102
RTVSPropertyOp0
 70
     1
102
RTVSPropertyOp1
 70
     1
102
RTVSPropertyOp2
 70
     1
102
RTVSPropertyOp3
 70
     1
102
RTVSPropertyOp4
 70
     1
102
RTVSPropertyOp5
 70
     1
102
RTVSPropertyOp6
 70
     1
102
RTVSPropertyOp7
 70
     1
102
RTVSPropertyOp8
 70
     1
102
RTVSPropertyOp9
 70
     1
102
RTVSPropertyOp10
 70
     1
102
RTVSPropertyOp11
 70
     1
102
RTVSPropertyOp12
 70
     1
102
RTVSPropertyOp13
 70
     1
102
RTVSPropertyOp14
 70
     1
102
RTVSPropertyOp15
 70
     1
102
RTVSPropertyOp16
 70
     1
102
RTVSPropertyOp17
 70
     1
102
RTVSPropertyOp18
 70
     1
102
RTVSPropertyOp19
 70
     1
102
RTVSPropertyOp20
 70
     1
102
RTVSPropertyOp21
 70
     1
102
RTVSPropertyOp22
 70
     1
102
RTVSPropertyOp23
 70
     1
102
RTVSPropertyOp24
 70
     1
102
RTVSPropertyOp25
 70
     1
102
RTVSPropertyOp26
 70
     1
102
RTVSPropertyOp27
 70
     1
102
RTVSPropertyOp28
 70
     1
102
RTVSPropertyOp29
 70
     1
102
RTVSPropertyOp30
 70
     1
102
RTVSPropertyOp31
 70
     1
102
RTVSPropertyOp32
 70
     1
  0
XRECORD
  5
9BFD
102
{ACAD_REACTORS
330
9BFC
102
}
330
9BFC
100
AcDbXrecord
280
     1
102
RTVSPropertyOp0
 70
     1
102
RTVSPropertyOp1
 70
     1
102
RTVSPropertyOp2
 70
     1
102
RTVSPropertyOp3
 70
     1
102
RTVSPropertyOp4
 70
     1
102
RTVSPropertyOp5
 70
     1
102
RTVSPropertyOp6
 70
     1
102
RTVSPropertyOp7
 70
     1
102
RTVSPropertyOp8
 70
     1
102
RTVSPropertyOp9
 70
     1
102
RTVSPropertyOp10
 70
     1
102
RTVSPropertyOp11
 70
     1
102
RTVSPropertyOp12
 70
     1
102
RTVSPropertyOp13
 70
     1
102
RTVSPropertyOp14
 70
     1
102
RTVSPropertyOp15
 70
     1
102
RTVSPropertyOp16
 70
     1
102
RTVSPropertyOp17
 70
     1
102
RTVSPropertyOp18
 70
     1
102
RTVSPropertyOp19
 70
     1
102
RTVSPropertyOp20
 70
     1
102
RTVSPropertyOp21
 70
     1
102
RTVSPropertyOp22
 70
     1
102
RTVSPropertyOp23
 70
     1
102
RTVSPropertyOp24
 70
     1
102
RTVSPropertyOp25
 70
     1
102
RTVSPropertyOp26
 70
     1
102
RTVSPropertyOp27
 70
     1
102
RTVSPropertyOp28
 70
     1
102
RTVSPropertyOp29
 70
     1
102
RTVSPropertyOp30
 70
     1
102
RTVSPropertyOp31
 70
     1
102
RTVSPropertyOp32
 70
     1
  0
XRECORD
  5
9BF7
102
{ACAD_REACTORS
330
9BF6
102
}
330
9BF6
100
AcDbXrecord
280
     1
102
RTVSPropertyOp0
 70
     1
102
RTVSPropertyOp1
 70
     1
102
RTVSPropertyOp2
 70
     1
102
RTVSPropertyOp3
 70
     1
102
RTVSPropertyOp4
 70
     1
102
RTVSPropertyOp5
 70
     1
102
RTVSPropertyOp6
 70
     1
102
RTVSPropertyOp7
 70
     1
102
RTVSPropertyOp8
 70
     1
102
RTVSPropertyOp9
 70
     1
102
RTVSPropertyOp10
 70
     1
102
RTVSPropertyOp11
 70
     1
102
RTVSPropertyOp12
 70
     1
102
RTVSPropertyOp13
 70
     1
102
RTVSPropertyOp14
 70
     1
102
RTVSPropertyOp15
 70
     1
102
RTVSPropertyOp16
 70
     1
102
RTVSPropertyOp17
 70
     1
102
RTVSPropertyOp18
 70
     1
102
RTVSPropertyOp19
 70
     1
102
RTVSPropertyOp20
 70
     1
102
RTVSPropertyOp21
 70
     1
102
RTVSPropertyOp22
 70
     1
102
RTVSPropertyOp23
 70
     1
102
RTVSPropertyOp24
 70
     1
102
RTVSPropertyOp25
 70
     1
102
RTVSPropertyOp26
 70
     1
102
RTVSPropertyOp27
 70
     1
102
RTVSPropertyOp28
 70
     1
102
RTVSPropertyOp29
 70
     1
102
RTVSPropertyOp30
 70
     1
102
RTVSPropertyOp31
 70
     1
102
RTVSPropertyOp32
 70
     1
  0
XRECORD
  5
9BF9
102
{ACAD_REACTORS
330
9BF8
102
}
330
9BF8
100
AcDbXrecord
280
     1
102
RTVSPropertyOp0
 70
     1
102
RTVSPropertyOp1
 70
     1
102
RTVSPropertyOp2
 70
     1
102
RTVSPropertyOp3
 70
     1
102
RTVSPropertyOp4
 70
     1
102
RTVSPropertyOp5
 70
     1
102
RTVSPropertyOp6
 70
     1
102
RTVSPropertyOp7
 70
     1
102
RTVSPropertyOp8
 70
     1
102
RTVSPropertyOp9
 70
     1
102
RTVSPropertyOp10
 70
     1
102
RTVSPropertyOp11
 70
     1
102
RTVSPropertyOp12
 70
     1
102
RTVSPropertyOp13
 70
     1
102
RTVSPropertyOp14
 70
     1
102
RTVSPropertyOp15
 70
     1
102
RTVSPropertyOp16
 70
     1
102
RTVSPropertyOp17
 70
     1
102
RTVSPropertyOp18
 70
     1
102
RTVSPropertyOp19
 70
     1
102
RTVSPropertyOp20
 70
     1
102
RTVSPropertyOp21
 70
     1
102
RTVSPropertyOp22
 70
     1
102
RTVSPropertyOp23
 70
     1
102
RTVSPropertyOp24
 70
     1
102
RTVSPropertyOp25
 70
     1
102
RTVSPropertyOp26
 70
     1
102
RTVSPropertyOp27
 70
     1
102
RTVSPropertyOp28
 70
     1
102
RTVSPropertyOp29
 70
     1
102
RTVSPropertyOp30
 70
     1
102
RTVSPropertyOp31
 70
     1
102
RTVSPropertyOp32
 70
     1
  0
XRECORD
  5
9BEF
102
{ACAD_REACTORS
330
9BEE
102
}
330
9BEE
100
AcDbXrecord
280
     1
102
RTVSPropertyOp0
 70
     1
102
RTVSPropertyOp1
 70
     1
102
RTVSPropertyOp2
 70
     1
102
RTVSPropertyOp3
 70
     1
102
RTVSPropertyOp4
 70
     1
102
RTVSPropertyOp5
 70
     1
102
RTVSPropertyOp6
 70
     1
102
RTVSPropertyOp7
 70
     1
102
RTVSPropertyOp8
 70
     1
102
RTVSPropertyOp9
 70
     1
102
RTVSPropertyOp10
 70
     1
102
RTVSPropertyOp11
 70
     1
102
RTVSPropertyOp12
 70
     1
102
RTVSPropertyOp13
 70
     1
102
RTVSPropertyOp14
 70
     1
102
RTVSPropertyOp15
 70
     1
102
RTVSPropertyOp16
 70
     1
102
RTVSPropertyOp17
 70
     1
102
RTVSPropertyOp18
 70
     1
102
RTVSPropertyOp19
 70
     1
102
RTVSPropertyOp20
 70
     1
102
RTVSPropertyOp21
 70
     1
102
RTVSPropertyOp22
 70
     1
102
RTVSPropertyOp23
 70
     1
102
RTVSPropertyOp24
 70
     1
102
RTVSPropertyOp25
 70
     1
102
RTVSPropertyOp26
 70
     1
102
RTVSPropertyOp27
 70
     1
102
RTVSPropertyOp28
 70
     1
102
RTVSPropertyOp29
 70
     1
102
RTVSPropertyOp30
 70
     1
102
RTVSPropertyOp31
 70
     1
102
RTVSPropertyOp32
 70
     1
  0
XRECORD
  5
9BE3
102
{ACAD_REACTORS
330
9BE2
102
}
330
9BE2
100
AcDbXrecord
280
     1
102
RTVSPropertyOp0
 70
     1
102
RTVSPropertyOp1
 70
     1
102
RTVSPropertyOp2
 70
     1
102
RTVSPropertyOp3
 70
     1
102
RTVSPropertyOp4
 70
     1
102
RTVSPropertyOp5
 70
     1
102
RTVSPropertyOp6
 70
     1
102
RTVSPropertyOp7
 70
     1
102
RTVSPropertyOp8
 70
     1
102
RTVSPropertyOp9
 70
     1
102
RTVSPropertyOp10
 70
     1
102
RTVSPropertyOp11
 70
     1
102
RTVSPropertyOp12
 70
     1
102
RTVSPropertyOp13
 70
     1
102
RTVSPropertyOp14
 70
     1
102
RTVSPropertyOp15
 70
     1
102
RTVSPropertyOp16
 70
     1
102
RTVSPropertyOp17
 70
     1
102
RTVSPropertyOp18
 70
     1
102
RTVSPropertyOp19
 70
     1
102
RTVSPropertyOp20
 70
     1
102
RTVSPropertyOp21
 70
     1
102
RTVSPropertyOp22
 70
     1
102
RTVSPropertyOp23
 70
     1
102
RTVSPropertyOp24
 70
     1
102
RTVSPropertyOp25
 70
     1
102
RTVSPropertyOp26
 70
     1
102
RTVSPropertyOp27
 70
     1
102
RTVSPropertyOp28
 70
     1
102
RTVSPropertyOp29
 70
     1
102
RTVSPropertyOp30
 70
     1
102
RTVSPropertyOp31
 70
     1
102
RTVSPropertyOp32
 70
     1
  0
XRECORD
  5
9BFB
102
{ACAD_REACTORS
330
9BFA
102
}
330
9BFA
100
AcDbXrecord
280
     1
102
RTVSPropertyOp0
 70
     1
102
RTVSPropertyOp1
 70
     1
102
RTVSPropertyOp2
 70
     1
102
RTVSPropertyOp3
 70
     1
102
RTVSPropertyOp4
 70
     1
102
RTVSPropertyOp5
 70
     1
102
RTVSPropertyOp6
 70
     1
102
RTVSPropertyOp7
 70
     1
102
RTVSPropertyOp8
 70
     1
102
RTVSPropertyOp9
 70
     1
102
RTVSPropertyOp10
 70
     1
102
RTVSPropertyOp11
 70
     1
102
RTVSPropertyOp12
 70
     1
102
RTVSPropertyOp13
 70
     1
102
RTVSPropertyOp14
 70
     1
102
RTVSPropertyOp15
 70
     1
102
RTVSPropertyOp16
 70
     1
102
RTVSPropertyOp17
 70
     1
102
RTVSPropertyOp18
 70
     1
102
RTVSPropertyOp19
 70
     1
102
RTVSPropertyOp20
 70
     1
102
RTVSPropertyOp21
 70
     1
102
RTVSPropertyOp22
 70
     1
102
RTVSPropertyOp23
 70
     1
102
RTVSPropertyOp24
 70
     1
102
RTVSPropertyOp25
 70
     1
102
RTVSPropertyOp26
 70
     1
102
RTVSPropertyOp27
 70
     1
102
RTVSPropertyOp28
 70
     1
102
RTVSPropertyOp29
 70
     1
102
RTVSPropertyOp30
 70
     1
102
RTVSPropertyOp31
 70
     1
102
RTVSPropertyOp32
 70
     1
  0
ENDSEC
  0
EOF
