  0
SECTION
  2
HEADER
  9
$ACADVER
  1
AC1015
  9
$ACADMAINTVER
 70
    20
  9
$DWGCODEPAGE
  3
ANSI_932
  9
$INSBASE
 10
0.0
 20
0.0
 30
0.0
  9
$EXTMIN
 10
210.006196569778
 20
73.88112800344737
 30
0.0
  9
$EXTMAX
 10
408.0061965697779
 20
218.8811280034475
 30
2.0
  9
$LIMMIN
 10
0.0
 20
0.0
  9
$LIMMAX
 10
420.0
 20
297.0
  9
$ORTHOMODE
 70
     0
  9
$REGENMODE
 70
     1
  9
$FILLMODE
 70
     1
  9
$QTEXTMODE
 70
     0
  9
$MIRRTEXT
 70
     1
  9
$LTSCALE
 40
1.0
  9
$ATTMODE
 70
     1
  9
$TEXTSIZE
 40
2.5
  9
$TRACEWID
 40
1.0
  9
$TEXTSTYLE
  7
TXT
  9
$CLAYER
  8
mark
  9
$CELTYPE
  6
BYLAYER
  9
$CECOLOR
 62
   256
  9
$CELTSCALE
 40
1.0
  9
$DISPSILH
 70
     0
  9
$DIMSCALE
 40
0.0
  9
$DIMASZ
 40
1.25
  9
$DIMEXO
 40
1.0
  9
$DIMDLI
 40
3.0
  9
$DIMRND
 40
0.0
  9
$DIMDLE
 40
0.0
  9
$DIMEXE
 40
0.5
  9
$DIMTP
 40
0.0
  9
$DIMTM
 40
0.0
  9
$DIMTXT
 40
1.75
  9
$DIMCEN
 40
0.0
  9
$DIMTSZ
 40
0.0
  9
$DIMTOL
 70
     0
  9
$DIMLIM
 70
     0
  9
$DIMTIH
 70
     0
  9
$DIMTOH
 70
     0
  9
$DIMSE1
 70
     0
  9
$DIMSE2
 70
     0
  9
$DIMTAD
 70
     3
  9
$DIMZIN
 70
     8
  9
$DIMBLK
  1

  9
$DIMASO
 70
     1
  9
$DIMSHO
 70
     1
  9
$DIMPOST
  1

  9
$DIMAPOST
  1

  9
$DIMALT
 70
     0
  9
$DIMALTD
 70
     2
  9
$DIMALTF
 40
25.4
  9
$DIMLFAC
 40
1.0
  9
$DIMTOFL
 70
     0
  9
$DIMTVP
 40
0.0
  9
$DIMTIX
 70
     0
  9
$DIMSOXD
 70
     0
  9
$DIMSAH
 70
     0
  9
$DIMBLK1
  1

  9
$DIMBLK2
  1

  9
$DIMSTYLE
  2
A
  9
$DIMCLRD
 70
     6
  9
$DIMCLRE
 70
     6
  9
$DIMCLRT
 70
     3
  9
$DIMTFAC
 40
1.0
  9
$DIMGAP
 40
0.5
  9
$DIMJUST
 70
     0
  9
$DIMSD1
 70
     0
  9
$DIMSD2
 70
     0
  9
$DIMTOLJ
 70
     1
  9
$DIMTZIN
 70
     8
  9
$DIMALTZ
 70
     0
  9
$DIMALTTZ
 70
     0
  9
$DIMUPT
 70
     0
  9
$DIMDEC
 70
     1
  9
$DIMTDEC
 70
     1
  9
$DIMALTU
 70
     2
  9
$DIMALTTD
 70
     2
  9
$DIMTXSTY
  7
TXT
  9
$DIMAUNIT
 70
     0
  9
$DIMADEC
 70
     0
  9
$DIMALTRND
 40
0.0
  9
$DIMAZIN
 70
     0
  9
$DIMDSEP
 70
    46
  9
$DIMATFIT
 70
     3
  9
$DIMFRAC
 70
     0
  9
$DIMLDRBLK
  1

  9
$DIMLUNIT
 70
     2
  9
$DIMLWD
 70
    -2
  9
$DIMLWE
 70
    -2
  9
$DIMTMOVE
 70
     1
  9
$LUNITS
 70
     2
  9
$LUPREC
 70
     2
  9
$SKETCHINC
 40
1.0
  9
$FILLETRAD
 40
1.5
  9
$AUNITS
 70
     0
  9
$AUPREC
 70
     2
  9
$MENU
  1
.
  9
$ELEVATION
 40
0.0
  9
$PELEVATION
 40
0.0
  9
$THICKNESS
 40
0.0
  9
$LIMCHECK
 70
     0
  9
$CHAMFERA
 40
0.0
  9
$CHAMFERB
 40
0.0
  9
$CHAMFERC
 40
1.75
  9
$CHAMFERD
 40
0.0174532925199433
  9
$SKPOLY
 70
     0
  9
$TDCREATE
 40
2451555.620234838
  9
$TDUCREATE
 40
2451555.245234838
  9
$TDUPDATE
 40
2457828.682601748
  9
$TDUUPDATE
 40
2457828.307601748
  9
$TDINDWG
 40
2.6954645718
  9
$TDUSRTIMER
 40
2.6954645718
  9
$USRTIMER
 70
     1
  9
$ANGBASE
 50
0.0
  9
$ANGDIR
 70
     0
  9
$PDMODE
 70
     0
  9
$PDSIZE
 40
0.0
  9
$PLINEWID
 40
0.0
  9
$SPLFRAME
 70
     0
  9
$SPLINETYPE
 70
     6
  9
$SPLINESEGS
 70
     8
  9
$HANDSEED
  5
9A7F
  9
$SURFTAB1
 70
     6
  9
$SURFTAB2
 70
     6
  9
$SURFTYPE
 70
     6
  9
$SURFU
 70
     6
  9
$SURFV
 70
     6
  9
$UCSBASE
  2

  9
$UCSNAME
  2

  9
$UCSORG
 10
0.0
 20
0.0
 30
0.0
  9
$UCSXDIR
 10
1.0
 20
0.0
 30
0.0
  9
$UCSYDIR
 10
0.0
 20
1.0
 30
0.0
  9
$UCSORTHOREF
  2

  9
$UCSORTHOVIEW
 70
     0
  9
$UCSORGTOP
 10
0.0
 20
0.0
 30
0.0
  9
$UCSORGBOTTOM
 10
0.0
 20
0.0
 30
0.0
  9
$UCSORGLEFT
 10
0.0
 20
0.0
 30
0.0
  9
$UCSORGRIGHT
 10
0.0
 20
0.0
 30
0.0
  9
$UCSORGFRONT
 10
0.0
 20
0.0
 30
0.0
  9
$UCSORGBACK
 10
0.0
 20
0.0
 30
0.0
  9
$PUCSBASE
  2

  9
$PUCSNAME
  2

  9
$PUCSORG
 10
0.0
 20
0.0
 30
0.0
  9
$PUCSXDIR
 10
1.0
 20
0.0
 30
0.0
  9
$PUCSYDIR
 10
0.0
 20
1.0
 30
0.0
  9
$PUCSORTHOREF
  2

  9
$PUCSORTHOVIEW
 70
     0
  9
$PUCSORGTOP
 10
0.0
 20
0.0
 30
0.0
  9
$PUCSORGBOTTOM
 10
0.0
 20
0.0
 30
0.0
  9
$PUCSORGLEFT
 10
0.0
 20
0.0
 30
0.0
  9
$PUCSORGRIGHT
 10
0.0
 20
0.0
 30
0.0
  9
$PUCSORGFRONT
 10
0.0
 20
0.0
 30
0.0
  9
$PUCSORGBACK
 10
0.0
 20
0.0
 30
0.0
  9
$USERI1
 70
     0
  9
$USERI2
 70
     0
  9
$USERI3
 70
     0
  9
$USERI4
 70
     0
  9
$USERI5
 70
     0
  9
$USERR1
 40
0.0
  9
$USERR2
 40
0.0
  9
$USERR3
 40
0.0
  9
$USERR4
 40
0.0
  9
$USERR5
 40
0.0
  9
$WORLDVIEW
 70
     1
  9
$SHADEDGE
 70
     3
  9
$SHADEDIF
 70
    70
  9
$TILEMODE
 70
     1
  9
$MAXACTVP
 70
    48
  9
$PINSBASE
 10
0.0
 20
0.0
 30
0.0
  9
$PLIMCHECK
 70
     0
  9
$PEXTMIN
 10
1.000000000000000E+20
 20
1.000000000000000E+20
 30
1.000000000000000E+20
  9
$PEXTMAX
 10
-1.000000000000000E+20
 20
-1.000000000000000E+20
 30
-1.000000000000000E+20
  9
$PLIMMIN
 10
0.0
 20
0.0
  9
$PLIMMAX
 10
420.0
 20
297.0
  9
$UNITMODE
 70
     0
  9
$VISRETAIN
 70
     1
  9
$PLINEGEN
 70
     0
  9
$PSLTSCALE
 70
     1
  9
$TREEDEPTH
 70
  3020
  9
$CMLSTYLE
  2
STANDARD
  9
$CMLJUST
 70
     0
  9
$CMLSCALE
 40
20.0
  9
$PROXYGRAPHICS
 70
     1
  9
$MEASUREMENT
 70
     1
  9
$CELWEIGHT
370
    -1
  9
$ENDCAPS
280
     0
  9
$JOINSTYLE
280
     0
  9
$LWDISPLAY
290
     0
  9
$INSUNITS
 70
     0
  9
$HYPERLINKBASE
  1

  9
$STYLESHEET
  1
LIN.ctb
  9
$XEDIT
290
     1
  9
$CEPSNTYPE
380
     0
  9
$PSTYLEMODE
290
     1
  9
$FINGERPRINTGUID
  2
{1CF51E8A-A506-11D4-A7D9-AF69F5C20846}
  9
$VERSIONGUID
  2
{833D0DE2-6ACD-4697-8A78-D709195E6C35}
  9
$EXTNAMES
290
     1
  9
$PSVPSCALE
 40
0.0
  9
$OLESTARTUP
290
     0
  0
ENDSEC
  0
SECTION
  2
CLASSES
  0
CLASS
  1
DICTIONARYVAR
  2
AcDbDictionaryVar
  3
ObjectDBX Classes
 90
        0
280
     0
281
     0
  0
CLASS
  1
SORTENTSTABLE
  2
AcDbSortentsTable
  3
ObjectDBX Classes
 90
        0
280
     0
281
     0
  0
CLASS
  1
HATCH
  2
AcDbHatch
  3
ObjectDBX Classes
 90
        0
280
     0
281
     1
  0
CLASS
  1
LWPOLYLINE
  2
AcDbPolyline
  3
ObjectDBX Classes
 90
        0
280
     0
281
     1
  0
CLASS
  1
ACDBDICTIONARYWDFLT
  2
AcDbDictionaryWithDefault
  3
ObjectDBX Classes
 90
        0
280
     0
281
     0
  0
CLASS
  1
ACDBPLACEHOLDER
  2
AcDbPlaceHolder
  3
ObjectDBX Classes
 90
        0
280
     0
281
     0
  0
CLASS
  1
LAYOUT
  2
AcDbLayout
  3
ObjectDBX Classes
 90
        0
280
     0
281
     0
  0
CLASS
  1
LONG_TRANSACTION
  2
AcDbLongTransaction
  3
ObjectDBX Classes
 90
    32768
280
     0
281
     0
  0
CLASS
  1
LWPOLYLINE
  2
AcDbPolyline
  3
ObjectDBX Classes
 90
        0
280
     0
281
     1
  0
CLASS
  1
HATCH
  2
AcDbHatch
  3
ObjectDBX Classes
 90
        0
280
     0
281
     1
  0
CLASS
  1
XRECORD
  2
AcDbXrecord
  3
ObjectDBX Classes
 90
        0
280
     0
281
     0
  0
CLASS
  1
TABLESTYLE
  2
AcDbTableStyle
  3
ObjectDBX Classes
 90
     2047
280
     0
281
     0
  0
CLASS
  1
MATERIAL
  2
AcDbMaterial
  3
ObjectDBX Classes
 90
        0
280
     0
281
     0
  0
CLASS
  1
VISUALSTYLE
  2
AcDbVisualStyle
  3
ObjectDBX Classes
 90
     4095
280
     0
281
     0
  0
CLASS
  1
SCALE
  2
AcDbScale
  3
ObjectDBX Classes
 90
     1153
280
     0
281
     0
  0
CLASS
  1
MLEADERSTYLE
  2
AcDbMLeaderStyle
  3
ACDB_MLEADERSTYLE_CLASS
 90
     4095
280
     0
281
     0
  0
CLASS
  1
ACME_DOCUMENT
  2
AcMeDbDoc
  3
AcMeServices
 90
    33792
280
     0
281
     0
  0
CLASS
  1
AMGSETTINGSOBJ
  2
AmgSettingsObj
  3
"AcadM|Product Description: AutoCAD Mechanical|Company: Autodesk, Inc."
 90
    33792
280
     0
281
     0
  0
CLASS
  1
ACMESCOPE
  2
AcMeScope
  3
AcMeServices
 90
    33792
280
     0
281
     0
  0
CLASS
  1
ACMECOMMANDHISTORY
  2
AcMeCommandHistory
  3
AcMeServices
 90
    33792
280
     0
281
     0
  0
CLASS
  1
ACIMSYSVARMAN
  2
AcImSysVarManager
  3
AcMeServices
 90
    33792
280
     0
281
     0
  0
CLASS
  1
ACIMINTSYSVAR
  2
AcImIntSysVar
  3
AcMeServices
 90
    33792
280
     0
281
     0
  0
CLASS
  1
ACMESTATEMGR
  2
AcMeStateMgr
  3
AcMeServices
 90
    33792
280
     0
281
     0
  0
CLASS
  1
ACDBENTITYCACHE
  2
AcMeEntityCache
  3
AcMeServices
 90
    33792
280
     0
281
     0
  0
CLASS
  1
ACGREFMASTER
  2
AcGrefMaster
  3
AcAttribServices
 90
    33792
280
     0
281
     0
  0
CLASS
  1
AM_DRAWING_MGR
  2
AcDmDwgMgr
  3
AcMechDwgViewMgmt
 90
    33792
280
     0
281
     0
  0
CLASS
  1
AM_DWG_DOCUMENT
  2
AcDmDwgDocument
  3
AcMechDwgViewMgmt
 90
    33792
280
     0
281
     0
  0
CLASS
  1
AM_DWG_SHEET
  2
AcDmSheet
  3
AcMechDwgViewMgmt
 90
    33792
280
     0
281
     0
  0
CLASS
  1
AM_VIEWDIMPARMAP
  2
AcDmViewDimParMap
  3
AcMechDwgViewMgmt
 90
    33792
280
     0
281
     0
  0
CLASS
  1
AMDTINTERNALREACTOR
  2
AmdtInternalReactor
  3
AcMeServices
 90
    33792
280
     0
281
     0
  0
CLASS
  1
ACIMREALSYSVAR
  2
AcImRealSysVar
  3
AcMeServices
 90
    33792
280
     0
281
     0
  0
CLASS
  1
AM_DWGMGR_NAME
  2
AcDmDwgMgrName
  3
AcMechDwgViewMgmt
 90
    33792
280
     0
281
     0
  0
CLASS
  1
ACME_DATABASE
  2
AcMeDbDatabase
  3
AcMeServices
 90
    33792
280
     0
281
     0
  0
CLASS
  1
ACRFINSADJUSTERMGR
  2
AcRfInsAdjusterMgr
  3
AcMeServices
 90
    33792
280
     0
281
     0
  0
CLASS
  1
ACGREFACADMASTER
  2
AcGrefacadMaster
  3
AcGrefServices
 90
    33792
280
     0
281
     0
  0
CLASS
  1
AMDTMENUSTATEMGR
  2
AmdtMenuStateMgr
  3
McadcomServices
 90
    33792
280
     0
281
     0
  0
CLASS
  1
AMDTMCOMMENUSTATE
  2
AmdtMcomMenuState
  3
McadcomServices
 90
    33792
280
     0
281
     0
  0
CLASS
  1
AMIMASTER
  2
AmiMaster
  3
AmiServices
 90
    33792
280
     0
281
     0
  0
CLASS
  1
MAPIAMMOUDLE
  2
MApiAmModule
  3
MApiAmServices
 90
    33792
280
     0
281
     0
  0
CLASS
  1
ACIMSTRSYSVAR
  2
AcImStrSysVar
  3
AcMeServices
 90
    33792
280
     0
281
     0
  0
CLASS
  1
AMDTDMMENUSTATE
  2
AmdtDmMenuState
  3
AcMechDwgViewMgmt
 90
    33792
280
     0
281
     0
  0
CLASS
  1
AMDTAMMENUSTATE
  2
AmdtAmMenuState
  3
DesignerAssemblies
 90
    33792
280
     0
281
     0
  0
CLASS
  1
ACAMPROJECT
  2
AcAmProject
  3
DesignerAssemblies
 90
    33792
280
     0
281
     0
  0
CLASS
  1
ACAMGRCOMPDEF
  2
AcAmGrCompDef
  3
DesignerAssemblies
 90
    33792
280
     0
281
     0
  0
CLASS
  1
ACAMCOMPDEF
  2
AcAmCompDef
  3
DesignerAssemblies
 90
    33792
280
     0
281
     0
  0
CLASS
  1
ACAMCOMPDEFMGR
  2
AcAmCompDefMgr
  3
DesignerAssemblies
 90
    33792
280
     0
281
     0
  0
CLASS
  1
AMCONTEXTMGR
  2
AcAmContextMgr
  3
DesignerAssemblies
 90
    33792
280
     0
281
     0
  0
CLASS
  1
ACAMCONTEXTMODELER
  2
AcAmContextModeler
  3
DesignerAssemblies
 90
    33792
280
     0
281
     0
  0
CLASS
  1
ACMDATADICTIONARY
  2
AcmDataDictionary
  3
"AcmSymBB|Product Description: AutoCAD Mechanical|Company: Autodesk, Inc."
 90
    33792
280
     0
281
     0
  0
CLASS
  1
ACAMGRCOMPDEFSET
  2
AcAmGrCompDefSet
  3
DesignerAssemblies
 90
    33792
280
     0
281
     0
  0
CLASS
  1
AMDTBROWSERDBTAB
  2
AmdtBrowserDbTab
  3
McadcomServices
 90
    33792
280
     0
281
     0
  0
CLASS
  1
CBROWSERAPPOBJECT
  2
CBrowserAppObject
  3
McadcomServices
 90
    33792
280
     0
281
     0
  0
CLASS
  1
DM_PLACEHOLDER
  2
AcDmSelsetPlaceholder
  3
AcMechDwgViewMgmt
 90
    33792
280
     0
281
     0
  0
CLASS
  1
EXACXREFPANELOBJECT
  2
ExAcXREFPanelObject
  3
EXAC_ESW
 90
    33793
280
     0
281
     0
  0
CLASS
  1
NPOCOLLECTION
  2
AcDbImpNonPersistentObjectsCollection
  3
ObjectDBX Classes
 90
    33921
280
     0
281
     0
  0
CLASS
  1
ACMSTANDARDISO
  2
AcmStandardISO
  3
"Amdt_StdImp|Product Description: AutoCAD Mechanical|Company: Autodesk, Inc."
 90
    33792
280
     0
281
     0
  0
CLASS
  1
AMDTEDGESTANDARDISO13715
  2
AmdtEdgeStdISO13715
  3
"Amdt_StdImp|Product Description: AutoCAD Mechanical|Company: Autodesk, Inc."
 90
    33792
280
     0
281
     0
  0
CLASS
  1
ACMSURFSTANDARDISO2002
  2
AcmSurfTextStdISO2002
  3
"Amdt_StdImp|Product Description: AutoCAD Mechanical|Company: Autodesk, Inc."
 90
    33792
280
     0
281
     0
  0
CLASS
  1
ACMFCFSTANDARDISO
  2
AcmFCFStdISO
  3
"Amdt_StdImp|Product Description: AutoCAD Mechanical|Company: Autodesk, Inc."
 90
    33792
280
     0
281
     0
  0
CLASS
  1
ACMWELDSTANDARDISO
  2
AcmWeldingStdISO
  3
"Amdt_StdImp|Product Description: AutoCAD Mechanical|Company: Autodesk, Inc."
 90
    33792
280
     0
281
     0
  0
CLASS
  1
ACMIDSTANDARDISO
  2
AcmIdStdISO
  3
"Amdt_StdImp|Product Description: AutoCAD Mechanical|Company: Autodesk, Inc."
 90
    33792
280
     0
281
     0
  0
CLASS
  1
ACMDATUMSTANDARDISO
  2
AcmDatumStdISO
  3
"Amdt_StdImp|Product Description: AutoCAD Mechanical|Company: Autodesk, Inc."
 90
    33792
280
     0
281
     0
  0
CLASS
  1
ACMBOMSTANDARDISO
  2
AcmBOMStdISO
  3
"Amdt_StdImp|Product Description: AutoCAD Mechanical|Company: Autodesk, Inc."
 90
    33792
280
     0
281
     0
  0
CLASS
  1
ACMDETAILSTANDARDISO
  2
AmdtDetailSymStdISO
  3
"Amdt_StdImp|Product Description: AutoCAD Mechanical|Company: Autodesk, Inc."
 90
    33792
280
     0
281
     0
  0
CLASS
  1
ACMSECTIONSTANDARDISO2001
  2
AmdtSectionSymStdISO2001
  3
"Amdt_StdImp|Product Description: AutoCAD Mechanical|Company: Autodesk, Inc."
 90
    33792
280
     0
281
     0
  0
CLASS
  1
ACMCENTERLINESTANDARDISO
  2
AmdtCenterLineStdISO
  3
"Amdt_StdImp|Product Description: AutoCAD Mechanical|Company: Autodesk, Inc."
 90
    33792
280
     0
281
     0
  0
CLASS
  1
ACMTHREADLINESTANDARDISO
  2
AmdtThreadLineStdISO
  3
"Amdt_StdImp|Product Description: AutoCAD Mechanical|Company: Autodesk, Inc."
 90
    33792
280
     0
281
     0
  0
CLASS
  1
ACMNOTESTANDARDISO
  2
AmdtNoteStdISO
  3
"Amdt_StdImp|Product Description: AutoCAD Mechanical|Company: Autodesk, Inc."
 90
    33792
280
     0
281
     0
  0
CLASS
  1
ACMTAPERSTANDARDISO
  2
AcmTaperStdISO
  3
"Amdt_StdImp|Product Description: AutoCAD Mechanical|Company: Autodesk, Inc."
 90
    33792
280
     0
281
     0
  0
CLASS
  1
ACMANOOTATIONVIEWSTANDARDISO
  2
AmdtAnViewStdISO
  3
"Amdt_StdImp|Product Description: AutoCAD Mechanical|Company: Autodesk, Inc."
 90
    33792
280
     0
281
     0
  0
CLASS
  1
ACAMGLAYSTD
  2
AcAmgLayStd
  3
"AmgLay|Product Description: AutoCAD Mechanical|Company: Autodesk, Inc."
 90
    33792
280
     0
281
     0
  0
CLASS
  1
ACAMGDIMSTD
  2
AcAmgDimStd
  3
"AmgDim|Product Description: AutoCAD Mechanical|Company: Autodesk, Inc."
 90
    33792
280
     0
281
     0
  0
CLASS
  1
AMGOBJPROPCFG
  2
AmgObjPropCfg
  3
"AmgLay|Product Description: AutoCAD Mechanical|Company: Autodesk, Inc."
 90
    33793
280
     0
281
     0
  0
CLASS
  1
ACAMGHOLECHARTSTDISO
  2
AcAmgHoleChartStdISO
  3
AmgDim|Product Description: AutoCAD Mechanical|Company: Autodesk, Inc.
 90
    33792
280
     0
281
     0
  0
CLASS
  1
ACAMGTITLESTD
  2
AcAmgTitleStd
  3
"AmgTitle|Product Description: AutoCAD Mechanical|Company: Autodesk, Inc."
 90
    36863
280
     0
281
     0
  0
CLASS
  1
AMDTNOTETEMPLATEDB
  2
AmdtNoteTemplateDB
  3
AcmSymBB|Product Description: AutoCAD Mechanical|Company: Autodesk, Inc.
 90
    33792
280
     0
281
     0
  0
CLASS
  1
ACAMGFILTERDAT
  2
AcAmgFilterDat
  3
"AcadM|Product Description: AutoCAD Mechanical|Company: Autodesk, Inc."
 90
    33792
280
     0
281
     0
  0
CLASS
  1
CELLSTYLEMAP
  2
AcDbCellStyleMap
  3
ObjectDBX Classes
 90
     1152
280
     0
281
     0
  0
ENDSEC
  0
SECTION
  2
TABLES
  0
TABLE
  2
VPORT
  5
8
102
{ACAD_XDICTIONARY
360
9996
102
}
330
0
100
AcDbSymbolTable
 70
     2
  0
VPORT
  5
9A78
330
8
100
AcDbSymbolTableRecord
100
AcDbViewportTableRecord
  2
*Active
 70
     0
 10
0.0
 20
0.0
 11
1.0
 21
1.0
 12
400.3576437246748
 22
151.4281892978234
 13
0.0
 23
0.0
 14
10.0
 24
10.0
 15
10.0
 25
10.0
 16
0.0
 26
0.0
 36
1.0
 17
0.0
 27
0.0
 37
0.0
 40
233.6329667723251
 41
2.647181628392484
 42
50.0
 43
0.0
 44
0.0
 50
0.0
 51
0.0
 71
     0
 72
   100
 73
     1
 74
     1
 75
     0
 76
     0
 77
     0
 78
     0
281
     0
 65
     1
110
0.0
120
0.0
130
0.0
111
1.0
121
0.0
131
0.0
112
0.0
122
1.0
132
0.0
 79
     0
146
0.0
  0
ENDTAB
  0
TABLE
  2
LTYPE
  5
5
330
0
100
AcDbSymbolTable
 70
    20
  0
LTYPE
  5
12
330
5
100
AcDbSymbolTableRecord
100
AcDbLinetypeTableRecord
  2
BYBLOCK
 70
     0
  3

 72
    65
 73
     0
 40
0.0
  0
LTYPE
  5
13
330
5
100
AcDbSymbolTableRecord
100
AcDbLinetypeTableRecord
  2
BYLAYER
 70
     0
  3

 72
    65
 73
     0
 40
0.0
  0
LTYPE
  5
14
330
5
100
AcDbSymbolTableRecord
100
AcDbLinetypeTableRecord
  2
CONTINUOUS
 70
     0
  3
Solid line
 72
    65
 73
     0
 40
0.0
  0
LTYPE
  5
9D
330
5
100
AcDbSymbolTableRecord
100
AcDbLinetypeTableRecord
  2
CENTERX2
 70
     0
  3
Center (2x) ________  __  ________  __  _____
 72
    65
 73
     4
 40
101.6
 49
63.5
 74
     0
 49
-12.7
 74
     0
 49
12.7
 74
     0
 49
-12.7
 74
     0
  0
LTYPE
  5
A1
330
5
100
AcDbSymbolTableRecord
100
AcDbLinetypeTableRecord
  2
DASHED
 70
     0
  3
Dashed __ __ __ __ __ __ __ __ __ __ __ __ __ _
 72
    65
 73
     2
 40
19.05
 49
12.7
 74
     0
 49
-6.349999999999999
 74
     0
  0
LTYPE
  5
A2
330
5
100
AcDbSymbolTableRecord
100
AcDbLinetypeTableRecord
  2
DASHED2
 70
     0
  3
Dashed (.5x) _ _ _ _ _ _ _ _ _ _ _ _ _ _ _ _ _
 72
    65
 73
     2
 40
9.524999999999998
 49
6.349999999999999
 74
     0
 49
-3.174999999999999
 74
     0
  0
LTYPE
  5
A5
330
5
100
AcDbSymbolTableRecord
100
AcDbLinetypeTableRecord
  2
DIVIDE2
 70
     0
  3
Divide (.5x) __..__..__..__..__..__..__..__.._
 72
    65
 73
     6
 40
15.875
 49
6.349999999999999
 74
     0
 49
-3.174999999999999
 74
     0
 49
0.0
 74
     0
 49
-3.174999999999999
 74
     0
 49
0.0
 74
     0
 49
-3.174999999999999
 74
     0
  0
LTYPE
  5
650B
330
5
100
AcDbSymbolTableRecord
100
AcDbLinetypeTableRecord
  2
CENTER
 70
     0
  3
Center ____ _ ____ _ ____ _ ____ _ ____ _ ____
 72
    65
 73
     4
 40
50.8
 49
31.75
 74
     0
 49
-6.349999999999999
 74
     0
 49
6.349999999999999
 74
     0
 49
-6.349999999999999
 74
     0
  0
LTYPE
  5
650C
330
5
100
AcDbSymbolTableRecord
100
AcDbLinetypeTableRecord
  2
HIDDEN
 70
     0
  3
Hidden __ __ __ __ __ __ __ __ __ __ __ __ __ _
 72
    65
 73
     2
 40
9.524999999999998
 49
6.349999999999999
 74
     0
 49
-3.174999999999999
 74
     0
  0
LTYPE
  5
6684
330
5
100
AcDbSymbolTableRecord
100
AcDbLinetypeTableRecord
  2
HIDDEN2
 70
     0
  3
Hidden (.5x) _ _ _ _ _ _ _ _ _ _ _ _ _ _ _ _ _
 72
    65
 73
     2
 40
4.762499999999999
 49
3.174999999999999
 74
     0
 49
-1.587499999999999
 74
     0
  0
LTYPE
  5
6AF9
330
5
100
AcDbSymbolTableRecord
100
AcDbLinetypeTableRecord
  2
ACAD_ISO03W100
 70
     0
  3
ISO dash space __    __    __    __    __    __
 72
    65
 73
     2
 40
30.0
 49
12.0
 74
     0
 49
-18.0
 74
     0
  0
LTYPE
  5
96C0
330
5
100
AcDbSymbolTableRecord
100
AcDbLinetypeTableRecord
  2
PHANTOM2
 70
     0
  3
Phantom (.5x) ___ _ _ ___ _ _ ___ _ _ ___ _ _
 72
    65
 73
     6
 40
31.75
 49
15.875
 74
     0
 49
-3.174999999999999
 74
     0
 49
3.174999999999999
 74
     0
 49
-3.174999999999999
 74
     0
 49
3.174999999999999
 74
     0
 49
-3.174999999999999
 74
     0
  0
LTYPE
  5
9700
330
5
100
AcDbSymbolTableRecord
100
AcDbLinetypeTableRecord
  2
AM_ISO02W050
 70
     0
  3
__ __ __ __ __ __ __ __ __ __ __ __ __ __ __
 72
    65
 73
     2
 40
7.5
 49
6.0
 74
     0
 49
-1.5
 74
     0
  0
LTYPE
  5
9701
330
5
100
AcDbSymbolTableRecord
100
AcDbLinetypeTableRecord
  2
AM_ISO08W050
 70
     0
  3
____ . ____ . ____ . ____ . ____ . ____ . ____
 72
    65
 73
     4
 40
18.0
 49
12.0
 74
     0
 49
-1.5
 74
     0
 49
3.0
 74
     0
 49
-1.5
 74
     0
  0
LTYPE
  5
9702
330
5
100
AcDbSymbolTableRecord
100
AcDbLinetypeTableRecord
  2
AM_ISO09W050
 70
     0
  3
_____ . . _____ . . _____ . . ____ .. ____
 72
    65
 73
     6
 40
22.5
 49
12.0
 74
     0
 49
-1.5
 74
     0
 49
3.0
 74
     0
 49
-1.5
 74
     0
 49
3.0
 74
     0
 49
-1.5
 74
     0
  0
LTYPE
  5
9703
330
5
100
AcDbSymbolTableRecord
100
AcDbLinetypeTableRecord
  2
Amconstr
 70
     0
  3
_______________________
 72
    65
 73
     2
 40
9999.0
 49
9999.0
 74
     0
 49
0.0
 74
     0
  0
LTYPE
  5
9704
330
5
100
AcDbSymbolTableRecord
100
AcDbLinetypeTableRecord
  2
AM_ISO08W050x2
 70
     0
  3
__ . __ . __ . __ . __ . __
 72
    65
 73
     4
 40
9.0
 49
6.0
 74
     0
 49
-0.75
 74
     0
 49
1.5
 74
     0
 49
-0.75
 74
     0
  0
LTYPE
  5
9705
330
5
100
AcDbSymbolTableRecord
100
AcDbLinetypeTableRecord
  2
AM_ISO02W050x2
 70
     0
  3
 _ _ _ _ _ _ _ _ _ _ _ _
 72
    65
 73
     2
 40
3.75
 49
3.0
 74
     0
 49
-0.75
 74
     0
  0
LTYPE
  5
9708
330
5
100
AcDbSymbolTableRecord
100
AcDbLinetypeTableRecord
  2
Amzigzag
 70
     0
  3
/\/-/\/-/\/-/\/-/\/-/\/
 72
    65
 73
     2
 40
11.0001
 49
0.0001
 74
     4
 75
   136
340
9707
 46
0.04
 50
0.0
 44
0.0
 45
0.0
 49
-11.0
 74
     0
  0
LTYPE
  5
9717
330
5
100
AcDbSymbolTableRecord
100
AcDbLinetypeTableRecord
  2
ACISOWELD
 70
     0
  3
_ _ _ _ _
 72
    65
 73
     2
 40
2.0
 49
2.0
 74
     0
 49
-1.0
 74
     0
  0
LTYPE
  5
9718
330
5
100
AcDbSymbolTableRecord
100
AcDbLinetypeTableRecord
  2
ACISOTGB
 70
     0
  3
__ . . __ . .
 72
    65
 73
     6
 40
9.0
 49
4.0
 74
     0
 49
-1.0
 74
     0
 49
1.0
 74
     0
 49
-1.0
 74
     0
 49
1.0
 74
     0
 49
-1.0
 74
     0
  0
LTYPE
  5
9719
330
5
100
AcDbSymbolTableRecord
100
AcDbLinetypeTableRecord
  2
ACISOTGL
 70
     0
  3
_ _ _ _ _
 72
    65
 73
     2
 40
3.0
 49
2.0
 74
     0
 49
-1.0
 74
     0
  0
ENDTAB
  0
TABLE
  2
LAYER
  5
2
330
0
100
AcDbSymbolTable
 70
    10
  0
LAYER
  5
E
102
{ACAD_XDICTIONARY
360
9980
102
}
330
2
100
AcDbSymbolTableRecord
100
AcDbLayerTableRecord
  2
0
 70
     0
 62
     7
  6
CONTINUOUS
370
    -3
390
5CF2
  0
LAYER
  5
B9
102
{ACAD_XDICTIONARY
360
9982
102
}
330
2
100
AcDbSymbolTableRecord
100
AcDbLayerTableRecord
  2
DIM
 70
     0
 62
     3
  6
CONTINUOUS
370
    -3
390
5CF2
  0
LAYER
  5
F2
330
2
100
AcDbSymbolTableRecord
100
AcDbLayerTableRecord
  2
DEFPOINTS
 70
     0
 62
     7
  6
CONTINUOUS
290
     0
370
    -3
390
5CF2
  0
LAYER
  5
5F8B
102
{ACAD_XDICTIONARY
360
9984
102
}
330
2
100
AcDbSymbolTableRecord
100
AcDbLayerTableRecord
  2
公差
 70
     0
 62
     6
  6
CONTINUOUS
370
    -3
390
5CF2
1001
ACADSTRINGINFO
1000
MIFCodePage
1070
     1
  0
LAYER
  5
644E
102
{ACAD_XDICTIONARY
360
9986
102
}
330
2
100
AcDbSymbolTableRecord
100
AcDbLayerTableRecord
  2
図框線
 70
     0
 62
     9
  6
CONTINUOUS
370
    -3
390
5CF2
1001
ACADSTRINGINFO
1000
MIFCodePage
1070
     1
  0
LAYER
  5
650D
102
{ACAD_XDICTIONARY
360
9988
102
}
330
2
100
AcDbSymbolTableRecord
100
AcDbLayerTableRecord
  2
中心線
 70
     0
 62
     1
  6
CENTER
370
    -3
390
5CF2
1001
ACADSTRINGINFO
1000
MIFCodePage
1070
     1
  0
LAYER
  5
650E
102
{ACAD_XDICTIONARY
360
998A
102
}
330
2
100
AcDbSymbolTableRecord
100
AcDbLayerTableRecord
  2
本体内線
 70
     0
 62
     4
  6
HIDDEN
370
    -3
390
5CF2
1001
ACADSTRINGINFO
1000
MIFCodePage
1070
     1
  0
LAYER
  5
650F
102
{ACAD_XDICTIONARY
360
998C
102
}
330
2
100
AcDbSymbolTableRecord
100
AcDbLayerTableRecord
  2
本体外線
 70
     0
 62
     2
  6
CONTINUOUS
370
    -3
390
5CF2
1001
ACADSTRINGINFO
1000
MIFCodePage
1070
     1
  0
LAYER
  5
6510
102
{ACAD_XDICTIONARY
360
998E
102
}
330
2
100
AcDbSymbolTableRecord
100
AcDbLayerTableRecord
  2
剖面線
 70
     0
 62
     5
  6
CONTINUOUS
370
    -3
390
5CF2
1001
ACADSTRINGINFO
1000
MIFCodePage
1070
     1
  0
LAYER
  5
95E4
102
{ACAD_XDICTIONARY
360
9990
102
}
330
2
100
AcDbSymbolTableRecord
100
AcDbLayerTableRecord
  2
mark
 70
     0
 62
     6
  6
CONTINUOUS
370
    -3
390
5CF2
  0
ENDTAB
  0
TABLE
  2
STYLE
  5
3
330
0
100
AcDbSymbolTable
 70
     8
  0
STYLE
  5
F
330
3
100
AcDbSymbolTableRecord
100
AcDbTextStyleTableRecord
  2
STANDARD
 70
     0
 40
0.0
 41
1.0
 50
0.0
 71
     0
 42
2.5
  3
txt
  4

  0
STYLE
  5
BE
330
3
100
AcDbSymbolTableRecord
100
AcDbTextStyleTableRecord
  2
ISOCP3
 70
     0
 40
0.0
 41
1.0
 50
0.0
 71
     0
 42
2.5
  3
isocp3.shx
  4

  0
STYLE
  5
2A37
330
3
100
AcDbSymbolTableRecord
100
AcDbTextStyleTableRecord
  2
TXT
 70
     0
 40
0.0
 41
1.0
 50
0.0
 71
     0
 42
2.5
  3
txt.shx
  4
bigfont.shx
  0
STYLE
  5
5DCB
330
3
100
AcDbSymbolTableRecord
100
AcDbTextStyleTableRecord
  2
LKK
 70
     0
 40
50.0
 41
1.5
 50
0.0
 71
     0
 42
50.0
  3
MS PGothic.ttf
  4

1001
ACAD
1000
MS PGothic
1071
    32818
  0
STYLE
  5
5DCC
330
3
100
AcDbSymbolTableRecord
100
AcDbTextStyleTableRecord
  2
JL
 70
     0
 40
10.0
 41
0.5
 50
0.0
 71
     0
 42
5.0
  3
MS Mincho.ttf
  4

1001
ACAD
1000
MS Mincho
1071
    32785
  0
STYLE
  5
9707
330
3
100
AcDbSymbolTableRecord
100
AcDbTextStyleTableRecord
  2

 70
     1
 40
0.0
 41
1.0
 50
0.0
 71
     0
 42
2.5
  3
genltshp.shx
  4

  0
STYLE
  5
9715
330
3
100
AcDbSymbolTableRecord
100
AcDbTextStyleTableRecord
  2
ACISOTS
 70
     0
 40
1.0
 41
1.0
 50
0.0
 71
     0
 42
2.5
  3
isocp.shx
  4
chineset.shx
  0
STYLE
  5
9716
330
3
100
AcDbSymbolTableRecord
100
AcDbTextStyleTableRecord
  2
ACISOGDT
 70
     0
 40
0.0
 41
1.0
 50
0.0
 71
     0
 42
2.5
  3
amgdt.shx
  4

  0
ENDTAB
  0
TABLE
  2
VIEW
  5
6
330
0
100
AcDbSymbolTable
 70
     0
  0
ENDTAB
  0
TABLE
  2
UCS
  5
7
330
0
100
AcDbSymbolTable
 70
     0
  0
ENDTAB
  0
TABLE
  2
APPID
  5
9
330
0
100
AcDbSymbolTable
 70
    21
  0
APPID
  5
10
330
9
100
AcDbSymbolTableRecord
100
AcDbRegAppTableRecord
  2
ACAD
 70
     0
  0
APPID
  5
95C1
330
9
100
AcDbSymbolTableRecord
100
AcDbRegAppTableRecord
  2
ACAD_PSEXT
 70
     0
  0
APPID
  5
9602
330
9
100
AcDbSymbolTableRecord
100
AcDbRegAppTableRecord
  2
ACAD_EXEMPT_FROM_CAD_STANDARDS
 70
     0
  0
APPID
  5
961C
330
9
100
AcDbSymbolTableRecord
100
AcDbRegAppTableRecord
  2
ACAD_DSTYLE_DIMEXT_LENGTH
 70
     0
  0
APPID
  5
961D
330
9
100
AcDbSymbolTableRecord
100
AcDbRegAppTableRecord
  2
ACAD_DSTYLE_DIMEXT_ENABLED
 70
     0
  0
APPID
  5
961E
330
9
100
AcDbSymbolTableRecord
100
AcDbRegAppTableRecord
  2
ACAD_DSTYLE_DIMJOGGED_JOGANGLE_SYMBOL
 70
     0
  0
APPID
  5
961F
330
9
100
AcDbSymbolTableRecord
100
AcDbRegAppTableRecord
  2
ACAD_DSTYLE_DIMARC_LENGTH_SYMBOL
 70
     0
  0
APPID
  5
9686
330
9
100
AcDbSymbolTableRecord
100
AcDbRegAppTableRecord
  2
ACADSTRINGINFO
 70
     0
  0
APPID
  5
9697
330
9
100
AcDbSymbolTableRecord
100
AcDbRegAppTableRecord
  2
MCAD_NO_VIS
 70
     0
  0
APPID
  5
9698
330
9
100
AcDbSymbolTableRecord
100
AcDbRegAppTableRecord
  2
ACAD_TEMP_GRAPHIC
 70
     0
  0
APPID
  5
96C2
330
9
100
AcDbSymbolTableRecord
100
AcDbRegAppTableRecord
  2
AD_DRAW
 70
     0
  0
APPID
  5
96C5
330
9
100
AcDbSymbolTableRecord
100
AcDbRegAppTableRecord
  2
ACATTRIBSERVICES
 70
     0
  0
APPID
  5
96DE
330
9
100
AcDbSymbolTableRecord
100
AcDbRegAppTableRecord
  2
DESIGNERASSEMBLIES
 70
     0
  0
APPID
  5
96E3
330
9
100
AcDbSymbolTableRecord
100
AcDbRegAppTableRecord
  2
ACADM_DIM_EDIT
 70
     0
  0
APPID
  5
96E4
330
9
100
AcDbSymbolTableRecord
100
AcDbRegAppTableRecord
  2
AMDT_DM_ADJ
 70
     0
  0
APPID
  5
96FD
330
9
100
AcDbSymbolTableRecord
100
AcDbRegAppTableRecord
  2
ACAD_DSTYLE_DIMJAG
 70
     0
  0
APPID
  5
96FE
330
9
100
AcDbSymbolTableRecord
100
AcDbRegAppTableRecord
  2
ACAD_DSTYLE_DIMBREAK
 70
     0
  0
APPID
  5
9A20
330
9
100
AcDbSymbolTableRecord
100
AcDbRegAppTableRecord
  2
ACAD_MLEADERVER
 70
     0
  0
APPID
  5
9A21
330
9
100
AcDbSymbolTableRecord
100
AcDbRegAppTableRecord
  2
ACAD_DSTYLE_DIM_LINETYPE
 70
     0
  0
APPID
  5
9A22
330
9
100
AcDbSymbolTableRecord
100
AcDbRegAppTableRecord
  2
ACAD_DSTYLE_DIM_EXT1_LINETYPE
 70
     0
  0
APPID
  5
9A23
330
9
100
AcDbSymbolTableRecord
100
AcDbRegAppTableRecord
  2
ACAD_DSTYLE_DIM_EXT2_LINETYPE
 70
     0
  0
ENDTAB
  0
TABLE
  2
DIMSTYLE
  5
A
330
0
100
AcDbSymbolTable
 70
    10
100
AcDbDimStyleTable
 71
     1
340
1A4
  0
DIMSTYLE
105
1D
330
A
100
AcDbSymbolTableRecord
100
AcDbDimStyleTableRecord
  2
STANDARD
 70
     0
 41
3.0
 42
0.06
 77
     3
140
4.0
144
0.3333333333333333
172
     1
340
F
  0
DIMSTYLE
105
1A4
102
{ACAD_REACTORS
330
9824
330
9808
330
978C
330
978D
330
978E
330
9791
330
9795
330
979B
330
979C
330
979F
330
97A0
330
979A
102
}
330
A
100
AcDbSymbolTableRecord
100
AcDbDimStyleTableRecord
  2
A
 70
     0
 41
1.25
 42
1.0
 43
3.0
 44
0.5
 73
     0
 74
     0
 77
     3
 78
     8
140
1.75
141
0.0
147
0.5
176
     6
177
     6
178
     3
271
     1
272
     1
279
     1
284
     8
340
2A37
  0
DIMSTYLE
105
6006
330
A
100
AcDbSymbolTableRecord
100
AcDbDimStyleTableRecord
  2
ISO-25
 70
     0
 40
0.0
 41
2.0
 42
0.3
 43
1.0
 44
0.3
 73
     0
 74
     0
 77
     1
 78
     8
140
3.0
147
1.0
172
     1
176
     6
177
     6
178
     3
271
     1
272
     2
284
     8
288
     1
289
     2
340
F
  0
DIMSTYLE
105
96FC
330
A
100
AcDbSymbolTableRecord
100
AcDbDimStyleTableRecord
  2
AM_ISO
 70
     0
  4
"
 41
3.5
 42
1.0
 43
10.0
 44
1.0
 47
0.1
 48
0.1
 73
     0
 74
     0
 77
     1
 78
     8
 79
     2
140
3.5
141
0.0
143
0.0393701
146
0.71
147
1.5
172
     1
176
   256
177
   256
178
     2
271
     2
272
     3
274
     4
283
     0
284
     8
340
F
371
    -1
372
    -1
1001
ACAD_DSTYLE_DIMJAG
1070
   388
1040
1.5
1001
ACAD_DSTYLE_DIMBREAK
1070
   391
1040
3.75
1001
ACAD_DSTYLE_DIMARC_LENGTH_SYMBOL
1070
   379
1070
     1
1001
ACAD_DSTYLE_DIM_LINETYPE
1070
   380
1005
12
1001
ACAD_DSTYLE_DIM_EXT1_LINETYPE
1070
   381
1005
12
1001
ACAD_DSTYLE_DIM_EXT2_LINETYPE
1070
   382
1005
12
  0
DIMSTYLE
105
9709
330
A
100
AcDbSymbolTableRecord
100
AcDbDimStyleTableRecord
  2
AM_ISO$3
 70
     0
  4
"
 41
3.5
 42
1.0
 43
10.0
 44
1.0
 47
0.1
 48
0.1
 73
     0
 77
     1
 78
     8
 79
     2
140
3.5
141
0.0
143
0.0393701
146
0.71
147
1.5
176
   256
177
   256
178
     2
271
     2
272
     3
274
     4
283
     0
284
     8
288
     1
289
     0
340
F
371
    -1
372
    -1
1001
ACAD_DSTYLE_DIMBREAK
1070
   391
1040
3.75
1001
ACAD_DSTYLE_DIMJAG
1070
   388
1040
1.5
1001
ACAD_DSTYLE_DIMARC_LENGTH_SYMBOL
1070
   379
1070
     1
1001
ACAD_DSTYLE_DIM_LINETYPE
1070
   380
1005
12
1001
ACAD_DSTYLE_DIM_EXT1_LINETYPE
1070
   381
1005
12
1001
ACAD_DSTYLE_DIM_EXT2_LINETYPE
1070
   382
1005
12
  0
DIMSTYLE
105
970A
330
A
100
AcDbSymbolTableRecord
100
AcDbDimStyleTableRecord
  2
AM_ISO$4
 70
     0
  4
"
 41
3.5
 42
1.0
 43
10.0
 44
1.0
 47
0.1
 48
0.1
 73
     0
 77
     1
 78
     8
 79
     2
140
3.5
141
0.0
143
0.0393701
146
0.71
147
1.5
176
   256
177
   256
178
     2
271
     2
272
     3
274
     4
283
     0
284
     8
288
     1
289
     0
340
F
371
    -1
372
    -1
1001
ACAD_DSTYLE_DIMBREAK
1070
   391
1040
3.75
1001
ACAD_DSTYLE_DIMJAG
1070
   388
1040
1.5
1001
ACAD_DSTYLE_DIMARC_LENGTH_SYMBOL
1070
   379
1070
     1
1001
ACAD_DSTYLE_DIM_LINETYPE
1070
   380
1005
12
1001
ACAD_DSTYLE_DIM_EXT1_LINETYPE
1070
   381
1005
12
1001
ACAD_DSTYLE_DIM_EXT2_LINETYPE
1070
   382
1005
12
  0
DIMSTYLE
105
970B
330
A
100
AcDbSymbolTableRecord
100
AcDbDimStyleTableRecord
  2
AM_ISO$6
 70
     0
  4
"
 41
3.5
 42
1.0
 43
10.0
 44
1.0
 47
0.1
 48
0.1
 73
     0
 74
     0
 78
     8
 79
     2
140
3.5
141
0.0
143
0.0393701
146
0.71
147
1.5
172
     1
176
   256
177
   256
178
     2
271
     2
272
     3
274
     4
283
     0
284
     8
340
F
371
    -1
372
    -1
1001
ACAD_DSTYLE_DIMBREAK
1070
   391
1040
3.75
1001
ACAD_DSTYLE_DIMJAG
1070
   388
1040
1.5
1001
ACAD_DSTYLE_DIMARC_LENGTH_SYMBOL
1070
   379
1070
     1
1001
ACAD_DSTYLE_DIM_LINETYPE
1070
   380
1005
12
1001
ACAD_DSTYLE_DIM_EXT1_LINETYPE
1070
   381
1005
12
1001
ACAD_DSTYLE_DIM_EXT2_LINETYPE
1070
   382
1005
12
  0
DIMSTYLE
105
970C
330
A
100
AcDbSymbolTableRecord
100
AcDbDimStyleTableRecord
  2
AM_ISO$7
 70
     0
  4
"
 41
3.5
 42
1.0
 43
10.0
 44
1.0
 47
0.1
 48
0.1
 73
     0
 74
     0
 77
     1
 78
     8
 79
     2
140
3.5
141
0.0
143
0.0393701
146
0.71
147
1.5
172
     1
176
   256
177
   256
178
     2
271
     2
272
     3
274
     4
283
     0
284
     8
340
F
371
    -1
372
    -1
1001
ACAD_DSTYLE_DIMBREAK
1070
   391
1040
3.75
1001
ACAD_DSTYLE_DIMJAG
1070
   388
1040
1.5
1001
ACAD_DSTYLE_DIMARC_LENGTH_SYMBOL
1070
   379
1070
     1
1001
ACAD_DSTYLE_DIM_LINETYPE
1070
   380
1005
12
1001
ACAD_DSTYLE_DIM_EXT1_LINETYPE
1070
   381
1005
12
1001
ACAD_DSTYLE_DIM_EXT2_LINETYPE
1070
   382
1005
12
  0
DIMSTYLE
105
970D
330
A
100
AcDbSymbolTableRecord
100
AcDbDimStyleTableRecord
  2
AM_ISO$SF
 70
     0
  4
"
 41
3.5
 42
1.0
 43
10.0
 44
1.0
 47
0.1
 48
0.1
 73
     0
 74
     0
 75
     1
 76
     1
 77
     1
 78
     8
 79
     2
140
3.5
141
0.0
143
0.0393701
146
0.71
147
1.5
172
     1
176
   256
177
   256
178
     2
271
     2
272
     3
274
     4
283
     0
284
     8
340
F
371
    -1
372
    -1
1001
ACAD_DSTYLE_DIMBREAK
1070
   391
1040
3.75
1001
ACAD_DSTYLE_DIMJAG
1070
   388
1040
1.5
1001
ACAD_DSTYLE_DIMARC_LENGTH_SYMBOL
1070
   379
1070
     1
1001
ACAD_DSTYLE_DIM_LINETYPE
1070
   380
1005
12
1001
ACAD_DSTYLE_DIM_EXT1_LINETYPE
1070
   381
1005
12
1001
ACAD_DSTYLE_DIM_EXT2_LINETYPE
1070
   382
1005
12
  0
DIMSTYLE
105
9712
330
A
100
AcDbSymbolTableRecord
100
AcDbDimStyleTableRecord
  2
AM_ISO$SH
 70
     0
  4
"
 41
3.5
 42
1.0
 43
10.0
 44
1.0
 47
0.1
 48
0.1
 73
     0
 74
     0
 75
     1
 76
     1
 77
     1
 78
     8
 79
     2
140
3.5
141
0.0
143
0.0393701
144
2.0
146
0.71
147
1.5
172
     1
173
     1
176
   256
177
   256
178
     2
271
     2
272
     3
274
     4
283
     0
284
     8
340
F
343
970E
371
    -1
372
    -1
1001
ACAD_DSTYLE_DIMBREAK
1070
   391
1040
3.75
1001
ACAD_DSTYLE_DIMJAG
1070
   388
1040
1.5
1001
ACAD_DSTYLE_DIMARC_LENGTH_SYMBOL
1070
   379
1070
     1
1001
ACAD_DSTYLE_DIM_LINETYPE
1070
   380
1005
12
1001
ACAD_DSTYLE_DIM_EXT1_LINETYPE
1070
   381
1005
12
1001
ACAD_DSTYLE_DIM_EXT2_LINETYPE
1070
   382
1005
12
  0
ENDTAB
  0
TABLE
  2
BLOCK_RECORD
  5
1
330
0
100
AcDbSymbolTable
 70
    29
  0
BLOCK_RECORD
  5
18
102
{ACAD_XDICTIONARY
360
45F
102
}
330
1
100
AcDbSymbolTableRecord
100
AcDbBlockTableRecord
  2
*MODEL_SPACE
340
5CF5
  0
BLOCK_RECORD
  5
15
102
{ACAD_XDICTIONARY
360
5D89
102
}
330
1
100
AcDbSymbolTableRecord
100
AcDbBlockTableRecord
  2
*PAPER_SPACE
340
5CF6
  0
BLOCK_RECORD
  5
639D
330
1
100
AcDbSymbolTableRecord
100
AcDbBlockTableRecord
  2
A$C255C26A2
340
0
102
{BLKREFS
331
972C
102
}
  0
BLOCK_RECORD
  5
6EDF
330
1
100
AcDbSymbolTableRecord
100
AcDbBlockTableRecord
  2
*D1
340
0
  0
BLOCK_RECORD
  5
7058
330
1
100
AcDbSymbolTableRecord
100
AcDbBlockTableRecord
  2
*D2
340
0
  0
BLOCK_RECORD
  5
780C
330
1
100
AcDbSymbolTableRecord
100
AcDbBlockTableRecord
  2
*D3
340
0
  0
BLOCK_RECORD
  5
897F
330
1
100
AcDbSymbolTableRecord
100
AcDbBlockTableRecord
  2
*D4
340
0
  0
BLOCK_RECORD
  5
8A78
330
1
100
AcDbSymbolTableRecord
100
AcDbBlockTableRecord
  2
*D5
340
0
  0
BLOCK_RECORD
  5
8CD0
330
1
100
AcDbSymbolTableRecord
100
AcDbBlockTableRecord
  2
*D6
340
0
  0
BLOCK_RECORD
  5
8CE8
330
1
100
AcDbSymbolTableRecord
100
AcDbBlockTableRecord
  2
*D7
340
0
  0
BLOCK_RECORD
  5
8D0F
330
1
100
AcDbSymbolTableRecord
100
AcDbBlockTableRecord
  2
*D8
340
0
  0
BLOCK_RECORD
  5
8D2B
330
1
100
AcDbSymbolTableRecord
100
AcDbBlockTableRecord
  2
_DOTSMALL
340
0
  0
BLOCK_RECORD
  5
8DDC
330
1
100
AcDbSymbolTableRecord
100
AcDbBlockTableRecord
  2
*D10
340
0
  0
BLOCK_RECORD
  5
8E04
330
1
100
AcDbSymbolTableRecord
100
AcDbBlockTableRecord
  2
*D11
340
0
  0
BLOCK_RECORD
  5
942F
330
1
100
AcDbSymbolTableRecord
100
AcDbBlockTableRecord
  2
*D12
340
0
  0
BLOCK_RECORD
  5
9515
330
1
100
AcDbSymbolTableRecord
100
AcDbBlockTableRecord
  2
*D13
340
0
  0
BLOCK_RECORD
  5
95E0
330
1
100
AcDbSymbolTableRecord
100
AcDbBlockTableRecord
  2
_NONE
340
0
  0
BLOCK_RECORD
  5
9616
330
1
100
AcDbSymbolTableRecord
100
AcDbBlockTableRecord
  2
_Open30
340
0
  0
BLOCK_RECORD
  5
970E
330
1
100
AcDbSymbolTableRecord
100
AcDbBlockTableRecord
  2
GENAXEH
340
0
  0
BLOCK_RECORD
  5
9841
330
1
100
AcDbSymbolTableRecord
100
AcDbBlockTableRecord
  2
*D17
340
0
  0
BLOCK_RECORD
  5
984F
330
1
100
AcDbSymbolTableRecord
100
AcDbBlockTableRecord
  2
*D18
340
0
  0
BLOCK_RECORD
  5
985D
330
1
100
AcDbSymbolTableRecord
100
AcDbBlockTableRecord
  2
*D19
340
0
  0
BLOCK_RECORD
  5
9869
330
1
100
AcDbSymbolTableRecord
100
AcDbBlockTableRecord
  2
*D20
340
0
  0
BLOCK_RECORD
  5
9875
330
1
100
AcDbSymbolTableRecord
100
AcDbBlockTableRecord
  2
*D21
340
0
  0
BLOCK_RECORD
  5
9884
330
1
100
AcDbSymbolTableRecord
100
AcDbBlockTableRecord
  2
*D22
340
0
  0
BLOCK_RECORD
  5
9890
330
1
100
AcDbSymbolTableRecord
100
AcDbBlockTableRecord
  2
*D23
340
0
  0
BLOCK_RECORD
  5
989D
330
1
100
AcDbSymbolTableRecord
100
AcDbBlockTableRecord
  2
*D24
340
0
  0
BLOCK_RECORD
  5
98A9
330
1
100
AcDbSymbolTableRecord
100
AcDbBlockTableRecord
  2
*D25
340
0
  0
BLOCK_RECORD
  5
98B5
330
1
100
AcDbSymbolTableRecord
100
AcDbBlockTableRecord
  2
*D26
340
0
  0
BLOCK_RECORD
  5
98C3
330
1
100
AcDbSymbolTableRecord
100
AcDbBlockTableRecord
  2
*D27
340
0
  0
BLOCK_RECORD
  5
98CD
330
1
100
AcDbSymbolTableRecord
100
AcDbBlockTableRecord
  2
*D28
340
0
  0
ENDTAB
  0
ENDSEC
  0
SECTION
  2
BLOCKS
  0
BLOCK
  5
19
330
18
100
AcDbEntity
  8
0
100
AcDbBlockBegin
  2
*MODEL_SPACE
 70
     0
 10
0.0
 20
0.0
 30
0.0
  3
*MODEL_SPACE
  1

  0
ENDBLK
  5
1A
330
18
100
AcDbEntity
  8
0
100
AcDbBlockEnd
  0
BLOCK
  5
16
330
15
100
AcDbEntity
 67
     1
  8
0
100
AcDbBlockBegin
  2
*PAPER_SPACE
 70
     0
 10
0.0
 20
0.0
 30
0.0
  3
*PAPER_SPACE
  1

  0
ENDBLK
  5
17
330
15
100
AcDbEntity
 67
     1
  8
0
100
AcDbBlockEnd
  0
BLOCK
  5
63A1
330
639D
100
AcDbEntity
  8
0
100
AcDbBlockBegin
  2
A$C255C26A2
 70
     0
 10
0.0
 20
0.0
 30
0.0
  3
A$C255C26A2
  1

  0
LWPOLYLINE
  5
639E
330
639D
100
AcDbEntity
  8
0
100
AcDbPolyline
 90
        3
 70
     1
 43
0.0
 10
7.014806023851633
 20
0.0000006939811783
 10
5.611844869720698
 20
2.430000693981241
 10
8.417767177982568
 20
2.430000693981241
  0
LWPOLYLINE
  5
639F
330
639D
100
AcDbEntity
  8
0
100
AcDbPolyline
 90
        3
 70
     1
 43
0.0
 10
4.20888371558999
 20
0.0000006939811783
 10
2.805922561459283
 20
2.430000693981241
 10
5.611844869720698
 20
2.430000693981241
  0
LWPOLYLINE
  5
63A0
330
639D
100
AcDbEntity
  8
0
100
AcDbPolyline
 90
        3
 70
     1
 43
0.0
 10
1.402961407328348
 20
0.0000006939811783
 10
0.0000002531974133
 20
2.430000693981241
 10
2.805922561459283
 20
2.430000693981241
  0
ENDBLK
  5
63A2
330
639D
100
AcDbEntity
  8
0
100
AcDbBlockEnd
  0
BLOCK
  5
94CC
330
6EDF
100
AcDbEntity
  8
0
100
AcDbBlockBegin
  2
*D1
 70
     1
 10
0.0
 20
0.0
 30
0.0
  3
*D1
  1

  0
LINE
  5
94CD
330
6EDF
100
AcDbEntity
  8
0
  6
ByBlock
 62
     6
100
AcDbLine
 10
347.1388510435334
 20
121.8651908687526
 30
0.0
 11
347.1388510435334
 21
143.5082486329021
 31
0.0
  0
LINE
  5
94CE
330
6EDF
100
AcDbEntity
  8
0
  6
ByBlock
 62
     6
100
AcDbLine
 10
380.1388510435334
 20
121.8651908687526
 30
0.0
 11
380.1388510435334
 21
143.5082486329021
 31
0.0
  0
LINE
  5
94CF
330
6EDF
100
AcDbEntity
  8
0
  6
ByBlock
 62
     6
100
AcDbLine
 10
348.3888510435333
 20
143.0082486329022
 30
0.0
 11
378.8888510435334
 21
143.0082486329022
 31
0.0
  0
MTEXT
  5
94D0
330
6EDF
100
AcDbEntity
  8
0
  6
ByBlock
 62
     3
100
AcDbMText
 10
359.5691698721532
 20
144.7296804759
 30
0.0
 40
1.75
 41
0.0
 71
     5
 72
     1
  1
\A1;\U+220533
  7
TXT
 73
     1
 44
1.0
1001
ACAD
1000
MTEXTBEGIN
1070
    73
1070
     1
1070
    44
1040
1.0
1070
    74
1070
     0
1000
MTEXTEND
  0
SOLID
  5
94D1
330
6EDF
100
AcDbEntity
  8
0
  6
ByBlock
 62
     6
100
AcDbTrace
 10
348.3888510435333
 20
143.2165819662355
 30
0.0
 11
348.3888510435333
 21
142.7999152995688
 31
0.0
 12
347.1388510435334
 22
143.0082486329022
 32
0.0
 13
347.1388510435334
 23
143.0082486329022
 33
0.0
  0
SOLID
  5
94D2
330
6EDF
100
AcDbEntity
  8
0
  6
ByBlock
 62
     6
100
AcDbTrace
 10
378.8888510435334
 20
143.2165819662355
 30
0.0
 11
378.8888510435334
 21
142.7999152995688
 31
0.0
 12
380.1388510435334
 22
143.0082486329022
 32
0.0
 13
380.1388510435334
 23
143.0082486329022
 33
0.0
  0
POINT
  5
94D3
330
6EDF
100
AcDbEntity
  8
DEFPOINTS
  6
ByBlock
 62
     0
100
AcDbPoint
 10
347.1388510435334
 20
120.8651908687526
 30
0.0
  0
POINT
  5
94D4
330
6EDF
100
AcDbEntity
  8
DEFPOINTS
  6
ByBlock
 62
     0
100
AcDbPoint
 10
380.1388510435334
 20
120.8651908687526
 30
0.0
  0
POINT
  5
94D5
330
6EDF
100
AcDbEntity
  8
DEFPOINTS
  6
ByBlock
 62
     0
100
AcDbPoint
 10
380.1388510435334
 20
143.0082486329022
 30
0.0
  0
ENDBLK
  5
94D6
330
6EDF
100
AcDbEntity
  8
0
100
AcDbBlockEnd
  0
BLOCK
  5
94B6
330
7058
100
AcDbEntity
  8
0
100
AcDbBlockBegin
  2
*D2
 70
     1
 10
0.0
 20
0.0
 30
0.0
  3
*D2
  1

  0
LINE
  5
94B7
330
7058
100
AcDbEntity
  8
0
  6
ByBlock
 62
     6
100
AcDbLine
 10
349.6388510435334
 20
126.3085665417267
 30
0.0
 11
349.6388510435334
 21
139.1658536730852
 31
0.0
  0
LINE
  5
94B8
330
7058
100
AcDbEntity
  8
0
  6
ByBlock
 62
     6
100
AcDbLine
 10
377.6388510435333
 20
126.3085665417267
 30
0.0
 11
377.6388510435333
 21
139.1658536730852
 31
0.0
  0
LINE
  5
94B9
330
7058
100
AcDbEntity
  8
0
  6
ByBlock
 62
     6
100
AcDbLine
 10
350.8888510435334
 20
138.6658536730852
 30
0.0
 11
376.3888510435334
 21
138.6658536730852
 31
0.0
  0
SOLID
  5
94BA
330
7058
100
AcDbEntity
  8
0
  6
ByBlock
 62
     6
100
AcDbTrace
 10
350.8888510435334
 20
138.8741870064185
 30
0.0
 11
350.8888510435334
 21
138.4575203397519
 31
0.0
 12
349.6388510435334
 22
138.6658536730852
 32
0.0
 13
349.6388510435334
 23
138.6658536730852
 33
0.0
  0
SOLID
  5
94BB
330
7058
100
AcDbEntity
  8
0
  6
ByBlock
 62
     6
100
AcDbTrace
 10
376.3888510435334
 20
138.8741870064185
 30
0.0
 11
376.3888510435334
 21
138.4575203397519
 31
0.0
 12
377.6388510435333
 22
138.6658536730852
 32
0.0
 13
377.6388510435333
 23
138.6658536730852
 33
0.0
  0
MTEXT
  5
94BC
330
7058
100
AcDbEntity
  8
0
  6
ByBlock
 62
     3
100
AcDbMText
 10
363.6388510435334
 20
140.0408536730852
 30
0.0
 40
1.75
 41
0.0
 71
     5
 72
     1
  1
\A1;\U+220528±0.5
  7
TXT
 73
     1
 44
1.0
1001
ACAD
1000
MTEXTBEGIN
1070
    73
1070
     1
1070
    44
1040
1.0
1070
    74
1070
     0
1000
MTEXTEND
  0
POINT
  5
94BD
330
7058
100
AcDbEntity
  8
DEFPOINTS
  6
ByBlock
 62
     0
100
AcDbPoint
 10
349.6388510435334
 20
125.3085665417267
 30
0.0
  0
POINT
  5
94BE
330
7058
100
AcDbEntity
  8
DEFPOINTS
  6
ByBlock
 62
     0
100
AcDbPoint
 10
377.6388510435333
 20
125.3085665417267
 30
0.0
  0
POINT
  5
94BF
330
7058
100
AcDbEntity
  8
DEFPOINTS
  6
ByBlock
 62
     0
100
AcDbPoint
 10
377.6388510435333
 20
138.6658536730852
 30
0.0
  0
ENDBLK
  5
94C0
330
7058
100
AcDbEntity
  8
0
100
AcDbBlockEnd
  0
BLOCK
  5
94E0
330
780C
100
AcDbEntity
  8
0
100
AcDbBlockBegin
  2
*D3
 70
     1
 10
0.0
 20
0.0
 30
0.0
  3
*D3
  1

  0
LINE
  5
94E1
330
780C
100
AcDbEntity
  8
0
  6
ByBlock
 62
     6
100
AcDbLine
 10
372.6388512319559
 20
122.3085665417267
 30
0.0
 11
389.4121186125261
 21
122.3085665417267
 31
0.0
  0
LINE
  5
94E2
330
780C
100
AcDbEntity
  8
0
  6
ByBlock
 62
     6
100
AcDbLine
 10
378.6388510435334
 20
125.3085665417267
 30
0.0
 11
389.4121186125261
 21
125.3085665417267
 31
0.0
  0
LINE
  5
94E3
330
780C
100
AcDbEntity
  8
0
  6
ByBlock
 62
     6
100
AcDbLine
 10
388.9121186125261
 20
121.0585665417267
 30
0.0
 11
388.9121186125261
 21
119.8085665417267
 31
0.0
  0
LINE
  5
94E4
330
780C
100
AcDbEntity
  8
0
  6
ByBlock
 62
     6
100
AcDbLine
 10
388.9121186125261
 20
126.5585665417267
 30
0.0
 11
388.9121186125261
 21
127.8085665417267
 31
0.0
  0
LINE
  5
94E5
330
780C
100
AcDbEntity
  8
0
  6
ByBlock
 62
     6
100
AcDbLine
 10
388.9121186125261
 20
131.0433212655532
 30
0.0
 11
388.9121186125261
 21
125.3085665417267
 31
0.0
  0
MTEXT
  5
94E6
330
780C
100
AcDbEntity
  8
0
  6
ByBlock
 62
     3
100
AcDbMText
 10
387.5371186125261
 20
129.9599879322199
 30
0.0
 40
1.75
 41
0.0
 71
     5
 72
     1
  1
\A1;3
  7
TXT
 11
0.0000000000000001
 21
1.0
 31
0.0
 73
     1
 44
1.0
1001
ACAD
1000
MTEXTBEGIN
1070
    73
1070
     1
1070
    44
1040
1.0
1070
    74
1070
     0
1000
MTEXTEND
  0
LINE
  5
94E7
330
780C
100
AcDbEntity
  8
0
  6
ByBlock
 62
     6
100
AcDbLine
 10
388.9121186125261
 20
122.3085665417267
 30
0.0
 11
388.9121186125261
 21
125.3085665417267
 31
0.0
  0
SOLID
  5
94E8
330
780C
100
AcDbEntity
  8
0
  6
ByBlock
 62
     6
100
AcDbTrace
 10
388.7037852791928
 20
121.0585665417267
 30
0.0
 11
389.1204519458595
 21
121.0585665417267
 31
0.0
 12
388.9121186125261
 22
122.3085665417267
 32
0.0
 13
388.9121186125261
 23
122.3085665417267
 33
0.0
  0
SOLID
  5
94E9
330
780C
100
AcDbEntity
  8
0
  6
ByBlock
 62
     6
100
AcDbTrace
 10
388.7037852791928
 20
126.5585665417267
 30
0.0
 11
389.1204519458595
 21
126.5585665417267
 31
0.0
 12
388.9121186125261
 22
125.3085665417267
 32
0.0
 13
388.9121186125261
 23
125.3085665417267
 33
0.0
  0
POINT
  5
94EA
330
780C
100
AcDbEntity
  8
DEFPOINTS
  6
ByBlock
 62
     0
100
AcDbPoint
 10
371.6388512319559
 20
122.3085665417267
 30
0.0
  0
POINT
  5
94EB
330
780C
100
AcDbEntity
  8
DEFPOINTS
  6
ByBlock
 62
     0
100
AcDbPoint
 10
377.6388510435333
 20
125.3085665417267
 30
0.0
  0
POINT
  5
94EC
330
780C
100
AcDbEntity
  8
DEFPOINTS
  6
ByBlock
 62
     0
100
AcDbPoint
 10
388.9121186125261
 20
125.3085665417267
 30
0.0
  0
ENDBLK
  5
94ED
330
780C
100
AcDbEntity
  8
0
100
AcDbBlockEnd
  0
BLOCK
  5
93AB
330
897F
100
AcDbEntity
  8
0
100
AcDbBlockBegin
  2
*D4
 70
     1
 10
0.0
 20
0.0
 30
0.0
  3
*D4
  1

  0
LINE
  5
93AC
330
897F
100
AcDbEntity
  8
0
  6
ByBlock
 62
     6
100
AcDbLine
 10
356.1005026282223
 20
190.6108530103939
 30
0.0
 11
337.223235807219
 21
190.6108530103939
 31
0.0
  0
LINE
  5
93AD
330
897F
100
AcDbEntity
  8
0
  6
ByBlock
 62
     6
100
AcDbLine
 10
356.1005026282225
 20
160.610853010394
 30
0.0
 11
337.223235807219
 21
160.610853010394
 31
0.0
  0
LINE
  5
93AE
330
897F
100
AcDbEntity
  8
0
  6
ByBlock
 62
     6
100
AcDbLine
 10
337.7232358072191
 20
189.3608530103939
 30
0.0
 11
337.7232358072191
 21
161.860853010394
 31
0.0
  0
MTEXT
  5
93AF
330
897F
100
AcDbEntity
  8
0
  6
ByBlock
 62
     3
100
AcDbMText
 10
335.3578431461555
 20
175.6837175389645
 30
0.0
 40
1.75
 41
0.0
 71
     5
 72
     1
  1
\A1;30
  7
TXT
 11
0.0000000000000001
 21
1.0
 31
0.0
 73
     1
 44
1.0
1001
ACAD
1000
MTEXTBEGIN
1070
    73
1070
     1
1070
    44
1040
1.0
1070
    74
1070
     0
1000
MTEXTEND
  0
SOLID
  5
93B0
330
897F
100
AcDbEntity
  8
0
  6
ByBlock
 62
     6
100
AcDbTrace
 10
337.5149024738858
 20
189.3608530103939
 30
0.0
 11
337.9315691405524
 21
189.3608530103939
 31
0.0
 12
337.7232358072191
 22
190.6108530103939
 32
0.0
 13
337.7232358072191
 23
190.6108530103939
 33
0.0
  0
SOLID
  5
93B1
330
897F
100
AcDbEntity
  8
0
  6
ByBlock
 62
     6
100
AcDbTrace
 10
337.5149024738858
 20
161.860853010394
 30
0.0
 11
337.9315691405524
 21
161.860853010394
 31
0.0
 12
337.7232358072191
 22
160.610853010394
 32
0.0
 13
337.7232358072191
 23
160.610853010394
 33
0.0
  0
POINT
  5
93B2
330
897F
100
AcDbEntity
  8
DEFPOINTS
  6
ByBlock
 62
     0
100
AcDbPoint
 10
357.1005026282223
 20
190.6108530103939
 30
0.0
  0
POINT
  5
93B3
330
897F
100
AcDbEntity
  8
DEFPOINTS
  6
ByBlock
 62
     0
100
AcDbPoint
 10
357.1005026282226
 20
160.610853010394
 30
0.0
  0
POINT
  5
93B4
330
897F
100
AcDbEntity
  8
DEFPOINTS
  6
ByBlock
 62
     0
100
AcDbPoint
 10
337.7232358072191
 20
160.610853010394
 30
0.0
  0
ENDBLK
  5
93B5
330
897F
100
AcDbEntity
  8
0
100
AcDbBlockEnd
  0
BLOCK
  5
93EA
330
8A78
100
AcDbEntity
  8
0
100
AcDbBlockBegin
  2
*D5
 70
     1
 10
0.0
 20
0.0
 30
0.0
  3
*D5
  1

  0
LINE
  5
93EB
330
8A78
100
AcDbEntity
  8
0
  6
ByBlock
 62
     6
100
AcDbLine
 10
374.5619947774746
 20
185.3869480635745
 30
0.0
 11
368.4505834950568
 21
195.9722229106705
 31
0.0
  0
LINE
  5
93EC
330
8A78
100
AcDbEntity
  8
0
  6
ByBlock
 62
     6
100
AcDbLine
 10
376.3200160377664
 20
186.4019421114452
 30
0.0
 11
370.2086047553486
 21
196.9872169585412
 31
0.0
  0
LINE
  5
93ED
330
8A78
100
AcDbEntity
  8
0
  6
ByBlock
 62
     6
100
AcDbLine
 10
367.6180517403263
 20
194.9142102087782
 30
0.0
 11
366.5355199855958
 21
194.2892102087782
 31
0.0
  0
LINE
  5
93EE
330
8A78
100
AcDbEntity
  8
0
  6
ByBlock
 62
     6
100
AcDbLine
 10
371.5411365100792
 20
197.179204256649
 30
0.0
 11
372.6236682648097
 21
197.8042042566491
 31
0.0
  0
MTEXT
  5
93EF
330
8A78
100
AcDbEntity
  8
0
  6
ByBlock
 62
     3
100
AcDbMText
 10
368.5513821058438
 20
197.8510229281169
 30
0.0
 40
1.75
 41
0.0
 71
     5
 72
     1
  1
\A1;2
  7
TXT
 11
0.8660254037844113
 21
0.5000000000000472
 31
0.0
 73
     1
 44
1.0
1001
ACAD
1000
MTEXTBEGIN
1070
    73
1070
     1
1070
    44
1040
1.0
1070
    74
1070
     0
1000
MTEXTEND
  0
LINE
  5
93F0
330
8A78
100
AcDbEntity
  8
0
  6
ByBlock
 62
     6
100
AcDbLine
 10
368.7005834950568
 20
195.5392102087783
 30
0.0
 11
370.4586047553486
 21
196.554204256649
 31
0.0
  0
SOLID
  5
93F1
330
8A78
100
AcDbEntity
  8
0
  6
ByBlock
 62
     6
100
AcDbTrace
 10
367.5138850736597
 20
195.0946321679
 30
0.0
 11
367.722218406993
 21
194.7337882496564
 31
0.0
 12
368.7005834950568
 22
195.5392102087783
 32
0.0
 13
368.7005834950568
 23
195.5392102087783
 33
0.0
  0
SOLID
  5
93F2
330
8A78
100
AcDbEntity
  8
0
  6
ByBlock
 62
     6
100
AcDbTrace
 10
371.4369698434124
 20
197.3596262157708
 30
0.0
 11
371.6453031767458
 21
196.9987822975273
 31
0.0
 12
370.4586047553486
 22
196.554204256649
 32
0.0
 13
370.4586047553486
 23
196.554204256649
 33
0.0
  0
POINT
  5
93F3
330
8A78
100
AcDbEntity
  8
DEFPOINTS
  6
ByBlock
 62
     0
100
AcDbPoint
 10
375.0619947774747
 20
184.5209226597901
 30
0.0
  0
POINT
  5
93F4
330
8A78
100
AcDbEntity
  8
DEFPOINTS
  6
ByBlock
 62
     0
100
AcDbPoint
 10
376.8200160377664
 20
185.5359167076608
 30
0.0
  0
POINT
  5
93F5
330
8A78
100
AcDbEntity
  8
DEFPOINTS
  6
ByBlock
 62
     0
100
AcDbPoint
 10
370.4586047553486
 20
196.554204256649
 30
0.0
  0
ENDBLK
  5
93F6
330
8A78
100
AcDbEntity
  8
0
100
AcDbBlockEnd
  0
BLOCK
  5
9593
330
8CD0
100
AcDbEntity
  8
0
100
AcDbBlockBegin
  2
*D6
 70
     1
 10
0.0
 20
0.0
 30
0.0
  3
*D6
  1

  0
LINE
  5
9594
330
8CD0
100
AcDbEntity
  8
0
  6
ByBlock
 62
     6
100
AcDbLine
 10
239.8092793496569
 20
112.7090870810793
 30
0.0
 11
239.8092793496569
 21
93.73499438362868
 31
0.0
  0
LINE
  5
9595
330
8CD0
100
AcDbEntity
  8
0
  6
ByBlock
 62
     6
100
AcDbLine
 10
265.8092793496569
 20
112.7090870810794
 30
0.0
 11
265.8092793496569
 21
93.73499438362868
 31
0.0
  0
LINE
  5
9596
330
8CD0
100
AcDbEntity
  8
0
  6
ByBlock
 62
     6
100
AcDbLine
 10
241.0592793496569
 20
94.23499438362867
 30
0.0
 11
264.5592793496569
 21
94.23499438362867
 31
0.0
  0
SOLID
  5
9597
330
8CD0
100
AcDbEntity
  8
0
  6
ByBlock
 62
     6
100
AcDbTrace
 10
241.0592793496569
 20
94.44332771696201
 30
0.0
 11
241.0592793496569
 21
94.02666105029535
 31
0.0
 12
239.8092793496569
 22
94.23499438362867
 32
0.0
 13
239.8092793496569
 23
94.23499438362867
 33
0.0
  0
SOLID
  5
9598
330
8CD0
100
AcDbEntity
  8
0
  6
ByBlock
 62
     6
100
AcDbTrace
 10
264.5592793496569
 20
94.44332771696201
 30
0.0
 11
264.5592793496569
 21
94.02666105029535
 31
0.0
 12
265.8092793496569
 22
94.23499438362867
 32
0.0
 13
265.8092793496569
 23
94.23499438362867
 33
0.0
  0
MTEXT
  5
9599
330
8CD0
100
AcDbEntity
  8
0
  6
ByBlock
 62
     3
100
AcDbMText
 10
252.8092793496569
 20
95.60999438362868
 30
0.0
 40
1.75
 41
0.0
 71
     5
 72
     1
  1
\A1;\U+220526±0.5
  7
TXT
 73
     1
 44
1.0
1001
ACAD
1000
MTEXTBEGIN
1070
    73
1070
     1
1070
    44
1040
1.0
1070
    74
1070
     0
1000
MTEXTEND
  0
POINT
  5
959A
330
8CD0
100
AcDbEntity
  8
DEFPOINTS
  6
ByBlock
 62
     0
100
AcDbPoint
 10
239.8092793496569
 20
113.7090870810793
 30
0.0
  0
POINT
  5
959B
330
8CD0
100
AcDbEntity
  8
DEFPOINTS
  6
ByBlock
 62
     0
100
AcDbPoint
 10
265.8092793496569
 20
113.7090870810794
 30
0.0
  0
POINT
  5
959C
330
8CD0
100
AcDbEntity
  8
DEFPOINTS
  6
ByBlock
 62
     0
100
AcDbPoint
 10
265.8092793496569
 20
94.23499438362867
 30
0.0
  0
ENDBLK
  5
959D
330
8CD0
100
AcDbEntity
  8
0
100
AcDbBlockEnd
  0
BLOCK
  5
9571
330
8CE8
100
AcDbEntity
  8
0
100
AcDbBlockBegin
  2
*D7
 70
     1
 10
0.0
 20
0.0
 30
0.0
  3
*D7
  1

  0
LINE
  5
9572
330
8CE8
100
AcDbEntity
  8
0
  6
ByBlock
 62
     6
100
AcDbLine
 10
348.6388510435333
 20
125.3085665417267
 30
0.0
 11
335.223235807219
 21
125.3085665417267
 31
0.0
  0
LINE
  5
9573
330
8CE8
100
AcDbEntity
  8
0
  6
ByBlock
 62
     6
100
AcDbLine
 10
349.6388510435334
 20
109.3085665417267
 30
0.0
 11
335.223235807219
 21
109.3085665417267
 31
0.0
  0
LINE
  5
9574
330
8CE8
100
AcDbEntity
  8
0
  6
ByBlock
 62
     6
100
AcDbLine
 10
335.723235807219
 20
124.0585665417267
 30
0.0
 11
335.723235807219
 21
110.5585665417267
 31
0.0
  0
SOLID
  5
9575
330
8CE8
100
AcDbEntity
  8
0
  6
ByBlock
 62
     6
100
AcDbTrace
 10
335.5149024738857
 20
124.0585665417267
 30
0.0
 11
335.9315691405523
 21
124.0585665417267
 31
0.0
 12
335.723235807219
 22
125.3085665417267
 32
0.0
 13
335.723235807219
 23
125.3085665417267
 33
0.0
  0
SOLID
  5
9576
330
8CE8
100
AcDbEntity
  8
0
  6
ByBlock
 62
     6
100
AcDbTrace
 10
335.5149024738857
 20
110.5585665417267
 30
0.0
 11
335.9315691405523
 21
110.5585665417267
 31
0.0
 12
335.723235807219
 22
109.3085665417267
 32
0.0
 13
335.723235807219
 23
109.3085665417267
 33
0.0
  0
MTEXT
  5
9577
330
8CE8
100
AcDbEntity
  8
0
  6
ByBlock
 62
     3
100
AcDbMText
 10
334.348235807219
 20
117.3085665417267
 30
0.0
 40
1.75
 41
0.0
 71
     5
 72
     1
  1
\A1;16±0.2
  7
TXT
 11
0.0000000000000001
 21
1.0
 31
0.0
 73
     1
 44
1.0
1001
ACAD
1000
MTEXTBEGIN
1070
    73
1070
     1
1070
    44
1040
1.0
1070
    74
1070
     0
1000
MTEXTEND
  0
POINT
  5
9578
330
8CE8
100
AcDbEntity
  8
DEFPOINTS
  6
ByBlock
 62
     0
100
AcDbPoint
 10
349.6388510435334
 20
125.3085665417267
 30
0.0
  0
POINT
  5
9579
330
8CE8
100
AcDbEntity
  8
DEFPOINTS
  6
ByBlock
 62
     0
100
AcDbPoint
 10
350.6388510435333
 20
109.3085665417267
 30
0.0
  0
POINT
  5
957A
330
8CE8
100
AcDbEntity
  8
DEFPOINTS
  6
ByBlock
 62
     0
100
AcDbPoint
 10
335.723235807219
 20
109.3085665417267
 30
0.0
  0
ENDBLK
  5
957B
330
8CE8
100
AcDbEntity
  8
0
100
AcDbBlockEnd
  0
BLOCK
  5
9524
330
8D0F
100
AcDbEntity
  8
0
100
AcDbBlockBegin
  2
*D8
 70
     1
 10
0.0
 20
0.0
 30
0.0
  3
*D8
  1

  0
LINE
  5
9525
330
8D0F
100
AcDbEntity
  8
0
  6
ByBlock
 62
     6
100
AcDbLine
 10
379.1752327929412
 20
111.7219146159482
 30
0.0
 11
390.6757709966232
 21
102.6876864888075
 31
0.0
  0
LINE
  5
9526
330
8D0F
100
AcDbEntity
  8
0
  6
ByBlock
 62
     6
100
AcDbLine
 10
378.6388510435334
 20
125.3085665417267
 30
0.0
 11
398.4981983294062
 21
125.3085665417265
 31
0.0
  0
ARC
  5
9527
330
8D0F
100
AcDbEntity
  8
0
  6
ByBlock
 62
     6
100
AcDbCircle
 10
361.8794763283544
 20
125.3085665417267
 30
0.0
 40
36.11872200105195
100
AcDbArc
 50
323.8316508856119
 51
358.0170035071259
  0
SOLID
  5
9528
330
8D0F
100
AcDbEntity
  8
0
  6
ByBlock
 62
     6
100
AcDbTrace
 10
391.2036630370932
 20
103.8669068615869
 30
0.0
 11
390.871599110889
 21
104.1185905122775
 31
0.0
 12
390.2825801219192
 22
102.9965569083195
 32
0.0
 13
390.2825801219192
 23
102.9965569083195
 33
0.0
  0
SOLID
  5
9529
330
8D0F
100
AcDbEntity
  8
0
  6
ByBlock
 62
     6
100
AcDbTrace
 10
397.7682661324645
 20
124.0623587089044
 30
0.0
 11
398.1848704132145
 21
124.0551486900488
 31
0.0
 12
397.9981983294063
 22
125.3085665417266
 32
0.0
 13
397.9981983294063
 23
125.3085665417266
 33
0.0
  0
MTEXT
  5
952A
330
8D0F
100
AcDbEntity
  8
0
  6
ByBlock
 62
     3
100
AcDbMText
 10
394.7153427394592
 20
113.9537395717346
 30
0.0
 40
1.75
 41
0.0
 71
     5
 72
     1
  1
\A1;30°
  7
TXT
 11
0.3268166539453714
 21
0.9450877603185595
 31
0.0
 73
     1
 44
1.0
1001
ACAD
1000
MTEXTBEGIN
1070
    73
1070
     1
1070
    44
1040
1.0
1070
    74
1070
     0
1000
MTEXTEND
  0
POINT
  5
952B
330
8D0F
100
AcDbEntity
  8
DEFPOINTS
  6
ByBlock
 62
     0
100
AcDbPoint
 10
394.4975310348041
 20
109.7964878236334
 30
0.0
  0
POINT
  5
952C
330
8D0F
100
AcDbEntity
  8
DEFPOINTS
  6
ByBlock
 62
     0
100
AcDbPoint
 10
352.6388512319558
 20
125.3085665417268
 30
0.0
  0
POINT
  5
952D
330
8D0F
100
AcDbEntity
  8
DEFPOINTS
  6
ByBlock
 62
     0
100
AcDbPoint
 10
378.3888510435333
 20
112.3396554549723
 30
0.0
  0
POINT
  5
952E
330
8D0F
100
AcDbEntity
  8
DEFPOINTS
  6
ByBlock
 62
     0
100
AcDbPoint
 10
369.1388512319559
 20
119.605976995215
 30
0.0
  0
POINT
  5
952F
330
8D0F
100
AcDbEntity
  8
DEFPOINTS
  6
ByBlock
 62
     0
100
AcDbPoint
 10
377.6388510435333
 20
125.3085665417267
 30
0.0
  0
ENDBLK
  5
9530
330
8D0F
100
AcDbEntity
  8
0
100
AcDbBlockEnd
  0
BLOCK
  5
8D2C
330
8D2B
100
AcDbEntity
  8
0
100
AcDbBlockBegin
  2
_DOTSMALL
 70
     0
 10
0.0
 20
0.0
 30
0.0
  3
_DOTSMALL
  1

  0
LWPOLYLINE
  5
8D2D
330
8D2B
100
AcDbEntity
  8
0
  6
ByBlock
 62
     0
100
AcDbPolyline
 90
        2
 70
     1
 43
0.5
 10
-0.0625
 20
0.0
 42
1.0
 10
0.0625
 20
0.0
 42
1.0
  0
ENDBLK
  5
8D31
330
8D2B
100
AcDbEntity
  8
0
100
AcDbBlockEnd
  0
BLOCK
  5
94D7
330
8DDC
100
AcDbEntity
  8
0
100
AcDbBlockBegin
  2
*D10
 70
     1
 10
0.0
 20
0.0
 30
0.0
  3
*D10
  1

  0
LINE
  5
94D8
330
8DDC
100
AcDbEntity
  8
0
  6
ByBlock
 62
     6
100
AcDbLine
 10
371.6388510435333
 20
126.3085665417267
 30
0.0
 11
371.6388510435333
 21
134.7338139595365
 31
0.0
  0
LINE
  5
94D9
330
8DDC
100
AcDbEntity
  8
0
  6
ByBlock
 62
     6
100
AcDbLine
 10
370.3888510435333
 20
134.2338139595365
 30
0.0
 11
355.6388510435334
 21
134.2338139595365
 31
0.0
  0
SOLID
  5
94DA
330
8DDC
100
AcDbEntity
  8
0
  6
ByBlock
 62
     6
100
AcDbTrace
 10
370.3888510435333
 20
134.4421472928698
 30
0.0
 11
370.3888510435333
 21
134.0254806262031
 31
0.0
 12
371.6388510435333
 22
134.2338139595365
 32
0.0
 13
371.6388510435333
 23
134.2338139595365
 33
0.0
  0
MTEXT
  5
94DB
330
8DDC
100
AcDbEntity
  8
0
  6
ByBlock
 62
     3
100
AcDbMText
 10
363.0138510435334
 20
135.6088139595365
 30
0.0
 40
1.75
 41
0.0
 71
     5
 72
     1
  1
\A1;\U+220516
  7
TXT
 73
     1
 44
1.0
1001
ACAD
1000
MTEXTBEGIN
1070
    73
1070
     1
1070
    44
1040
1.0
1070
    74
1070
     0
1000
MTEXTEND
  0
POINT
  5
94DC
330
8DDC
100
AcDbEntity
  8
DEFPOINTS
  6
ByBlock
 62
     0
100
AcDbPoint
 10
371.6388510435333
 20
125.3085665417267
 30
0.0
  0
POINT
  5
94DD
330
8DDC
100
AcDbEntity
  8
DEFPOINTS
  6
ByBlock
 62
     0
100
AcDbPoint
 10
355.6388510435334
 20
125.3085665417262
 30
0.0
  0
POINT
  5
94DE
330
8DDC
100
AcDbEntity
  8
DEFPOINTS
  6
ByBlock
 62
     0
100
AcDbPoint
 10
355.6388510435334
 20
134.2338139595365
 30
0.0
  0
ENDBLK
  5
94DF
330
8DDC
100
AcDbEntity
  8
0
100
AcDbBlockEnd
  0
BLOCK
  5
953C
330
8E04
100
AcDbEntity
  8
0
100
AcDbBlockBegin
  2
*D11
 70
     1
 10
0.0
 20
0.0
 30
0.0
  3
*D11
  1

  0
LINE
  5
953D
330
8E04
100
AcDbEntity
  8
0
  6
ByBlock
 62
     6
100
AcDbLine
 10
371.1388510435333
 20
108.8085665417268
 30
0.0
 11
371.1388510435333
 21
98.28740514663946
 31
0.0
  0
LINE
  5
953E
330
8E04
100
AcDbEntity
  8
0
  6
ByBlock
 62
     6
100
AcDbLine
 10
369.8888510435334
 20
98.78740514663945
 30
0.0
 11
356.1388510435333
 21
98.78740514663945
 31
0.0
  0
MTEXT
  5
953F
330
8E04
100
AcDbEntity
  8
0
  6
ByBlock
 62
     3
100
AcDbMText
 10
363.0138510435334
 20
100.1624051466394
 30
0.0
 40
1.75
 41
0.0
 71
     5
 72
     1
  1
\A1;M15X1.0P
  7
TXT
 73
     1
 44
1.0
1001
ACAD
1000
MTEXTBEGIN
1070
    73
1070
     1
1070
    44
1040
1.0
1070
    74
1070
     0
1000
MTEXTEND
  0
SOLID
  5
9540
330
8E04
100
AcDbEntity
  8
0
  6
ByBlock
 62
     6
100
AcDbTrace
 10
369.8888510435334
 20
98.99573847997279
 30
0.0
 11
369.8888510435334
 21
98.57907181330613
 31
0.0
 12
371.1388510435333
 22
98.78740514663945
 32
0.0
 13
371.1388510435333
 23
98.78740514663945
 33
0.0
  0
POINT
  5
9541
330
8E04
100
AcDbEntity
  8
DEFPOINTS
  6
ByBlock
 62
     0
100
AcDbPoint
 10
371.1388510435333
 20
109.8085665417268
 30
0.0
  0
POINT
  5
9542
330
8E04
100
AcDbEntity
  8
DEFPOINTS
  6
ByBlock
 62
     0
100
AcDbPoint
 10
356.1388510435333
 20
109.3085665417268
 30
0.0
  0
POINT
  5
9543
330
8E04
100
AcDbEntity
  8
DEFPOINTS
  6
ByBlock
 62
     0
100
AcDbPoint
 10
356.1388510435333
 20
98.78740514663945
 30
0.0
  0
ENDBLK
  5
9544
330
8E04
100
AcDbEntity
  8
0
100
AcDbBlockEnd
  0
BLOCK
  5
9430
330
942F
100
AcDbEntity
  8
0
100
AcDbBlockBegin
  2
*D12
 70
     1
 10
0.0
 20
0.0
 30
0.0
  3
*D12
  1

  0
LINE
  5
9431
330
942F
100
AcDbEntity
  8
0
  6
ByBlock
 62
     6
100
AcDbLine
 10
378.7942956097611
 20
166.8608530103938
 30
0.0
 11
387.24396738384
 21
161.9824327370654
 31
0.0
  0
LINE
  5
9432
330
942F
100
AcDbEntity
  8
0
  6
ByBlock
 62
     6
100
AcDbLine
 10
383.1388510435335
 20
175.6108530103939
 30
0.0
 11
390.8956915901903
 21
175.610853010394
 31
0.0
  0
ARC
  5
9433
330
942F
100
AcDbEntity
  8
0
  6
ByBlock
 62
     6
100
AcDbCircle
 10
363.6388510435335
 20
175.6108530103939
 30
0.0
 40
26.75684054665681
100
AcDbArc
 50
332.6769318569755
 51
357.3230681430248
  0
SOLID
  5
9434
330
942F
100
AcDbEntity
  8
0
  6
ByBlock
 62
     6
100
AcDbTrace
 10
387.5933037305331
 20
163.2293443399448
 30
0.0
 11
387.2276919107568
 21
163.4291920528438
 31
0.0
 12
386.8109546819478
 22
162.2324327370654
 32
0.0
 13
386.8109546819478
 23
162.2324327370654
 33
0.0
  0
SOLID
  5
9435
330
942F
100
AcDbEntity
  8
0
  6
ByBlock
 62
     6
100
AcDbTrace
 10
390.1582169591524
 20
174.3660604263097
 30
0.0
 11
390.574769939452
 21
174.3563277126804
 31
0.0
 12
390.3956915901903
 22
175.610853010394
 32
0.0
 13
390.3956915901903
 23
175.610853010394
 33
0.0
  0
MTEXT
  5
9436
330
942F
100
AcDbEntity
  8
0
  6
ByBlock
 62
     3
100
AcDbMText
 10
388.1558263463004
 20
169.0415492771638
 30
0.0
 40
1.75
 41
0.0
 71
     5
 72
     1
  1
\A1;30°
  7
TXT
 11
0.2588190451025184
 21
0.965925826289069
 31
0.0
 73
     1
 44
1.0
1001
ACAD
1000
MTEXTBEGIN
1070
    73
1070
     1
1070
    44
1040
1.0
1070
    74
1070
     0
1000
MTEXTEND
  0
POINT
  5
9437
330
942F
100
AcDbEntity
  8
DEFPOINTS
  6
ByBlock
 62
     0
100
AcDbPoint
 10
388.7820566607721
 20
166.4594745716843
 30
0.0
  0
POINT
  5
9438
330
942F
100
AcDbEntity
  8
DEFPOINTS
  6
ByBlock
 62
     0
100
AcDbPoint
 10
363.6388510435334
 20
175.6108530103939
 30
0.0
  0
POINT
  5
9439
330
942F
100
AcDbEntity
  8
DEFPOINTS
  6
ByBlock
 62
     0
100
AcDbPoint
 10
349.001454754733
 20
184.061757697968
 30
0.0
  0
POINT
  5
943A
330
942F
100
AcDbEntity
  8
DEFPOINTS
  6
ByBlock
 62
     0
100
AcDbPoint
 10
377.9282702059766
 20
167.3608530103939
 30
0.0
  0
POINT
  5
943B
330
942F
100
AcDbEntity
  8
DEFPOINTS
  6
ByBlock
 62
     0
100
AcDbPoint
 10
382.1388510435334
 20
175.6108530103939
 30
0.0
  0
ENDBLK
  5
943C
330
942F
100
AcDbEntity
  8
0
100
AcDbBlockEnd
  0
BLOCK
  5
9516
330
9515
100
AcDbEntity
  8
0
100
AcDbBlockBegin
  2
*D13
 70
     1
 10
0.0
 20
0.0
 30
0.0
  3
*D13
  1

  0
LINE
  5
9517
330
9515
100
AcDbEntity
  8
0
  6
ByBlock
 62
     6
100
AcDbLine
 10
381.0048764473178
 20
120.3651908687526
 30
0.0
 11
392.4987708725407
 21
113.7291878283128
 31
0.0
  0
LINE
  5
9518
330
9515
100
AcDbEntity
  8
0
  6
ByBlock
 62
     6
100
AcDbLine
 10
378.6388510435334
 20
125.3085665417267
 30
0.0
 11
395.6014560476543
 21
125.3085665417267
 31
0.0
  0
ARC
  5
9519
330
9515
100
AcDbEntity
  8
0
  6
ByBlock
 62
     6
100
AcDbCircle
 10
372.4426986208269
 20
125.3085665417267
 30
0.0
 40
22.65875742682726
100
AcDbArc
 50
333.1611975845224
 51
356.8388024154769
  0
SOLID
  5
951A
330
9515
100
AcDbEntity
  8
0
  6
ByBlock
 62
     6
100
AcDbTrace
 10
392.8438872816313
 20
114.9793967387004
 30
0.0
 11
392.4774341695607
 21
115.1776975903496
 31
0.0
 12
392.0657581706485
 22
113.9791878283128
 32
0.0
 13
392.0657581706485
 23
113.9791878283128
 33
0.0
  0
SOLID
  5
951B
330
9515
100
AcDbEntity
  8
0
  6
ByBlock
 62
     6
100
AcDbTrace
 10
394.858723039822
 20
124.0647886416631
 30
0.0
 11
395.2752311699957
 21
124.053295660748
 31
0.0
 12
395.1014560476542
 22
125.3085665417267
 32
0.0
 13
395.1014560476542
 23
125.3085665417267
 33
0.0
  0
MTEXT
  5
951C
330
9515
100
AcDbEntity
  8
0
  6
ByBlock
 62
     3
100
AcDbMText
 10
393.0012295998711
 20
119.7999247683215
 30
0.0
 40
1.75
 41
0.0
 71
     5
 72
     1
  1
\A1;30°
  7
TXT
 11
0.2588190451025248
 21
0.9659258262890672
 31
0.0
 73
     1
 44
1.0
1001
ACAD
1000
MTEXTBEGIN
1070
    73
1070
     1
1070
    44
1040
1.0
1070
    74
1070
     0
1000
MTEXTEND
  0
POINT
  5
951D
330
9515
100
AcDbEntity
  8
DEFPOINTS
  6
ByBlock
 62
     0
100
AcDbPoint
 10
393.7349657709944
 20
117.5588150790215
 30
0.0
  0
POINT
  5
951E
330
9515
100
AcDbEntity
  8
DEFPOINTS
  6
ByBlock
 62
     0
100
AcDbPoint
 10
349.6388510435334
 20
125.3085665417267
 30
0.0
  0
POINT
  5
951F
330
9515
100
AcDbEntity
  8
DEFPOINTS
  6
ByBlock
 62
     0
100
AcDbPoint
 10
377.6388510435333
 20
122.3085665417267
 30
0.0
  0
POINT
  5
9520
330
9515
100
AcDbEntity
  8
DEFPOINTS
  6
ByBlock
 62
     0
100
AcDbPoint
 10
380.1388510435334
 20
120.8651908687526
 30
0.0
  0
POINT
  5
9521
330
9515
100
AcDbEntity
  8
DEFPOINTS
  6
ByBlock
 62
     0
100
AcDbPoint
 10
377.6388510435333
 20
125.3085665417267
 30
0.0
  0
ENDBLK
  5
9522
330
9515
100
AcDbEntity
  8
0
100
AcDbBlockEnd
  0
BLOCK
  5
95E1
330
95E0
100
AcDbEntity
  8
0
100
AcDbBlockBegin
  2
_NONE
 70
     0
 10
0.0
 20
0.0
 30
0.0
  3
_NONE
  1

  0
CIRCLE
  5
95E2
330
95E0
100
AcDbEntity
  8
0
  6
ByBlock
 62
     0
100
AcDbCircle
 10
0.0
 20
0.0
 30
0.0
 40
0.25
  0
ENDBLK
  5
95E3
330
95E0
100
AcDbEntity
  8
0
100
AcDbBlockEnd
  0
BLOCK
  5
9617
330
9616
100
AcDbEntity
  8
0
100
AcDbBlockBegin
  2
_Open30
 70
     0
 10
0.0
 20
0.0
 30
0.0
  3
_Open30
  1

  0
LINE
  5
9618
330
9616
100
AcDbEntity
  8
0
  6
ByBlock
 62
     0
370
    -2
100
AcDbLine
 10
-1.0
 20
0.26794919
 30
0.0
 11
0.0
 21
0.0
 31
0.0
  0
LINE
  5
9619
330
9616
100
AcDbEntity
  8
0
  6
ByBlock
 62
     0
370
    -2
100
AcDbLine
 10
0.0
 20
0.0
 30
0.0
 11
-1.0
 21
-0.26794919
 31
0.0
  0
LINE
  5
961A
330
9616
100
AcDbEntity
  8
0
  6
ByBlock
 62
     0
370
    -2
100
AcDbLine
 10
0.0
 20
0.0
 30
0.0
 11
-1.0
 21
0.0
 31
0.0
  0
ENDBLK
  5
961B
330
9616
100
AcDbEntity
  8
0
100
AcDbBlockEnd
  0
BLOCK
  5
9710
330
970E
100
AcDbEntity
  8
0
100
AcDbBlockBegin
  2
GENAXEH
 70
     0
 10
0.0
 20
0.0
 30
0.0
  3
GENAXEH
  1

  0
LINE
  5
970F
330
970E
100
AcDbEntity
  8
0
100
AcDbLine
 10
-1.0
 20
0.0
 30
0.0
 11
1.0
 21
0.0
 31
0.0
  0
ENDBLK
  5
9711
330
970E
100
AcDbEntity
  8
0
100
AcDbBlockEnd
  0
BLOCK
  5
9842
330
9841
100
AcDbEntity
  8
0
100
AcDbBlockBegin
  2
*D17
 70
     1
 10
0.0
 20
0.0
 30
0.0
  3
*D17
  1

  0
LINE
  5
98D7
330
9841
100
AcDbEntity
  8
DIM
 62
     6
370
    -2
100
AcDbLine
 10
369.1753047534411
 20
124.7657114081052
 30
0.0
 11
380.6691991786641
 21
118.1297083676654
 31
0.0
  0
LINE
  5
98D8
330
9841
100
AcDbEntity
  8
DIM
 62
     6
370
    -2
100
AcDbLine
 10
366.8092793496568
 20
129.7090870810793
 30
0.0
 11
383.7718843537776
 21
129.7090870810793
 31
0.0
  0
ARC
  5
98D9
330
9841
100
AcDbEntity
  8
DIM
 62
     6
370
    -2
100
AcDbCircle
 10
360.6131269269504
 20
129.7090870810793
 30
0.0
 40
22.65875742682728
100
AcDbArc
 50
333.1611975845223
 51
356.8388024154768
  0
SOLID
  5
98DA
330
9841
100
AcDbEntity
  8
DIM
 62
     6
100
AcDbTrace
 10
381.0143155877548
 20
119.379917278053
 30
0.0
 11
380.6478624756841
 21
119.5782181297022
 31
0.0
 12
380.2361864767719
 22
118.3797083676654
 32
0.0
 13
380.2361864767719
 23
118.3797083676654
 33
0.0
  0
SOLID
  5
98DB
330
9841
100
AcDbEntity
  8
DIM
 62
     6
100
AcDbTrace
 10
383.0291513459455
 20
128.4653091810158
 30
0.0
 11
383.4456594761192
 21
128.4538162001006
 31
0.0
 12
383.2718843537777
 22
129.7090870810793
 32
0.0
 13
383.2718843537777
 23
129.7090870810793
 33
0.0
  0
MTEXT
  5
98DC
330
9841
100
AcDbEntity
  8
DIM
 62
     3
100
AcDbMText
 10
381.1716579059945
 20
124.200445307674
 30
0.0
 40
1.75
 41
0.0
 71
     5
 72
     1
  1
\A1;30\U+00B0
  7
TXT
 11
0.2588190451025261
 21
0.9659258262890668
 31
0.0
 73
     1
 44
1.0
1001
ACAD
1000
MTEXTBEGIN
1070
    73
1070
     1
1070
    44
1040
1.0
1070
    74
1070
     0
1000
MTEXTEND
  0
POINT
  5
98DD
330
9841
100
AcDbEntity
  8
DEFPOINTS
 62
     0
100
AcDbPoint
 10
381.9053940771178
 20
121.9593356183741
 30
0.0
  0
POINT
  5
98DE
330
9841
100
AcDbEntity
  8
DEFPOINTS
 62
     0
100
AcDbPoint
 10
337.8092793496568
 20
129.7090870810793
 30
0.0
  0
POINT
  5
98DF
330
9841
100
AcDbEntity
  8
DEFPOINTS
 62
     0
100
AcDbPoint
 10
365.8092793496568
 20
126.7090870810793
 30
0.0
  0
POINT
  5
98E0
330
9841
100
AcDbEntity
  8
DEFPOINTS
 62
     0
100
AcDbPoint
 10
368.3092793496567
 20
125.2657114081052
 30
0.0
  0
POINT
  5
98E1
330
9841
100
AcDbEntity
  8
DEFPOINTS
 62
     0
100
AcDbPoint
 10
365.8092793496568
 20
129.7090870810793
 30
0.0
  0
ENDBLK
  5
9843
330
9841
100
AcDbEntity
  8
0
100
AcDbBlockEnd
  0
BLOCK
  5
9850
330
984F
100
AcDbEntity
  8
0
100
AcDbBlockBegin
  2
*D18
 70
     1
 10
0.0
 20
0.0
 30
0.0
  3
*D18
  1

  0
LINE
  5
98E2
330
984F
100
AcDbEntity
  8
DIM
 62
     6
370
    -2
100
AcDbLine
 10
366.9647239158845
 20
164.4521170982006
 30
0.0
 11
375.4143956899634
 21
159.5736968248721
 31
0.0
  0
LINE
  5
98E3
330
984F
100
AcDbEntity
  8
DIM
 62
     6
370
    -2
100
AcDbLine
 10
371.3092793496569
 20
173.2021170982006
 30
0.0
 11
379.0661198963136
 21
173.2021170982006
 31
0.0
  0
ARC
  5
98E4
330
984F
100
AcDbEntity
  8
DIM
 62
     6
370
    -2
100
AcDbCircle
 10
351.8092793496569
 20
173.2021170982005
 30
0.0
 40
26.75684054665682
100
AcDbArc
 50
332.6769318569755
 51
357.3230681430248
  0
SOLID
  5
98E5
330
984F
100
AcDbEntity
  8
DIM
 62
     6
100
AcDbTrace
 10
375.7637320366565
 20
160.8206084277515
 30
0.0
 11
375.3981202168802
 21
161.0204561406505
 31
0.0
 12
374.9813829880711
 22
159.8236968248722
 32
0.0
 13
374.9813829880711
 23
159.8236968248722
 33
0.0
  0
SOLID
  5
98E6
330
984F
100
AcDbEntity
  8
DIM
 62
     6
100
AcDbTrace
 10
378.3286452652758
 20
171.9573245141163
 30
0.0
 11
378.7451982455755
 21
171.947591800487
 31
0.0
 12
378.5661198963136
 22
173.2021170982006
 32
0.0
 13
378.5661198963136
 23
173.2021170982006
 33
0.0
  0
MTEXT
  5
98E7
330
984F
100
AcDbEntity
  8
DIM
 62
     3
100
AcDbMText
 10
376.3262546524237
 20
166.6328133649704
 30
0.0
 40
1.75
 41
0.0
 71
     5
 72
     1
  1
\A1;30\U+00B0
  7
TXT
 11
0.2588190451025184
 21
0.965925826289069
 31
0.0
 73
     1
 44
1.0
1001
ACAD
1000
MTEXTBEGIN
1070
    73
1070
     1
1070
    44
1040
1.0
1070
    74
1070
     0
1000
MTEXTEND
  0
POINT
  5
98E8
330
984F
100
AcDbEntity
  8
DEFPOINTS
 62
     0
100
AcDbPoint
 10
376.9524849668954
 20
164.050738659491
 30
0.0
  0
POINT
  5
98E9
330
984F
100
AcDbEntity
  8
DEFPOINTS
 62
     0
100
AcDbPoint
 10
351.8092793496569
 20
173.2021170982005
 30
0.0
  0
POINT
  5
98EA
330
984F
100
AcDbEntity
  8
DEFPOINTS
 62
     0
100
AcDbPoint
 10
337.1718830608565
 20
181.6530217857747
 30
0.0
  0
POINT
  5
98EB
330
984F
100
AcDbEntity
  8
DEFPOINTS
 62
     0
100
AcDbPoint
 10
366.0986985121001
 20
164.9521170982005
 30
0.0
  0
POINT
  5
98EC
330
984F
100
AcDbEntity
  8
DEFPOINTS
 62
     0
100
AcDbPoint
 10
370.3092793496569
 20
173.2021170982006
 30
0.0
  0
ENDBLK
  5
9851
330
984F
100
AcDbEntity
  8
0
100
AcDbBlockEnd
  0
BLOCK
  5
985E
330
985D
100
AcDbEntity
  8
0
100
AcDbBlockBegin
  2
*D19
 70
     1
 10
0.0
 20
0.0
 30
0.0
  3
*D19
  1

  0
LINE
  5
98ED
330
985D
100
AcDbEntity
  8
DIM
 62
     6
370
    -2
100
AcDbLine
 10
335.3092793496568
 20
126.2657114081052
 30
0.0
 11
335.3092793496568
 21
147.9087691722547
 31
0.0
  0
LINE
  5
98EE
330
985D
100
AcDbEntity
  8
DIM
 62
     6
370
    -2
100
AcDbLine
 10
368.3092793496568
 20
126.2657114081052
 30
0.0
 11
368.3092793496568
 21
147.9087691722547
 31
0.0
  0
LINE
  5
98EF
330
985D
100
AcDbEntity
  8
DIM
 62
     6
370
    -2
100
AcDbLine
 10
336.5592793496568
 20
147.4087691722547
 30
0.0
 11
367.0592793496568
 21
147.4087691722547
 31
0.0
  0
MTEXT
  5
98F0
330
985D
100
AcDbEntity
  8
DIM
 62
     3
100
AcDbMText
 10
347.7395981782766
 20
149.1302010152526
 30
0.0
 40
1.75
 41
0.0
 71
     5
 72
     1
  1
\A1;%%C33
  7
TXT
 73
     1
 44
1.0
1001
ACAD
1000
MTEXTBEGIN
1070
    73
1070
     1
1070
    44
1040
1.0
1070
    74
1070
     0
1000
MTEXTEND
  0
SOLID
  5
98F1
330
985D
100
AcDbEntity
  8
DIM
 62
     6
100
AcDbTrace
 10
336.5592793496568
 20
147.6171025055881
 30
0.0
 11
336.5592793496568
 21
147.2004358389214
 31
0.0
 12
335.3092793496568
 22
147.4087691722547
 32
0.0
 13
335.3092793496568
 23
147.4087691722547
 33
0.0
  0
SOLID
  5
98F2
330
985D
100
AcDbEntity
  8
DIM
 62
     6
100
AcDbTrace
 10
367.0592793496568
 20
147.6171025055881
 30
0.0
 11
367.0592793496568
 21
147.2004358389214
 31
0.0
 12
368.3092793496568
 22
147.4087691722547
 32
0.0
 13
368.3092793496568
 23
147.4087691722547
 33
0.0
  0
POINT
  5
98F3
330
985D
100
AcDbEntity
  8
DEFPOINTS
 62
     0
100
AcDbPoint
 10
335.3092793496568
 20
125.2657114081052
 30
0.0
  0
POINT
  5
98F4
330
985D
100
AcDbEntity
  8
DEFPOINTS
 62
     0
100
AcDbPoint
 10
368.3092793496568
 20
125.2657114081052
 30
0.0
  0
POINT
  5
98F5
330
985D
100
AcDbEntity
  8
DEFPOINTS
 62
     0
100
AcDbPoint
 10
368.3092793496568
 20
147.4087691722547
 30
0.0
  0
ENDBLK
  5
985F
330
985D
100
AcDbEntity
  8
0
100
AcDbBlockEnd
  0
BLOCK
  5
986A
330
9869
100
AcDbEntity
  8
0
100
AcDbBlockBegin
  2
*D20
 70
     1
 10
0.0
 20
0.0
 30
0.0
  3
*D20
  1

  0
LINE
  5
98F6
330
9869
100
AcDbEntity
  8
DIM
 62
     6
370
    -2
100
AcDbLine
 10
337.8092793496568
 20
130.7090870810793
 30
0.0
 11
337.8092793496568
 21
143.5663742124378
 31
0.0
  0
LINE
  5
98F7
330
9869
100
AcDbEntity
  8
DIM
 62
     6
370
    -2
100
AcDbLine
 10
365.8092793496568
 20
130.7090870810793
 30
0.0
 11
365.8092793496568
 21
143.5663742124378
 31
0.0
  0
LINE
  5
98F8
330
9869
100
AcDbEntity
  8
DIM
 62
     6
370
    -2
100
AcDbLine
 10
339.0592793496568
 20
143.0663742124378
 30
0.0
 11
364.5592793496568
 21
143.0663742124378
 31
0.0
  0
SOLID
  5
98F9
330
9869
100
AcDbEntity
  8
DIM
 62
     6
100
AcDbTrace
 10
339.0592793496568
 20
143.2747075457711
 30
0.0
 11
339.0592793496568
 21
142.8580408791044
 31
0.0
 12
337.8092793496568
 22
143.0663742124378
 32
0.0
 13
337.8092793496568
 23
143.0663742124378
 33
0.0
  0
SOLID
  5
98FA
330
9869
100
AcDbEntity
  8
DIM
 62
     6
100
AcDbTrace
 10
364.5592793496568
 20
143.2747075457711
 30
0.0
 11
364.5592793496568
 21
142.8580408791044
 31
0.0
 12
365.8092793496568
 22
143.0663742124378
 32
0.0
 13
365.8092793496568
 23
143.0663742124378
 33
0.0
  0
MTEXT
  5
98FB
330
9869
100
AcDbEntity
  8
DIM
 62
     3
100
AcDbMText
 10
351.8092793496568
 20
144.4413742124378
 30
0.0
 40
1.75
 41
0.0
 71
     5
 72
     1
  1
\A1;%%c28%%p0.5
  7
TXT
 73
     1
 44
1.0
1001
ACAD
1000
MTEXTBEGIN
1070
    73
1070
     1
1070
    44
1040
1.0
1070
    74
1070
     0
1000
MTEXTEND
  0
POINT
  5
98FC
330
9869
100
AcDbEntity
  8
DEFPOINTS
 62
     0
100
AcDbPoint
 10
337.8092793496568
 20
129.7090870810793
 30
0.0
  0
POINT
  5
98FD
330
9869
100
AcDbEntity
  8
DEFPOINTS
 62
     0
100
AcDbPoint
 10
365.8092793496568
 20
129.7090870810793
 30
0.0
  0
POINT
  5
98FE
330
9869
100
AcDbEntity
  8
DEFPOINTS
 62
     0
100
AcDbPoint
 10
365.8092793496568
 20
143.0663742124378
 30
0.0
  0
ENDBLK
  5
986B
330
9869
100
AcDbEntity
  8
0
100
AcDbBlockEnd
  0
BLOCK
  5
9876
330
9875
100
AcDbEntity
  8
0
100
AcDbBlockBegin
  2
*D21
 70
     1
 10
0.0
 20
0.0
 30
0.0
  3
*D21
  1

  0
LINE
  5
98FF
330
9875
100
AcDbEntity
  8
DIM
 62
     6
370
    -2
100
AcDbLine
 10
360.8092795380794
 20
126.7090870810793
 30
0.0
 11
377.5825469186495
 21
126.7090870810793
 31
0.0
  0
LINE
  5
9900
330
9875
100
AcDbEntity
  8
DIM
 62
     6
370
    -2
100
AcDbLine
 10
366.8092793496568
 20
129.7090870810793
 30
0.0
 11
377.5825469186496
 21
129.7090870810793
 31
0.0
  0
LINE
  5
9901
330
9875
100
AcDbEntity
  8
DIM
 62
     6
370
    -2
100
AcDbLine
 10
377.0825469186495
 20
125.4590870810793
 30
0.0
 11
377.0825469186495
 21
124.2090870810793
 31
0.0
  0
LINE
  5
9902
330
9875
100
AcDbEntity
  8
DIM
 62
     6
370
    -2
100
AcDbLine
 10
377.0825469186495
 20
130.9590870810793
 30
0.0
 11
377.0825469186495
 21
132.2090870810793
 31
0.0
  0
LINE
  5
9903
330
9875
100
AcDbEntity
  8
DIM
 62
     6
370
    -2
100
AcDbLine
 10
377.0825469186495
 20
135.4438418049057
 30
0.0
 11
377.0825469186495
 21
129.7090870810793
 31
0.0
  0
MTEXT
  5
9904
330
9875
100
AcDbEntity
  8
DIM
 62
     3
100
AcDbMText
 10
375.7075469186495
 20
134.3605084715725
 30
0.0
 40
1.75
 41
0.0
 71
     5
 72
     1
  1
\A1;3
  7
TXT
 11
0.0000000000000001
 21
1.0
 31
0.0
 73
     1
 44
1.0
1001
ACAD
1000
MTEXTBEGIN
1070
    73
1070
     1
1070
    44
1040
1.0
1070
    74
1070
     0
1000
MTEXTEND
  0
LINE
  5
9905
330
9875
100
AcDbEntity
  8
DIM
 62
     6
370
    -2
100
AcDbLine
 10
377.0825469186495
 20
126.7090870810793
 30
0.0
 11
377.0825469186495
 21
129.7090870810793
 31
0.0
  0
SOLID
  5
9906
330
9875
100
AcDbEntity
  8
DIM
 62
     6
100
AcDbTrace
 10
376.8742135853162
 20
125.4590870810793
 30
0.0
 11
377.2908802519828
 21
125.4590870810793
 31
0.0
 12
377.0825469186495
 22
126.7090870810793
 32
0.0
 13
377.0825469186495
 23
126.7090870810793
 33
0.0
  0
SOLID
  5
9907
330
9875
100
AcDbEntity
  8
DIM
 62
     6
100
AcDbTrace
 10
376.8742135853162
 20
130.9590870810793
 30
0.0
 11
377.2908802519828
 21
130.9590870810793
 31
0.0
 12
377.0825469186495
 22
129.7090870810793
 32
0.0
 13
377.0825469186495
 23
129.7090870810793
 33
0.0
  0
POINT
  5
9908
330
9875
100
AcDbEntity
  8
DEFPOINTS
 62
     0
100
AcDbPoint
 10
359.8092795380793
 20
126.7090870810793
 30
0.0
  0
POINT
  5
9909
330
9875
100
AcDbEntity
  8
DEFPOINTS
 62
     0
100
AcDbPoint
 10
365.8092793496568
 20
129.7090870810793
 30
0.0
  0
POINT
  5
990A
330
9875
100
AcDbEntity
  8
DEFPOINTS
 62
     0
100
AcDbPoint
 10
377.0825469186495
 20
129.7090870810793
 30
0.0
  0
ENDBLK
  5
9877
330
9875
100
AcDbEntity
  8
0
100
AcDbBlockEnd
  0
BLOCK
  5
9885
330
9884
100
AcDbEntity
  8
0
100
AcDbBlockBegin
  2
*D22
 70
     1
 10
0.0
 20
0.0
 30
0.0
  3
*D22
  1

  0
LINE
  5
990B
330
9884
100
AcDbEntity
  8
DIM
 62
     6
370
    -2
100
AcDbLine
 10
344.2709309343458
 20
188.2021170982005
 30
0.0
 11
325.3936641133425
 21
188.2021170982005
 31
0.0
  0
LINE
  5
990C
330
9884
100
AcDbEntity
  8
DIM
 62
     6
370
    -2
100
AcDbLine
 10
344.270930934346
 20
158.2021170982006
 30
0.0
 11
325.3936641133425
 21
158.2021170982006
 31
0.0
  0
LINE
  5
990D
330
9884
100
AcDbEntity
  8
DIM
 62
     6
370
    -2
100
AcDbLine
 10
325.8936641133425
 20
186.9521170982005
 30
0.0
 11
325.8936641133425
 21
159.4521170982006
 31
0.0
  0
MTEXT
  5
990E
330
9884
100
AcDbEntity
  8
DIM
 62
     3
100
AcDbMText
 10
323.528271452279
 20
173.2749816267712
 30
0.0
 40
1.75
 41
0.0
 71
     5
 72
     1
  1
\A1;30
  7
TXT
 11
0.0000000000000001
 21
1.0
 31
0.0
 73
     1
 44
1.0
1001
ACAD
1000
MTEXTBEGIN
1070
    73
1070
     1
1070
    44
1040
1.0
1070
    74
1070
     0
1000
MTEXTEND
  0
SOLID
  5
990F
330
9884
100
AcDbEntity
  8
DIM
 62
     6
100
AcDbTrace
 10
325.6853307800092
 20
186.9521170982005
 30
0.0
 11
326.1019974466758
 21
186.9521170982005
 31
0.0
 12
325.8936641133425
 22
188.2021170982005
 32
0.0
 13
325.8936641133425
 23
188.2021170982005
 33
0.0
  0
SOLID
  5
9910
330
9884
100
AcDbEntity
  8
DIM
 62
     6
100
AcDbTrace
 10
325.6853307800092
 20
159.4521170982006
 30
0.0
 11
326.1019974466758
 21
159.4521170982006
 31
0.0
 12
325.8936641133425
 22
158.2021170982006
 32
0.0
 13
325.8936641133425
 23
158.2021170982006
 33
0.0
  0
POINT
  5
9911
330
9884
100
AcDbEntity
  8
DEFPOINTS
 62
     0
100
AcDbPoint
 10
345.2709309343457
 20
188.2021170982005
 30
0.0
  0
POINT
  5
9912
330
9884
100
AcDbEntity
  8
DEFPOINTS
 62
     0
100
AcDbPoint
 10
345.270930934346
 20
158.2021170982006
 30
0.0
  0
POINT
  5
9913
330
9884
100
AcDbEntity
  8
DEFPOINTS
 62
     0
100
AcDbPoint
 10
325.8936641133425
 20
158.2021170982006
 30
0.0
  0
ENDBLK
  5
9886
330
9884
100
AcDbEntity
  8
0
100
AcDbBlockEnd
  0
BLOCK
  5
9891
330
9890
100
AcDbEntity
  8
0
100
AcDbBlockBegin
  2
*D23
 70
     1
 10
0.0
 20
0.0
 30
0.0
  3
*D23
  1

  0
LINE
  5
9914
330
9890
100
AcDbEntity
  8
DIM
 62
     6
370
    -2
100
AcDbLine
 10
362.7324230835979
 20
182.9782121513811
 30
0.0
 11
356.6210118011801
 21
193.5634869984771
 31
0.0
  0
LINE
  5
9915
330
9890
100
AcDbEntity
  8
DIM
 62
     6
370
    -2
100
AcDbLine
 10
364.4904443438898
 20
183.9932061992518
 30
0.0
 11
358.379033061472
 21
194.5784810463478
 31
0.0
  0
LINE
  5
9916
330
9890
100
AcDbEntity
  8
DIM
 62
     6
370
    -2
100
AcDbLine
 10
355.7884800464497
 20
192.5054742965849
 30
0.0
 11
354.7059482917192
 21
191.8804742965848
 31
0.0
  0
LINE
  5
9917
330
9890
100
AcDbEntity
  8
DIM
 62
     6
370
    -2
100
AcDbLine
 10
359.7115648162025
 20
194.7704683444557
 30
0.0
 11
360.7940965709331
 21
195.3954683444557
 31
0.0
  0
MTEXT
  5
9918
330
9890
100
AcDbEntity
  8
DIM
 62
     3
100
AcDbMText
 10
356.7218104119673
 20
195.4422870159236
 30
0.0
 40
1.75
 41
0.0
 71
     5
 72
     1
  1
\A1;2
  7
TXT
 11
0.8660254037844113
 21
0.5000000000000472
 31
0.0
 73
     1
 44
1.0
1001
ACAD
1000
MTEXTBEGIN
1070
    73
1070
     1
1070
    44
1040
1.0
1070
    74
1070
     0
1000
MTEXTEND
  0
SOLID
  5
9919
330
9890
100
AcDbEntity
  8
DIM
 62
     6
100
AcDbTrace
 10
355.684313379783
 20
192.6858962557066
 30
0.0
 11
355.8926467131164
 21
192.3250523374631
 31
0.0
 12
356.8710118011802
 22
193.1304742965849
 32
0.0
 13
356.8710118011802
 23
193.1304742965849
 33
0.0
  0
SOLID
  5
991A
330
9890
100
AcDbEntity
  8
DIM
 62
     6
100
AcDbTrace
 10
359.6073981495359
 20
194.9508903035774
 30
0.0
 11
359.8157314828692
 21
194.5900463853339
 31
0.0
 12
358.629033061472
 22
194.1454683444556
 32
0.0
 13
358.629033061472
 23
194.1454683444556
 33
0.0
  0
POINT
  5
991B
330
9890
100
AcDbEntity
  8
DEFPOINTS
 62
     0
100
AcDbPoint
 10
363.232423083598
 20
182.1121867475967
 30
0.0
  0
POINT
  5
991C
330
9890
100
AcDbEntity
  8
DEFPOINTS
 62
     0
100
AcDbPoint
 10
364.9904443438899
 20
183.1271807954674
 30
0.0
  0
POINT
  5
991D
330
9890
100
AcDbEntity
  8
DEFPOINTS
 62
     0
100
AcDbPoint
 10
358.629033061472
 20
194.1454683444556
 30
0.0
  0
ENDBLK
  5
9892
330
9890
100
AcDbEntity
  8
0
100
AcDbBlockEnd
  0
BLOCK
  5
989E
330
989D
100
AcDbEntity
  8
0
100
AcDbBlockBegin
  2
*D24
 70
     1
 10
0.0
 20
0.0
 30
0.0
  3
*D24
  1

  0
LINE
  5
9979
330
989D
100
AcDbEntity
  8
DIM
 62
     6
370
    -2
100
AcDbLine
 10
364.8092793496568
 20
112.7090870810794
 30
0.0
 11
364.8092793496568
 21
93.73499438362864
 31
0.0
  0
LINE
  5
997A
330
989D
100
AcDbEntity
  8
DIM
 62
     6
370
    -2
100
AcDbLine
 10
338.8092793496568
 20
94.23499438362865
 30
0.0
 11
363.5592793496568
 21
94.23499438362865
 31
0.0
  0
SOLID
  5
997B
330
989D
100
AcDbEntity
  8
DIM
 62
     6
100
AcDbTrace
 10
363.5592793496568
 20
94.44332771696197
 30
0.0
 11
363.5592793496568
 21
94.02666105029531
 31
0.0
 12
364.8092793496568
 22
94.23499438362865
 32
0.0
 13
364.8092793496568
 23
94.23499438362865
 33
0.0
  0
MTEXT
  5
997C
330
989D
100
AcDbEntity
  8
DIM
 62
     3
100
AcDbMText
 10
351.1842793496568
 20
95.60999438362864
 30
0.0
 40
1.75
 41
0.0
 71
     5
 72
     1
  1
\A1;%%c26%%p0.5
  7
TXT
 73
     1
 44
1.0
1001
ACAD
1000
MTEXTBEGIN
1070
    73
1070
     1
1070
    44
1040
1.0
1070
    74
1070
     0
1000
MTEXTEND
  0
POINT
  5
997D
330
989D
100
AcDbEntity
  8
DEFPOINTS
 62
     0
100
AcDbPoint
 10
338.8092793496568
 20
113.7090870810793
 30
0.0
  0
POINT
  5
997E
330
989D
100
AcDbEntity
  8
DEFPOINTS
 62
     0
100
AcDbPoint
 10
364.8092793496568
 20
113.7090870810794
 30
0.0
  0
POINT
  5
997F
330
989D
100
AcDbEntity
  8
DEFPOINTS
 62
     0
100
AcDbPoint
 10
364.8092793496568
 20
94.23499438362865
 30
0.0
  0
ENDBLK
  5
989F
330
989D
100
AcDbEntity
  8
0
100
AcDbBlockEnd
  0
BLOCK
  5
98AA
330
98A9
100
AcDbEntity
  8
0
100
AcDbBlockBegin
  2
*D25
 70
     1
 10
0.0
 20
0.0
 30
0.0
  3
*D25
  1

  0
LINE
  5
9927
330
98A9
100
AcDbEntity
  8
DIM
 62
     6
370
    -2
100
AcDbLine
 10
336.8092793496568
 20
129.7090870810793
 30
0.0
 11
323.3936641133425
 21
129.7090870810793
 31
0.0
  0
LINE
  5
9928
330
98A9
100
AcDbEntity
  8
DIM
 62
     6
370
    -2
100
AcDbLine
 10
337.8092793496568
 20
113.7090870810793
 30
0.0
 11
323.3936641133424
 21
113.7090870810793
 31
0.0
  0
LINE
  5
9929
330
98A9
100
AcDbEntity
  8
DIM
 62
     6
370
    -2
100
AcDbLine
 10
323.8936641133425
 20
128.4590870810793
 30
0.0
 11
323.8936641133424
 21
114.9590870810793
 31
0.0
  0
SOLID
  5
992A
330
98A9
100
AcDbEntity
  8
DIM
 62
     6
100
AcDbTrace
 10
323.6853307800092
 20
128.4590870810793
 30
0.0
 11
324.1019974466758
 21
128.4590870810793
 31
0.0
 12
323.8936641133425
 22
129.7090870810793
 32
0.0
 13
323.8936641133425
 23
129.7090870810793
 33
0.0
  0
SOLID
  5
992B
330
98A9
100
AcDbEntity
  8
DIM
 62
     6
100
AcDbTrace
 10
323.6853307800091
 20
114.9590870810793
 30
0.0
 11
324.1019974466758
 21
114.9590870810793
 31
0.0
 12
323.8936641133424
 22
113.7090870810793
 32
0.0
 13
323.8936641133424
 23
113.7090870810793
 33
0.0
  0
MTEXT
  5
992C
330
98A9
100
AcDbEntity
  8
DIM
 62
     3
100
AcDbMText
 10
322.5186641133424
 20
121.7090870810794
 30
0.0
 40
1.75
 41
0.0
 71
     5
 72
     1
  1
\A1;16%%p0.2
  7
TXT
 11
0.0000000000000001
 21
1.0
 31
0.0
 73
     1
 44
1.0
1001
ACAD
1000
MTEXTBEGIN
1070
    73
1070
     1
1070
    44
1040
1.0
1070
    74
1070
     0
1000
MTEXTEND
  0
POINT
  5
992D
330
98A9
100
AcDbEntity
  8
DEFPOINTS
 62
     0
100
AcDbPoint
 10
337.8092793496568
 20
129.7090870810793
 30
0.0
  0
POINT
  5
992E
330
98A9
100
AcDbEntity
  8
DEFPOINTS
 62
     0
100
AcDbPoint
 10
338.8092793496568
 20
113.7090870810793
 30
0.0
  0
POINT
  5
992F
330
98A9
100
AcDbEntity
  8
DEFPOINTS
 62
     0
100
AcDbPoint
 10
323.8936641133424
 20
113.7090870810793
 30
0.0
  0
ENDBLK
  5
98AB
330
98A9
100
AcDbEntity
  8
0
100
AcDbBlockEnd
  0
BLOCK
  5
98B6
330
98B5
100
AcDbEntity
  8
0
100
AcDbBlockBegin
  2
*D26
 70
     1
 10
0.0
 20
0.0
 30
0.0
  3
*D26
  1

  0
LINE
  5
9930
330
98B5
100
AcDbEntity
  8
DIM
 62
     6
370
    -2
100
AcDbLine
 10
367.3456610990647
 20
116.1224351553008
 30
0.0
 11
378.8461993027466
 21
107.0882070281602
 31
0.0
  0
LINE
  5
9931
330
98B5
100
AcDbEntity
  8
DIM
 62
     6
370
    -2
100
AcDbLine
 10
366.8092793496569
 20
129.7090870810793
 30
0.0
 11
386.6686266355297
 21
129.7090870810792
 31
0.0
  0
ARC
  5
9932
330
98B5
100
AcDbEntity
  8
DIM
 62
     6
370
    -2
100
AcDbCircle
 10
350.0499046344777
 20
129.7090870810793
 30
0.0
 40
36.11872200105199
100
AcDbArc
 50
323.8316508856121
 51
358.0170035071259
  0
SOLID
  5
9933
330
98B5
100
AcDbEntity
  8
DIM
 62
     6
100
AcDbTrace
 10
379.3740913432167
 20
108.2674274009395
 30
0.0
 11
379.0420274170125
 21
108.5191110516302
 31
0.0
 12
378.4530084280427
 22
107.3970774476722
 32
0.0
 13
378.4530084280427
 23
107.3970774476722
 33
0.0
  0
SOLID
  5
9934
330
98B5
100
AcDbEntity
  8
DIM
 62
     6
100
AcDbTrace
 10
385.938694438588
 20
128.462879248257
 30
0.0
 11
386.355298719338
 21
128.4556692294014
 31
0.0
 12
386.1686266355297
 22
129.7090870810792
 32
0.0
 13
386.1686266355297
 23
129.7090870810792
 33
0.0
  0
MTEXT
  5
9935
330
98B5
100
AcDbEntity
  8
DIM
 62
     3
100
AcDbMText
 10
382.8857710455826
 20
118.3542601110872
 30
0.0
 40
1.75
 41
0.0
 71
     5
 72
     1
  1
\A1;30%%d
  7
TXT
 11
0.3268166539453751
 21
0.9450877603185585
 31
0.0
 73
     1
 44
1.0
1001
ACAD
1000
MTEXTBEGIN
1070
    73
1070
     1
1070
    44
1040
1.0
1070
    74
1070
     0
1000
MTEXTEND
  0
POINT
  5
9936
330
98B5
100
AcDbEntity
  8
DEFPOINTS
 62
     0
100
AcDbPoint
 10
382.6679593409275
 20
114.197008362986
 30
0.0
  0
POINT
  5
9937
330
98B5
100
AcDbEntity
  8
DEFPOINTS
 62
     0
100
AcDbPoint
 10
340.8092795380792
 20
129.7090870810794
 30
0.0
  0
POINT
  5
9938
330
98B5
100
AcDbEntity
  8
DEFPOINTS
 62
     0
100
AcDbPoint
 10
366.5592793496568
 20
116.7401759943249
 30
0.0
  0
POINT
  5
9939
330
98B5
100
AcDbEntity
  8
DEFPOINTS
 62
     0
100
AcDbPoint
 10
357.3092795380793
 20
124.0064975345676
 30
0.0
  0
POINT
  5
993A
330
98B5
100
AcDbEntity
  8
DEFPOINTS
 62
     0
100
AcDbPoint
 10
365.8092793496568
 20
129.7090870810793
 30
0.0
  0
ENDBLK
  5
98B7
330
98B5
100
AcDbEntity
  8
0
100
AcDbBlockEnd
  0
BLOCK
  5
98C4
330
98C3
100
AcDbEntity
  8
0
100
AcDbBlockBegin
  2
*D27
 70
     1
 10
0.0
 20
0.0
 30
0.0
  3
*D27
  1

  0
LINE
  5
993B
330
98C3
100
AcDbEntity
  8
DIM
 62
     6
370
    -2
100
AcDbLine
 10
359.8092793496567
 20
130.7090870810793
 30
0.0
 11
359.8092793496567
 21
139.134334498889
 31
0.0
  0
LINE
  5
993C
330
98C3
100
AcDbEntity
  8
DIM
 62
     6
370
    -2
100
AcDbLine
 10
358.5592793496567
 20
138.634334498889
 30
0.0
 11
343.8092793496569
 21
138.634334498889
 31
0.0
  0
SOLID
  5
993D
330
98C3
100
AcDbEntity
  8
DIM
 62
     6
100
AcDbTrace
 10
358.5592793496567
 20
138.8426678322224
 30
0.0
 11
358.5592793496567
 21
138.4260011655557
 31
0.0
 12
359.8092793496567
 22
138.634334498889
 32
0.0
 13
359.8092793496567
 23
138.634334498889
 33
0.0
  0
MTEXT
  5
993E
330
98C3
100
AcDbEntity
  8
DIM
 62
     3
100
AcDbMText
 10
351.1842793496568
 20
140.009334498889
 30
0.0
 40
1.75
 41
0.0
 71
     5
 72
     1
  1
\A1;%%c16
  7
TXT
 73
     1
 44
1.0
1001
ACAD
1000
MTEXTBEGIN
1070
    73
1070
     1
1070
    44
1040
1.0
1070
    74
1070
     0
1000
MTEXTEND
  0
POINT
  5
993F
330
98C3
100
AcDbEntity
  8
DEFPOINTS
 62
     0
100
AcDbPoint
 10
359.8092793496567
 20
129.7090870810793
 30
0.0
  0
POINT
  5
9940
330
98C3
100
AcDbEntity
  8
DEFPOINTS
 62
     0
100
AcDbPoint
 10
343.8092793496569
 20
129.7090870810788
 30
0.0
  0
POINT
  5
9941
330
98C3
100
AcDbEntity
  8
DEFPOINTS
 62
     0
100
AcDbPoint
 10
343.8092793496569
 20
138.634334498889
 30
0.0
  0
ENDBLK
  5
98C5
330
98C3
100
AcDbEntity
  8
0
100
AcDbBlockEnd
  0
BLOCK
  5
98CE
330
98CD
100
AcDbEntity
  8
0
100
AcDbBlockBegin
  2
*D28
 70
     1
 10
0.0
 20
0.0
 30
0.0
  3
*D28
  1

  0
LINE
  5
9942
330
98CD
100
AcDbEntity
  8
DIM
 62
     6
370
    -2
100
AcDbLine
 10
359.3092793496568
 20
113.2090870810793
 30
0.0
 11
359.3092793496568
 21
102.687925685992
 31
0.0
  0
LINE
  5
9943
330
98CD
100
AcDbEntity
  8
DIM
 62
     6
370
    -2
100
AcDbLine
 10
358.0592793496568
 20
103.187925685992
 30
0.0
 11
344.3092793496568
 21
103.187925685992
 31
0.0
  0
MTEXT
  5
9944
330
98CD
100
AcDbEntity
  8
DIM
 62
     3
100
AcDbMText
 10
351.1842793496568
 20
104.562925685992
 30
0.0
 40
1.75
 41
0.0
 71
     5
 72
     1
  1
\A1;M15X1.0P
  7
TXT
 73
     1
 44
1.0
1001
ACAD
1000
MTEXTBEGIN
1070
    73
1070
     1
1070
    44
1040
1.0
1070
    74
1070
     0
1000
MTEXTEND
  0
SOLID
  5
9945
330
98CD
100
AcDbEntity
  8
DIM
 62
     6
100
AcDbTrace
 10
358.0592793496568
 20
103.3962590193253
 30
0.0
 11
358.0592793496568
 21
102.9795923526587
 31
0.0
 12
359.3092793496568
 22
103.187925685992
 32
0.0
 13
359.3092793496568
 23
103.187925685992
 33
0.0
  0
POINT
  5
9946
330
98CD
100
AcDbEntity
  8
DEFPOINTS
 62
     0
100
AcDbPoint
 10
359.3092793496568
 20
114.2090870810793
 30
0.0
  0
POINT
  5
9947
330
98CD
100
AcDbEntity
  8
DEFPOINTS
 62
     0
100
AcDbPoint
 10
344.3092793496568
 20
113.7090870810794
 30
0.0
  0
POINT
  5
9948
330
98CD
100
AcDbEntity
  8
DEFPOINTS
 62
     0
100
AcDbPoint
 10
344.3092793496568
 20
103.187925685992
 30
0.0
  0
ENDBLK
  5
98CF
330
98CD
100
AcDbEntity
  8
0
100
AcDbBlockEnd
  0
ENDSEC
  0
SECTION
  2
ENTITIES
  0
MTEXT
  5
C0
330
18
100
AcDbEntity
  8
0
100
AcDbMText
 10
41.26970765600413
 20
233.6950877649332
 30
0.0
 40
2.5
 41
0.0
 71
     1
 72
     5
  1

  7
ISOCP3
 73
     1
 44
1.0
1001
ACAD
1000
MTEXTBEGIN
1070
    73
1070
     1
1070
    44
1040
1.0
1070
    74
1070
     0
1000
MTEXTEND
  0
LINE
  5
64AF
330
18
100
AcDbEntity
  8
図框線
100
AcDbLine
 10
309.006196569778
 20
218.8811280034474
 30
0.0
 11
309.006196569778
 21
73.8811280034474
 31
0.0
  0
MTEXT
  5
9727
330
18
100
AcDbEntity
  8
0
100
AcDbMText
 10
317.9159379645268
 20
83.56812717502871
 30
0.0
 40
2.5
 41
0.0
 71
     1
 72
     5
  1
\Ftxt.shx,bigfont.shx|c128;呉銘宏
  7
JL
 73
     1
 44
1.0
1001
ACAD
1000
MTEXTBEGIN
1070
    73
1070
     1
1070
    44
1040
1.0
1070
    74
1070
     0
1000
MTEXTEND
  0
MTEXT
  5
9728
330
18
100
AcDbEntity
  8
0
100
AcDbMText
 10
349.6237848957599
 20
88.49503953014195
 30
0.0
 40
2.25
 41
0.0
 71
     1
 72
     5
  1
\Ftxt.shx,bigfont.shx|c128;2 : 1
  7
JL
 73
     1
 44
1.0
1001
ACAD
1000
MTEXTBEGIN
1070
    73
1070
     1
1070
    44
1040
1.0
1070
    74
1070
     0
1000
MTEXTEND
  0
MTEXT
  5
9729
330
18
100
AcDbEntity
  8
0
 48
2.0
370
    25
100
AcDbMText
 10
382.0679100150938
 20
75.69961297086192
 30
0.0
 40
2.25
 41
0.0
 71
     5
 72
     1
  1
\Ftxt.shx,bigfont.shx|c128;N L 4 0 2 0 3
 73
     1
 44
1.0
1001
ACAD
1000
MTEXTBEGIN
1070
    73
1070
     1
1070
    44
1040
1.0
1070
    74
1070
     0
1000
MTEXTEND
  0
MTEXT
  5
972A
330
18
100
AcDbEntity
  8
0
 48
2.0
100
AcDbMText
 10
398.0712339196667
 20
84.96887935368661
 30
0.0
 40
2.25
 41
0.0
 71
     5
 72
     1
  1
\P\Ftxt.shx,bigfont.shx|c128;SFZ15X1.0P
 73
     1
 44
1.0
1001
ACAD
1000
MTEXTBEGIN
1070
    73
1070
     1
1070
    44
1040
1.0
1070
    74
1070
     0
1000
MTEXTEND
  0
MTEXT
  5
972B
330
18
100
AcDbEntity
  8
0
100
AcDbMText
 10
317.0179371153257
 20
88.20409093100719
 30
0.0
 40
2.25
 41
0.0
 71
     1
 72
     5
  1
\Ftxt.shx,bigfont.shx|c128;05.03.09
  7
JL
 73
     1
 44
1.0
1001
ACAD
1000
MTEXTBEGIN
1070
    73
1070
     1
1070
    44
1040
1.0
1070
    74
1070
     0
1000
MTEXTEND
  0
INSERT
  5
972C
330
18
100
AcDbEntity
  8
mark
100
AcDbBlockReference
  2
A$C255C26A2
 10
343.8816186170602
 20
129.7090867340886
 30
0.0
 41
0.5
 42
0.5
 43
0.5
  0
MTEXT
  5
972D
330
18
100
AcDbEntity
  8
DIM
100
AcDbMText
 10
372.3056138909407
 20
141.3613308518361
 30
0.0
 40
2.5
 41
1.0
 71
     1
 72
     5
  1
\Ftxt.shx,bigfont.shx|c128;3
 73
     1
 44
1.0
1001
ACAD
1000
MTEXTBEGIN
1070
    73
1070
     1
1070
    44
1040
1.0
1070
    74
1070
     0
1000
MTEXTEND
  0
MTEXT
  5
972E
330
18
100
AcDbEntity
  8
DIM
100
AcDbMText
 10
373.7550286668768
 20
154.964069305966
 30
0.0
 40
2.5
 41
1.0
 71
     1
 72
     5
  1
\Ftxt.shx,bigfont.shx|c128;1
 73
     1
 44
1.0
1001
ACAD
1000
MTEXTBEGIN
1070
    73
1070
     1
1070
    44
1040
1.0
1070
    74
1070
     0
1000
MTEXTEND
  0
MTEXT
  5
972F
330
18
100
AcDbEntity
  8
DIM
100
AcDbMText
 10
373.2159217473834
 20
107.4788160596033
 30
0.0
 40
2.5
 41
1.0
 71
     1
 72
     5
  1
\Ftxt.shx,bigfont.shx|c128;2
 73
     1
 44
1.0
1001
ACAD
1000
MTEXTBEGIN
1070
    73
1070
     1
1070
    44
1040
1.0
1070
    74
1070
     0
1000
MTEXTEND
  0
LINE
  5
9730
330
18
100
AcDbEntity
  8
図框線
100
AcDbLine
 10
408.0061965697779
 20
218.8811280034474
 30
0.0
 11
408.0061965697779
 21
73.88112800344737
 31
0.0
  0
LINE
  5
9731
330
18
100
AcDbEntity
  8
図框線
370
    30
100
AcDbLine
 10
309.0061965697779
 20
73.8811280034474
 30
0.0
 11
309.0061965697779
 21
218.8811280034474
 31
0.0
  0
LINE
  5
9732
330
18
100
AcDbEntity
  8
0
 62
     7
 48
5.0
100
AcDbLine
 39
2.0
 10
333.9799491479496
 20
87.82878999263649
 30
0.0
 11
336.6458510058042
 21
88.49526545710014
 31
0.0
  0
MTEXT
  5
9733
330
18
100
AcDbEntity
  8
0
100
AcDbMText
 10
316.9955314555717
 20
78.69679805584152
 30
0.0
 40
3.0
 41
0.0
 71
     1
 72
     5
  1
\Ftxt.shx,bigfont.shx|c128;日機株式会社
  7
LKK
 73
     1
 44
1.0
1001
ACAD
1000
MTEXTBEGIN
1070
    73
1070
     1
1070
    44
1040
1.0
1070
    74
1070
     0
1000
MTEXTEND
  0
LINE
  5
9734
330
18
100
AcDbEntity
  8
図框線
100
AcDbLine
 10
309.006196569778
 20
73.8811280034474
 30
0.0
 11
408.0061965697779
 21
73.8811280034474
 31
0.0
  0
LINE
  5
9735
330
18
100
AcDbEntity
  8
図框線
100
AcDbLine
 10
309.006196569778
 20
79.8811280034474
 30
0.0
 11
408.0061965697779
 21
79.88112800344743
 31
0.0
  0
LINE
  5
9736
330
18
100
AcDbEntity
  8
図框線
100
AcDbLine
 10
309.006196569778
 20
84.8811280034474
 30
0.0
 11
357.006196569778
 21
84.8811280034474
 31
0.0
  0
LINE
  5
9737
330
18
100
AcDbEntity
  8
図框線
100
AcDbLine
 10
309.006196569778
 20
89.8811280034474
 30
0.0
 11
408.0061965697779
 21
89.8811280034474
 31
0.0
  0
LINE
  5
9738
330
18
100
AcDbEntity
  8
図框線
100
AcDbLine
 10
315.006196569778
 20
89.8811280034474
 30
0.0
 11
315.006196569778
 21
79.8811280034474
 31
0.0
  0
LINE
  5
9739
330
18
100
AcDbEntity
  8
図框線
100
AcDbLine
 10
325.006196569778
 20
89.8811280034474
 30
0.0
 11
325.006196569778
 21
79.8811280034474
 31
0.0
  0
MTEXT
  5
973A
330
18
100
AcDbEntity
  8
0
100
AcDbMText
 10
310.4809186941884
 20
88.40470317020352
 30
0.0
 40
2.25
 41
0.0
 71
     1
 72
     5
  1
\Ftxt.shx,bigfont.shx|c128;日 付
  7
JL
 73
     1
 44
1.0
1001
ACAD
1000
MTEXTBEGIN
1070
    73
1070
     1
1070
    44
1040
1.0
1070
    74
1070
     0
1000
MTEXTEND
  0
MTEXT
  5
973B
330
18
100
AcDbEntity
  8
0
100
AcDbMText
 10
310.554052752233
 20
83.80029750080197
 30
0.0
 40
2.25
 41
0.0
 71
     1
 72
     5
  1
\Ftxt.shx,bigfont.shx|c128;製 図
  7
JL
 73
     1
 44
1.0
1001
ACAD
1000
MTEXTBEGIN
1070
    73
1070
     1
1070
    44
1040
1.0
1070
    74
1070
     0
1000
MTEXTEND
  0
LINE
  5
973C
330
18
100
AcDbEntity
  8
0
 62
     7
370
    25
100
AcDbLine
 10
336.6458510058042
 20
85.82936359924557
 30
0.0
 11
336.6458510058042
 21
88.49526545710014
 31
0.0
  0
MTEXT
  5
973D
330
18
100
AcDbEntity
  8
0
100
AcDbMText
 10
342.3574669064408
 20
88.59228735478664
 30
0.0
 40
2.25
 41
0.0
 71
     1
 72
     5
  1
\Ftxt.shx,bigfont.shx|c128;尺 度
  7
JL
 73
     1
 44
1.0
1001
ACAD
1000
MTEXTBEGIN
1070
    73
1070
     1
1070
    44
1040
1.0
1070
    74
1070
     0
1000
MTEXTEND
  0
LINE
  5
973E
330
18
100
AcDbEntity
  8
図框線
100
AcDbLine
 10
341.006196569778
 20
89.8811280034474
 30
0.0
 11
341.006196569778
 21
79.8811280034474
 31
0.0
  0
LINE
  5
973F
330
18
100
AcDbEntity
  8
0
 62
     7
370
    25
100
AcDbLine
 10
329.6478586289359
 20
85.50060236212798
 30
0.0
 11
329.6478586289359
 21
88.71846175347569
 31
0.0
  0
CIRCLE
  5
9740
330
18
100
AcDbEntity
  8
0
 62
     7
100
AcDbCircle
 10
329.6478586289359
 20
87.16231452817281
 30
0.0
 40
1.33295092892732
  0
LINE
  5
9741
330
18
100
AcDbEntity
  8
0
 62
     7
370
    25
100
AcDbLine
 10
333.5963479753084
 20
87.16231452817286
 30
0.0
 11
336.8851831792938
 21
87.16231452817286
 31
0.0
  0
LINE
  5
9742
330
18
100
AcDbEntity
  8
0
 62
     7
100
AcDbLine
 10
333.9799491479496
 20
86.49583906370921
 30
0.0
 11
336.6458510058042
 21
85.82936359924557
 31
0.0
  0
LINE
  5
9743
330
18
100
AcDbEntity
  8
図框線
100
AcDbLine
 10
331.006196569778
 20
84.88112800344735
 30
0.0
 11
331.006196569778
 21
79.8811280034474
 31
0.0
  0
LINE
  5
9744
330
18
100
AcDbEntity
  8
0
 62
     7
370
    25
100
AcDbLine
 10
327.9820592339977
 20
87.16231452817281
 30
0.0
 11
331.4131545431626
 21
87.16231452817286
 31
0.0
  0
CIRCLE
  5
9745
330
18
100
AcDbEntity
  8
0
 62
     7
100
AcDbCircle
 10
329.6478586289359
 20
87.16231452817281
 30
0.0
 40
0.6664754644636604
  0
MTEXT
  5
9746
330
18
100
AcDbEntity
  8
0
100
AcDbMText
 10
326.5666291599769
 20
83.58103971928764
 30
0.0
 40
2.25
 41
0.0
 71
     1
 72
     5
  1
\Ftxt.shx,bigfont.shx|c128;検 図
  7
JL
 73
     1
 44
1.0
1001
ACAD
1000
MTEXTBEGIN
1070
    73
1070
     1
1070
    44
1040
1.0
1070
    74
1070
     0
1000
MTEXTEND
  0
LINE
  5
9747
330
18
100
AcDbEntity
  8
0
 62
     7
370
    25
100
AcDbLine
 10
333.9799491479496
 20
86.49583906370921
 30
0.0
 11
333.9799491479496
 21
87.82878999263649
 31
0.0
  0
MTEXT
  5
9748
330
18
100
AcDbEntity
  8
0
100
AcDbMText
 10
342.5037336614655
 20
83.69553826345471
 30
0.0
 40
2.25
 41
0.0
 71
     1
 72
     5
  1
\Ftxt.shx,bigfont.shx|c128;承 認
  7
JL
 73
     1
 44
1.0
1001
ACAD
1000
MTEXTBEGIN
1070
    73
1070
     1
1070
    44
1040
1.0
1070
    74
1070
     0
1000
MTEXTEND
  0
LINE
  5
9749
330
18
100
AcDbEntity
  8
図框線
100
AcDbLine
 10
376.5295085891979
 20
189.6458255633899
 30
0.0
 11
406.5295085891979
 21
189.6458255633898
 31
0.0
  0
LINE
  5
974A
330
18
100
AcDbEntity
  8
図框線
100
AcDbLine
 10
376.5295085891979
 20
193.2458255633899
 30
0.0
 11
406.5295085891979
 21
193.2458255633899
 31
0.0
  0
LINE
  5
974B
330
18
100
AcDbEntity
  8
図框線
100
AcDbLine
 10
376.5295085891979
 20
196.8458255633898
 30
0.0
 11
406.5295085891979
 21
196.8458255633898
 31
0.0
  0
LINE
  5
974C
330
18
100
AcDbEntity
  8
図框線
100
AcDbLine
 10
376.5295085891979
 20
200.4458255633899
 30
0.0
 11
406.5295085891979
 21
200.4458255633899
 31
0.0
  0
LINE
  5
974D
330
18
100
AcDbEntity
  8
図框線
100
AcDbLine
 10
376.5295085891979
 20
186.0458255633898
 30
0.0
 11
406.5295085891979
 21
186.0458255633898
 31
0.0
  0
MTEXT
  5
974E
330
18
100
AcDbEntity
  8
0
 62
     7
 48
2.0
100
AcDbMText
 10
391.4722085721336
 20
200.842409768682
 30
0.0
 40
2.4
 41
0.0
 71
     5
 72
     1
  1
\P\Ftxt.shx,bigfont.shx|c128;諸　　　　元
 73
     1
 44
1.0
1001
ACAD
1000
MTEXTBEGIN
1070
    73
1070
     1
1070
    44
1040
1.0
1070
    74
1070
     0
1000
MTEXTEND
  0
LINE
  5
974F
330
18
100
AcDbEntity
  8
図框線
100
AcDbLine
 10
376.5295085891979
 20
200.4458255633899
 30
0.0
 11
376.5295085891979
 21
186.0458255633898
 31
0.0
  0
MTEXT
  5
9750
330
18
100
AcDbEntity
  8
0
100
AcDbMText
 10
378.290726496038
 20
196.0825709798294
 30
0.0
 40
2.2
 41
81.95814342112454
 71
     1
 72
     5
  1
\Ftxt.shx,bigfont.shx|c128;熱　処　理
  7
JL
 73
     1
 44
1.0
1001
ACAD
1000
MTEXTBEGIN
1070
    73
1070
     1
1070
    44
1040
1.0
1070
    74
1070
     0
1000
MTEXTEND
  0
LINE
  5
9751
330
18
100
AcDbEntity
  8
図框線
100
AcDbLine
 10
388.5295085891979
 20
196.8458255633898
 30
0.0
 11
388.5295085891979
 21
186.0458255633898
 31
0.0
  0
MTEXT
  5
9752
330
18
100
AcDbEntity
  8
0
100
AcDbMText
 10
357.8347093510971
 20
79.45778872672608
 30
0.0
 40
2.5
 41
0.0
 71
     1
 72
     5
  1
\Ftxt.shx,bigfont.shx|c128;図  面  番  号
  7
JL
 73
     1
 44
1.0
1001
ACAD
1000
MTEXTBEGIN
1070
    73
1070
     1
1070
    44
1040
1.0
1070
    74
1070
     0
1000
MTEXTEND
  0
MTEXT
  5
9753
330
18
100
AcDbEntity
  8
0
 62
     7
 48
2.0
100
AcDbMText
 10
369.9192391024711
 20
85.02691213071519
 30
0.0
 40
2.25
 41
0.0
 71
     5
 72
     1
  1
\P\Ftxt.shx,bigfont.shx|c128;    精密ロックナット
 73
     1
 44
1.0
1001
ACAD
1000
MTEXTBEGIN
1070
    73
1070
     1
1070
    44
1040
1.0
1070
    74
1070
     0
1000
MTEXTEND
  0
MTEXT
  5
9754
330
18
100
AcDbEntity
  8
0
370
    25
100
AcDbMText
 10
358.4063427224579
 20
88.78457208046725
 30
0.0
 40
2.5
 41
0.0
 71
     1
 72
     5
  1
\Ftxt.shx,bigfont.shx|c128;品  名
  7
JL
 73
     1
 44
1.0
1001
ACAD
1000
MTEXTBEGIN
1070
    73
1070
     1
1070
    44
1040
1.0
1070
    74
1070
     0
1000
MTEXTEND
  0
LINE
  5
9755
330
18
100
AcDbEntity
  8
図框線
100
AcDbLine
 10
357.006196569778
 20
89.8811280034474
 30
0.0
 11
357.006196569778
 21
73.97664880890997
 31
0.0
  0
LINE
  5
9756
330
18
100
AcDbEntity
  8
図框線
100
AcDbLine
 10
347.006196569778
 20
89.8811280034474
 30
0.0
 11
347.006196569778
 21
79.8811280034474
 31
0.0
  0
LINE
  5
9757
330
18
100
AcDbEntity
  8
図框線
100
AcDbLine
 10
385.6179766652122
 20
89.8811280034474
 30
0.0
 11
385.6179766652122
 21
79.8811280034474
 31
0.0
  0
MTEXT
  5
9758
330
18
100
AcDbEntity
  8
0
100
AcDbMText
 10
378.1505893123484
 20
192.5814567561994
 30
0.0
 40
2.2
 41
81.80293144248363
 71
     1
 72
     5
  1
\Ftxt.shx,bigfont.shx|c128;表 面 処 理
  7
JL
 73
     1
 44
1.0
1001
ACAD
1000
MTEXTBEGIN
1070
    73
1070
     1
1070
    44
1040
1.0
1070
    74
1070
     0
1000
MTEXTEND
  0
MTEXT
  5
9759
330
18
100
AcDbEntity
  8
0
100
AcDbMText
 10
378.2956222365659
 20
188.9372203293954
 30
0.0
 40
2.2
 41
83.0859
 71
     1
 72
     5
  1
\Ftxt.shx,bigfont.shx|c128;等     　級
  7
JL
 73
     1
 44
1.0
1001
ACAD
1000
MTEXTBEGIN
1070
    73
1070
     1
1070
    44
1040
1.0
1070
    74
1070
     0
1000
MTEXTEND
  0
LINE
  5
975A
330
18
100
AcDbEntity
  8
図框線
100
AcDbLine
 10
406.5295085891979
 20
200.4458255633899
 30
0.0
 11
406.5295085891979
 21
186.0458255633899
 31
0.0
  0
MTEXT
  5
975B
330
18
100
AcDbEntity
  8
0
100
AcDbMText
 10
390.9030102439192
 20
195.9950920261246
 30
0.0
 40
2.2
 41
145.9480028428943
 71
     1
 72
     5
  1
\Ftxt.shx,bigfont.shx|c128;調質　HRC30%%d%%p２%%d
  7
JL
 73
     1
 44
1.0
1001
ACAD
1000
MTEXTBEGIN
1070
    73
1070
     1
1070
    44
1040
1.0
1070
    74
1070
     0
1000
MTEXTEND
  0
MTEXT
  5
975C
330
18
100
AcDbEntity
  8
0
370
    25
100
AcDbMText
 10
387.6309333341492
 20
88.67397682391525
 30
0.0
 40
2.5
 41
0.0
 71
     1
 72
     5
  1
\Ftxt.shx,bigfont.shx|c128;型  番
  7
JL
 73
     1
 44
1.0
1001
ACAD
1000
MTEXTBEGIN
1070
    73
1070
     1
1070
    44
1040
1.0
1070
    74
1070
     0
1000
MTEXTEND
  0
MTEXT
  5
975D
330
18
100
AcDbEntity
  8
0
100
AcDbMText
 10
395.3998291309475
 20
79.49962902040451
 30
0.0
 40
2.5
 41
0.0
 71
     1
 72
     5
  1
\Ftxt.shx,bigfont.shx|c128;変更
  7
JL
 73
     1
 44
1.0
1001
ACAD
1000
MTEXTBEGIN
1070
    73
1070
     1
1070
    44
1040
1.0
1070
    74
1070
     0
1000
MTEXTEND
  0
LINE
  5
975E
330
18
100
AcDbEntity
  8
図框線
100
AcDbLine
 10
394.506196569778
 20
79.88566314266106
 30
0.0
 11
394.506196569778
 21
73.8811280034474
 31
0.0
  0
MTEXT
  5
975F
330
18
100
AcDbEntity
  8
0
100
AcDbMText
 10
391.0333297446374
 20
188.937525615121
 30
0.0
 40
2.2
 41
145.3916823984455
 71
     1
 72
     5
  1
\Ftxt.shx,bigfont.shx|c128;ＩＳＯ - ４Ｈ
  7
JL
 73
     1
 44
1.0
1001
ACAD
1000
MTEXTBEGIN
1070
    73
1070
     1
1070
    44
1040
1.0
1070
    74
1070
     0
1000
MTEXTEND
  0
MTEXT
  5
9760
330
18
100
AcDbEntity
  8
0
100
AcDbMText
 10
391.1205603437025
 20
192.405010287722
 30
0.0
 40
2.2
 41
145.7274
 71
     1
 72
     5
  1
\Ftxt.shx,bigfont.shx|c128;黒  　    染
  7
JL
 73
     1
 44
1.0
1001
ACAD
1000
MTEXTBEGIN
1070
    73
1070
     1
1070
    44
1040
1.0
1070
    74
1070
     0
1000
MTEXTEND
  0
MTEXT
  5
9761
330
18
100
AcDbEntity
  8
0
100
AcDbMText
 10
339.037789573573
 20
208.9290531322199
 30
0.0
 40
2.5
 41
0.0
 71
     1
 72
     5
  1
\Ftxt.shx,bigfont.shx|c128;M6X1.0P-5L
  7
JL
 73
     1
 44
1.0
1001
ACAD
1000
MTEXTBEGIN
1070
    73
1070
     1
1070
    44
1040
1.0
1070
    74
1070
     0
1000
MTEXTEND
  0
MTEXT
  5
9762
330
18
100
AcDbEntity
  8
0
100
AcDbMText
 10
339.037789573573
 20
204.9290531322199
 30
0.0
 40
2.5
 41
0.0
 71
     1
 72
     5
  1
\Ftxt.shx,bigfont.shx|c128;%%c5.2X5L
  7
JL
 73
     1
 44
1.0
1001
ACAD
1000
MTEXTBEGIN
1070
    73
1070
     1
1070
    44
1040
1.0
1070
    74
1070
     0
1000
MTEXTEND
  0
LINE
  5
9763
330
18
100
AcDbEntity
  8
図框線
100
AcDbLine
 10
309.0061965697779
 20
205.8811280034473
 30
0.0
 11
408.0061965697779
 21
205.8811280034473
 31
0.0
  0
LINE
  5
9764
330
18
100
AcDbEntity
  8
図框線
100
AcDbLine
 10
309.0061965697779
 20
209.8811280034473
 30
0.0
 11
408.0061965697779
 21
209.8811280034473
 31
0.0
  0
LINE
  5
9765
330
18
100
AcDbEntity
  8
図框線
 62
     9
100
AcDbLine
 10
309.0061965697779
 20
213.8811280034473
 30
0.0
 11
408.0061965697779
 21
213.8811280034473
 31
0.0
  0
LINE
  5
9766
330
18
100
AcDbEntity
  8
図框線
100
AcDbLine
 10
309.0061965697779
 20
218.8811280034474
 30
0.0
 11
408.0061965697779
 21
218.8811280034474
 31
0.0
  0
MTEXT
  5
9767
330
18
100
AcDbEntity
  8
0
100
AcDbMText
 10
338.7143478681867
 20
217.5389256060026
 30
0.0
 40
2.5
 41
0.0
 71
     1
 72
     5
  1
\Ftxt.shx,bigfont.shx|c128;図    番 / 規　　格
  7
JL
 73
     1
 44
1.0
1001
ACAD
1000
MTEXTBEGIN
1070
    73
1070
     1
1070
    44
1040
1.0
1070
    74
1070
     0
1000
MTEXTEND
  0
LINE
  5
9768
330
18
100
AcDbEntity
  8
図框線
100
AcDbLine
 10
309.0061965697779
 20
205.8811280034473
 30
0.0
 11
408.0061965697779
 21
205.8811280034473
 31
0.0
  0
LINE
  5
9769
330
18
100
AcDbEntity
  8
図框線
100
AcDbLine
 10
309.0061965697779
 20
201.8811280034473
 30
0.0
 11
408.0061965697779
 21
201.8811280034473
 31
0.0
  0
MTEXT
  5
976A
330
18
100
AcDbEntity
  8
0
100
AcDbMText
 10
320.0133711404842
 20
217.2755292944388
 30
0.0
 40
2.5
 41
0.0
 71
     1
 72
     5
  1
\Ftxt.shx,bigfont.shx|c128;品　          名
  7
JL
 73
     1
 44
1.0
1001
ACAD
1000
MTEXTBEGIN
1070
    73
1070
     1
1070
    44
1040
1.0
1070
    74
1070
     0
1000
MTEXTEND
  0
MTEXT
  5
976B
330
18
100
AcDbEntity
  8
0
100
AcDbMText
 10
318.4387153762991
 20
209.1460554932147
 30
0.0
 40
3.0
 41
0.0
 71
     1
 72
     5
  1
\Ftxt.shx,bigfont.shx|c128;セットスクリュ-
  7
JL
 73
     1
 44
1.0
1001
ACAD
1000
MTEXTBEGIN
1070
    73
1070
     1
1070
    44
1040
1.0
1070
    74
1070
     0
1000
MTEXTEND
  0
MTEXT
  5
976C
330
18
100
AcDbEntity
  8
0
100
AcDbMText
 10
318.3409038648017
 20
213.0641605287176
 30
0.0
 40
3.0
 41
0.0
 71
     1
 72
     5
  1
\Ftxt.shx,bigfont.shx|c128;ロックナット　  
  7
JL
 73
     1
 44
1.0
1001
ACAD
1000
MTEXTBEGIN
1070
    73
1070
     1
1070
    44
1040
1.0
1070
    74
1070
     0
1000
MTEXTEND
  0
MTEXT
  5
976D
330
18
100
AcDbEntity
  8
0
100
AcDbMText
 10
318.4387153762991
 20
205.1460554932147
 30
0.0
 40
3.0
 41
0.0
 71
     1
 72
     5
  1
\Ftxt.shx,bigfont.shx|c128;ロックピン 
  7
JL
 73
     1
 44
1.0
1001
ACAD
1000
MTEXTBEGIN
1070
    73
1070
     1
1070
    44
1040
1.0
1070
    74
1070
     0
1000
MTEXTEND
  0
LINE
  5
976E
330
18
100
AcDbEntity
  8
図框線
100
AcDbLine
 10
316.5061965697779
 20
218.8811280034473
 30
0.0
 11
316.5061965697781
 21
201.8811280034473
 31
0.0
  0
MTEXT
  5
976F
330
18
100
AcDbEntity
  8
0
100
AcDbMText
 10
312.1138411134733
 20
205.2529484712671
 30
0.0
 40
2.5
 41
0.0
 71
     1
 72
     5
  1
\Ftxt.shx,bigfont.shx|c128;3
  7
JL
 73
     1
 44
1.0
1001
ACAD
1000
MTEXTBEGIN
1070
    73
1070
     1
1070
    44
1040
1.0
1070
    74
1070
     0
1000
MTEXTEND
  0
MTEXT
  5
9770
330
18
100
AcDbEntity
  8
0
100
AcDbMText
 10
312.5571750831114
 20
213.1710535067701
 30
0.0
 40
2.5
 41
0.0
 71
     1
 72
     5
  1
\Ftxt.shx,bigfont.shx|c128;1
  7
JL
 73
     1
 44
1.0
1001
ACAD
1000
MTEXTBEGIN
1070
    73
1070
     1
1070
    44
1040
1.0
1070
    74
1070
     0
1000
MTEXTEND
  0
MTEXT
  5
9771
330
18
100
AcDbEntity
  8
0
100
AcDbMText
 10
312.1138411134733
 20
209.2529484712671
 30
0.0
 40
2.5
 41
0.0
 71
     1
 72
     5
  1
\Ftxt.shx,bigfont.shx|c128;2
  7
JL
 73
     1
 44
1.0
1001
ACAD
1000
MTEXTBEGIN
1070
    73
1070
     1
1070
    44
1040
1.0
1070
    74
1070
     0
1000
MTEXTEND
  0
MTEXT
  5
9772
330
18
100
AcDbEntity
  8
0
100
AcDbMText
 10
310.1107385656992
 20
217.4253907116503
 30
0.0
 40
2.5
 41
0.0
 71
     1
 72
     5
  1
\Ftxt.shx,bigfont.shx|c128;照   号
  7
JL
 73
     1
 44
1.0
1001
ACAD
1000
MTEXTBEGIN
1070
    73
1070
     1
1070
    44
1040
1.0
1070
    74
1070
     0
1000
MTEXTEND
  0
LINE
  5
9773
330
18
100
AcDbEntity
  8
図框線
 62
     9
100
AcDbLine
 10
336.5061965697779
 20
218.8811280034473
 30
0.0
 11
336.5061965697779
 21
201.8811280034474
 31
0.0
  0
MTEXT
  5
9774
330
18
100
AcDbEntity
  8
0
100
AcDbMText
 10
382.1738848660469
 20
217.6713304905658
 30
0.0
 40
2.5
 41
0.0
 71
     1
 72
     5
  1
\Ftxt.shx,bigfont.shx|c128;備           考
  7
JL
 73
     1
 44
1.0
1001
ACAD
1000
MTEXTBEGIN
1070
    73
1070
     1
1070
    44
1040
1.0
1070
    74
1070
     0
1000
MTEXTEND
  0
LINE
  5
9775
330
18
100
AcDbEntity
  8
図框線
 62
     9
100
AcDbLine
 10
356.5061965697779
 20
218.8811280034474
 30
0.0
 11
356.5061965697779
 21
201.8811280034473
 31
0.0
  0
MTEXT
  5
9776
330
18
100
AcDbEntity
  8
0
100
AcDbMText
 10
357.3981317186599
 20
205.0641605287176
 30
0.0
 40
2.5
 41
0.0
 71
     1
 72
     5
  1
\Ftxt.shx,bigfont.shx|c128;C3604
  7
JL
 73
     1
 44
1.0
1001
ACAD
1000
MTEXTBEGIN
1070
    73
1070
     1
1070
    44
1040
1.0
1070
    74
1070
     0
1000
MTEXTEND
  0
MTEXT
  5
9777
330
18
100
AcDbEntity
  8
0
100
AcDbMText
 10
357.3981317186599
 20
213.0641605287176
 30
0.0
 40
2.5
 41
0.0
 71
     1
 72
     5
  1
\Ftxt.shx,bigfont.shx|c128;SCM-440
  7
JL
 73
     1
 44
1.0
1001
ACAD
1000
MTEXTBEGIN
1070
    73
1070
     1
1070
    44
1040
1.0
1070
    74
1070
     0
1000
MTEXTEND
  0
MTEXT
  5
9778
330
18
100
AcDbEntity
  8
0
100
AcDbMText
 10
357.3981317186599
 20
209.0641605287176
 30
0.0
 40
2.5
 41
0.0
 71
     1
 72
     5
  1
\Ftxt.shx,bigfont.shx|c128;SCM435
  7
JL
 73
     1
 44
1.0
1001
ACAD
1000
MTEXTBEGIN
1070
    73
1070
     1
1070
    44
1040
1.0
1070
    74
1070
     0
1000
MTEXTEND
  0
MTEXT
  5
9779
330
18
100
AcDbEntity
  8
0
100
AcDbMText
 10
358.906359067005
 20
217.6713304905658
 30
0.0
 40
2.5
 41
0.0
 71
     1
 72
     5
  1
\Ftxt.shx,bigfont.shx|c128;材　質
  7
JL
 73
     1
 44
1.0
1001
ACAD
1000
MTEXTBEGIN
1070
    73
1070
     1
1070
    44
1040
1.0
1070
    74
1070
     0
1000
MTEXTEND
  0
LINE
  5
977A
330
18
100
AcDbEntity
  8
図框線
 62
     9
100
AcDbLine
 10
366.5061965697779
 20
218.8811280034474
 30
0.0
 11
366.5061965697779
 21
201.8811280034473
 31
0.0
  0
LINE
  5
977B
330
18
100
AcDbEntity
  8
図框線
100
AcDbLine
 10
374.0061965697779
 20
218.8811280034474
 30
0.0
 11
374.0061965697779
 21
201.8811280034473
 31
0.0
  0
MTEXT
  5
977C
330
18
100
AcDbEntity
  8
0
100
AcDbMText
 10
369.6138411134732
 20
205.2529484712671
 30
0.0
 40
2.5
 41
0.0
 71
     1
 72
     5
  1
\Ftxt.shx,bigfont.shx|c128;3
  7
JL
 73
     1
 44
1.0
1001
ACAD
1000
MTEXTBEGIN
1070
    73
1070
     1
1070
    44
1040
1.0
1070
    74
1070
     0
1000
MTEXTEND
  0
MTEXT
  5
977D
330
18
100
AcDbEntity
  8
0
100
AcDbMText
 10
370.0571750831114
 20
213.1710535067701
 30
0.0
 40
2.5
 41
0.0
 71
     1
 72
     5
  1
\Ftxt.shx,bigfont.shx|c128;1
  7
JL
 73
     1
 44
1.0
1001
ACAD
1000
MTEXTBEGIN
1070
    73
1070
     1
1070
    44
1040
1.0
1070
    74
1070
     0
1000
MTEXTEND
  0
MTEXT
  5
977E
330
18
100
AcDbEntity
  8
0
100
AcDbMText
 10
369.6138411134732
 20
209.2529484712671
 30
0.0
 40
2.5
 41
0.0
 71
     1
 72
     5
  1
\Ftxt.shx,bigfont.shx|c128;3
  7
JL
 73
     1
 44
1.0
1001
ACAD
1000
MTEXTBEGIN
1070
    73
1070
     1
1070
    44
1040
1.0
1070
    74
1070
     0
1000
MTEXTEND
  0
MTEXT
  5
977F
330
18
100
AcDbEntity
  8
0
100
AcDbMText
 10
367.2230667257366
 20
217.6713304905658
 30
0.0
 40
2.5
 41
0.0
 71
     1
 72
     5
  1
\Ftxt.shx,bigfont.shx|c128;数   量
  7
JL
 73
     1
 44
1.0
1001
ACAD
1000
MTEXTBEGIN
1070
    73
1070
     1
1070
    44
1040
1.0
1070
    74
1070
     0
1000
MTEXTEND
  0
MTEXT
  5
9780
330
18
100
AcDbEntity
  8
DIM
100
AcDbMText
 10
358.0317749006054
 20
198.1022279781353
 30
0.0
 40
1.25
 41
15.60204752540142
 71
     1
 72
     5
  1
+0.15\P+0
  7
TXT
 11
0.8660254037844387
 21
0.5
 31
0.0
 73
     1
 44
1.0
1001
ACAD
1000
MTEXTBEGIN
1070
    73
1070
     1
1070
    44
1040
1.0
1070
    74
1070
     0
1000
MTEXTEND
  0
LINE
  5
9781
330
18
100
AcDbEntity
  8
0
 62
     6
100
AcDbLine
 10
323.8936641133424
 20
129.7090870810793
 30
0.0
 11
323.8936641133424
 21
136.546320574188
 31
0.0
  0
TOLERANCE
  5
9782
330
18
100
AcDbEntity
  8
0
  6
ByBlock
100
AcDbFcf
  3
A
 10
310.9003593881028
 20
136.546320574188
 30
0.0
  1
{\Fgdt;h}%%v0.005%%v%%vA%%v%%v
1001
ACAD
1000
DSTYLE
1002
{
1070
   140
1040
1.371999999999999
1070
    40
1040
1.0
1070
   147
1040
0.3429999999999999
1002
}
  0
MTEXT
  5
9783
330
18
100
AcDbEntity
  8
DIM
100
AcDbMText
 10
351.4473740015886
 20
151.1372743672372
 30
0.0
 40
1.25
 41
5.603326618818573
 71
     1
 72
     5
  1
+0\P-0.12
  7
TXT
 73
     1
 44
1.0
1001
ACAD
1000
MTEXTBEGIN
1070
    73
1070
     1
1070
    44
1040
1.0
1070
    74
1070
     0
1000
MTEXTEND
  0
LINE
  5
9784
330
18
100
AcDbEntity
  8
mark
100
AcDbLine
 10
359.3092793496568
 20
100.8819119283014
 30
0.0
 11
360.2217376978824
 21
99.90403783257637
 31
0.0
  0
HATCH
  5
9785
330
18
100
AcDbEntity
  8
mark
100
AcDbHatch
 10
0.0
 20
0.0
 30
0.0
210
0.0
220
0.0
230
1.0
  2
SOLID
 70
     1
 71
     0
 91
        1
 92
        7
 72
     0
 73
     1
 93
        3
 10
359.3081552352042
 20
98.89822353332091
 10
360.2268873238042
 20
99.88303132856465
 10
359.3081552352042
 20
100.8678391238084
 97
        0
 75
     0
 76
     1
 47
0.2359147607200769
 98
        1
 10
359.595971231435
 20
100.0945073342561
  0
LINE
  5
9786
330
18
100
AcDbEntity
  8
mark
100
AcDbLine
 10
367.8476181950422
 20
98.09038402841686
 30
0.0
 11
367.8476181950422
 21
101.736682818438
 31
0.0
  0
LINE
  5
9787
330
18
100
AcDbEntity
  8
mark
100
AcDbLine
 10
367.8476181950422
 20
101.736682818438
 30
0.0
 11
371.6562534405529
 21
101.736682818438
 31
0.0
  0
LINE
  5
9788
330
18
100
AcDbEntity
  8
mark
100
AcDbLine
 10
371.6562534405529
 20
98.09038402841686
 30
0.0
 11
371.6562534405529
 21
101.736682818438
 31
0.0
  0
LINE
  5
9789
330
18
100
AcDbEntity
  8
mark
100
AcDbLine
 10
367.8476181950422
 20
98.09038402841686
 30
0.0
 11
371.6562534405529
 21
98.09038402841686
 31
0.0
  0
LINE
  5
978A
330
18
100
AcDbEntity
  8
mark
100
AcDbLine
 10
367.8476181950421
 20
99.9135334234274
 30
0.0
 11
360.2080366688554
 21
99.91353342342742
 31
0.0
  0
MTEXT
  5
978B
330
18
100
AcDbEntity
  8
DIM
100
AcDbMText
 10
368.9099487375262
 20
101.4098596524239
 30
0.0
 40
3.0
 41
2.354875985554478
 71
     1
 72
     5
  1
A
  7
ISOCP3
 73
     1
 44
1.0
1001
ACAD
1000
MTEXTBEGIN
1070
    73
1070
     1
1070
    44
1040
1.0
1070
    74
1070
     0
1000
MTEXTEND
  0
DIMENSION
  5
978C
330
18
100
AcDbEntity
  8
DIM
100
AcDbDimension
  2
*D19
 10
368.3092793496568
 20
147.4087691722547
 30
0.0
 11
347.7395981782766
 21
147.7552010152526
 31
0.0
 70
   160
  1
%%C<>
 71
     5
 42
33.0
  3
A
100
AcDbAlignedDimension
 13
335.3092793496568
 23
125.2657114081052
 33
0.0
 14
368.3092793496568
 24
125.2657114081052
 34
0.0
100
AcDbRotatedDimension
  0
DIMENSION
  5
978D
330
18
100
AcDbEntity
  8
DIM
100
AcDbDimension
  2
*D20
 10
365.8092793496568
 20
143.0663742124378
 30
0.0
 11
351.8092793496568
 21
144.4413742124378
 31
0.0
 70
    32
  1
%%c<>%%p0.5
 71
     5
 42
28.0
  3
A
100
AcDbAlignedDimension
 13
337.8092793496568
 23
129.7090870810793
 33
0.0
 14
365.8092793496568
 24
129.7090870810793
 34
0.0
100
AcDbRotatedDimension
  0
DIMENSION
  5
978E
330
18
100
AcDbEntity
  8
DIM
100
AcDbDimension
  2
*D21
 10
377.0825469186495
 20
129.7090870810793
 30
0.0
 11
377.0825469186495
 21
134.3605084715725
 31
0.0
 70
   160
 71
     5
 42
3.0
  3
A
100
AcDbAlignedDimension
 13
359.8092795380793
 23
126.7090870810793
 33
0.0
 14
365.8092793496568
 24
129.7090870810793
 34
0.0
 50
90.0
100
AcDbRotatedDimension
  0
LEADER
  5
978F
330
18
100
AcDbEntity
  8
DIM
 62
     6
100
AcDbLeader
  3
A
 73
     0
 75
     1
 40
1.75
 41
2.333333333333333
 76
     3
 10
359.3092793496568
 20
114.2090870810793
 30
0.0
 10
353.6288174939254
 20
107.2448299343606
 30
0.0
 10
352.3788174939253
 20
107.2448299343606
 30
0.0
340
9790
  0
MTEXT
  5
9790
102
{ACAD_REACTORS
330
978F
102
}
330
18
100
AcDbEntity
  8
DIM
 62
     3
100
AcDbMText
 10
351.8788174939253
 20
108.6198299343606
 30
0.0
 40
1.75
 41
0.0
 71
     6
 72
     1
  1
\A1;C1
  7
TXT
 73
     1
 44
1.0
1001
ACAD
1000
MTEXTBEGIN
1070
    73
1070
     1
1070
    44
1040
1.0
1070
    74
1070
     0
1000
MTEXTEND
  0
DIMENSION
  5
9791
330
18
100
AcDbEntity
  8
DIM
100
AcDbDimension
  2
*D22
 10
325.8936641133425
 20
158.2021170982006
 30
0.0
 11
324.9032714522789
 21
173.2749816267712
 31
0.0
 70
   160
 71
     5
 42
29.99999999999992
  3
A
100
AcDbAlignedDimension
 13
345.2709309343457
 23
188.2021170982005
 33
0.0
 14
345.270930934346
 24
158.2021170982006
 34
0.0
 50
90.0
100
AcDbRotatedDimension
1001
ACAD
1000
DSTYLE
1002
{
1070
   284
1070
     8
1070
   272
1070
     1
1070
   271
1070
     1
1002
}
  0
LINE
  5
9792
330
18
100
AcDbEntity
  8
中心線
  6
CENTER
 48
0.15
100
AcDbLine
 10
337.1718830608564
 20
164.7512124106264
 30
0.0
 11
366.0986985121001
 21
181.4521170982006
 31
0.0
  0
LINE
  5
9793
330
18
100
AcDbEntity
  8
中心線
  6
CENTER
 48
0.15
100
AcDbLine
 10
337.1718830608564
 20
181.6530217857747
 30
0.0
 11
366.0986985121001
 21
164.9521170982005
 31
0.0
  0
MTEXT
  5
9794
330
18
100
AcDbEntity
  8
DIM
100
AcDbMText
 10
321.9717509882658
 20
175.7912769924517
 30
0.0
 40
1.25
 41
6.816289586974903
 71
     1
 72
     5
  1
+0\P-0.5
  7
TXT
 11
0.0000000000000001
 21
1.0
 31
0.0
 73
     1
 44
1.0
1001
ACAD
1000
MTEXTBEGIN
1070
    73
1070
     1
1070
    44
1040
1.0
1070
    74
1070
     0
1000
MTEXTEND
  0
DIMENSION
  5
9795
330
18
100
AcDbEntity
  8
DIM
100
AcDbDimension
  2
*D23
 10
358.629033061472
 20
194.1454683444556
 30
0.0
 11
357.4093104119673
 21
194.25150208572
 31
0.0
 70
   161
 71
     5
 42
2.029988095741202
  3
A
100
AcDbAlignedDimension
 13
363.2324230835981
 23
182.1121867475968
 33
0.0
 14
364.9904443438899
 24
183.1271807954675
 34
0.0
1001
ACAD
1000
DSTYLE
1002
{
1070
   284
1070
     8
1070
   272
1070
     1
1070
   271
1070
     1
1002
}
  0
LINE
  5
9796
330
18
100
AcDbEntity
  8
DIM
 62
     6
100
AcDbLine
 10
359.4843803772468
 20
194.6393033474688
 30
0.0
 11
363.2231955225005
 21
196.7979092780313
 31
0.0
  0
MTEXT
  5
9797
330
18
100
AcDbEntity
  8
DIM
100
AcDbMText
 10
366.8979642454501
 20
187.4839569430594
 30
0.0
 40
1.25
 41
15.60204752540142
 71
     1
 72
     5
  1
+0.15\P+0
  7
TXT
 11
-0.5
 21
0.8660254037844387
 31
0.0
 73
     1
 44
1.0
1001
ACAD
1000
MTEXTBEGIN
1070
    73
1070
     1
1070
    44
1040
1.0
1070
    74
1070
     0
1000
MTEXTEND
  0
LEADER
  5
9798
330
18
100
AcDbEntity
  8
DIM
 62
     6
100
AcDbLeader
  3
A
 73
     0
 75
     1
 40
1.75
 41
2.333333333333333
 76
     3
 10
359.3092793496568
 20
126.2090870810793
 30
0.0
 10
354.7825934322326
 20
134.0920963041211
 30
0.0
 10
353.5325934322326
 20
134.0920963041211
 30
0.0
340
9799
  0
MTEXT
  5
9799
102
{ACAD_REACTORS
330
9798
102
}
330
18
100
AcDbEntity
  8
DIM
 62
     3
100
AcDbMText
 10
353.0325934322326
 20
135.4670963041212
 30
0.0
 40
1.75
 41
0.0
 71
     6
 72
     1
  1
\A1;C1
  7
TXT
 73
     1
 44
1.0
1001
ACAD
1000
MTEXTBEGIN
1070
    73
1070
     1
1070
    44
1040
1.0
1070
    74
1070
     0
1000
MTEXTEND
  0
DIMENSION
  5
979A
330
18
100
AcDbEntity
  8
DIM
100
AcDbDimension
  2
*D24
 10
364.8092793496568
 20
94.23499438362865
 30
0.0
 11
351.1842793496568
 21
95.60999438362864
 31
0.0
 70
    32
  1
%%c<>%%p0.5
 71
     5
 42
26.0
  3
A
100
AcDbAlignedDimension
 13
338.8092793496568
 23
113.7090870810793
 33
0.0
 14
364.8092793496568
 24
113.7090870810794
 34
0.0
100
AcDbRotatedDimension
1001
ACAD
1000
DSTYLE
1002
{
1070
   343
1005
95E0
1070
   173
1070
     1
1070
   344
1005
0
1070
    75
1070
     1
1070
    76
1070
     0
1002
}
  0
DIMENSION
  5
979B
330
18
100
AcDbEntity
  8
DIM
100
AcDbDimension
  2
*D25
 10
323.8936641133424
 20
113.7090870810793
 30
0.0
 11
322.5186641133424
 21
121.7090870810794
 31
0.0
 70
    32
  1
<>%%p0.2
 71
     5
 42
16.00000000000001
  3
A
100
AcDbAlignedDimension
 13
337.8092793496568
 23
129.7090870810793
 33
0.0
 14
338.8092793496568
 24
113.7090870810793
 34
0.0
 50
90.0
100
AcDbRotatedDimension
  0
DIMENSION
  5
979C
330
18
100
AcDbEntity
  8
DIM
100
AcDbDimension
  2
*D26
 10
365.8092793496568
 20
129.7090870810793
 30
0.0
 11
382.8857710455826
 21
118.3542601110872
 31
0.0
 70
    34
  1
30%%d
 71
     5
 42
0.6658665949129885
  3
A
100
AcDb2LineAngularDimension
 13
366.5592793496568
 23
116.7401759943248
 33
0.0
 14
357.3092795380794
 24
124.0064975345676
 34
0.0
 15
340.8092795380792
 25
129.7090870810794
 35
0.0
 16
382.6679593409275
 26
114.197008362986
 36
0.0
1001
ACAD
1000
DSTYLE
1002
{
1070
    79
1070
     2
1070
   179
1070
     1
1002
}
  0
LEADER
  5
979D
330
18
100
AcDbEntity
  8
DIM
 62
     6
100
AcDbLeader
  3
A
 76
     2
 10
360.6966801861387
 20
121.7037806580364
 30
0.0
 10
372.974371748346
 20
138.804836281455
 30
0.0
1001
ACAD
1000
DSTYLE
1002
{
1070
   341
1005
8D2B
1070
   173
1070
     1
1070
   343
1005
8D2B
1070
   344
1005
8D2B
1002
}
  0
LEADER
  5
979E
330
18
100
AcDbEntity
  8
DIM
 62
     6
100
AcDbLeader
  3
A
 76
     2
 10
366.5592793496568
 20
116.7401759943248
 30
0.0
 10
373.5120433650146
 20
107.6983047690369
 30
0.0
  0
DIMENSION
  5
979F
330
18
100
AcDbEntity
  8
DIM
100
AcDbDimension
  2
*D27
 10
343.8092793496569
 20
138.634334498889
 30
0.0
 11
351.1842793496568
 21
140.009334498889
 31
0.0
 70
    32
  1
%%c<>
 71
     5
 42
15.99999999999988
  3
A
100
AcDbAlignedDimension
 13
359.8092793496567
 23
129.7090870810793
 33
0.0
 14
343.8092793496569
 24
129.7090870810788
 34
0.0
100
AcDbRotatedDimension
1001
ACAD
1000
DSTYLE
1002
{
1070
    76
1070
     1
1070
   173
1070
     1
1070
     7
1000
_NONE
1002
}
  0
DIMENSION
  5
97A0
330
18
100
AcDbEntity
  8
DIM
100
AcDbDimension
  2
*D28
 10
344.3092793496568
 20
103.187925685992
 30
0.0
 11
351.1842793496568
 21
103.187925685992
 31
0.0
 70
   160
  1
M<>X1.0P
 71
     5
 42
15.0
  3
A
100
AcDbAlignedDimension
 13
359.3092793496568
 23
114.2090870810793
 33
0.0
 14
344.3092793496568
 24
113.7090870810794
 34
0.0
100
AcDbRotatedDimension
1001
ACAD
1000
DSTYLE
1002
{
1070
    76
1070
     1
1070
   173
1070
     1
1070
     7
1000
_NONE
1002
}
  0
LINE
  5
97A1
330
18
100
AcDbEntity
  8
DIM
 62
     6
100
AcDbLine
 10
343.8092793496569
 20
138.634334498889
 30
0.0
 11
344.6947820082845
 21
139.0993003534932
 31
0.0
  0
LINE
  5
97A2
330
18
100
AcDbEntity
  8
DIM
 62
     6
100
AcDbLine
 10
343.8092793496569
 20
138.634334498889
 30
0.0
 11
344.6947820082845
 21
138.1693686442849
 31
0.0
  0
LINE
  5
97A3
330
18
100
AcDbEntity
  8
DIM
 62
     6
100
AcDbLine
 10
343.4419026651498
 20
138.634334498889
 30
0.0
 11
344.3274053237775
 21
139.0993003534932
 31
0.0
  0
LINE
  5
97A4
330
18
100
AcDbEntity
  8
DIM
 62
     6
100
AcDbLine
 10
343.4419026651498
 20
138.634334498889
 30
0.0
 11
344.3274053237775
 21
138.1693686442849
 31
0.0
  0
LINE
  5
97A5
330
18
100
AcDbEntity
  8
DIM
 62
     6
100
AcDbLine
 10
344.3092793496568
 20
103.187925685992
 30
0.0
 11
345.1947820082844
 21
103.6528915405961
 31
0.0
  0
LINE
  5
97A6
330
18
100
AcDbEntity
  8
DIM
 62
     6
100
AcDbLine
 10
344.3092793496568
 20
103.187925685992
 30
0.0
 11
345.1947820082844
 21
102.7229598313879
 31
0.0
  0
LINE
  5
97A7
330
18
100
AcDbEntity
  8
DIM
 62
     6
100
AcDbLine
 10
343.9419026651498
 20
103.187925685992
 30
0.0
 11
344.8274053237775
 21
103.6528915405961
 31
0.0
  0
LINE
  5
97A8
330
18
100
AcDbEntity
  8
DIM
 62
     6
100
AcDbLine
 10
343.9419026651498
 20
103.187925685992
 30
0.0
 11
344.8274053237775
 21
102.7229598313879
 31
0.0
  0
LINE
  5
97A9
330
18
100
AcDbEntity
  8
0
  6
ByBlock
 62
     6
100
AcDbLine
 10
366.9647239158845
 20
181.9521170982006
 30
0.0
 11
373.2943273718984
 21
185.6065153573938
 31
0.0
  0
LEADER
  5
97AA
330
18
100
AcDbEntity
  8
DIM
 62
     6
100
AcDbLeader
  3
A
 76
     2
 10
363.7735768715759
 20
161.8396532453648
 30
0.0
 10
373.346182234047
 20
154.5159346539575
 30
0.0
  0
LINE
  5
97AB
330
18
100
AcDbEntity
  8
中心線
  6
CENTER
 48
0.15
100
AcDbLine
 10
351.8092793496568
 20
190.2021170982005
 30
0.0
 11
351.8092793496568
 21
156.2021170982005
 31
0.0
  0
LINE
  5
97AC
330
18
100
AcDbEntity
  8
中心線
  6
CENTER
 48
0.15
100
AcDbLine
 10
351.8092793496568
 20
173.2021170982005
 30
0.0
 11
370.3092793496568
 21
173.2021170982005
 31
0.0
  0
LINE
  5
97AD
330
18
100
AcDbEntity
  8
中心線
  6
CENTER
 48
0.15
100
AcDbLine
 10
333.3092793496569
 20
173.2021170982005
 30
0.0
 11
351.8092793496568
 21
173.2021170982005
 31
0.0
  0
LINE
  5
97AE
102
{ACAD_REACTORS
330
9823
102
}
330
18
100
AcDbEntity
  8
0
100
AcDbLine
 10
364.340007846554
 20
114.4962849951611
 30
0.0
 11
367.3434083248052
 21
119.698327218969
 31
0.0
  0
LINE
  5
97AF
330
18
100
AcDbEntity
  8
本体内線
  6
HIDDEN
 48
0.1
100
AcDbLine
 10
365.4436422739773
 20
118.3549883012486
 30
0.0
 11
364.5568909280297
 21
117.8430221729614
 31
0.0
  0
LINE
  5
97B0
330
18
100
AcDbEntity
  8
本体内線
  6
HIDDEN
 48
0.1
100
AcDbLine
 10
364.5568909280296
 20
117.8430221729611
 30
0.0
 11
364.5568909280294
 21
116.8190899163861
 31
0.0
  0
LINE
  5
97B1
330
18
100
AcDbEntity
  8
0
100
AcDbLine
 10
362.0438554238473
 20
120.9192323371108
 30
0.0
 11
364.2098808276315
 21
121.4996170948401
 31
0.0
  0
LINE
  5
97B2
330
18
100
AcDbEntity
  8
0
100
AcDbLine
 10
360.6294960699023
 20
118.4694900759178
 30
0.0
 11
361.2098808276316
 21
116.3034646721335
 31
0.0
  0
LINE
  5
97B3
330
18
100
AcDbEntity
  8
0
100
AcDbLine
 10
364.2098808276315
 20
121.4996170948401
 30
0.0
 11
361.2098808276316
 21
116.3034646721335
 31
0.0
  0
LINE
  5
97B4
330
18
100
AcDbEntity
  8
0
100
AcDbLine
 10
365.7256484926091
 20
115.296284995161
 30
0.0
 11
360.7027011506592
 21
118.1962849951611
 31
0.0
  0
LINE
  5
97B5
330
18
100
AcDbEntity
  8
0
100
AcDbLine
 10
362.3204609828556
 20
120.9983272189694
 30
0.0
 11
362.3170605046041
 21
120.9924374178676
 31
0.0
  0
LINE
  5
97B6
102
{ACAD_REACTORS
330
97E7
102
}
330
18
100
AcDbEntity
  8
中心線
  6
CENTER
 48
0.15
100
AcDbLine
 10
367.4288105874302
 20
116.2462482769166
 30
0.0
 11
357.8092793496568
 21
121.7105178746106
 31
0.0
  0
LWPOLYLINE
  5
97B7
330
18
100
AcDbEntity
  8
0
100
AcDbPolyline
 90
        2
 70
     0
 43
0.0
 10
364.8092793496568
 20
113.7090870810794
 10
368.3092793496568
 20
119.7712649075704
  0
LINE
  5
97B8
102
{ACAD_REACTORS
330
97E7
102
}
330
18
100
AcDbEntity
  8
0
100
AcDbLine
 10
362.5866757468748
 20
121.8594247159754
 30
0.0
 11
358.8092793496568
 21
124.0403055427452
 31
0.0
  0
LINE
  5
97B9
102
{ACAD_REACTORS
330
97E7
102
}
330
18
100
AcDbEntity
  8
0
100
AcDbLine
 10
360.0866757468748
 20
117.5292976970533
 30
0.0
 11
358.8092793496568
 21
118.266802850849
 31
0.0
  0
LINE
  5
97BA
102
{ACAD_REACTORS
330
9823
102
}
330
18
100
AcDbEntity
  8
0
100
AcDbLine
 10
367.3434083248052
 20
118.0983272189695
 30
0.0
 11
367.3434083248052
 21
119.698327218969
 31
0.0
  0
LINE
  5
97BB
330
18
100
AcDbEntity
  8
0
100
AcDbLine
 10
365.7290489708603
 20
115.3021747962626
 30
0.0
 11
364.3434083248053
 21
114.5021747962625
 31
0.0
  0
LINE
  5
97BC
330
18
100
AcDbEntity
  8
本体内線
  6
HIDDEN
 48
0.1
100
AcDbLine
 10
366.9796043208068
 20
117.4682002000466
 30
0.0
 11
365.4436422739773
 21
118.3549883012486
 31
0.0
  0
LINE
  5
97BD
330
18
100
AcDbEntity
  8
本体内線
  6
HIDDEN
 48
0.1
100
AcDbLine
 10
366.0928529748588
 20
115.9323018151841
 30
0.0
 11
364.5568909280295
 21
116.8190899163861
 31
0.0
  0
LINE
  5
97BE
330
18
100
AcDbEntity
  8
0
100
AcDbLine
 10
367.3434083248052
 20
118.0983272189695
 30
0.0
 11
362.3204609828556
 21
120.9983272189694
 31
0.0
  0
LINE
  5
97BF
102
{ACAD_REACTORS
330
9823
102
}
330
18
100
AcDbEntity
  8
0
100
AcDbLine
 10
368.0328281695815
 20
119.2924374178676
 30
0.0
 11
358.8092793496568
 21
124.6176558119348
 31
0.0
  0
LINE
  5
97C0
102
{ACAD_REACTORS
330
9823
102
}
330
18
100
AcDbEntity
  8
0
100
AcDbLine
 10
365.0328281695815
 20
114.096284995161
 30
0.0
 11
358.8092793496568
 21
117.6894525816593
 31
0.0
  0
LWPOLYLINE
  5
97C1
102
{ACAD_REACTORS
330
97E7
102
}
330
18
100
AcDbEntity
  8
0
100
AcDbPolyline
 90
        2
 70
     0
 43
0.0
 10
360.0866757468748
 20
117.5292976970533
 10
362.5866757468748
 20
121.8594247159754
  0
ARC
  5
97C2
330
18
100
AcDbEntity
  8
0
100
AcDbCircle
 10
351.8092793496568
 20
173.2021170982005
 30
0.0
 40
7.5
100
AcDbArc
 50
171.3979003256342
 51
103.1561725449934
  0
ARC
  5
97C3
330
18
100
AcDbEntity
  8
本体外線
100
AcDbCircle
 10
351.8092793496568
 20
173.2021170982005
 30
0.0
 40
16.5
100
AcDbArc
 50
114.6199773286575
 51
143.0212334971035
  0
ARC
  5
97C4
330
18
100
AcDbEntity
  8
本体外線
100
AcDbCircle
 10
351.8092793496568
 20
173.2021170982005
 30
0.0
 40
16.5
100
AcDbArc
 50
156.9453594739112
 51
203.0212334971034
  0
ARC
  5
97C5
330
18
100
AcDbEntity
  8
本体外線
100
AcDbCircle
 10
351.8092793496568
 20
173.2021170982005
 30
0.0
 40
16.5
100
AcDbArc
 50
216.9453594739109
 51
245.3800226713425
  0
LINE
  5
97C6
330
18
100
AcDbEntity
  8
本体外線
100
AcDbLine
 10
344.935415807223
 20
188.2021170982005
 30
0.0
 11
358.6831428920907
 21
188.2021170982005
 31
0.0
  0
LINE
  5
97C7
102
{ACAD_REACTORS
330
9823
102
}
330
18
100
AcDbEntity
  8
本体外線
100
AcDbLine
 10
338.8092793496568
 20
113.7090870810793
 30
0.0
 11
364.8092793496568
 21
113.7090870810793
 31
0.0
  0
LINE
  5
97C8
102
{ACAD_REACTORS
330
9823
102
}
330
18
100
AcDbEntity
  8
本体外線
100
AcDbLine
 10
337.8092793496568
 20
129.7090870810793
 30
0.0
 11
365.8092793496568
 21
129.7090870810793
 31
0.0
  0
LINE
  5
97C9
102
{ACAD_REACTORS
330
9823
102
}
330
18
100
AcDbEntity
  8
本体外線
100
AcDbLine
 10
368.3092793496568
 20
119.7712649075704
 30
0.0
 11
368.3092793496568
 21
125.2657114081052
 31
0.0
  0
LINE
  5
97CA
330
18
100
AcDbEntity
  8
本体外線
100
AcDbLine
 10
335.3092793496568
 20
119.7712649075704
 30
0.0
 11
335.3092793496568
 21
125.2657114081052
 31
0.0
  0
LINE
  5
97CB
102
{ACAD_REACTORS
330
9823
102
}
330
18
100
AcDbEntity
  8
本体外線
100
AcDbLine
 10
365.8092793496567
 20
126.7090870810793
 30
0.0
 11
365.8092793496568
 21
129.7090870810793
 31
0.0
  0
LINE
  5
97CC
102
{ACAD_REACTORS
330
9823
102
}
330
18
100
AcDbEntity
  8
本体外線
100
AcDbLine
 10
364.8092793496568
 20
113.7090870810793
 30
0.0
 11
368.3092793496568
 21
119.7712649075704
 31
0.0
  0
LINE
  5
97CD
330
18
100
AcDbEntity
  8
本体外線
100
AcDbLine
 10
338.8092793496568
 20
113.7090870810793
 30
0.0
 11
335.3092793496567
 21
119.7712649075704
 31
0.0
  0
LINE
  5
97CE
330
18
100
AcDbEntity
  8
本体外線
100
AcDbLine
 10
337.8092793496568
 20
126.7090870810793
 30
0.0
 11
359.8092793496567
 21
126.7090870810793
 31
0.0
  0
LINE
  5
97CF
102
{ACAD_REACTORS
330
9823
102
}
330
18
100
AcDbEntity
  8
本体外線
100
AcDbLine
 10
365.8092793496568
 20
126.7090870810793
 30
0.0
 11
368.3092793496568
 21
125.2657114081052
 31
0.0
  0
LINE
  5
97D0
330
18
100
AcDbEntity
  8
本体外線
100
AcDbLine
 10
337.8092793496568
 20
126.7090870810793
 30
0.0
 11
335.3092793496567
 21
125.2657114081052
 31
0.0
  0
LINE
  5
97D1
102
{ACAD_REACTORS
330
9823
102
}
330
18
100
AcDbEntity
  8
0
100
AcDbLine
 10
359.3092793496568
 20
114.2090870810793
 30
0.0
 11
359.3092793496567
 21
117.4007774470645
 31
0.0
  0
LINE
  5
97D2
102
{ACAD_REACTORS
330
97E7
330
9823
102
}
330
18
100
AcDbEntity
  8
本体外線
100
AcDbLine
 10
358.8092793496568
 20
114.7090870810793
 30
0.0
 11
358.8092793496568
 21
125.7090870810793
 31
0.0
  0
LINE
  5
97D3
330
18
100
AcDbEntity
  8
本体外線
100
AcDbLine
 10
336.4330795256153
 20
125.2657114081053
 30
0.0
 11
336.4330795256153
 21
119.7712649075704
 31
0.0
  0
LINE
  5
97D4
330
18
100
AcDbEntity
  8
本体外線
100
AcDbLine
 10
335.3092793496568
 20
125.2657114081052
 30
0.0
 11
336.4330795256153
 21
125.2657114081052
 31
0.0
  0
LINE
  5
97D5
330
18
100
AcDbEntity
  8
本体外線
100
AcDbLine
 10
335.3092793496567
 20
119.7712649075704
 30
0.0
 11
336.4330795256153
 21
119.7712649075704
 31
0.0
  0
LINE
  5
97D6
330
18
100
AcDbEntity
  8
本体外線
100
AcDbLine
 10
336.4330795256153
 20
125.2657114081052
 30
0.0
 11
338.1313608168205
 21
126.7090870810793
 31
0.0
  0
LINE
  5
97D7
330
18
100
AcDbEntity
  8
本体外線
100
AcDbLine
 10
336.4330795256153
 20
119.7712649075704
 30
0.0
 11
338.1313608168205
 21
114.8832764233443
 31
0.0
  0
ARC
  5
97D8
330
18
100
AcDbEntity
  8
本体外線
100
AcDbCircle
 10
358.3992029462769
 20
78.23598092103494
 30
0.0
 40
48.919005650281
100
AcDbArc
 50
97.74190335068702
 51
105.9754886930903
  0
ARC
  5
97D9
330
18
100
AcDbEntity
  8
本体外線
100
AcDbCircle
 10
351.732881572233
 20
129.2821742562903
 30
0.0
 40
11.69029244570252
100
AcDbArc
 50
234.4465324844709
 51
270.3744389962021
  0
LINE
  5
97DA
330
18
100
AcDbEntity
  8
本体外線
100
AcDbLine
 10
344.9354158072231
 20
125.2657114081052
 30
0.0
 11
344.9354158072231
 21
119.7712649075704
 31
0.0
  0
LINE
  5
97DB
330
18
100
AcDbEntity
  8
本体外線
100
AcDbLine
 10
338.9318118301948
 20
125.2657114081052
 30
0.0
 11
340.6313608168204
 21
126.7090870810793
 31
0.0
  0
LINE
  5
97DC
330
18
100
AcDbEntity
  8
本体外線
100
AcDbLine
 10
338.9318118301948
 20
119.7712649075704
 30
0.0
 11
340.6313608168204
 21
113.7090870810793
 31
0.0
  0
LINE
  5
97DD
330
18
100
AcDbEntity
  8
本体外線
100
AcDbLine
 10
337.8092793496568
 20
126.7090870810793
 30
0.0
 11
337.8092793496568
 21
129.7090870810793
 31
0.0
  0
LINE
  5
97DE
330
18
100
AcDbEntity
  8
本体外線
100
AcDbLine
 10
338.9318118301948
 20
125.2657114081052
 30
0.0
 11
344.9354158072231
 21
125.2657114081052
 31
0.0
  0
LINE
  5
97DF
330
18
100
AcDbEntity
  8
本体外線
100
AcDbLine
 10
338.9318118301948
 20
119.7712649075704
 30
0.0
 11
344.9354158072231
 21
119.7712649075704
 31
0.0
  0
LINE
  5
97E0
330
18
100
AcDbEntity
  8
本体外線
100
AcDbLine
 10
338.1313608168205
 20
126.7090870810793
 30
0.0
 11
338.1313608168205
 21
114.8832764233443
 31
0.0
  0
LINE
  5
97E1
330
18
100
AcDbEntity
  8
本体外線
100
AcDbLine
 10
338.9318118301948
 20
125.2657114081052
 30
0.0
 11
338.9318118301948
 21
119.7712649075703
 31
0.0
  0
ELLIPSE
  5
97E2
330
18
100
AcDbEntity
  8
本体内線
  6
HIDDEN
 48
0.2
100
AcDbEllipse
 10
344.1890617592834
 20
186.3932094928061
 30
0.0
 11
-1.300584903706366
 21
-0.7466655704854392
 31
0.0
210
0.0
220
0.0
230
0.9999999999999998
 40
0.7066151668353747
 41
0.0
 42
6.283185307179586
  0
ELLIPSE
  5
97E3
330
18
100
AcDbEntity
  8
本体内線
  6
HIDDEN
 48
0.2
100
AcDbEllipse
 10
344.1955670274473
 20
160.0072688852695
 30
0.0
 11
1.296923804024773
 21
-0.7530067811455319
 31
0.0
210
0.0
220
0.0
230
0.9999999999999998
 40
0.7066151668353747
 41
0.0
 42
6.283185307179586
  0
ELLIPSE
  5
97E4
330
18
100
AcDbEntity
  8
本体外線
100
AcDbEllipse
 10
343.42199767931
 20
115.1055997779286
 30
0.0
 11
-1.861305625624936
 21
0.0
 31
0.0
210
0.0
220
0.0
230
1.0
 40
0.5288218483045042
 41
0.0
 42
6.283185307179586
  0
LINE
  5
97E5
102
{ACAD_REACTORS
330
9823
102
}
330
18
100
AcDbEntity
  8
0
100
AcDbLine
 10
359.3092793496567
 20
124.32898067734
 30
0.0
 11
359.3092793496568
 21
126.2090870810793
 31
0.0
  0
LINE
  5
97E6
102
{ACAD_REACTORS
330
9823
102
}
330
18
100
AcDbEntity
  8
本体外線
100
AcDbLine
 10
359.8092793496567
 20
126.7090870810793
 30
0.0
 11
359.8092793496567
 21
129.7090870810793
 31
0.0
  0
HATCH
  5
97E7
330
18
100
AcDbEntity
  8
0
100
AcDbHatch
 10
0.0
 20
0.0
 30
0.0
210
0.0
220
0.0
230
1.0
  2
AR-SAND
 70
     0
 71
     1
 91
        2
 92
        7
 72
     0
 73
     1
 93
        4
 10
361.3420919230163
 20
119.7037422987742
 10
362.5866757468748
 20
121.8594247159754
 10
358.8092793496568
 20
124.0403055427452
 10
358.8092793496568
 20
121.1424788025779
 97
        4
330
97B8
330
97D2
330
97B6
330
97C1
 92
        7
 72
     0
 73
     1
 93
        4
 10
358.8092793496568
 20
118.266802850849
 10
360.0866757468748
 20
117.5292976970533
 10
361.3420919230164
 20
119.7037422987741
 10
358.8092793496568
 20
121.1424788025779
 97
        4
330
97B6
330
97D2
330
97B9
330
97C1
 75
     0
 76
     1
 52
0.0
 41
0.05
 77
     0
 78
     4
 53
37.5
 43
238.9642626960252
 44
-17.08016084889848
 45
-0.0800015647992023
 46
2.447066186646711
 79
     6
 49
0.0
 49
-1.9304
 49
0.0
 49
-2.159
 49
0.0
 49
-2.06375
 53
7.499999999999999
 43
238.9642626960252
 44
-17.08016084889848
 45
2.247616415690013
 46
3.584125502841771
 79
     6
 49
0.0
 49
-1.0414
 49
0.0
 49
-1.7399
 49
0.0
 49
-0.6667500000000001
 53
327.5
 43
237.4021626960252
 44
-17.08016084889848
 45
3.95496185120729
 46
0.0071859233927285
 79
     6
 49
0.0
 49
-0.635
 49
0.0
 49
-2.286
 49
0.0
 49
-2.9845
 53
317.5
 43
237.4021626960252
 44
-17.08016084889848
 45
3.817782262361486
 46
1.114646616286081
 79
     6
 49
0.0
 49
-0.3175
 49
0.0
 49
-1.498599999999999
 49
0.0
 49
-1.7145
 47
0.05628232123602
 98
        2
 10
360.1272245755973
 20
121.7043335473934
 10
359.732808759048
 20
119.0590644173316
  0
POINT
  5
97E8
330
18
100
AcDbEntity
  8
0
100
AcDbPoint
 10
335.3092793496569
 20
173.2021170982005
 30
0.0
  0
POINT
  5
97E9
330
18
100
AcDbEntity
  8
中心線
  6
CENTER
 48
0.15
100
AcDbPoint
 10
351.8092793496568
 20
173.2021170982005
 30
0.0
  0
LINE
  5
97EA
330
18
100
AcDbEntity
  8
本体外線
100
AcDbLine
 10
340.3861356157156
 20
182.1121867475968
 30
0.0
 11
338.3861356157156
 21
178.648085132459
 31
0.0
  0
LINE
  5
97EB
330
18
100
AcDbEntity
  8
本体外線
100
AcDbLine
 10
338.3861356157156
 20
178.6480851324591
 30
0.0
 11
336.6271044612628
 21
179.6636622429953
 31
0.0
  0
LINE
  5
97EC
330
18
100
AcDbEntity
  8
本体外線
100
AcDbLine
 10
338.6281143554236
 20
183.1271807954675
 30
0.0
 11
340.3861356157156
 21
182.1121867475968
 31
0.0
  0
LINE
  5
97ED
330
18
100
AcDbEntity
  8
本体外線
100
AcDbLine
 10
338.3813608168204
 20
167.7644192582245
 30
0.0
 11
340.3813608168203
 21
164.3003176430868
 31
0.0
  0
LINE
  5
97EE
330
18
100
AcDbEntity
  8
本体外線
100
AcDbLine
 10
340.3813608168203
 20
164.3003176430868
 30
0.0
 11
338.6223296623675
 21
163.2847405325505
 31
0.0
  0
LINE
  5
97EF
330
18
100
AcDbEntity
  8
本体外線
100
AcDbLine
 10
336.6233395565284
 20
166.7494252103539
 30
0.0
 11
338.3813608168204
 21
167.7644192582245
 31
0.0
  0
POINT
  5
97F0
330
18
100
AcDbEntity
  8
本体外線
100
AcDbPoint
 10
338.8092793496568
 20
113.7090870810793
 30
0.0
  0
POINT
  5
97F1
330
18
100
AcDbEntity
  8
0
100
AcDbPoint
 10
364.8092793496567
 20
113.7090870810793
 30
0.0
  0
POINT
  5
97F2
330
18
100
AcDbEntity
  8
0
100
AcDbPoint
 10
368.3092793496568
 20
119.7712649075704
 30
0.0
  0
POINT
  5
97F3
330
18
100
AcDbEntity
  8
0
100
AcDbPoint
 10
364.8092793496567
 20
113.7090870810793
 30
0.0
  0
POINT
  5
97F4
330
18
100
AcDbEntity
  8
本体外線
100
AcDbPoint
 10
337.8092793496568
 20
129.7090870810793
 30
0.0
  0
POINT
  5
97F5
330
18
100
AcDbEntity
  8
本体外線
100
AcDbPoint
 10
365.8092793496568
 20
126.7090870810793
 30
0.0
  0
POINT
  5
97F6
330
18
100
AcDbEntity
  8
本体外線
100
AcDbPoint
 10
368.3092793496568
 20
125.2657114081052
 30
0.0
  0
POINT
  5
97F7
330
18
100
AcDbEntity
  8
本体外線
100
AcDbPoint
 10
365.8092793496568
 20
129.7090870810793
 30
0.0
  0
CIRCLE
  5
97F8
330
18
100
AcDbEntity
  8
本体外線
100
AcDbCircle
 10
351.8092793496568
 20
173.2021170982005
 30
0.0
 40
7.0
  0
ARC
  5
97F9
330
18
100
AcDbEntity
  8
本体外線
100
AcDbCircle
 10
351.8092793496567
 20
173.2021170982005
 30
0.0
 40
16.5
100
AcDbArc
 50
36.97876650289648
 51
65.38002267134245
  0
ARC
  5
97FA
330
18
100
AcDbEntity
  8
本体外線
100
AcDbCircle
 10
351.8092793496567
 20
173.2021170982005
 30
0.0
 40
16.5
100
AcDbArc
 50
336.9787665028966
 51
23.05464052608879
  0
ARC
  5
97FB
330
18
100
AcDbEntity
  8
本体外線
100
AcDbCircle
 10
351.8092793496567
 20
173.2021170982005
 30
0.0
 40
16.5
100
AcDbArc
 50
294.6199773286575
 51
323.0546405260891
  0
POINT
  5
97FC
330
18
100
AcDbEntity
  8
0
100
AcDbPoint
 10
368.3092793496566
 20
173.2021170982005
 30
0.0
  0
LINE
  5
97FD
330
18
100
AcDbEntity
  8
本体外線
100
AcDbLine
 10
363.232423083598
 20
182.1121867475968
 30
0.0
 11
365.232423083598
 21
178.648085132459
 31
0.0
  0
LINE
  5
97FE
330
18
100
AcDbEntity
  8
本体外線
100
AcDbLine
 10
365.232423083598
 20
178.6480851324591
 30
0.0
 11
366.9914542380508
 21
179.6636622429953
 31
0.0
  0
LINE
  5
97FF
330
18
100
AcDbEntity
  8
本体外線
100
AcDbLine
 10
364.9904443438899
 20
183.1271807954675
 30
0.0
 11
363.232423083598
 21
182.1121867475968
 31
0.0
  0
LINE
  5
9800
330
18
100
AcDbEntity
  8
本体外線
100
AcDbLine
 10
365.2371978824932
 20
167.7644192582245
 30
0.0
 11
363.2371978824932
 21
164.3003176430868
 31
0.0
  0
LINE
  5
9801
330
18
100
AcDbEntity
  8
本体外線
100
AcDbLine
 10
363.2371978824932
 20
164.3003176430868
 30
0.0
 11
364.996229036946
 21
163.2847405325505
 31
0.0
  0
LINE
  5
9802
330
18
100
AcDbEntity
  8
本体外線
100
AcDbLine
 10
366.9952191427851
 20
166.7494252103539
 30
0.0
 11
365.2371978824932
 21
167.7644192582245
 31
0.0
  0
LINE
  5
9803
330
18
100
AcDbEntity
  8
本体外線
100
AcDbLine
 10
344.935415807223
 20
158.2021170982006
 30
0.0
 11
358.6831428920907
 21
158.2021170982006
 31
0.0
  0
CIRCLE
  5
9804
330
18
100
AcDbEntity
  8
本体外線
100
AcDbCircle
 10
351.8092793496568
 20
173.2021170982005
 30
0.0
 40
14.0
  0
ELLIPSE
  5
9805
330
18
100
AcDbEntity
  8
本体内線
  6
HIDDEN
 48
0.2
100
AcDbEllipse
 10
367.0432092622395
 20
173.2058729165262
 30
0.0
 11
0.0036610996815924
 21
1.49967235163097
 31
0.0
210
0.0
220
0.0
230
1.0
 40
0.7066151668353747
 41
0.0
 42
6.283185307179586
  0
POINT
  5
9806
330
18
100
AcDbEntity
  8
DEFPOINTS
  6
ByBlock
 62
     0
100
AcDbPoint
 10
366.0986985121001
 20
181.4521170982006
 30
0.0
  0
POINT
  5
9807
330
18
100
AcDbEntity
  8
DEFPOINTS
  6
ByBlock
 62
     0
100
AcDbPoint
 10
351.8092793496568
 20
173.2021170982005
 30
0.0
  0
DIMENSION
  5
9808
330
18
100
AcDbEntity
  8
DIM
100
AcDbDimension
  2
*D18
 10
370.3092793496568
 20
173.2021170982006
 30
0.0
 11
376.3262546524238
 21
166.6328133649705
 31
0.0
 70
    34
 71
     5
 42
0.5235987755983019
  3
A
100
AcDb2LineAngularDimension
 13
337.1718830608564
 23
181.6530217857747
 33
0.0
 14
366.0986985121001
 24
164.9521170982005
 34
0.0
 15
351.8092793496568
 25
173.2021170982005
 35
0.0
 16
376.9524849668954
 26
164.050738659491
 36
0.0
1001
ACAD
1000
DSTYLE
1002
{
1070
    79
1070
     2
1070
   179
1070
     1
1002
}
  0
LINE
  5
9809
330
18
100
AcDbEntity
  8
0
  6
ByBlock
 62
     6
100
AcDbLine
 10
367.8574796418351
 20
180.1636622429952
 30
0.0
 11
374.0042027274757
 21
183.7124744711232
 31
0.0
  0
LINE
  5
980A
330
18
100
AcDbEntity
  8
0
  6
ByBlock
 62
     6
100
AcDbLine
 10
365.8574796418354
 20
183.6277638581331
 30
0.0
 11
372.004202727476
 21
187.1765760862611
 31
0.0
  0
LINE
  5
980B
330
18
100
AcDbEntity
  8
0
  6
ByBlock
 62
     6
100
AcDbLine
 10
372.9461900255836
 20
184.5450062258539
 30
0.0
 11
372.1961900255837
 21
185.8440443315306
 31
0.0
  0
LINE
  5
980C
330
18
100
AcDbEntity
  8
0
  6
ByBlock
 62
     6
100
AcDbLine
 10
367.5735872490026
 20
193.8506272037793
 30
0.0
 11
371.5711900255838
 21
186.9265760862612
 31
0.0
  0
MTEXT
  5
980D
330
18
100
AcDbEntity
  8
0
  6
ByBlock
 62
     3
100
AcDbMText
 10
369.2542596058043
 20
187.2845024680458
 30
0.0
 40
1.75
 41
0.0
 71
     5
 72
     1
  1
\A1;4
  7
TXT
 11
-0.4999999999999364
 21
0.8660254037844755
 31
0.0
 73
     1
 44
1.0
1001
ACAD
1000
MTEXTBEGIN
1070
    73
1070
     1
1070
    44
1040
1.0
1070
    74
1070
     0
1000
MTEXTEND
  0
SOLID
  5
980E
330
18
100
AcDbEntity
  8
0
  6
ByBlock
 62
     6
100
AcDbTrace
 10
373.1266119847053
 20
184.6491728925205
 30
0.0
 11
372.7657680664618
 21
184.4408395591873
 31
0.0
 12
373.5711900255834
 22
183.4624744711233
 32
0.0
 13
373.5711900255834
 23
183.4624744711233
 33
0.0
  0
SOLID
  5
980F
330
18
100
AcDbEntity
  8
0
  6
ByBlock
 62
     6
100
AcDbTrace
 10
372.3766119847054
 20
185.9482109981972
 30
0.0
 11
372.0157680664619
 21
185.7398776648639
 31
0.0
 12
371.5711900255838
 22
186.9265760862612
 32
0.0
 13
371.5711900255838
 23
186.9265760862612
 33
0.0
  0
POINT
  5
9810
330
18
100
AcDbEntity
  8
DEFPOINTS
  6
ByBlock
 62
     0
100
AcDbPoint
 10
366.9914542380507
 20
179.6636622429953
 30
0.0
  0
POINT
  5
9811
330
18
100
AcDbEntity
  8
DEFPOINTS
  6
ByBlock
 62
     0
100
AcDbPoint
 10
364.991454238051
 20
183.1277638581331
 30
0.0
  0
POINT
  5
9812
330
18
100
AcDbEntity
  8
DEFPOINTS
  6
ByBlock
 62
     0
100
AcDbPoint
 10
371.5711900255838
 20
186.9265760862612
 30
0.0
  0
LINE
  5
9813
330
18
100
AcDbEntity
  8
0
  6
ByBlock
 62
     6
100
AcDbLine
 10
371.3092793496568
 20
173.2021170982005
 30
0.0
 11
379.0563419187537
 21
173.2021170982005
 31
0.0
  0
LINE
  5
9814
330
18
100
AcDbEntity
  8
0
  6
ByBlock
 62
     6
100
AcDbLine
 10
366.9647239158845
 20
181.9521170982006
 30
0.0
 11
375.4059277129988
 21
186.825648382749
 31
0.0
  0
ARC
  5
9815
330
18
100
AcDbEntity
  8
0
  6
ByBlock
 62
     6
100
AcDbCircle
 10
351.8092793496567
 20
173.2021170982005
 30
0.0
 40
26.7470625690971
100
AcDbArc
 50
2.677910646500857
 51
27.32208935349931
  0
SOLID
  5
9816
330
18
100
AcDbEntity
  8
0
  6
ByBlock
 62
     6
100
AcDbTrace
 10
378.7354095524186
 20
174.4566439254751
 30
0.0
 11
378.3188566552665
 21
174.446907653838
 31
0.0
 12
378.5563419187538
 22
173.2021170982005
 32
0.0
 13
378.5563419187538
 23
173.2021170982005
 33
0.0
  0
SOLID
  5
9817
330
18
100
AcDbEntity
  8
0
  6
ByBlock
 62
     6
100
AcDbTrace
 10
375.389642017721
 20
185.3788855074324
 30
0.0
 11
375.7552555444931
 21
185.5787300974326
 31
0.0
 12
374.9729150111066
 22
186.575648382749
 32
0.0
 13
374.9729150111066
 23
186.575648382749
 33
0.0
  0
MTEXT
  5
9818
330
18
100
AcDbEntity
  8
0
  6
ByBlock
 62
     3
100
AcDbMText
 10
375.9628172607142
 20
181.0282112673963
 30
0.0
 40
1.75
 41
0.0
 71
     5
 72
     1
  1
\A1;30°
  7
TXT
 11
-0.2588190451025221
 21
0.9659258262890679
 31
0.0
 73
     1
 44
1.0
1001
ACAD
1000
MTEXTBEGIN
1070
    73
1070
     1
1070
    44
1040
1.0
1070
    74
1070
     0
1000
MTEXTEND
  0
POINT
  5
9819
330
18
100
AcDbEntity
  8
DEFPOINTS
  6
ByBlock
 62
     0
100
AcDbPoint
 10
378.1499939380062
 20
177.8466957712676
 30
0.0
  0
POINT
  5
981A
330
18
100
AcDbEntity
  8
DEFPOINTS
  6
ByBlock
 62
     0
100
AcDbPoint
 10
351.8092793496568
 20
173.2021170982005
 30
0.0
  0
POINT
  5
981B
330
18
100
AcDbEntity
  8
DEFPOINTS
  6
ByBlock
 62
     0
100
AcDbPoint
 10
366.0986985121001
 20
181.4521170982006
 30
0.0
  0
POINT
  5
981C
330
18
100
AcDbEntity
  8
DEFPOINTS
  6
ByBlock
 62
     0
100
AcDbPoint
 10
370.3092793496568
 20
173.2021170982005
 30
0.0
  0
LINE
  5
981D
330
18
100
AcDbEntity
  8
本体外線
100
AcDbLine
 10
351.8092793496568
 20
113.7090870810793
 30
0.0
 11
351.8092793496568
 21
129.7090870810793
 31
0.0
  0
LINE
  5
981E
330
18
100
AcDbEntity
  8
本体外線
100
AcDbLine
 10
351.8092793496568
 20
114.7090870810793
 30
0.0
 11
358.8092793496568
 21
114.7090870810793
 31
0.0
  0
LINE
  5
981F
330
18
100
AcDbEntity
  8
本体外線
100
AcDbLine
 10
351.8092793496569
 20
125.7090870810793
 30
0.0
 11
358.8092793496568
 21
125.7090870810793
 31
0.0
  0
LINE
  5
9820
102
{ACAD_REACTORS
330
9823
102
}
330
18
100
AcDbEntity
  8
本体外線
100
AcDbLine
 10
358.8092793496568
 20
125.7090870810793
 30
0.0
 11
359.8092793496567
 21
126.7090870810793
 31
0.0
  0
LINE
  5
9821
102
{ACAD_REACTORS
330
9823
102
}
330
18
100
AcDbEntity
  8
本体外線
100
AcDbLine
 10
358.8092793496568
 20
114.7090870810793
 30
0.0
 11
359.8092793496567
 21
113.7090870810793
 31
0.0
  0
LINE
  5
9822
330
18
100
AcDbEntity
  8
中心線
  6
CENTER
 48
0.05
100
AcDbLine
 10
351.8092793496568
 20
110.7090870810793
 30
0.0
 11
351.8092793496568
 21
132.7090870810793
 31
0.0
  0
HATCH
  5
9823
330
18
100
AcDbEntity
  8
剖面線
100
AcDbHatch
 10
0.0
 20
0.0
 30
0.0
210
0.0
220
0.0
230
1.0
  2
ANSI31
 70
     0
 71
     1
 91
        4
 92
        7
 72
     0
 73
     1
 93
       12
 10
367.3400078465539
 20
119.6924374178676
 10
367.3434083248053
 20
119.698327218969
 10
367.3434083248053
 20
119.6904741508338
 10
368.0328281695814
 20
119.2924374178676
 10
368.3092793496568
 20
119.7712649075704
 10
368.3092793496568
 20
125.2657114081052
 10
365.8092793496567
 20
126.7090870810793
 10
365.8092793496568
 20
129.7090870810793
 10
359.8092793496567
 20
129.7090870810793
 10
359.8092793496567
 20
126.7090870810793
 10
359.3092793496568
 20
126.2090870810793
 10
359.3092793496567
 20
124.32898067734
 97
       11
330
97CF
330
97CB
330
97C8
330
97E6
330
9820
330
97E5
330
97BF
330
97AE
330
97BA
330
97CC
330
97C9
 92
        7
 72
     0
 73
     1
 93
        4
 10
359.3092793496568
 20
126.2090870810793
 10
358.8092793496568
 20
125.7090870810793
 10
358.8092793496568
 20
124.6176558119348
 10
359.3092793496567
 20
124.32898067734
 97
        4
330
9820
330
97D2
330
97BF
330
97E5
 92
        7
 72
     0
 73
     1
 93
        5
 10
359.3092793496568
 20
114.2090870810793
 10
359.8092793496567
 20
113.7090870810793
 10
364.8092793496568
 20
113.7090870810793
 10
365.0328281695815
 20
114.096284995161
 10
359.3092793496567
 20
117.4007774470645
 97
        5
330
97D1
330
9821
330
97C7
330
97CC
330
97C0
 92
        7
 72
     0
 73
     1
 93
        4
 10
358.8092793496568
 20
114.7090870810794
 10
359.3092793496568
 20
114.2090870810794
 10
359.3092793496567
 20
117.4007774470645
 10
358.8092793496568
 20
117.6894525816593
 97
        4
330
97C0
330
97D2
330
9821
330
97D1
 75
     0
 76
     1
 52
0.0
 41
0.5
 77
     0
 78
     1
 53
45.0
 43
-11.82957169387657
 44
4.400520539352584
 45
-1.122532015133643
 46
1.122532015133644
 79
     0
 47
0.0416586450963203
 98
        4
 10
363.1361547419339
 20
124.4275809820319
 10
359.0920260569181
 20
125.2607540123286
 10
360.0509427797297
 20
115.6376068003838
 10
359.0086419667876
 20
115.9292171769902
  0
DIMENSION
  5
9824
330
18
100
AcDbEntity
  8
DIM
100
AcDbDimension
  2
*D17
 10
365.8092793496568
 20
129.7090870810793
 30
0.0
 11
381.1716579059945
 21
124.200445307674
 31
0.0
 70
    34
 71
     5
 42
0.5235987755983143
  3
A
100
AcDb2LineAngularDimension
 13
365.8092793496568
 23
126.7090870810793
 33
0.0
 14
368.3092793496568
 24
125.2657114081052
 34
0.0
 15
337.8092793496568
 25
129.7090870810793
 35
0.0
 16
381.9053940771178
 26
121.9593356183741
 36
0.0
1001
ACAD
1000
DSTYLE
1002
{
1070
    79
1070
     2
1070
   179
1070
     1
1002
}
  0
LINE
  5
9825
330
18
100
AcDbEntity
  8
mark
100
AcDbLine
 10
359.3092793496568
 20
100.8819119283014
 30
0.0
 11
359.3092793496568
 21
103.187925685992
 31
0.0
  0
MTEXT
  5
9826
330
18
100
AcDbEntity
  8
0
100
AcDbMText
 10
333.9159379645268
 20
83.56812717502872
 30
0.0
 40
2.5
 41
0.0
 71
     1
 72
     5
  1
\Ftxt.shx,bigfont.shx|c128;小柳
  7
JL
 73
     1
 44
1.0
1001
ACAD
1000
MTEXTBEGIN
1070
    73
1070
     1
1070
    44
1040
1.0
1070
    74
1070
     0
1000
MTEXTEND
  0
MTEXT
  5
9827
330
18
100
AcDbEntity
  8
mark
 62
     3
100
AcDbMText
 10
312.1385921688975
 20
91.92324623732469
 30
0.0
 40
1.302083333333335
 41
0.0
 71
     5
 72
     1
  1
1
 73
     1
 44
1.0
1001
ACAD
1000
MTEXTBEGIN
1070
    73
1070
     1
1070
    44
1040
1.0
1070
    74
1070
     0
1000
MTEXTEND
  0
LWPOLYLINE
  5
9828
330
18
100
AcDbEntity
  8
mark
100
AcDbPolyline
 90
        3
 70
     1
 43
0.0
 10
310.8334923233534
 20
90.97495005064478
 10
313.4315685347068
 20
90.97495005064478
 10
312.1325304290301
 20
93.2249500506448
  0
MTEXT
  5
9829
330
18
100
AcDbEntity
  8
DIM
100
AcDbMText
 10
314.3644202972993
 20
93.17669669620233
 30
0.0
 40
2.249053030303036
 41
0.0
 71
     1
 72
     5
  1
{\Ftxt,bigfont|c128;07.10.31ネジ、ロックピンの規格を変更します  林}
  7
JL
 73
     1
 44
1.0
1001
ACAD
1000
MTEXTBEGIN
1070
    73
1070
     1
1070
    44
1040
1.0
1070
    74
1070
     0
1000
MTEXTEND
  0
CIRCLE
  5
982A
330
18
100
AcDbEntity
  8
DIM
100
AcDbCircle
 10
345.5383322129679
 20
92.02492678132633
 30
0.0
 40
1.361884033060021
  0
MTEXT
  5
982B
330
18
100
AcDbEntity
  8
mark
 62
     3
100
AcDbMText
 10
383.228763226586
 20
207.5834386865631
 30
0.0
 40
1.302083333333335
 41
0.0
 71
     5
 72
     1
  1
1
 73
     1
 44
1.0
1001
ACAD
1000
MTEXTBEGIN
1070
    73
1070
     1
1070
    44
1040
1.0
1070
    74
1070
     0
1000
MTEXTEND
  0
LWPOLYLINE
  5
982C
330
18
100
AcDbEntity
  8
mark
100
AcDbPolyline
 90
        3
 70
     1
 43
0.0
 10
381.9236633810419
 20
206.6351424998832
 10
384.5217395923953
 20
206.6351424998832
 10
383.2227014867186
 20
208.8851424998832
  0
MTEXT
  5
982D
330
18
100
AcDbEntity
  8
0
100
AcDbMText
 10
385.4054664139161
 20
208.9420424055238
 30
0.0
 40
2.5
 41
0.0
 71
     1
 72
     5
  1
{\Ftxt,bigfont|c128;M5X0.8P-6L}
  7
JL
 73
     1
 44
1.0
1001
ACAD
1000
MTEXTBEGIN
1070
    73
1070
     1
1070
    44
1040
1.0
1070
    74
1070
     0
1000
MTEXTEND
  0
LINE
  5
982E
330
18
100
AcDbEntity
  8
mark
 62
     1
100
AcDbLine
 10
338.5041184251637
 20
208.1732422936915
 30
0.0
 11
349.7972727357403
 21
208.1732422936915
 31
0.0
  0
LINE
  5
982F
330
18
100
AcDbEntity
  8
mark
 62
     1
100
AcDbLine
 10
338.5041184251637
 20
207.0634831588727
 30
0.0
 11
349.7972727357403
 21
207.0634831588727
 31
0.0
  0
MTEXT
  5
9830
330
18
100
AcDbEntity
  8
0
100
AcDbMText
 10
385.2462857116929
 20
204.9290531322199
 30
0.0
 40
2.5
 41
0.0
 71
     1
 72
     5
  1
{\Ftxt,bigfont|c128;%%C4.5X4.5L}
  7
JL
 73
     1
 44
1.0
1001
ACAD
1000
MTEXTBEGIN
1070
    73
1070
     1
1070
    44
1040
1.0
1070
    74
1070
     0
1000
MTEXTEND
  0
MTEXT
  5
9831
330
18
100
AcDbEntity
  8
mark
 62
     3
100
AcDbMText
 10
383.228763226586
 20
203.4049254115238
 30
0.0
 40
1.302083333333335
 41
0.0
 71
     5
 72
     1
  1
1
 73
     1
 44
1.0
1001
ACAD
1000
MTEXTBEGIN
1070
    73
1070
     1
1070
    44
1040
1.0
1070
    74
1070
     0
1000
MTEXTEND
  0
LWPOLYLINE
  5
9832
330
18
100
AcDbEntity
  8
mark
100
AcDbPolyline
 90
        3
 70
     1
 43
0.0
 10
381.9236633810419
 20
202.4566292248439
 10
384.5217395923953
 20
202.4566292248439
 10
383.2227014867186
 20
204.7066292248439
  0
LINE
  5
9833
330
18
100
AcDbEntity
  8
mark
 62
     1
100
AcDbLine
 10
338.5041184251637
 20
204.1732422936915
 30
0.0
 11
346.7517573615193
 21
204.1732422936915
 31
0.0
  0
LINE
  5
9834
330
18
100
AcDbEntity
  8
mark
 62
     1
100
AcDbLine
 10
338.4346050871658
 20
203.2235768426571
 30
0.0
 11
346.6822440235215
 21
203.2235768426571
 31
0.0
  0
LWPOLYLINE
  5
9835
330
18
100
AcDbEntity
  8
mark
100
AcDbPolyline
 90
        3
 70
     1
 43
0.0
 10
313.5214722153542
 20
94.53492858238298
 10
312.0780965423801
 20
97.03492858238298
 10
310.6347208694061
 20
94.53492858238298
  0
MTEXT
  5
9836
330
18
100
AcDbEntity
  8
DIM
100
AcDbMText
 10
311.6592974010051
 20
96.06301363862851
 30
0.0
 40
1.25
 41
4.581557073439626
 71
     1
 72
     5
  1
2
 73
     1
 44
1.0
1001
ACAD
1000
MTEXTBEGIN
1070
    73
1070
     1
1070
    44
1040
1.0
1070
    74
1070
     0
1000
MTEXTEND
  0
MTEXT
  5
9837
330
18
100
AcDbEntity
  8
DIM
100
AcDbMText
 10
314.40307147109
 20
96.76520757360814
 30
0.0
 40
2.25
 41
0.0
 71
     1
 72
     5
  1
{\Ftxt,bigfont|c128;08.08.08 振れ精度の変更  林}
  7
JL
 73
     1
 44
1.0
1001
ACAD
1000
MTEXTBEGIN
1070
    73
1070
     1
1070
    44
1040
1.0
1070
    74
1070
     0
1000
MTEXTEND
  0
CIRCLE
  5
9838
330
18
100
AcDbEntity
  8
DIM
100
AcDbCircle
 10
333.2902231181029
 20
95.61029826362474
 30
0.0
 40
1.381204854054431
  0
LWPOLYLINE
  5
9839
330
18
100
AcDbEntity
  8
mark
100
AcDbPolyline
 90
        3
 70
     1
 43
0.0
 10
314.0598291139222
 20
138.815003799003
 10
312.6164534409481
 20
141.315003799003
 10
311.1730777679741
 20
138.815003799003
  0
MTEXT
  5
983A
330
18
100
AcDbEntity
  8
DIM
100
AcDbMText
 10
312.1976542995732
 20
140.3430888552485
 30
0.0
 40
1.25
 41
4.581557073439626
 71
     1
 72
     5
  1
2
 73
     1
 44
1.0
1001
ACAD
1000
MTEXTBEGIN
1070
    73
1070
     1
1070
    44
1040
1.0
1070
    74
1070
     0
1000
MTEXTEND
  0
LINE
  5
983B
330
18
100
AcDbEntity
  8
mark
100
AcDbLine
 10
322.7746927214362
 20
136.546320574188
 30
0.0
 11
323.8936641133424
 21
136.546320574188
 31
0.0
  0
MTEXT
  5
983C
330
18
100
AcDbEntity
  8
DIM
100
AcDbMText
 10
314.9499704318914
 20
140.3430888552485
 30
0.0
 40
1.37
 41
4.581557073439626
 71
     1
 72
     5
  1
0.007
 73
     1
 44
1.0
1001
ACAD
1000
MTEXTBEGIN
1070
    73
1070
     1
1070
    44
1040
1.0
1070
    74
1070
     0
1000
MTEXTEND
  0
LINE
  5
983D
330
18
100
AcDbEntity
  8
mark
 62
     1
100
AcDbLine
 10
314.5392678429824
 20
136.8085173844997
 30
0.0
 11
320.0471959899737
 21
136.8085173844997
 31
0.0
  0
LINE
  5
983E
330
18
100
AcDbEntity
  8
mark
 62
     1
100
AcDbLine
 10
314.5392678429824
 20
136.2705978163926
 30
0.0
 11
320.0471959899737
 21
136.2705978163926
 31
0.0
  0
LWPOLYLINE
  5
983F
330
18
100
AcDbEntity
  8
mark
100
AcDbPolyline
 90
        3
 70
     1
 43
0.0
 10
404.0205421998207
 20
75.15712590666343
 10
402.5771665268465
 20
77.65712590666343
 10
401.1337908538725
 20
75.15712590666343
  0
MTEXT
  5
9840
330
18
100
AcDbEntity
  8
DIM
100
AcDbMText
 10
402.1583673854715
 20
76.68521096290894
 30
0.0
 40
1.25
 41
4.581557073439626
 71
     1
 72
     5
  1
3
 73
     1
 44
1.0
1001
ACAD
1000
MTEXTBEGIN
1070
    73
1070
     1
1070
    44
1040
1.0
1070
    74
1070
     0
1000
MTEXTEND
  0
LWPOLYLINE
  5
994B
330
18
100
AcDbEntity
  8
mark
100
AcDbPolyline
 90
        3
 70
     1
 43
0.0
 10
313.5214722153542
 20
98.33839372433427
 10
312.0780965423801
 20
100.8383937243342
 10
310.6347208694061
 20
98.33839372433427
  0
MTEXT
  5
994C
330
18
100
AcDbEntity
  8
DIM
100
AcDbMText
 10
311.6592974010051
 20
99.86647878057979
 30
0.0
 40
1.25
 41
4.581557073439626
 71
     1
 72
     5
  1
3
 73
     1
 44
1.0
1001
ACAD
1000
MTEXTBEGIN
1070
    73
1070
     1
1070
    44
1040
1.0
1070
    74
1070
     0
1000
MTEXTEND
  0
MTEXT
  5
994D
330
18
100
AcDbEntity
  8
DIM
100
AcDbMText
 10
314.40307147109
 20
100.5686727155594
 30
0.0
 40
2.25
 41
0.0
 71
     1
 72
     5
  1
{\Ftxt,bigfont|c136;13\Ftxt,bigfont|c128;.\Ftxt,bigfont|c136;03\Ftxt,bigfont|c128;.\Ftxt,bigfont|c136;20\Ftxt,bigfont|c128;熱処理不要. 振れ精度の変更  林}
  7
JL
 73
     1
 44
1.0
1001
ACAD
1000
MTEXTBEGIN
1070
    73
1070
     1
1070
    44
1040
1.0
1070
    74
1070
     0
1000
MTEXTEND
  0
CIRCLE
  5
994E
330
18
100
AcDbEntity
  8
DIM
100
AcDbCircle
 10
340.2694075779611
 20
99.41376340557603
 30
0.0
 40
1.381204854054431
  0
LINE
  5
9950
330
18
100
AcDbEntity
  8
mark
 62
     1
100
AcDbLine
 10
311.1730777679741
 20
140.0182045094689
 30
0.0
 11
320.0471959899737
 21
140.0182045094688
 31
0.0
  0
LINE
  5
9951
330
18
100
AcDbEntity
  8
mark
 62
     1
100
AcDbLine
 10
311.1730777679741
 20
139.4802849413618
 30
0.0
 11
320.0471959899737
 21
139.4802849413618
 31
0.0
  0
LWPOLYLINE
  5
9953
330
18
100
AcDbEntity
  8
mark
100
AcDbPolyline
 90
        3
 70
     1
 43
0.0
 10
314.0598291139222
 20
142.3181480462129
 10
312.6164534409481
 20
144.8181480462129
 10
311.1730777679741
 20
142.3181480462129
  0
MTEXT
  5
9954
330
18
100
AcDbEntity
  8
DIM
100
AcDbMText
 10
312.1976542995732
 20
143.8462331024584
 30
0.0
 40
1.25
 41
4.581557073439626
 71
     1
 72
     5
  1
3
 73
     1
 44
1.0
1001
ACAD
1000
MTEXTBEGIN
1070
    73
1070
     1
1070
    44
1040
1.0
1070
    74
1070
     0
1000
MTEXTEND
  0
MTEXT
  5
9955
330
18
100
AcDbEntity
  8
DIM
100
AcDbMText
 10
314.9499704318914
 20
143.8462331024584
 30
0.0
 40
1.37
 41
4.581557073439626
 71
     1
 72
     5
  1
0.005
 73
     1
 44
1.0
1001
ACAD
1000
MTEXTBEGIN
1070
    73
1070
     1
1070
    44
1040
1.0
1070
    74
1070
     0
1000
MTEXTEND
  0
LINE
  5
9957
330
18
100
AcDbEntity
  8
mark
 62
     1
100
AcDbLine
 10
377.8568655774569
 20
195.4054528582688
 30
0.0
 11
404.5065626938587
 21
195.4054528582688
 31
0.0
  0
LINE
  5
9958
330
18
100
AcDbEntity
  8
mark
 62
     1
100
AcDbLine
 10
377.8568655774569
 20
194.4054528582688
 30
0.0
 11
404.5065626938587
 21
194.4054528582688
 31
0.0
  0
ENDSEC
  0
SECTION
  2
OBJECTS
  0
DICTIONARY
  5
C
330
0
100
AcDbDictionary
281
     1
  3
ACAD_COLOR
350
95B5
  3
ACAD_GROUP
350
D
  3
ACAD_LAYOUT
350
5CF3
  3
ACAD_MATERIAL
350
95B4
  3
ACAD_MLEADERSTYLE
350
9684
  3
ACAD_MLINESTYLE
350
1B
  3
ACAD_PLOTSETTINGS
350
5CF4
  3
ACAD_PLOTSTYLENAME
350
5CF1
  3
ACAD_SCALELIST
350
9672
  3
ACAD_TABLESTYLE
350
95B6
  3
ACAD_VISUALSTYLE
350
9659
  3
ACDB_RECOMPOSE_DATA
350
9994
  3
ACDBHEADERROUNDTRIPXREC
350
9A7A
  3
ACDBVARIABLEDICTIONARY
350
45D
  3
AcmDictionary
350
96DF
  3
AMG
350
9692
  3
AMGSNAPSETTINGS
350
9720
  3
DWGPROPS
350
9A79
  0
DICTIONARY
  5
9996
330
8
100
AcDbDictionary
280
     1
281
     1
  3
ACAD_XREC_ROUNDTRIP
360
9997
  0
DICTIONARY
  5
9980
330
E
100
AcDbDictionary
280
     1
281
     1
  3
ADSK_XREC_LAYER_RECONCILED
360
9981
  0
DICTIONARY
  5
9982
330
B9
100
AcDbDictionary
280
     1
281
     1
  3
ADSK_XREC_LAYER_RECONCILED
360
9983
  0
DICTIONARY
  5
9984
330
5F8B
100
AcDbDictionary
280
     1
281
     1
  3
ADSK_XREC_LAYER_RECONCILED
360
9985
  0
DICTIONARY
  5
9986
330
644E
100
AcDbDictionary
280
     1
281
     1
  3
ADSK_XREC_LAYER_RECONCILED
360
9987
  0
DICTIONARY
  5
9988
330
650D
100
AcDbDictionary
280
     1
281
     1
  3
ADSK_XREC_LAYER_RECONCILED
360
9989
  0
DICTIONARY
  5
998A
330
650E
100
AcDbDictionary
280
     1
281
     1
  3
ADSK_XREC_LAYER_RECONCILED
360
998B
  0
DICTIONARY
  5
998C
330
650F
100
AcDbDictionary
280
     1
281
     1
  3
ADSK_XREC_LAYER_RECONCILED
360
998D
  0
DICTIONARY
  5
998E
330
6510
100
AcDbDictionary
280
     1
281
     1
  3
ADSK_XREC_LAYER_RECONCILED
360
998F
  0
DICTIONARY
  5
9990
330
95E4
100
AcDbDictionary
280
     1
281
     1
  3
ADSK_XREC_LAYER_RECONCILED
360
9991
  0
DICTIONARY
  5
45F
330
18
100
AcDbDictionary
280
     1
281
     1
  3
ACAD_LAYOUTSELFREF
360
5D8B
  3
ACAD_SORTENTS
360
460
  0
DICTIONARY
  5
5D89
330
15
100
AcDbDictionary
280
     1
281
     1
  3
ACAD_LAYOUTSELFREF
360
5D8A
  0
DICTIONARY
  5
95B5
102
{ACAD_REACTORS
330
C
102
}
330
C
100
AcDbDictionary
281
     1
  0
DICTIONARY
  5
D
102
{ACAD_REACTORS
330
C
102
}
330
C
100
AcDbDictionary
281
     1
  0
DICTIONARY
  5
5CF3
102
{ACAD_REACTORS
330
C
102
}
330
C
100
AcDbDictionary
281
     1
  3
Model
350
5CF5
  3
配置1
350
5CF6
1001
ACADSTRINGINFO
1000
MIFCodePage
1070
     1
  0
DICTIONARY
  5
95B4
102
{ACAD_REACTORS
330
C
102
}
330
C
100
AcDbDictionary
281
     1
  3
ByBlock
350
9649
  3
ByLayer
350
9641
  3
Global
350
9651
  0
DICTIONARY
  5
9684
102
{ACAD_REACTORS
330
C
102
}
330
C
100
AcDbDictionary
281
     1
  3
Standard
350
9685
  0
DICTIONARY
  5
1B
102
{ACAD_REACTORS
330
C
102
}
330
C
100
AcDbDictionary
281
     1
  3
STANDARD
350
1C
  0
DICTIONARY
  5
5CF4
102
{ACAD_REACTORS
330
C
102
}
330
C
100
AcDbDictionary
281
     1
  0
ACDBDICTIONARYWDFLT
  5
5CF1
102
{ACAD_REACTORS
330
C
102
}
330
C
100
AcDbDictionary
281
     1
  3
Normal
350
5CF2
100
AcDbDictionaryWithDefault
340
5CF2
  0
DICTIONARY
  5
9672
102
{ACAD_REACTORS
330
C
102
}
330
C
100
AcDbDictionary
281
     1
  3
A0
350
9673
  3
A1
350
9674
  3
A2
350
9675
  3
A3
350
9676
  3
A4
350
9677
  3
A5
350
9678
  3
A6
350
9679
  3
A7
350
967A
  3
A8
350
967B
  3
A9
350
967C
  3
B0
350
967D
  3
B1
350
967E
  3
B2
350
967F
  3
B3
350
9680
  3
B4
350
9681
  3
B5
350
9682
  3
B6
350
9683
  0
DICTIONARY
  5
95B6
102
{ACAD_REACTORS
330
C
102
}
330
C
100
AcDbDictionary
281
     1
  3
Standard
350
95B7
  0
DICTIONARY
  5
9659
102
{ACAD_REACTORS
330
C
102
}
330
C
100
AcDbDictionary
281
     1
  3
2dWireframe
350
965F
  3
Basic
350
965E
  3
Brighten
350
9665
  3
ColorChange
350
9669
  3
Conceptual
350
9662
  3
Dim
350
9664
  3
EdgeColorOff
350
9671
  3
Facepattern
350
9668
  3
Flat
350
965A
  3
FlatWithEdges
350
965B
  3
Gouraud
350
965C
  3
GouraudWithEdges
350
965D
  3
Hidden
350
9661
  3
JitterOff
350
966F
  3
Linepattern
350
9667
  3
OverhangOff
350
9670
  3
Realistic
350
9663
  3
Shaded
350
966E
  3
Shaded with edges
350
966D
  3
Shades of Gray
350
966A
  3
Sketchy
350
966B
  3
Thicken
350
9666
  3
Wireframe
350
9660
  3
X-Ray
350
966C
  0
XRECORD
  5
9994
102
{ACAD_REACTORS
330
C
102
}
330
C
100
AcDbXrecord
280
     1
 90
        1
330
95B7
  0
DICTIONARY
  5
9A7A
102
{ACAD_REACTORS
330
C
102
}
330
C
100
AcDbDictionary
281
     1
  0
DICTIONARY
  5
45D
102
{ACAD_REACTORS
330
C
102
}
330
C
100
AcDbDictionary
281
     1
  3
CANNOSCALE
350
9A67
  3
CMLEADERSTYLE
350
9A66
  3
CTABLESTYLE
350
95D3
  3
DIMASSOC
350
9A6A
  3
INDEXCTL
350
9A68
  3
PROJECTNAME
350
9A77
  3
SORTENTS
350
45E
  3
XCLIPFRAME
350
9A69
  0
DICTIONARY
  5
96DF
102
{ACAD_REACTORS
330
C
102
}
330
C
100
AcDbDictionary
281
     1
  3
AcmStdDictionary
350
96EA
  0
DICTIONARY
  5
9692
102
{ACAD_REACTORS
330
C
102
}
330
C
100
AcDbDictionary
281
     1
  0
DICTIONARY
  5
9720
102
{ACAD_REACTORS
330
C
102
}
330
C
100
AcDbDictionary
281
     1
  0
XRECORD
  5
9A79
102
{ACAD_REACTORS
330
C
102
}
330
C
100
AcDbXrecord
280
     1
  1
DWGPROPS COOKIE
  2

  3

  4

  6

  7

  8
USER
  9

300
=
301
=
302
=
303
=
304
=
305
=
306
=
307
=
308
=
309
=
 40
2.69546318287037
 41
2451555.620234838
 42
2457828.682601748
  1

 90
        0
  0
XRECORD
  5
9997
102
{ACAD_REACTORS
330
9996
102
}
330
9996
100
AcDbXrecord
280
     1
102
VTR_0.000_0.000_1.000_1.000_VISUALSTYLE
340
965F
102
VTR_0.000_0.000_1.000_1.000_GRIDDISPLAY
 70
     3
102
VTR_0.000_0.000_1.000_1.000_GRIDMAJOR
 70
     5
102
VTR_0.000_0.000_1.000_1.000_DEFAULTLIGHTING
280
     1
102
VTR_0.000_0.000_1.000_1.000_DEFAULTLIGHTINGTYPE
 70
     1
102
VTR_0.000_0.000_1.000_1.000_BRIGHTNESS
141
0.0
102
VTR_0.000_0.000_1.000_1.000_CONTRAST
142
0.0
  0
XRECORD
  5
9981
102
{ACAD_REACTORS
330
9980
102
}
330
9980
100
AcDbXrecord
280
     1
290
     1
  0
XRECORD
  5
9983
102
{ACAD_REACTORS
330
9982
102
}
330
9982
100
AcDbXrecord
280
     1
290
     1
  0
XRECORD
  5
9985
102
{ACAD_REACTORS
330
9984
102
}
330
9984
100
AcDbXrecord
280
     1
290
     1
  0
XRECORD
  5
9987
102
{ACAD_REACTORS
330
9986
102
}
330
9986
100
AcDbXrecord
280
     1
290
     1
  0
XRECORD
  5
9989
102
{ACAD_REACTORS
330
9988
102
}
330
9988
100
AcDbXrecord
280
     1
290
     1
  0
XRECORD
  5
998B
102
{ACAD_REACTORS
330
998A
102
}
330
998A
100
AcDbXrecord
280
     1
290
     1
  0
XRECORD
  5
998D
102
{ACAD_REACTORS
330
998C
102
}
330
998C
100
AcDbXrecord
280
     1
290
     1
  0
XRECORD
  5
998F
102
{ACAD_REACTORS
330
998E
102
}
330
998E
100
AcDbXrecord
280
     1
290
     1
  0
XRECORD
  5
9991
102
{ACAD_REACTORS
330
9990
102
}
330
9990
100
AcDbXrecord
280
     1
290
     1
  0
XRECORD
  5
5D8B
102
{ACAD_REACTORS
330
45F
102
}
330
45F
100
AcDbXrecord
280
     1
340
18
  0
SORTENTSTABLE
  5
460
102
{ACAD_REACTORS
330
45F
102
}
330
45F
100
AcDbSortentsTable
330
18
331
C0
  5
CB
  0
XRECORD
  5
5D8A
102
{ACAD_REACTORS
330
5D89
102
}
330
5D89
100
AcDbXrecord
280
     1
340
15
  0
LAYOUT
  5
5CF5
102
{ACAD_XDICTIONARY
360
9A7B
102
}
102
{ACAD_REACTORS
330
5CF3
102
}
330
5CF3
100
AcDbPlotSettings
  1

  2
hp LaserJet 1300 PCL 6
  4
A4
  6

 40
5.027083396911621
 41
5.069413185119628
 42
5.027084350585937
 43
5.027069091796875
 44
209.9733276367187
 45
296.9683227539062
 46
2.02746888522445
 47
0.0
 48
210.006196569778
 49
73.88112800344742
140
309.006196569778
141
218.8811280034475
142
1.0
143
0.5054521899357724
 70
 11956
 72
     1
 73
     0
 74
     4
  7
LIN.ctb
 75
     0
147
1.978426486048205
148
-210.006196569778
149
-73.88112800344742
100
AcDbLayout
  1
Model
 70
     1
 71
     0
 10
0.0
 20
0.0
 11
12.0
 21
9.0
 12
0.0
 22
0.0
 32
0.0
 14
0.0
 24
0.0
 34
0.0
 15
0.0
 25
0.0
 35
0.0
146
0.0
 13
0.0
 23
0.0
 33
0.0
 16
1.0
 26
0.0
 36
0.0
 17
0.0
 27
1.0
 37
0.0
 76
     0
330
18
331
963F
1001
ACAD_PSEXT
1000
hp LaserJet 1300 PCL 6
1000
hp LaserJet 1300 PCL 6
1000
HP 1300
1000

1070
     0
  0
LAYOUT
  5
5CF6
102
{ACAD_XDICTIONARY
360
9A7D
102
}
102
{ACAD_REACTORS
330
5CF3
102
}
330
5CF3
100
AcDbPlotSettings
  1

  2
EPSON STYLUS COLOR 440
  4

  6

 40
0.0
 41
0.0
 42
0.0
 43
0.0
 44
0.0
 45
0.0
 46
0.0
 47
0.0
 48
0.0
 49
0.0
140
0.0
141
0.0
142
1.0
143
1.0
 70
   688
 72
     0
 73
     0
 74
     5
  7
LIN.ctb
 75
    16
147
1.0
148
0.0
149
0.0
100
AcDbLayout
  1
ｰtｸm1
 70
     1
 71
     1
 10
0.0
 20
0.0
 11
420.0
 21
297.0
 12
0.0
 22
0.0
 32
0.0
 14
1.000000000000000E+20
 24
1.000000000000000E+20
 34
1.000000000000000E+20
 15
-1.000000000000000E+20
 25
-1.000000000000000E+20
 35
-1.000000000000000E+20
146
0.0
 13
0.0
 23
0.0
 33
0.0
 16
1.0
 26
0.0
 36
0.0
 17
0.0
 27
1.0
 37
0.0
 76
     0
330
15
1001
ACADSTRINGINFO
1000
MIFCodePage
1070
     1
  0
MATERIAL
  5
9649
102
{ACAD_XDICTIONARY
360
964A
102
}
102
{ACAD_REACTORS
330
95B4
102
}
330
95B4
100
AcDbMaterial
  1
ByBlock
 72
     0
 73
     2
 43
0.0208333333333333
 43
0.0
 43
0.0
 43
0.0
 43
0.0
 43
0.0208333333333333
 43
0.0
 43
0.0
 43
0.0
 43
0.0
 43
1.0
 43
0.0
 43
0.0
 43
0.0
 43
0.0
 43
1.0
 77
     0
 78
     2
 47
0.0208333333333333
 47
0.0
 47
0.0
 47
0.0
 47
0.0
 47
0.0208333333333333
 47
0.0
 47
0.0
 47
0.0
 47
0.0
 47
1.0
 47
0.0
 47
0.0
 47
0.0
 47
0.0
 47
1.0
171
     0
172
     2
 49
0.0208333333333333
 49
0.0
 49
0.0
 49
0.0
 49
0.0
 49
0.0208333333333333
 49
0.0
 49
0.0
 49
0.0
 49
0.0
 49
1.0
 49
0.0
 49
0.0
 49
0.0
 49
0.0
 49
1.0
175
     0
176
     2
142
0.0208333333333333
142
0.0
142
0.0
142
0.0
142
0.0
142
0.0208333333333333
142
0.0
142
0.0
142
0.0
142
0.0
142
1.0
142
0.0
142
0.0
142
0.0
142
0.0
142
1.0
179
     0
270
     2
144
0.0208333333333333
144
0.0
144
0.0
144
0.0
144
0.0
144
0.0208333333333333
144
0.0
144
0.0
144
0.0
144
0.0
144
1.0
144
0.0
144
0.0
144
0.0
144
0.0
144
1.0
274
     2
147
0.0208333333333333
147
0.0
147
0.0
147
0.0
147
0.0
147
0.0208333333333333
147
0.0
147
0.0
147
0.0
147
0.0
147
1.0
147
0.0
147
0.0
147
0.0
147
0.0
147
1.0
  0
MATERIAL
  5
9641
102
{ACAD_XDICTIONARY
360
9642
102
}
102
{ACAD_REACTORS
330
95B4
102
}
330
95B4
100
AcDbMaterial
  1
ByLayer
 72
     0
 73
     2
 43
0.0208333333333333
 43
0.0
 43
0.0
 43
0.0
 43
0.0
 43
0.0208333333333333
 43
0.0
 43
0.0
 43
0.0
 43
0.0
 43
1.0
 43
0.0
 43
0.0
 43
0.0
 43
0.0
 43
1.0
 77
     0
 78
     2
 47
0.0208333333333333
 47
0.0
 47
0.0
 47
0.0
 47
0.0
 47
0.0208333333333333
 47
0.0
 47
0.0
 47
0.0
 47
0.0
 47
1.0
 47
0.0
 47
0.0
 47
0.0
 47
0.0
 47
1.0
171
     0
172
     2
 49
0.0208333333333333
 49
0.0
 49
0.0
 49
0.0
 49
0.0
 49
0.0208333333333333
 49
0.0
 49
0.0
 49
0.0
 49
0.0
 49
1.0
 49
0.0
 49
0.0
 49
0.0
 49
0.0
 49
1.0
175
     0
176
     2
142
0.0208333333333333
142
0.0
142
0.0
142
0.0
142
0.0
142
0.0208333333333333
142
0.0
142
0.0
142
0.0
142
0.0
142
1.0
142
0.0
142
0.0
142
0.0
142
0.0
142
1.0
179
     0
270
     2
144
0.0208333333333333
144
0.0
144
0.0
144
0.0
144
0.0
144
0.0208333333333333
144
0.0
144
0.0
144
0.0
144
0.0
144
1.0
144
0.0
144
0.0
144
0.0
144
0.0
144
1.0
274
     2
147
0.0208333333333333
147
0.0
147
0.0
147
0.0
147
0.0
147
0.0208333333333333
147
0.0
147
0.0
147
0.0
147
0.0
147
1.0
147
0.0
147
0.0
147
0.0
147
0.0
147
1.0
  0
MATERIAL
  5
9651
102
{ACAD_XDICTIONARY
360
9652
102
}
102
{ACAD_REACTORS
330
95B4
102
}
330
95B4
100
AcDbMaterial
  1
Global
 72
     0
 73
     2
 43
0.0208333333333333
 43
0.0
 43
0.0
 43
0.0
 43
0.0
 43
0.0208333333333333
 43
0.0
 43
0.0
 43
0.0
 43
0.0
 43
1.0
 43
0.0
 43
0.0
 43
0.0
 43
0.0
 43
1.0
 77
     0
 78
     2
 47
0.0208333333333333
 47
0.0
 47
0.0
 47
0.0
 47
0.0
 47
0.0208333333333333
 47
0.0
 47
0.0
 47
0.0
 47
0.0
 47
1.0
 47
0.0
 47
0.0
 47
0.0
 47
0.0
 47
1.0
171
     0
172
     2
 49
0.0208333333333333
 49
0.0
 49
0.0
 49
0.0
 49
0.0
 49
0.0208333333333333
 49
0.0
 49
0.0
 49
0.0
 49
0.0
 49
1.0
 49
0.0
 49
0.0
 49
0.0
 49
0.0
 49
1.0
175
     0
176
     2
142
0.0208333333333333
142
0.0
142
0.0
142
0.0
142
0.0
142
0.0208333333333333
142
0.0
142
0.0
142
0.0
142
0.0
142
1.0
142
0.0
142
0.0
142
0.0
142
0.0
142
1.0
179
     0
270
     2
144
0.0208333333333333
144
0.0
144
0.0
144
0.0
144
0.0
144
0.0208333333333333
144
0.0
144
0.0
144
0.0
144
0.0
144
1.0
144
0.0
144
0.0
144
0.0
144
0.0
144
1.0
274
     2
147
0.0208333333333333
147
0.0
147
0.0
147
0.0
147
0.0
147
0.0208333333333333
147
0.0
147
0.0
147
0.0
147
0.0
147
1.0
147
0.0
147
0.0
147
0.0
147
0.0
147
1.0
  0
ACAD_PROXY_OBJECT
  5
9685
102
{ACAD_REACTORS
330
9684
102
}
330
9684
100
AcDbProxyObject
 90
      499
 91
      515
 95
   983063
 70
     0
 93
      618
310
40901902A4063FBFFFFFE000000000000002040AD7A3703D0AD73F4254DD185B99185C99000000000000000104090141901A00000000000004100000000000000041025764000000000000300FC0
340
12
340
0
340
F
340
0
 94
        0
1001
ACAD_MLEADERVER
1070
     2
1001
ACAD
1000
AcRTDxfName
1000
MLEADERSTYLE
  0
MLINESTYLE
  5
1C
102
{ACAD_REACTORS
330
1B
102
}
330
1B
100
AcDbMlineStyle
  2
STANDARD
 70
     0
  3

 62
   256
 51
90.0
 52
90.0
 71
     2
 49
0.5
 62
   256
  6
BYLAYER
 49
-0.5
 62
   256
  6
BYLAYER
  0
ACDBPLACEHOLDER
  5
5CF2
102
{ACAD_REACTORS
330
5CF1
102
}
330
5CF1
  0
ACAD_PROXY_OBJECT
  5
9673
102
{ACAD_REACTORS
330
9672
102
}
330
9672
100
AcDbProxyObject
 90
      499
 91
      514
 95
   983063
 70
     0
 93
       49
310
904313A3100598
 94
        0
1001
ACAD
1000
AcRTDxfName
1000
SCALE
  0
ACAD_PROXY_OBJECT
  5
9674
102
{ACAD_REACTORS
330
9672
102
}
330
9672
100
AcDbProxyObject
 90
      499
 91
      514
 95
   983063
 70
     0
 93
      113
310
904313A32004000000000000004011
 94
        0
1001
ACAD
1000
AcRTDxfName
1000
SCALE
  0
ACAD_PROXY_OBJECT
  5
9675
102
{ACAD_REACTORS
330
9672
102
}
330
9672
100
AcDbProxyObject
 90
      499
 91
      514
 95
   983063
 70
     0
 93
      113
310
904313A34004000000000000104054
 94
        0
1001
ACAD
1000
AcRTDxfName
1000
SCALE
  0
ACAD_PROXY_OBJECT
  5
9676
102
{ACAD_REACTORS
330
9672
102
}
330
9672
100
AcDbProxyObject
 90
      499
 91
      514
 95
   983063
 70
     0
 93
      113
310
904313A35004000000000000144011
 94
        0
1001
ACAD
1000
AcRTDxfName
1000
SCALE
  0
ACAD_PROXY_OBJECT
  5
9677
102
{ACAD_REACTORS
330
9672
102
}
330
9672
100
AcDbProxyObject
 90
      499
 91
      514
 95
   983063
 70
     0
 93
      113
310
904313A38004000000000000204054
 94
        0
1001
ACAD
1000
AcRTDxfName
1000
SCALE
  0
ACAD_PROXY_OBJECT
  5
9678
102
{ACAD_REACTORS
330
9672
102
}
330
9672
100
AcDbProxyObject
 90
      499
 91
      514
 95
   983063
 70
     0
 93
      121
310
905313A3130004000000000000244064
 94
        0
1001
ACAD
1000
AcRTDxfName
1000
SCALE
  0
ACAD_PROXY_OBJECT
  5
9679
102
{ACAD_REACTORS
330
9672
102
}
330
9672
100
AcDbProxyObject
 90
      499
 91
      514
 95
   983063
 70
     0
 93
      121
310
905313A3136004000000000000304009
 94
        0
1001
ACAD
1000
AcRTDxfName
1000
SCALE
  0
ACAD_PROXY_OBJECT
  5
967A
102
{ACAD_REACTORS
330
9672
102
}
330
9672
100
AcDbProxyObject
 90
      499
 91
      514
 95
   983063
 70
     0
 93
      121
310
905313A3230004000000000000344064
 94
        0
1001
ACAD
1000
AcRTDxfName
1000
SCALE
  0
ACAD_PROXY_OBJECT
  5
967B
102
{ACAD_REACTORS
330
9672
102
}
330
9672
100
AcDbProxyObject
 90
      499
 91
      514
 95
   983063
 70
     0
 93
      121
310
905313A33300040000000000003E4009
 94
        0
1001
ACAD
1000
AcRTDxfName
1000
SCALE
  0
ACAD_PROXY_OBJECT
  5
967C
102
{ACAD_REACTORS
330
9672
102
}
330
9672
100
AcDbProxyObject
 90
      499
 91
      514
 95
   983063
 70
     0
 93
      121
310
905313A3430004000000000000444064
 94
        0
1001
ACAD
1000
AcRTDxfName
1000
SCALE
  0
ACAD_PROXY_OBJECT
  5
967D
102
{ACAD_REACTORS
330
9672
102
}
330
9672
100
AcDbProxyObject
 90
      499
 91
      514
 95
   983063
 70
     0
 93
      121
310
905313A3530004000000000000494009
 94
        0
1001
ACAD
1000
AcRTDxfName
1000
SCALE
  0
ACAD_PROXY_OBJECT
  5
967E
102
{ACAD_REACTORS
330
9672
102
}
330
9672
100
AcDbProxyObject
 90
      499
 91
      514
 95
   983063
 70
     0
 93
      129
310
906313A313030004000000000000594009
 94
        0
1001
ACAD
1000
AcRTDxfName
1000
SCALE
  0
ACAD_PROXY_OBJECT
  5
967F
102
{ACAD_REACTORS
330
9672
102
}
330
9672
100
AcDbProxyObject
 90
      499
 91
      514
 95
   983063
 70
     0
 93
      113
310
904323A31000000000000000010140
 94
        0
1001
ACAD
1000
AcRTDxfName
1000
SCALE
  0
ACAD_PROXY_OBJECT
  5
9680
102
{ACAD_REACTORS
330
9672
102
}
330
9672
100
AcDbProxyObject
 90
      499
 91
      514
 95
   983063
 70
     0
 93
      113
310
904343A31000000000000000410159
 94
        0
1001
ACAD
1000
AcRTDxfName
1000
SCALE
  0
ACAD_PROXY_OBJECT
  5
9681
102
{ACAD_REACTORS
330
9672
102
}
330
9672
100
AcDbProxyObject
 90
      499
 91
      514
 95
   983063
 70
     0
 93
      113
310
904383A31000000000000000810140
 94
        0
1001
ACAD
1000
AcRTDxfName
1000
SCALE
  0
ACAD_PROXY_OBJECT
  5
9682
102
{ACAD_REACTORS
330
9672
102
}
330
9672
100
AcDbProxyObject
 90
      499
 91
      514
 95
   983063
 70
     0
 93
      121
310
90531303A31000000000000000910140
 94
        0
1001
ACAD
1000
AcRTDxfName
1000
SCALE
  0
ACAD_PROXY_OBJECT
  5
9683
102
{ACAD_REACTORS
330
9672
102
}
330
9672
100
AcDbProxyObject
 90
      499
 91
      514
 95
   983063
 70
     0
 93
      129
310
9063130303A31000000000000001650102
 94
        0
1001
ACAD
1000
AcRTDxfName
1000
SCALE
  0
TABLESTYLE
  5
95B7
102
{ACAD_XDICTIONARY
360
9992
102
}
102
{ACAD_REACTORS
330
95B6
102
}
330
95B6
100
AcDbTableStyle
  3
Standard
 70
     0
 71
     0
 40
1.5
 41
1.5
280
     0
281
     0
  7
STANDARD
140
4.5
170
     2
 62
     0
 63
     7
283
     0
274
    -2
284
     1
 64
     0
275
    -2
285
     1
 65
     0
276
    -2
286
     1
 66
     0
277
    -2
287
     1
 67
     0
278
    -2
288
     1
 68
     0
279
    -2
289
     1
 69
     0
  7
STANDARD
140
6.0
170
     5
 62
     0
 63
     7
283
     0
274
    -2
284
     1
 64
     0
275
    -2
285
     1
 65
     0
276
    -2
286
     1
 66
     0
277
    -2
287
     1
 67
     0
278
    -2
288
     1
 68
     0
279
    -2
289
     1
 69
     0
  7
STANDARD
140
4.5
170
     5
 62
     0
 63
     7
283
     0
274
    -2
284
     1
 64
     0
275
    -2
285
     1
 65
     0
276
    -2
286
     1
 66
     0
277
    -2
287
     1
 67
     0
278
    -2
288
     1
 68
     0
279
    -2
289
     1
 69
     0
  0
ACAD_PROXY_OBJECT
  5
965F
102
{ACAD_XDICTIONARY
360
99FA
102
}
102
{ACAD_REACTORS
330
9659
102
}
330
9659
100
AcDbProxyObject
 90
      499
 91
      513
 95
   983063
 70
     0
 93
      444
310
430C9915DA5C99599C985B59401049028333333333333E3BF0000000000000FB0107901411070040501600405405064090741402480A0340
 94
        0
1001
ACAD
1000
AcDbSavedByObjectVersion
1070
     0
1000
AcRTDxfName
1000
VISUALSTYLE
  0
ACAD_PROXY_OBJECT
  5
965E
102
{ACAD_XDICTIONARY
360
99F8
102
}
102
{ACAD_REACTORS
330
9659
102
}
330
9659
100
AcDbProxyObject
 90
      499
 91
      513
 95
   983063
 70
     0
 93
      396
310
4190985CDA58C0107406404333333333333E3BF0000000000000FB0107A41107004050150841D405064090741402480A0350
 94
        0
1001
ACAD
1000
AcDbSavedByObjectVersion
1070
     0
1000
AcRTDxfName
1000
VISUALSTYLE
  0
ACAD_PROXY_OBJECT
  5
9665
102
{ACAD_XDICTIONARY
360
9A06
102
}
102
{ACAD_REACTORS
330
9659
102
}
330
9659
100
AcDbProxyObject
 90
      499
 91
      513
 95
   983063
 70
     0
 93
      436
310
42509C9A59DA1D195B8010C409028333333333333E3BF0000000000000FB010790141107004050150841D405064090741402480A029954
 94
        0
1001
ACAD
1000
AcDbSavedByObjectVersion
1070
     0
1000
AcRTDxfName
1000
VISUALSTYLE
  0
ACAD_PROXY_OBJECT
  5
9669
102
{ACAD_XDICTIONARY
360
9A0E
102
}
102
{ACAD_REACTORS
330
9659
102
}
330
9659
100
AcDbProxyObject
 90
      499
 91
      513
 95
   983063
 70
     0
 93
      460
310
4310DBDB1BDC90DA185B99D9401104090240C333333333333E3BF0000000000000FB0108901411070040501508421405064090741402480A0350
 94
        0
1001
ACAD
1000
AcDbSavedByObjectVersion
1070
     0
1000
AcRTDxfName
1000
VISUALSTYLE
  0
ACAD_PROXY_OBJECT
  5
9662
102
{ACAD_XDICTIONARY
360
9A00
102
}
102
{ACAD_REACTORS
330
9659
102
}
330
9659
100
AcDbProxyObject
 90
      499
 91
      513
 95
   983063
 70
     0
 93
      508
310
42D0DBDB98D95C1D1D585B0010940D028333333333333E3BF0000000000000FB0107902409070040501000000000018199010841D405064090740C02480A0340
 94
        0
1001
ACAD
1000
AcDbSavedByObjectVersion
1070
     0
1000
AcRTDxfName
1000
VISUALSTYLE
  0
ACAD_PROXY_OBJECT
  5
9664
102
{ACAD_XDICTIONARY
360
9A04
102
}
102
{ACAD_REACTORS
330
9659
102
}
330
9659
100
AcDbProxyObject
 90
      499
 91
      513
 95
   983063
 70
     0
 93
      420
310
41111A5B4010B409028333333333333E3BF0000000000000FB010790141107004050150841D405064090741402480A02677FFFFFD4
 94
        0
1001
ACAD
1000
AcDbSavedByObjectVersion
1070
     0
1000
AcRTDxfName
1000
VISUALSTYLE
  0
ACAD_PROXY_OBJECT
  5
9671
102
{ACAD_XDICTIONARY
360
9A1E
102
}
102
{ACAD_REACTORS
330
9659
102
}
330
9659
100
AcDbProxyObject
 90
      499
 91
      513
 95
   983063
 70
     0
 93
      460
310
43515919D950DBDB1BDC93D99980116409028333333333333E3BF0000000000000FB010790141107004050150841D405064090741402480A0350
 94
        0
1001
ACAD
1000
AcDbSavedByObjectVersion
1070
     0
1000
AcRTDxfName
1000
VISUALSTYLE
  0
ACAD_PROXY_OBJECT
  5
9668
102
{ACAD_XDICTIONARY
360
9A0C
102
}
102
{ACAD_REACTORS
330
9659
102
}
330
9659
100
AcDbProxyObject
 90
      499
 91
      513
 95
   983063
 70
     0
 93
      452
310
43119858D95C185D1D195C9B8010F409028333333333333E3BF0000000000000FB010790141107004050150841D405064090741402480A0350
 94
        0
1001
ACAD
1000
AcDbSavedByObjectVersion
1070
     0
1000
AcRTDxfName
1000
VISUALSTYLE
  0
ACAD_PROXY_OBJECT
  5
965A
102
{ACAD_XDICTIONARY
360
99F0
102
}
102
{ACAD_REACTORS
330
9659
102
}
330
9659
100
AcDbProxyObject
 90
      499
 91
      513
 95
   983063
 70
     0
 93
      388
310
41519B185D00240901404333333333333E3BF0000000000000F9010740A907004050150841D405064090741402480A1B56
 94
        0
1001
ACAD
1000
AcDbSavedByObjectVersion
1070
     0
1000
AcRTDxfName
1000
VISUALSTYLE
  0
ACAD_PROXY_OBJECT
  5
965B
102
{ACAD_XDICTIONARY
360
99F2
102
}
102
{ACAD_REACTORS
330
9659
102
}
330
9659
100
AcDbProxyObject
 90
      499
 91
      513
 95
   983063
 70
     0
 93
      476
310
43919B185D15DA5D1A115919D95CC010140901404333333333333E3BF0000000000000F90107409019070040501600405405064090741402480A1B50
 94
        0
1001
ACAD
1000
AcDbSavedByObjectVersion
1070
     0
1000
AcRTDxfName
1000
VISUALSTYLE
  0
ACAD_PROXY_OBJECT
  5
965C
102
{ACAD_XDICTIONARY
360
99F4
102
}
102
{ACAD_REACTORS
330
9659
102
}
330
9659
100
AcDbProxyObject
 90
      499
 91
      513
 95
   983063
 70
     0
 93
      412
310
4211DBDD5C985D590010240902404333333333333E3BF0000000000000F9010740A9070040501641D405064090741402480A1B55
 94
        0
1001
ACAD
1000
AcDbSavedByObjectVersion
1070
     0
1000
AcRTDxfName
1000
VISUALSTYLE
  0
ACAD_PROXY_OBJECT
  5
965D
102
{ACAD_XDICTIONARY
360
99F6
102
}
102
{ACAD_REACTORS
330
9659
102
}
330
9659
100
AcDbProxyObject
 90
      499
 91
      513
 95
   983063
 70
     0
 93
      500
310
4451DBDD5C985D5915DA5D1A115919D95CC010340902404333333333333E3BF0000000000000F90107409019070040501600405405064090741402480A1B50
 94
        0
1001
ACAD
1000
AcDbSavedByObjectVersion
1070
     0
1000
AcRTDxfName
1000
VISUALSTYLE
  0
ACAD_PROXY_OBJECT
  5
9661
102
{ACAD_XDICTIONARY
360
99FE
102
}
102
{ACAD_REACTORS
330
9659
102
}
330
9659
100
AcDbProxyObject
 90
      499
 91
      513
 95
   983063
 70
     0
 93
      484
310
41D21A5919195B8010640502408333333333333E3BF0000000000000FB01079024090700405020000000000001110200405405064090740C02480A034A
 94
        0
1001
ACAD
1000
AcDbSavedByObjectVersion
1070
     0
1000
AcRTDxfName
1000
VISUALSTYLE
  0
ACAD_PROXY_OBJECT
  5
966F
102
{ACAD_XDICTIONARY
360
9A1A
102
}
102
{ACAD_REACTORS
330
9659
102
}
330
9659
100
AcDbProxyObject
 90
      499
 91
      513
 95
   983063
 70
     0
 93
      436
310
42929A5D1D195C93D99980114409028333333333333E3BF0000000000000FB010790141107004050150A41D405064090741402480A0354
 94
        0
1001
ACAD
1000
AcDbSavedByObjectVersion
1070
     0
1000
AcRTDxfName
1000
VISUALSTYLE
  0
ACAD_PROXY_OBJECT
  5
9667
102
{ACAD_XDICTIONARY
360
9A0A
102
}
102
{ACAD_REACTORS
330
9659
102
}
330
9659
100
AcDbProxyObject
 90
      499
 91
      513
 95
   983063
 70
     0
 93
      452
310
43131A5B995C185D1D195C9B8010E409028333333333333E3BF0000000000000FB010790141107004050750841D405064090741402483A0352
 94
        0
1001
ACAD
1000
AcDbSavedByObjectVersion
1070
     0
1000
AcRTDxfName
1000
VISUALSTYLE
  0
ACAD_PROXY_OBJECT
  5
9670
102
{ACAD_XDICTIONARY
360
9A1C
102
}
102
{ACAD_REACTORS
330
9659
102
}
330
9659
100
AcDbProxyObject
 90
      499
 91
      513
 95
   983063
 70
     0
 93
      452
310
4313DD995C9A185B99D3D99980115409028333333333333E3BF0000000000000FB010790141107004050150941D405064090741402480A0354
 94
        0
1001
ACAD
1000
AcDbSavedByObjectVersion
1070
     0
1000
AcRTDxfName
1000
VISUALSTYLE
  0
ACAD_PROXY_OBJECT
  5
9663
102
{ACAD_XDICTIONARY
360
9A02
102
}
102
{ACAD_REACTORS
330
9659
102
}
330
9659
100
AcDbProxyObject
 90
      499
 91
      513
 95
   983063
 70
     0
 93
      436
310
429499585B1A5CDD1A58C0108409028333333333333E3BF0000000000000F9010740A907004050150800405405064090740C02480A1B44
 94
        0
1001
ACAD
1000
AcDbSavedByObjectVersion
1070
     0
1000
AcRTDxfName
1000
VISUALSTYLE
  0
ACAD_PROXY_OBJECT
  5
966E
102
{ACAD_XDICTIONARY
360
9A18
102
}
102
{ACAD_REACTORS
330
9659
102
}
330
9659
100
AcDbProxyObject
 90
      499
 91
      513
 95
   983063
 70
     0
 93
      428
310
41D4DA185919590011B40902404333333333333E3BF0000000000000F9010740A41107004050150800405405064090840C02480A0B41
 94
        0
1001
ACAD
1000
AcDbSavedByObjectVersion
1070
     0
1000
AcRTDxfName
1000
VISUALSTYLE
  0
ACAD_PROXY_OBJECT
  5
966D
102
{ACAD_XDICTIONARY
360
9A16
102
}
102
{ACAD_REACTORS
330
9659
102
}
330
9659
100
AcDbProxyObject
 90
      499
 91
      513
 95
   983063
 70
     0
 93
      524
310
4494DA18591959081DDA5D1A08195919D95CC011A40902404333333333333E3BF0000000000000F901074090142907004050250800405405064090740C02480A0B40
 94
        0
1001
ACAD
1000
AcDbSavedByObjectVersion
1070
     0
1000
AcRTDxfName
1000
VISUALSTYLE
  0
ACAD_PROXY_OBJECT
  5
966A
102
{ACAD_XDICTIONARY
360
9A10
102
}
102
{ACAD_REACTORS
330
9659
102
}
330
9659
100
AcDbProxyObject
 90
      499
 91
      513
 95
   983063
 70
     0
 93
      540
310
43D4DA1859195CC81BD98811DC985E401174090240C333333333333E3BF0000000000000FB01079024090741D01000000000000111010841D405064090740C02480A0340
 94
        0
1001
ACAD
1000
AcDbSavedByObjectVersion
1070
     0
1000
AcRTDxfName
1000
VISUALSTYLE
  0
ACAD_PROXY_OBJECT
  5
966B
102
{ACAD_XDICTIONARY
360
9A12
102
}
102
{ACAD_REACTORS
330
9659
102
}
330
9659
100
AcDbProxyObject
 90
      499
 91
      513
 95
   983063
 70
     0
 93
      484
310
4214DAD95D18DA1E4011840502408333333333333E3BF0000000000000FB01079024090741D01000000000000111010B41D405064090741802480A0340
 94
        0
1001
ACAD
1000
AcDbSavedByObjectVersion
1070
     0
1000
AcRTDxfName
1000
VISUALSTYLE
  0
ACAD_PROXY_OBJECT
  5
9666
102
{ACAD_XDICTIONARY
360
9A08
102
}
102
{ACAD_REACTORS
330
9659
102
}
330
9659
100
AcDbProxyObject
 90
      499
 91
      513
 95
   983063
 70
     0
 93
      420
310
42151A1A58DAD95B8010D409028333333333333E3BF0000000000000FB010790141107004050150C41D405064090741402480A0354
 94
        0
1001
ACAD
1000
AcDbSavedByObjectVersion
1070
     0
1000
AcRTDxfName
1000
VISUALSTYLE
  0
ACAD_PROXY_OBJECT
  5
9660
102
{ACAD_XDICTIONARY
360
99FC
102
}
102
{ACAD_REACTORS
330
9659
102
}
330
9659
100
AcDbProxyObject
 90
      499
 91
      513
 95
   983063
 70
     0
 93
      428
310
4295DA5C99599C985B59401059028333333333333E3BF0000000000000FB0107901411070040501600405405064090740C02480A0340
 94
        0
1001
ACAD
1000
AcDbSavedByObjectVersion
1070
     0
1000
AcRTDxfName
1000
VISUALSTYLE
  0
ACAD_PROXY_OBJECT
  5
966C
102
{ACAD_XDICTIONARY
360
9A14
102
}
102
{ACAD_REACTORS
330
9659
102
}
330
9659
100
AcDbProxyObject
 90
      499
 91
      513
 95
   983063
 70
     0
 93
      412
310
41960B54985E4011940902404000000000000E03F0000000000000FB010740501907004050150841D405064090740C02480A1B41
 94
        0
1001
ACAD
1000
AcDbSavedByObjectVersion
1070
     0
1000
AcRTDxfName
1000
VISUALSTYLE
  0
DICTIONARYVAR
  5
9A67
102
{ACAD_REACTORS
330
45D
102
}
330
45D
100
DictionaryVariables
280
     0
  1
1:1
  0
DICTIONARYVAR
  5
9A66
102
{ACAD_REACTORS
330
45D
102
}
330
45D
100
DictionaryVariables
280
     0
  1
STANDARD
  0
DICTIONARYVAR
  5
95D3
102
{ACAD_REACTORS
330
45D
102
}
330
45D
100
DictionaryVariables
280
     0
  1
STANDARD
  0
DICTIONARYVAR
  5
9A6A
102
{ACAD_REACTORS
330
45D
102
}
330
45D
100
DictionaryVariables
280
     0
  1
1
  0
DICTIONARYVAR
  5
9A68
102
{ACAD_REACTORS
330
45D
102
}
330
45D
100
DictionaryVariables
280
     0
  1
0
  0
DICTIONARYVAR
  5
9A77
102
{ACAD_REACTORS
330
45D
102
}
330
45D
100
DictionaryVariables
280
     0
  1

  0
DICTIONARYVAR
  5
45E
102
{ACAD_REACTORS
330
45D
102
}
330
45D
100
DictionaryVariables
280
     0
  1
127
  0
DICTIONARYVAR
  5
9A69
102
{ACAD_REACTORS
330
45D
102
}
330
45D
100
DictionaryVariables
280
     0
  1
0
  0
DICTIONARY
  5
96EA
102
{ACAD_REACTORS
330
96DF
102
}
330
96DF
100
AcDbDictionary
281
     1
  0
DICTIONARY
  5
9A7B
330
5CF5
100
AcDbDictionary
280
     1
281
     1
  3
ACAD_XREC_ROUNDTRIP
360
9A7C
  0
DICTIONARY
  5
9A7D
330
5CF6
100
AcDbDictionary
280
     1
281
     1
  3
ACAD_XREC_ROUNDTRIP
360
9A7E
  0
DICTIONARY
  5
964A
330
9649
100
AcDbDictionary
280
     1
281
     1
  3
ACAD_XREC_ROUNDTRIP
360
99EE
  3
BUMPTILE
360
964C
  3
DIFFUSETILE
360
964B
  3
OPACITYTILE
360
964F
  3
REFLECTIONTILE
360
964E
  3
REFRACTIONTILE
360
9650
  3
SPECULARTILE
360
964D
  0
DICTIONARY
  5
9642
330
9641
100
AcDbDictionary
280
     1
281
     1
  3
ACAD_XREC_ROUNDTRIP
360
99ED
  3
BUMPTILE
360
9644
  3
DIFFUSETILE
360
9643
  3
OPACITYTILE
360
9647
  3
REFLECTIONTILE
360
9646
  3
REFRACTIONTILE
360
9648
  3
SPECULARTILE
360
9645
  0
DICTIONARY
  5
9652
330
9651
100
AcDbDictionary
280
     1
281
     1
  3
ACAD_XREC_ROUNDTRIP
360
99EF
  3
BUMPTILE
360
9654
  3
DIFFUSETILE
360
9653
  3
OPACITYTILE
360
9657
  3
REFLECTIONTILE
360
9656
  3
REFRACTIONTILE
360
9658
  3
SPECULARTILE
360
9655
  0
DICTIONARY
  5
9992
330
95B7
100
AcDbDictionary
280
     1
281
     1
  3
ACAD_ROUNDTRIP_2008_TABLESTYLE_CELLSTYLEMAP
360
9993
  3
ACAD_XREC_ROUNDTRIP
360
99E8
  0
DICTIONARY
  5
99FA
330
965F
100
AcDbDictionary
280
     1
281
     1
  3
ACAD_XREC_ROUNDTRIP
360
99FB
  0
DICTIONARY
  5
99F8
330
965E
100
AcDbDictionary
280
     1
281
     1
  3
ACAD_XREC_ROUNDTRIP
360
99F9
  0
DICTIONARY
  5
9A06
330
9665
100
AcDbDictionary
280
     1
281
     1
  3
ACAD_XREC_ROUNDTRIP
360
9A07
  0
DICTIONARY
  5
9A0E
330
9669
100
AcDbDictionary
280
     1
281
     1
  3
ACAD_XREC_ROUNDTRIP
360
9A0F
  0
DICTIONARY
  5
9A00
330
9662
100
AcDbDictionary
280
     1
281
     1
  3
ACAD_XREC_ROUNDTRIP
360
9A01
  0
DICTIONARY
  5
9A04
330
9664
100
AcDbDictionary
280
     1
281
     1
  3
ACAD_XREC_ROUNDTRIP
360
9A05
  0
DICTIONARY
  5
9A1E
330
9671
100
AcDbDictionary
280
     1
281
     1
  3
ACAD_XREC_ROUNDTRIP
360
9A1F
  0
DICTIONARY
  5
9A0C
330
9668
100
AcDbDictionary
280
     1
281
     1
  3
ACAD_XREC_ROUNDTRIP
360
9A0D
  0
DICTIONARY
  5
99F0
330
965A
100
AcDbDictionary
280
     1
281
     1
  3
ACAD_XREC_ROUNDTRIP
360
99F1
  0
DICTIONARY
  5
99F2
330
965B
100
AcDbDictionary
280
     1
281
     1
  3
ACAD_XREC_ROUNDTRIP
360
99F3
  0
DICTIONARY
  5
99F4
330
965C
100
AcDbDictionary
280
     1
281
     1
  3
ACAD_XREC_ROUNDTRIP
360
99F5
  0
DICTIONARY
  5
99F6
330
965D
100
AcDbDictionary
280
     1
281
     1
  3
ACAD_XREC_ROUNDTRIP
360
99F7
  0
DICTIONARY
  5
99FE
330
9661
100
AcDbDictionary
280
     1
281
     1
  3
ACAD_XREC_ROUNDTRIP
360
99FF
  0
DICTIONARY
  5
9A1A
330
966F
100
AcDbDictionary
280
     1
281
     1
  3
ACAD_XREC_ROUNDTRIP
360
9A1B
  0
DICTIONARY
  5
9A0A
330
9667
100
AcDbDictionary
280
     1
281
     1
  3
ACAD_XREC_ROUNDTRIP
360
9A0B
  0
DICTIONARY
  5
9A1C
330
9670
100
AcDbDictionary
280
     1
281
     1
  3
ACAD_XREC_ROUNDTRIP
360
9A1D
  0
DICTIONARY
  5
9A02
330
9663
100
AcDbDictionary
280
     1
281
     1
  3
ACAD_XREC_ROUNDTRIP
360
9A03
  0
DICTIONARY
  5
9A18
330
966E
100
AcDbDictionary
280
     1
281
     1
  3
ACAD_XREC_ROUNDTRIP
360
9A19
  0
DICTIONARY
  5
9A16
330
966D
100
AcDbDictionary
280
     1
281
     1
  3
ACAD_XREC_ROUNDTRIP
360
9A17
  0
DICTIONARY
  5
9A10
330
966A
100
AcDbDictionary
280
     1
281
     1
  3
ACAD_XREC_ROUNDTRIP
360
9A11
  0
DICTIONARY
  5
9A12
330
966B
100
AcDbDictionary
280
     1
281
     1
  3
ACAD_XREC_ROUNDTRIP
360
9A13
  0
DICTIONARY
  5
9A08
330
9666
100
AcDbDictionary
280
     1
281
     1
  3
ACAD_XREC_ROUNDTRIP
360
9A09
  0
DICTIONARY
  5
99FC
330
9660
100
AcDbDictionary
280
     1
281
     1
  3
ACAD_XREC_ROUNDTRIP
360
99FD
  0
DICTIONARY
  5
9A14
330
966C
100
AcDbDictionary
280
     1
281
     1
  3
ACAD_XREC_ROUNDTRIP
360
9A15
  0
XRECORD
  5
9A7C
102
{ACAD_REACTORS
330
9A7B
102
}
330
9A7B
100
AcDbXrecord
280
     1
102
SHADEPLOT
 70
     0
102
SHADEPLOTRESLEVEL
 70
     2
102
SHADEPLOTCUSTOMDPI
 70
   300
  0
XRECORD
  5
9A7E
102
{ACAD_REACTORS
330
9A7D
102
}
330
9A7D
100
AcDbXrecord
280
     1
102
SHADEPLOT
 70
     0
102
SHADEPLOTRESLEVEL
 70
     2
102
SHADEPLOTCUSTOMDPI
 70
   300
  0
XRECORD
  5
99EE
102
{ACAD_REACTORS
330
964A
102
}
330
964A
100
AcDbXrecord
280
     1
102
MATERIAL
148
0.0
149
0.0
149
0.0
 93
        0
 94
      127
282
     0
 72
     0
 77
     0
171
     0
175
     0
179
     0
273
     0
  0
XRECORD
  5
964C
102
{ACAD_REACTORS
330
964A
102
}
330
964A
100
AcDbXrecord
280
     1
270
     1
271
     1
  0
XRECORD
  5
964B
102
{ACAD_REACTORS
330
964A
102
}
330
964A
100
AcDbXrecord
280
     1
270
     1
271
     1
  0
XRECORD
  5
964F
102
{ACAD_REACTORS
330
964A
102
}
330
964A
100
AcDbXrecord
280
     1
270
     1
271
     1
  0
XRECORD
  5
964E
102
{ACAD_REACTORS
330
964A
102
}
330
964A
100
AcDbXrecord
280
     1
270
     1
271
     1
  0
XRECORD
  5
9650
102
{ACAD_REACTORS
330
964A
102
}
330
964A
100
AcDbXrecord
280
     1
270
     1
271
     1
  0
XRECORD
  5
964D
102
{ACAD_REACTORS
330
964A
102
}
330
964A
100
AcDbXrecord
280
     1
270
     1
271
     1
  0
XRECORD
  5
99ED
102
{ACAD_REACTORS
330
9642
102
}
330
9642
100
AcDbXrecord
280
     1
102
MATERIAL
148
0.0
149
0.0
149
0.0
 93
        0
 94
      127
282
     0
 72
     0
 77
     0
171
     0
175
     0
179
     0
273
     0
  0
XRECORD
  5
9644
102
{ACAD_REACTORS
330
9642
102
}
330
9642
100
AcDbXrecord
280
     1
270
     1
271
     1
  0
XRECORD
  5
9643
102
{ACAD_REACTORS
330
9642
102
}
330
9642
100
AcDbXrecord
280
     1
270
     1
271
     1
  0
XRECORD
  5
9647
102
{ACAD_REACTORS
330
9642
102
}
330
9642
100
AcDbXrecord
280
     1
270
     1
271
     1
  0
XRECORD
  5
9646
102
{ACAD_REACTORS
330
9642
102
}
330
9642
100
AcDbXrecord
280
     1
270
     1
271
     1
  0
XRECORD
  5
9648
102
{ACAD_REACTORS
330
9642
102
}
330
9642
100
AcDbXrecord
280
     1
270
     1
271
     1
  0
XRECORD
  5
9645
102
{ACAD_REACTORS
330
9642
102
}
330
9642
100
AcDbXrecord
280
     1
270
     1
271
     1
  0
XRECORD
  5
99EF
102
{ACAD_REACTORS
330
9652
102
}
330
9652
100
AcDbXrecord
280
     1
102
MATERIAL
148
0.0
149
0.0
149
0.0
 93
        0
 94
      127
282
     0
 72
     0
 77
     0
171
     0
175
     0
179
     0
273
     0
  0
XRECORD
  5
9654
102
{ACAD_REACTORS
330
9652
102
}
330
9652
100
AcDbXrecord
280
     1
270
     1
271
     1
  0
XRECORD
  5
9653
102
{ACAD_REACTORS
330
9652
102
}
330
9652
100
AcDbXrecord
280
     1
270
     1
271
     1
  0
XRECORD
  5
9657
102
{ACAD_REACTORS
330
9652
102
}
330
9652
100
AcDbXrecord
280
     1
270
     1
271
     1
  0
XRECORD
  5
9656
102
{ACAD_REACTORS
330
9652
102
}
330
9652
100
AcDbXrecord
280
     1
270
     1
271
     1
  0
XRECORD
  5
9658
102
{ACAD_REACTORS
330
9652
102
}
330
9652
100
AcDbXrecord
280
     1
270
     1
271
     1
  0
XRECORD
  5
9655
102
{ACAD_REACTORS
330
9652
102
}
330
9652
100
AcDbXrecord
280
     1
270
     1
271
     1
  0
ACAD_PROXY_OBJECT
  5
9993
102
{ACAD_REACTORS
330
9992
102
}
330
9992
100
AcDbProxyObject
 90
      499
 91
      577
 95
   983063
 70
     0
 93
     5232
310
40D054060020000020000003200101A412A5058000000C10000000000000006101010000000000003E0FC000000000000F83F0000000000003E0FC000000000000F83F02B5E8DC0F42B1CFC0AD7A3703D0AC73F419019018000000C1003FBFFFFFE02B5E8DC0F42A9CFD029018000000C1003FBFFFFFE02B5E8DC0F42A9CFD
310
049018000000C1003FBFFFFFE02B5E8DC0F42A9CFD089018000000C1003FBFFFFFE02B5E8DC0F42A9CFD109018000000C1003FBFFFFFE02B5E8DC0F42A9CFD209018000000C1003FBFFFFFE02B5E8DC0F42A9CFD01405075F5449544C450041501A8000000C800406904A94160000003040000000000000012404040000000
310
00000F83F0000000000003E0FC000000000000F83F0000000000003E0FC0AD7A3703D0AC73F02B5E8DC0F42B1CFD0640640600000030400FEFFFFFF80AD7A3703D0AA73F40A40600000030400FEFFFFFF80AD7A3703D0AA73F41240600000030400FEFFFFFF80AD7A3703D0AA73F42240600000030400FEFFFFFF80AD7A370
310
3D0AA73F44240600000030400FEFFFFFF80AD7A3703D0AA73F48240600000030400FEFFFFFF80AD7A3703D0AA73F409014217D2115051115480105406A0000003200101A412A5028000000C10000000000000004901010000000000003E0FC000000000000F83F0000000000003E0FC000000000000F83F02B5E8DC0F42B1C
310
FC0AD7A3703D0AC73F419019018000000C1003FBFFFFFE02B5E8DC0F42A9CFD029018000000C1003FBFFFFFE02B5E8DC0F42A9CFD049018000000C1003FBFFFFFE02B5E8DC0F42A9CFD089018000000C1003FBFFFFFE02B5E8DC0F42A9CFD109018000000C1003FBFFFFFE02B5E8DC0F42A9CFD209018000000C1003FBFFFF
310
FE02B5E8DC0F42A9CFD03409065F444154410000
340
F
340
0
340
0
340
0
340
0
340
0
340
0
340
F
340
0
340
0
340
0
340
0
340
0
340
0
340
F
340
0
340
0
340
0
340
0
340
0
340
0
 94
        0
1001
ACAD
1000
AcRTDxfName
1000
CELLSTYLEMAP
  0
XRECORD
  5
99E8
102
{ACAD_REACTORS
330
9992
102
}
330
9992
100
AcDbXrecord
280
     1
102
ACAD_ROUNDTRIP_PRE2007_TABLESTYLE
 90
        4
 91
        0
  1

 92
        4
 93
        0
  2

 94
        4
 95
        0
  3

  0
XRECORD
  5
99FB
102
{ACAD_REACTORS
330
99FA
102
}
330
99FA
100
AcDbXrecord
280
     1
102
RTVSPropertyOp0
 70
     1
102
RTVSPropertyOp1
 70
     1
102
RTVSPropertyOp2
 70
     1
102
RTVSPropertyOp3
 70
     1
102
RTVSPropertyOp4
 70
     1
102
RTVSPropertyOp5
 70
     1
102
RTVSPropertyOp6
 70
     1
102
RTVSPropertyOp7
 70
     1
102
RTVSPropertyOp8
 70
     1
102
RTVSPropertyOp9
 70
     1
102
RTVSPropertyOp10
 70
     1
102
RTVSPropertyOp11
 70
     1
102
RTVSPropertyOp12
 70
     1
102
RTVSPropertyOp13
 70
     1
102
RTVSPropertyOp14
 70
     1
102
RTVSPropertyOp15
 70
     1
102
RTVSPropertyOp16
 70
     1
102
RTVSPropertyOp17
 70
     1
102
RTVSPropertyOp18
 70
     1
102
RTVSPropertyOp19
 70
     1
102
RTVSPropertyOp20
 70
     1
102
RTVSPropertyOp21
 70
     1
102
RTVSPropertyOp22
 70
     1
102
RTVSPropertyOp23
 70
     1
102
RTVSPropertyOp24
 70
     1
102
RTVSPropertyOp25
 70
     1
102
RTVSPropertyOp26
 70
     1
102
RTVSPropertyOp27
 70
     1
102
RTVSPropertyOp28
 70
     1
102
RTVSPropertyOp29
 70
     1
102
RTVSPropertyOp30
 70
     1
102
RTVSPropertyOp31
 70
     1
102
RTVSPropertyOp32
 70
     1
  0
XRECORD
  5
99F9
102
{ACAD_REACTORS
330
99F8
102
}
330
99F8
100
AcDbXrecord
280
     1
102
RTVSPropertyOp0
 70
     1
102
RTVSPropertyOp1
 70
     1
102
RTVSPropertyOp2
 70
     1
102
RTVSPropertyOp3
 70
     1
102
RTVSPropertyOp4
 70
     1
102
RTVSPropertyOp5
 70
     1
102
RTVSPropertyOp6
 70
     1
102
RTVSPropertyOp7
 70
     1
102
RTVSPropertyOp8
 70
     1
102
RTVSPropertyOp9
 70
     1
102
RTVSPropertyOp10
 70
     1
102
RTVSPropertyOp11
 70
     1
102
RTVSPropertyOp12
 70
     1
102
RTVSPropertyOp13
 70
     1
102
RTVSPropertyOp14
 70
     1
102
RTVSPropertyOp15
 70
     1
102
RTVSPropertyOp16
 70
     1
102
RTVSPropertyOp17
 70
     1
102
RTVSPropertyOp18
 70
     1
102
RTVSPropertyOp19
 70
     1
102
RTVSPropertyOp20
 70
     1
102
RTVSPropertyOp21
 70
     1
102
RTVSPropertyOp22
 70
     1
102
RTVSPropertyOp23
 70
     1
102
RTVSPropertyOp24
 70
     1
102
RTVSPropertyOp25
 70
     1
102
RTVSPropertyOp26
 70
     1
102
RTVSPropertyOp27
 70
     1
102
RTVSPropertyOp28
 70
     1
102
RTVSPropertyOp29
 70
     1
102
RTVSPropertyOp30
 70
     1
102
RTVSPropertyOp31
 70
     1
102
RTVSPropertyOp32
 70
     1
  0
XRECORD
  5
9A07
102
{ACAD_REACTORS
330
9A06
102
}
330
9A06
100
AcDbXrecord
280
     1
102
RTVSPropertyOp0
 70
     1
102
RTVSPropertyOp1
 70
     1
102
RTVSPropertyOp2
 70
     1
102
RTVSPropertyOp3
 70
     1
102
RTVSPropertyOp4
 70
     1
102
RTVSPropertyOp5
 70
     1
102
RTVSPropertyOp6
 70
     1
102
RTVSPropertyOp7
 70
     1
102
RTVSPropertyOp8
 70
     1
102
RTVSPropertyOp9
 70
     1
102
RTVSPropertyOp10
 70
     1
102
RTVSPropertyOp11
 70
     1
102
RTVSPropertyOp12
 70
     1
102
RTVSPropertyOp13
 70
     1
102
RTVSPropertyOp14
 70
     1
102
RTVSPropertyOp15
 70
     1
102
RTVSPropertyOp16
 70
     1
102
RTVSPropertyOp17
 70
     1
102
RTVSPropertyOp18
 70
     1
102
RTVSPropertyOp19
 70
     1
102
RTVSPropertyOp20
 70
     1
102
RTVSPropertyOp21
 70
     1
102
RTVSPropertyOp22
 70
     1
102
RTVSPropertyOp23
 70
     1
102
RTVSPropertyOp24
 70
     1
102
RTVSPropertyOp25
 70
     1
102
RTVSPropertyOp26
 70
     1
102
RTVSPropertyOp27
 70
     1
102
RTVSPropertyOp28
 70
     1
102
RTVSPropertyOp29
 70
     1
102
RTVSPropertyOp30
 70
     1
102
RTVSPropertyOp31
 70
     1
102
RTVSPropertyOp32
 70
     1
  0
XRECORD
  5
9A0F
102
{ACAD_REACTORS
330
9A0E
102
}
330
9A0E
100
AcDbXrecord
280
     1
102
RTVSPropertyOp0
 70
     1
102
RTVSPropertyOp1
 70
     1
102
RTVSPropertyOp2
 70
     1
102
RTVSPropertyOp3
 70
     1
102
RTVSPropertyOp4
 70
     1
102
RTVSPropertyOp5
 70
     1
102
RTVSPropertyOp6
 70
     1
102
RTVSPropertyOp7
 70
     1
102
RTVSPropertyOp8
 70
     1
102
RTVSPropertyOp9
 70
     1
102
RTVSPropertyOp10
 70
     1
102
RTVSPropertyOp11
 70
     1
102
RTVSPropertyOp12
 70
     1
102
RTVSPropertyOp13
 70
     1
102
RTVSPropertyOp14
 70
     1
102
RTVSPropertyOp15
 70
     1
102
RTVSPropertyOp16
 70
     1
102
RTVSPropertyOp17
 70
     1
102
RTVSPropertyOp18
 70
     1
102
RTVSPropertyOp19
 70
     1
102
RTVSPropertyOp20
 70
     1
102
RTVSPropertyOp21
 70
     1
102
RTVSPropertyOp22
 70
     1
102
RTVSPropertyOp23
 70
     1
102
RTVSPropertyOp24
 70
     1
102
RTVSPropertyOp25
 70
     1
102
RTVSPropertyOp26
 70
     1
102
RTVSPropertyOp27
 70
     1
102
RTVSPropertyOp28
 70
     1
102
RTVSPropertyOp29
 70
     1
102
RTVSPropertyOp30
 70
     1
102
RTVSPropertyOp31
 70
     1
102
RTVSPropertyOp32
 70
     1
  0
XRECORD
  5
9A01
102
{ACAD_REACTORS
330
9A00
102
}
330
9A00
100
AcDbXrecord
280
     1
102
RTVSPropertyOp0
 70
     1
102
RTVSPropertyOp1
 70
     1
102
RTVSPropertyOp2
 70
     1
102
RTVSPropertyOp3
 70
     1
102
RTVSPropertyOp4
 70
     1
102
RTVSPropertyOp5
 70
     1
102
RTVSPropertyOp6
 70
     1
102
RTVSPropertyOp7
 70
     1
102
RTVSPropertyOp8
 70
     1
102
RTVSPropertyOp9
 70
     1
102
RTVSPropertyOp10
 70
     1
102
RTVSPropertyOp11
 70
     1
102
RTVSPropertyOp12
 70
     1
102
RTVSPropertyOp13
 70
     1
102
RTVSPropertyOp14
 70
     1
102
RTVSPropertyOp15
 70
     1
102
RTVSPropertyOp16
 70
     1
102
RTVSPropertyOp17
 70
     1
102
RTVSPropertyOp18
 70
     1
102
RTVSPropertyOp19
 70
     1
102
RTVSPropertyOp20
 70
     1
102
RTVSPropertyOp21
 70
     1
102
RTVSPropertyOp22
 70
     1
102
RTVSPropertyOp23
 70
     1
102
RTVSPropertyOp24
 70
     1
102
RTVSPropertyOp25
 70
     1
102
RTVSPropertyOp26
 70
     1
102
RTVSPropertyOp27
 70
     1
102
RTVSPropertyOp28
 70
     1
102
RTVSPropertyOp29
 70
     1
102
RTVSPropertyOp30
 70
     1
102
RTVSPropertyOp31
 70
     1
102
RTVSPropertyOp32
 70
     1
  0
XRECORD
  5
9A05
102
{ACAD_REACTORS
330
9A04
102
}
330
9A04
100
AcDbXrecord
280
     1
102
RTVSPropertyOp0
 70
     1
102
RTVSPropertyOp1
 70
     1
102
RTVSPropertyOp2
 70
     1
102
RTVSPropertyOp3
 70
     1
102
RTVSPropertyOp4
 70
     1
102
RTVSPropertyOp5
 70
     1
102
RTVSPropertyOp6
 70
     1
102
RTVSPropertyOp7
 70
     1
102
RTVSPropertyOp8
 70
     1
102
RTVSPropertyOp9
 70
     1
102
RTVSPropertyOp10
 70
     1
102
RTVSPropertyOp11
 70
     1
102
RTVSPropertyOp12
 70
     1
102
RTVSPropertyOp13
 70
     1
102
RTVSPropertyOp14
 70
     1
102
RTVSPropertyOp15
 70
     1
102
RTVSPropertyOp16
 70
     1
102
RTVSPropertyOp17
 70
     1
102
RTVSPropertyOp18
 70
     1
102
RTVSPropertyOp19
 70
     1
102
RTVSPropertyOp20
 70
     1
102
RTVSPropertyOp21
 70
     1
102
RTVSPropertyOp22
 70
     1
102
RTVSPropertyOp23
 70
     1
102
RTVSPropertyOp24
 70
     1
102
RTVSPropertyOp25
 70
     1
102
RTVSPropertyOp26
 70
     1
102
RTVSPropertyOp27
 70
     1
102
RTVSPropertyOp28
 70
     1
102
RTVSPropertyOp29
 70
     1
102
RTVSPropertyOp30
 70
     1
102
RTVSPropertyOp31
 70
     1
102
RTVSPropertyOp32
 70
     1
  0
XRECORD
  5
9A1F
102
{ACAD_REACTORS
330
9A1E
102
}
330
9A1E
100
AcDbXrecord
280
     1
102
RTVSPropertyOp0
 70
     0
102
RTVSPropertyOp1
 70
     0
102
RTVSPropertyOp2
 70
     0
102
RTVSPropertyOp3
 70
     0
102
RTVSPropertyOp4
 70
     0
102
RTVSPropertyOp5
 70
     0
102
RTVSPropertyOp6
 70
     0
102
RTVSPropertyOp7
 70
     0
102
RTVSPropertyOp8
 70
     0
102
RTVSPropertyOp9
 70
     0
102
RTVSPropertyOp10
 70
     0
102
RTVSPropertyOp11
 70
     0
102
RTVSPropertyOp12
 70
     0
102
RTVSPropertyOp13
 70
     0
102
RTVSPropertyOp14
 70
     2
102
RTVSPropertyOp15
 70
     0
102
RTVSPropertyOp16
 70
     0
102
RTVSPropertyOp17
 70
     0
102
RTVSPropertyOp18
 70
     0
102
RTVSPropertyOp19
 70
     0
102
RTVSPropertyOp20
 70
     0
102
RTVSPropertyOp21
 70
     0
102
RTVSPropertyOp22
 70
     0
102
RTVSPropertyOp23
 70
     0
102
RTVSPropertyOp24
 70
     0
102
RTVSPropertyOp25
 70
     0
102
RTVSPropertyOp26
 70
     0
102
RTVSPropertyOp27
 70
     0
102
RTVSPropertyOp28
 70
     0
102
RTVSPropertyOp29
 70
     0
102
RTVSPropertyOp30
 70
     0
102
RTVSPropertyOp31
 70
     0
102
RTVSPropertyOp32
 70
     0
  0
XRECORD
  5
9A0D
102
{ACAD_REACTORS
330
9A0C
102
}
330
9A0C
100
AcDbXrecord
280
     1
102
RTVSPropertyOp0
 70
     1
102
RTVSPropertyOp1
 70
     1
102
RTVSPropertyOp2
 70
     1
102
RTVSPropertyOp3
 70
     1
102
RTVSPropertyOp4
 70
     1
102
RTVSPropertyOp5
 70
     1
102
RTVSPropertyOp6
 70
     1
102
RTVSPropertyOp7
 70
     1
102
RTVSPropertyOp8
 70
     1
102
RTVSPropertyOp9
 70
     1
102
RTVSPropertyOp10
 70
     1
102
RTVSPropertyOp11
 70
     1
102
RTVSPropertyOp12
 70
     1
102
RTVSPropertyOp13
 70
     1
102
RTVSPropertyOp14
 70
     1
102
RTVSPropertyOp15
 70
     1
102
RTVSPropertyOp16
 70
     1
102
RTVSPropertyOp17
 70
     1
102
RTVSPropertyOp18
 70
     1
102
RTVSPropertyOp19
 70
     1
102
RTVSPropertyOp20
 70
     1
102
RTVSPropertyOp21
 70
     1
102
RTVSPropertyOp22
 70
     1
102
RTVSPropertyOp23
 70
     1
102
RTVSPropertyOp24
 70
     1
102
RTVSPropertyOp25
 70
     1
102
RTVSPropertyOp26
 70
     1
102
RTVSPropertyOp27
 70
     1
102
RTVSPropertyOp28
 70
     1
102
RTVSPropertyOp29
 70
     1
102
RTVSPropertyOp30
 70
     1
102
RTVSPropertyOp31
 70
     1
102
RTVSPropertyOp32
 70
     1
  0
XRECORD
  5
99F1
102
{ACAD_REACTORS
330
99F0
102
}
330
99F0
100
AcDbXrecord
280
     1
102
RTVSPropertyOp0
 70
     1
102
RTVSPropertyOp1
 70
     1
102
RTVSPropertyOp2
 70
     1
102
RTVSPropertyOp3
 70
     1
102
RTVSPropertyOp4
 70
     1
102
RTVSPropertyOp5
 70
     1
102
RTVSPropertyOp6
 70
     1
102
RTVSPropertyOp7
 70
     1
102
RTVSPropertyOp8
 70
     1
102
RTVSPropertyOp9
 70
     1
102
RTVSPropertyOp10
 70
     1
102
RTVSPropertyOp11
 70
     1
102
RTVSPropertyOp12
 70
     1
102
RTVSPropertyOp13
 70
     1
102
RTVSPropertyOp14
 70
     1
102
RTVSPropertyOp15
 70
     1
102
RTVSPropertyOp16
 70
     1
102
RTVSPropertyOp17
 70
     1
102
RTVSPropertyOp18
 70
     1
102
RTVSPropertyOp19
 70
     1
102
RTVSPropertyOp20
 70
     1
102
RTVSPropertyOp21
 70
     1
102
RTVSPropertyOp22
 70
     1
102
RTVSPropertyOp23
 70
     1
102
RTVSPropertyOp24
 70
     1
102
RTVSPropertyOp25
 70
     1
102
RTVSPropertyOp26
 70
     1
102
RTVSPropertyOp27
 70
     1
102
RTVSPropertyOp28
 70
     1
102
RTVSPropertyOp29
 70
     1
102
RTVSPropertyOp30
 70
     1
102
RTVSPropertyOp31
 70
     1
102
RTVSPropertyOp32
 70
     1
  0
XRECORD
  5
99F3
102
{ACAD_REACTORS
330
99F2
102
}
330
99F2
100
AcDbXrecord
280
     1
102
RTVSPropertyOp0
 70
     1
102
RTVSPropertyOp1
 70
     1
102
RTVSPropertyOp2
 70
     1
102
RTVSPropertyOp3
 70
     1
102
RTVSPropertyOp4
 70
     1
102
RTVSPropertyOp5
 70
     1
102
RTVSPropertyOp6
 70
     1
102
RTVSPropertyOp7
 70
     1
102
RTVSPropertyOp8
 70
     1
102
RTVSPropertyOp9
 70
     1
102
RTVSPropertyOp10
 70
     1
102
RTVSPropertyOp11
 70
     1
102
RTVSPropertyOp12
 70
     1
102
RTVSPropertyOp13
 70
     1
102
RTVSPropertyOp14
 70
     1
102
RTVSPropertyOp15
 70
     1
102
RTVSPropertyOp16
 70
     1
102
RTVSPropertyOp17
 70
     1
102
RTVSPropertyOp18
 70
     1
102
RTVSPropertyOp19
 70
     1
102
RTVSPropertyOp20
 70
     1
102
RTVSPropertyOp21
 70
     1
102
RTVSPropertyOp22
 70
     1
102
RTVSPropertyOp23
 70
     1
102
RTVSPropertyOp24
 70
     1
102
RTVSPropertyOp25
 70
     1
102
RTVSPropertyOp26
 70
     1
102
RTVSPropertyOp27
 70
     1
102
RTVSPropertyOp28
 70
     1
102
RTVSPropertyOp29
 70
     1
102
RTVSPropertyOp30
 70
     1
102
RTVSPropertyOp31
 70
     1
102
RTVSPropertyOp32
 70
     1
  0
XRECORD
  5
99F5
102
{ACAD_REACTORS
330
99F4
102
}
330
99F4
100
AcDbXrecord
280
     1
102
RTVSPropertyOp0
 70
     1
102
RTVSPropertyOp1
 70
     1
102
RTVSPropertyOp2
 70
     1
102
RTVSPropertyOp3
 70
     1
102
RTVSPropertyOp4
 70
     1
102
RTVSPropertyOp5
 70
     1
102
RTVSPropertyOp6
 70
     1
102
RTVSPropertyOp7
 70
     1
102
RTVSPropertyOp8
 70
     1
102
RTVSPropertyOp9
 70
     1
102
RTVSPropertyOp10
 70
     1
102
RTVSPropertyOp11
 70
     1
102
RTVSPropertyOp12
 70
     1
102
RTVSPropertyOp13
 70
     1
102
RTVSPropertyOp14
 70
     1
102
RTVSPropertyOp15
 70
     1
102
RTVSPropertyOp16
 70
     1
102
RTVSPropertyOp17
 70
     1
102
RTVSPropertyOp18
 70
     1
102
RTVSPropertyOp19
 70
     1
102
RTVSPropertyOp20
 70
     1
102
RTVSPropertyOp21
 70
     1
102
RTVSPropertyOp22
 70
     1
102
RTVSPropertyOp23
 70
     1
102
RTVSPropertyOp24
 70
     1
102
RTVSPropertyOp25
 70
     1
102
RTVSPropertyOp26
 70
     1
102
RTVSPropertyOp27
 70
     1
102
RTVSPropertyOp28
 70
     1
102
RTVSPropertyOp29
 70
     1
102
RTVSPropertyOp30
 70
     1
102
RTVSPropertyOp31
 70
     1
102
RTVSPropertyOp32
 70
     1
  0
XRECORD
  5
99F7
102
{ACAD_REACTORS
330
99F6
102
}
330
99F6
100
AcDbXrecord
280
     1
102
RTVSPropertyOp0
 70
     1
102
RTVSPropertyOp1
 70
     1
102
RTVSPropertyOp2
 70
     1
102
RTVSPropertyOp3
 70
     1
102
RTVSPropertyOp4
 70
     1
102
RTVSPropertyOp5
 70
     1
102
RTVSPropertyOp6
 70
     1
102
RTVSPropertyOp7
 70
     1
102
RTVSPropertyOp8
 70
     1
102
RTVSPropertyOp9
 70
     1
102
RTVSPropertyOp10
 70
     1
102
RTVSPropertyOp11
 70
     1
102
RTVSPropertyOp12
 70
     1
102
RTVSPropertyOp13
 70
     1
102
RTVSPropertyOp14
 70
     1
102
RTVSPropertyOp15
 70
     1
102
RTVSPropertyOp16
 70
     1
102
RTVSPropertyOp17
 70
     1
102
RTVSPropertyOp18
 70
     1
102
RTVSPropertyOp19
 70
     1
102
RTVSPropertyOp20
 70
     1
102
RTVSPropertyOp21
 70
     1
102
RTVSPropertyOp22
 70
     1
102
RTVSPropertyOp23
 70
     1
102
RTVSPropertyOp24
 70
     1
102
RTVSPropertyOp25
 70
     1
102
RTVSPropertyOp26
 70
     1
102
RTVSPropertyOp27
 70
     1
102
RTVSPropertyOp28
 70
     1
102
RTVSPropertyOp29
 70
     1
102
RTVSPropertyOp30
 70
     1
102
RTVSPropertyOp31
 70
     1
102
RTVSPropertyOp32
 70
     1
  0
XRECORD
  5
99FF
102
{ACAD_REACTORS
330
99FE
102
}
330
99FE
100
AcDbXrecord
280
     1
102
RTVSPropertyOp0
 70
     1
102
RTVSPropertyOp1
 70
     1
102
RTVSPropertyOp2
 70
     1
102
RTVSPropertyOp3
 70
     1
102
RTVSPropertyOp4
 70
     1
102
RTVSPropertyOp5
 70
     1
102
RTVSPropertyOp6
 70
     1
102
RTVSPropertyOp7
 70
     1
102
RTVSPropertyOp8
 70
     1
102
RTVSPropertyOp9
 70
     1
102
RTVSPropertyOp10
 70
     1
102
RTVSPropertyOp11
 70
     1
102
RTVSPropertyOp12
 70
     1
102
RTVSPropertyOp13
 70
     1
102
RTVSPropertyOp14
 70
     1
102
RTVSPropertyOp15
 70
     1
102
RTVSPropertyOp16
 70
     1
102
RTVSPropertyOp17
 70
     1
102
RTVSPropertyOp18
 70
     1
102
RTVSPropertyOp19
 70
     1
102
RTVSPropertyOp20
 70
     1
102
RTVSPropertyOp21
 70
     1
102
RTVSPropertyOp22
 70
     1
102
RTVSPropertyOp23
 70
     1
102
RTVSPropertyOp24
 70
     1
102
RTVSPropertyOp25
 70
     1
102
RTVSPropertyOp26
 70
     1
102
RTVSPropertyOp27
 70
     1
102
RTVSPropertyOp28
 70
     1
102
RTVSPropertyOp29
 70
     1
102
RTVSPropertyOp30
 70
     1
102
RTVSPropertyOp31
 70
     1
102
RTVSPropertyOp32
 70
     1
  0
XRECORD
  5
9A1B
102
{ACAD_REACTORS
330
9A1A
102
}
330
9A1A
100
AcDbXrecord
280
     1
102
RTVSPropertyOp0
 70
     0
102
RTVSPropertyOp1
 70
     0
102
RTVSPropertyOp2
 70
     0
102
RTVSPropertyOp3
 70
     0
102
RTVSPropertyOp4
 70
     0
102
RTVSPropertyOp5
 70
     0
102
RTVSPropertyOp6
 70
     0
102
RTVSPropertyOp7
 70
     0
102
RTVSPropertyOp8
 70
     0
102
RTVSPropertyOp9
 70
     0
102
RTVSPropertyOp10
 70
     0
102
RTVSPropertyOp11
 70
     0
102
RTVSPropertyOp12
 70
     0
102
RTVSPropertyOp13
 70
     0
102
RTVSPropertyOp14
 70
     2
102
RTVSPropertyOp15
 70
     0
102
RTVSPropertyOp16
 70
     0
102
RTVSPropertyOp17
 70
     0
102
RTVSPropertyOp18
 70
     0
102
RTVSPropertyOp19
 70
     0
102
RTVSPropertyOp20
 70
     0
102
RTVSPropertyOp21
 70
     0
102
RTVSPropertyOp22
 70
     0
102
RTVSPropertyOp23
 70
     0
102
RTVSPropertyOp24
 70
     0
102
RTVSPropertyOp25
 70
     0
102
RTVSPropertyOp26
 70
     0
102
RTVSPropertyOp27
 70
     0
102
RTVSPropertyOp28
 70
     0
102
RTVSPropertyOp29
 70
     0
102
RTVSPropertyOp30
 70
     0
102
RTVSPropertyOp31
 70
     0
102
RTVSPropertyOp32
 70
     0
  0
XRECORD
  5
9A0B
102
{ACAD_REACTORS
330
9A0A
102
}
330
9A0A
100
AcDbXrecord
280
     1
102
RTVSPropertyOp0
 70
     1
102
RTVSPropertyOp1
 70
     1
102
RTVSPropertyOp2
 70
     1
102
RTVSPropertyOp3
 70
     1
102
RTVSPropertyOp4
 70
     1
102
RTVSPropertyOp5
 70
     1
102
RTVSPropertyOp6
 70
     1
102
RTVSPropertyOp7
 70
     1
102
RTVSPropertyOp8
 70
     1
102
RTVSPropertyOp9
 70
     1
102
RTVSPropertyOp10
 70
     1
102
RTVSPropertyOp11
 70
     1
102
RTVSPropertyOp12
 70
     1
102
RTVSPropertyOp13
 70
     1
102
RTVSPropertyOp14
 70
     1
102
RTVSPropertyOp15
 70
     1
102
RTVSPropertyOp16
 70
     1
102
RTVSPropertyOp17
 70
     1
102
RTVSPropertyOp18
 70
     1
102
RTVSPropertyOp19
 70
     1
102
RTVSPropertyOp20
 70
     1
102
RTVSPropertyOp21
 70
     1
102
RTVSPropertyOp22
 70
     1
102
RTVSPropertyOp23
 70
     1
102
RTVSPropertyOp24
 70
     1
102
RTVSPropertyOp25
 70
     1
102
RTVSPropertyOp26
 70
     1
102
RTVSPropertyOp27
 70
     1
102
RTVSPropertyOp28
 70
     1
102
RTVSPropertyOp29
 70
     1
102
RTVSPropertyOp30
 70
     1
102
RTVSPropertyOp31
 70
     1
102
RTVSPropertyOp32
 70
     1
  0
XRECORD
  5
9A1D
102
{ACAD_REACTORS
330
9A1C
102
}
330
9A1C
100
AcDbXrecord
280
     1
102
RTVSPropertyOp0
 70
     0
102
RTVSPropertyOp1
 70
     0
102
RTVSPropertyOp2
 70
     0
102
RTVSPropertyOp3
 70
     0
102
RTVSPropertyOp4
 70
     0
102
RTVSPropertyOp5
 70
     0
102
RTVSPropertyOp6
 70
     0
102
RTVSPropertyOp7
 70
     0
102
RTVSPropertyOp8
 70
     0
102
RTVSPropertyOp9
 70
     0
102
RTVSPropertyOp10
 70
     0
102
RTVSPropertyOp11
 70
     0
102
RTVSPropertyOp12
 70
     0
102
RTVSPropertyOp13
 70
     0
102
RTVSPropertyOp14
 70
     2
102
RTVSPropertyOp15
 70
     0
102
RTVSPropertyOp16
 70
     0
102
RTVSPropertyOp17
 70
     0
102
RTVSPropertyOp18
 70
     0
102
RTVSPropertyOp19
 70
     0
102
RTVSPropertyOp20
 70
     0
102
RTVSPropertyOp21
 70
     0
102
RTVSPropertyOp22
 70
     0
102
RTVSPropertyOp23
 70
     0
102
RTVSPropertyOp24
 70
     0
102
RTVSPropertyOp25
 70
     0
102
RTVSPropertyOp26
 70
     0
102
RTVSPropertyOp27
 70
     0
102
RTVSPropertyOp28
 70
     0
102
RTVSPropertyOp29
 70
     0
102
RTVSPropertyOp30
 70
     0
102
RTVSPropertyOp31
 70
     0
102
RTVSPropertyOp32
 70
     0
  0
XRECORD
  5
9A03
102
{ACAD_REACTORS
330
9A02
102
}
330
9A02
100
AcDbXrecord
280
     1
102
RTVSPropertyOp0
 70
     1
102
RTVSPropertyOp1
 70
     1
102
RTVSPropertyOp2
 70
     1
102
RTVSPropertyOp3
 70
     1
102
RTVSPropertyOp4
 70
     1
102
RTVSPropertyOp5
 70
     1
102
RTVSPropertyOp6
 70
     1
102
RTVSPropertyOp7
 70
     1
102
RTVSPropertyOp8
 70
     1
102
RTVSPropertyOp9
 70
     1
102
RTVSPropertyOp10
 70
     1
102
RTVSPropertyOp11
 70
     1
102
RTVSPropertyOp12
 70
     1
102
RTVSPropertyOp13
 70
     1
102
RTVSPropertyOp14
 70
     1
102
RTVSPropertyOp15
 70
     1
102
RTVSPropertyOp16
 70
     1
102
RTVSPropertyOp17
 70
     1
102
RTVSPropertyOp18
 70
     1
102
RTVSPropertyOp19
 70
     1
102
RTVSPropertyOp20
 70
     1
102
RTVSPropertyOp21
 70
     1
102
RTVSPropertyOp22
 70
     1
102
RTVSPropertyOp23
 70
     1
102
RTVSPropertyOp24
 70
     1
102
RTVSPropertyOp25
 70
     1
102
RTVSPropertyOp26
 70
     1
102
RTVSPropertyOp27
 70
     1
102
RTVSPropertyOp28
 70
     1
102
RTVSPropertyOp29
 70
     1
102
RTVSPropertyOp30
 70
     1
102
RTVSPropertyOp31
 70
     1
102
RTVSPropertyOp32
 70
     1
  0
XRECORD
  5
9A19
102
{ACAD_REACTORS
330
9A18
102
}
330
9A18
100
AcDbXrecord
280
     1
102
RTVSPropertyOp0
 70
     1
102
RTVSPropertyOp1
 70
     1
102
RTVSPropertyOp2
 70
     1
102
RTVSPropertyOp3
 70
     1
102
RTVSPropertyOp4
 70
     1
102
RTVSPropertyOp5
 70
     1
102
RTVSPropertyOp6
 70
     1
102
RTVSPropertyOp7
 70
     1
102
RTVSPropertyOp8
 70
     1
102
RTVSPropertyOp9
 70
     1
102
RTVSPropertyOp10
 70
     1
102
RTVSPropertyOp11
 70
     1
102
RTVSPropertyOp12
 70
     1
102
RTVSPropertyOp13
 70
     1
102
RTVSPropertyOp14
 70
     1
102
RTVSPropertyOp15
 70
     1
102
RTVSPropertyOp16
 70
     1
102
RTVSPropertyOp17
 70
     1
102
RTVSPropertyOp18
 70
     1
102
RTVSPropertyOp19
 70
     1
102
RTVSPropertyOp20
 70
     1
102
RTVSPropertyOp21
 70
     1
102
RTVSPropertyOp22
 70
     1
102
RTVSPropertyOp23
 70
     1
102
RTVSPropertyOp24
 70
     1
102
RTVSPropertyOp25
 70
     1
102
RTVSPropertyOp26
 70
     1
102
RTVSPropertyOp27
 70
     1
102
RTVSPropertyOp28
 70
     1
102
RTVSPropertyOp29
 70
     1
102
RTVSPropertyOp30
 70
     1
102
RTVSPropertyOp31
 70
     1
102
RTVSPropertyOp32
 70
     1
  0
XRECORD
  5
9A17
102
{ACAD_REACTORS
330
9A16
102
}
330
9A16
100
AcDbXrecord
280
     1
102
RTVSPropertyOp0
 70
     1
102
RTVSPropertyOp1
 70
     1
102
RTVSPropertyOp2
 70
     1
102
RTVSPropertyOp3
 70
     1
102
RTVSPropertyOp4
 70
     1
102
RTVSPropertyOp5
 70
     1
102
RTVSPropertyOp6
 70
     1
102
RTVSPropertyOp7
 70
     1
102
RTVSPropertyOp8
 70
     1
102
RTVSPropertyOp9
 70
     1
102
RTVSPropertyOp10
 70
     1
102
RTVSPropertyOp11
 70
     1
102
RTVSPropertyOp12
 70
     1
102
RTVSPropertyOp13
 70
     1
102
RTVSPropertyOp14
 70
     1
102
RTVSPropertyOp15
 70
     1
102
RTVSPropertyOp16
 70
     1
102
RTVSPropertyOp17
 70
     1
102
RTVSPropertyOp18
 70
     1
102
RTVSPropertyOp19
 70
     1
102
RTVSPropertyOp20
 70
     1
102
RTVSPropertyOp21
 70
     1
102
RTVSPropertyOp22
 70
     1
102
RTVSPropertyOp23
 70
     1
102
RTVSPropertyOp24
 70
     1
102
RTVSPropertyOp25
 70
     1
102
RTVSPropertyOp26
 70
     1
102
RTVSPropertyOp27
 70
     1
102
RTVSPropertyOp28
 70
     1
102
RTVSPropertyOp29
 70
     1
102
RTVSPropertyOp30
 70
     1
102
RTVSPropertyOp31
 70
     1
102
RTVSPropertyOp32
 70
     1
  0
XRECORD
  5
9A11
102
{ACAD_REACTORS
330
9A10
102
}
330
9A10
100
AcDbXrecord
280
     1
102
RTVSPropertyOp0
 70
     1
102
RTVSPropertyOp1
 70
     1
102
RTVSPropertyOp2
 70
     1
102
RTVSPropertyOp3
 70
     1
102
RTVSPropertyOp4
 70
     1
102
RTVSPropertyOp5
 70
     1
102
RTVSPropertyOp6
 70
     1
102
RTVSPropertyOp7
 70
     1
102
RTVSPropertyOp8
 70
     1
102
RTVSPropertyOp9
 70
     1
102
RTVSPropertyOp10
 70
     1
102
RTVSPropertyOp11
 70
     1
102
RTVSPropertyOp12
 70
     1
102
RTVSPropertyOp13
 70
     1
102
RTVSPropertyOp14
 70
     1
102
RTVSPropertyOp15
 70
     1
102
RTVSPropertyOp16
 70
     1
102
RTVSPropertyOp17
 70
     1
102
RTVSPropertyOp18
 70
     1
102
RTVSPropertyOp19
 70
     1
102
RTVSPropertyOp20
 70
     1
102
RTVSPropertyOp21
 70
     1
102
RTVSPropertyOp22
 70
     1
102
RTVSPropertyOp23
 70
     1
102
RTVSPropertyOp24
 70
     1
102
RTVSPropertyOp25
 70
     1
102
RTVSPropertyOp26
 70
     1
102
RTVSPropertyOp27
 70
     1
102
RTVSPropertyOp28
 70
     1
102
RTVSPropertyOp29
 70
     1
102
RTVSPropertyOp30
 70
     1
102
RTVSPropertyOp31
 70
     1
102
RTVSPropertyOp32
 70
     1
  0
XRECORD
  5
9A13
102
{ACAD_REACTORS
330
9A12
102
}
330
9A12
100
AcDbXrecord
280
     1
102
RTVSPropertyOp0
 70
     1
102
RTVSPropertyOp1
 70
     1
102
RTVSPropertyOp2
 70
     1
102
RTVSPropertyOp3
 70
     1
102
RTVSPropertyOp4
 70
     1
102
RTVSPropertyOp5
 70
     1
102
RTVSPropertyOp6
 70
     1
102
RTVSPropertyOp7
 70
     1
102
RTVSPropertyOp8
 70
     1
102
RTVSPropertyOp9
 70
     1
102
RTVSPropertyOp10
 70
     1
102
RTVSPropertyOp11
 70
     1
102
RTVSPropertyOp12
 70
     1
102
RTVSPropertyOp13
 70
     1
102
RTVSPropertyOp14
 70
     1
102
RTVSPropertyOp15
 70
     1
102
RTVSPropertyOp16
 70
     1
102
RTVSPropertyOp17
 70
     1
102
RTVSPropertyOp18
 70
     1
102
RTVSPropertyOp19
 70
     1
102
RTVSPropertyOp20
 70
     1
102
RTVSPropertyOp21
 70
     1
102
RTVSPropertyOp22
 70
     1
102
RTVSPropertyOp23
 70
     1
102
RTVSPropertyOp24
 70
     1
102
RTVSPropertyOp25
 70
     1
102
RTVSPropertyOp26
 70
     1
102
RTVSPropertyOp27
 70
     1
102
RTVSPropertyOp28
 70
     1
102
RTVSPropertyOp29
 70
     1
102
RTVSPropertyOp30
 70
     1
102
RTVSPropertyOp31
 70
     1
102
RTVSPropertyOp32
 70
     1
  0
XRECORD
  5
9A09
102
{ACAD_REACTORS
330
9A08
102
}
330
9A08
100
AcDbXrecord
280
     1
102
RTVSPropertyOp0
 70
     1
102
RTVSPropertyOp1
 70
     1
102
RTVSPropertyOp2
 70
     1
102
RTVSPropertyOp3
 70
     1
102
RTVSPropertyOp4
 70
     1
102
RTVSPropertyOp5
 70
     1
102
RTVSPropertyOp6
 70
     1
102
RTVSPropertyOp7
 70
     1
102
RTVSPropertyOp8
 70
     1
102
RTVSPropertyOp9
 70
     1
102
RTVSPropertyOp10
 70
     1
102
RTVSPropertyOp11
 70
     1
102
RTVSPropertyOp12
 70
     1
102
RTVSPropertyOp13
 70
     1
102
RTVSPropertyOp14
 70
     1
102
RTVSPropertyOp15
 70
     1
102
RTVSPropertyOp16
 70
     1
102
RTVSPropertyOp17
 70
     1
102
RTVSPropertyOp18
 70
     1
102
RTVSPropertyOp19
 70
     1
102
RTVSPropertyOp20
 70
     1
102
RTVSPropertyOp21
 70
     1
102
RTVSPropertyOp22
 70
     1
102
RTVSPropertyOp23
 70
     1
102
RTVSPropertyOp24
 70
     1
102
RTVSPropertyOp25
 70
     1
102
RTVSPropertyOp26
 70
     1
102
RTVSPropertyOp27
 70
     1
102
RTVSPropertyOp28
 70
     1
102
RTVSPropertyOp29
 70
     1
102
RTVSPropertyOp30
 70
     1
102
RTVSPropertyOp31
 70
     1
102
RTVSPropertyOp32
 70
     1
  0
XRECORD
  5
99FD
102
{ACAD_REACTORS
330
99FC
102
}
330
99FC
100
AcDbXrecord
280
     1
102
RTVSPropertyOp0
 70
     1
102
RTVSPropertyOp1
 70
     1
102
RTVSPropertyOp2
 70
     1
102
RTVSPropertyOp3
 70
     1
102
RTVSPropertyOp4
 70
     1
102
RTVSPropertyOp5
 70
     1
102
RTVSPropertyOp6
 70
     1
102
RTVSPropertyOp7
 70
     1
102
RTVSPropertyOp8
 70
     1
102
RTVSPropertyOp9
 70
     1
102
RTVSPropertyOp10
 70
     1
102
RTVSPropertyOp11
 70
     1
102
RTVSPropertyOp12
 70
     1
102
RTVSPropertyOp13
 70
     1
102
RTVSPropertyOp14
 70
     1
102
RTVSPropertyOp15
 70
     1
102
RTVSPropertyOp16
 70
     1
102
RTVSPropertyOp17
 70
     1
102
RTVSPropertyOp18
 70
     1
102
RTVSPropertyOp19
 70
     1
102
RTVSPropertyOp20
 70
     1
102
RTVSPropertyOp21
 70
     1
102
RTVSPropertyOp22
 70
     1
102
RTVSPropertyOp23
 70
     1
102
RTVSPropertyOp24
 70
     1
102
RTVSPropertyOp25
 70
     1
102
RTVSPropertyOp26
 70
     1
102
RTVSPropertyOp27
 70
     1
102
RTVSPropertyOp28
 70
     1
102
RTVSPropertyOp29
 70
     1
102
RTVSPropertyOp30
 70
     1
102
RTVSPropertyOp31
 70
     1
102
RTVSPropertyOp32
 70
     1
  0
XRECORD
  5
9A15
102
{ACAD_REACTORS
330
9A14
102
}
330
9A14
100
AcDbXrecord
280
     1
102
RTVSPropertyOp0
 70
     1
102
RTVSPropertyOp1
 70
     1
102
RTVSPropertyOp2
 70
     1
102
RTVSPropertyOp3
 70
     1
102
RTVSPropertyOp4
 70
     1
102
RTVSPropertyOp5
 70
     1
102
RTVSPropertyOp6
 70
     1
102
RTVSPropertyOp7
 70
     1
102
RTVSPropertyOp8
 70
     1
102
RTVSPropertyOp9
 70
     1
102
RTVSPropertyOp10
 70
     1
102
RTVSPropertyOp11
 70
     1
102
RTVSPropertyOp12
 70
     1
102
RTVSPropertyOp13
 70
     1
102
RTVSPropertyOp14
 70
     1
102
RTVSPropertyOp15
 70
     1
102
RTVSPropertyOp16
 70
     1
102
RTVSPropertyOp17
 70
     1
102
RTVSPropertyOp18
 70
     1
102
RTVSPropertyOp19
 70
     1
102
RTVSPropertyOp20
 70
     1
102
RTVSPropertyOp21
 70
     1
102
RTVSPropertyOp22
 70
     1
102
RTVSPropertyOp23
 70
     1
102
RTVSPropertyOp24
 70
     1
102
RTVSPropertyOp25
 70
     1
102
RTVSPropertyOp26
 70
     1
102
RTVSPropertyOp27
 70
     1
102
RTVSPropertyOp28
 70
     1
102
RTVSPropertyOp29
 70
     1
102
RTVSPropertyOp30
 70
     1
102
RTVSPropertyOp31
 70
     1
102
RTVSPropertyOp32
 70
     1
  0
ENDSEC
  0
EOF
