  0
SECTION
  2
HEADER
  9
$ACADVER
  1
AC1015
  9
$ACADMAINTVER
 70
    20
  9
$DWGCODEPAGE
  3
ANSI_932
  9
$INSBASE
 10
0.0
 20
0.0
 30
0.0
  9
$EXTMIN
 10
210.006196569778
 20
73.8811280034474
 30
0.0
  9
$EXTMAX
 10
309.006196569778
 20
218.8811280034475
 30
2.0
  9
$LIMMIN
 10
0.0
 20
0.0
  9
$LIMMAX
 10
420.0
 20
297.0
  9
$ORTHOMODE
 70
     0
  9
$REGENMODE
 70
     1
  9
$FILLMODE
 70
     1
  9
$QTEXTMODE
 70
     0
  9
$MIRRTEXT
 70
     1
  9
$LTSCALE
 40
1.0
  9
$ATTMODE
 70
     1
  9
$TEXTSIZE
 40
2.5
  9
$TRACEWID
 40
1.0
  9
$TEXTSTYLE
  7
TXT
  9
$CLAYER
  8
0
  9
$CELTYPE
  6
BYLAYER
  9
$CECOLOR
 62
   256
  9
$CELTSCALE
 40
1.0
  9
$DISPSILH
 70
     0
  9
$DIMSCALE
 40
0.0
  9
$DIMASZ
 40
1.25
  9
$DIMEXO
 40
1.0
  9
$DIMDLI
 40
3.0
  9
$DIMRND
 40
0.0
  9
$DIMDLE
 40
0.0
  9
$DIMEXE
 40
1.0
  9
$DIMTP
 40
0.0
  9
$DIMTM
 40
0.0
  9
$DIMTXT
 40
1.75
  9
$DIMCEN
 40
0.0
  9
$DIMTSZ
 40
0.0
  9
$DIMTOL
 70
     0
  9
$DIMLIM
 70
     0
  9
$DIMTIH
 70
     0
  9
$DIMTOH
 70
     0
  9
$DIMSE1
 70
     0
  9
$DIMSE2
 70
     0
  9
$DIMTAD
 70
     3
  9
$DIMZIN
 70
     8
  9
$DIMBLK
  1

  9
$DIMASO
 70
     1
  9
$DIMSHO
 70
     1
  9
$DIMPOST
  1

  9
$DIMAPOST
  1

  9
$DIMALT
 70
     0
  9
$DIMALTD
 70
     2
  9
$DIMALTF
 40
25.4
  9
$DIMLFAC
 40
1.0
  9
$DIMTOFL
 70
     0
  9
$DIMTVP
 40
0.0
  9
$DIMTIX
 70
     0
  9
$DIMSOXD
 70
     0
  9
$DIMSAH
 70
     0
  9
$DIMBLK1
  1

  9
$DIMBLK2
  1

  9
$DIMSTYLE
  2
A
  9
$DIMCLRD
 70
     6
  9
$DIMCLRE
 70
     6
  9
$DIMCLRT
 70
     3
  9
$DIMTFAC
 40
1.0
  9
$DIMGAP
 40
0.5
  9
$DIMJUST
 70
     0
  9
$DIMSD1
 70
     0
  9
$DIMSD2
 70
     0
  9
$DIMTOLJ
 70
     1
  9
$DIMTZIN
 70
     8
  9
$DIMALTZ
 70
     0
  9
$DIMALTTZ
 70
     0
  9
$DIMUPT
 70
     0
  9
$DIMDEC
 70
     1
  9
$DIMTDEC
 70
     1
  9
$DIMALTU
 70
     2
  9
$DIMALTTD
 70
     2
  9
$DIMTXSTY
  7
TXT
  9
$DIMAUNIT
 70
     0
  9
$DIMADEC
 70
     0
  9
$DIMALTRND
 40
0.0
  9
$DIMAZIN
 70
     0
  9
$DIMDSEP
 70
    46
  9
$DIMATFIT
 70
     3
  9
$DIMFRAC
 70
     0
  9
$DIMLDRBLK
  1

  9
$DIMLUNIT
 70
     2
  9
$DIMLWD
 70
    -2
  9
$DIMLWE
 70
    -2
  9
$DIMTMOVE
 70
     1
  9
$LUNITS
 70
     2
  9
$LUPREC
 70
     2
  9
$SKETCHINC
 40
1.0
  9
$FILLETRAD
 40
1.0
  9
$AUNITS
 70
     0
  9
$AUPREC
 70
     2
  9
$MENU
  1
.
  9
$ELEVATION
 40
0.0
  9
$PELEVATION
 40
0.0
  9
$THICKNESS
 40
0.0
  9
$LIMCHECK
 70
     0
  9
$CHAMFERA
 40
0.0
  9
$CHAMFERB
 40
0.0
  9
$CHAMFERC
 40
1.75
  9
$CHAMFERD
 40
0.0174532925199433
  9
$SKPOLY
 70
     0
  9
$TDCREATE
 40
2451555.578568171
  9
$TDUCREATE
 40
2451555.203568172
  9
$TDUPDATE
 40
2457828.480962685
  9
$TDUUPDATE
 40
2457828.105962685
  9
$TDINDWG
 40
2.6964888310
  9
$TDUSRTIMER
 40
2.6964888310
  9
$USRTIMER
 70
     1
  9
$ANGBASE
 50
0.0
  9
$ANGDIR
 70
     0
  9
$PDMODE
 70
     0
  9
$PDSIZE
 40
0.0
  9
$PLINEWID
 40
0.0
  9
$SPLFRAME
 70
     0
  9
$SPLINETYPE
 70
     6
  9
$SPLINESEGS
 70
     8
  9
$HANDSEED
  5
878F
  9
$SURFTAB1
 70
     6
  9
$SURFTAB2
 70
     6
  9
$SURFTYPE
 70
     6
  9
$SURFU
 70
     6
  9
$SURFV
 70
     6
  9
$UCSBASE
  2

  9
$UCSNAME
  2

  9
$UCSORG
 10
0.0
 20
0.0
 30
0.0
  9
$UCSXDIR
 10
1.0
 20
0.0
 30
0.0
  9
$UCSYDIR
 10
0.0
 20
1.0
 30
0.0
  9
$UCSORTHOREF
  2

  9
$UCSORTHOVIEW
 70
     1
  9
$UCSORGTOP
 10
0.0
 20
0.0
 30
0.0
  9
$UCSORGBOTTOM
 10
0.0
 20
0.0
 30
0.0
  9
$UCSORGLEFT
 10
0.0
 20
0.0
 30
0.0
  9
$UCSORGRIGHT
 10
0.0
 20
0.0
 30
0.0
  9
$UCSORGFRONT
 10
0.0
 20
0.0
 30
0.0
  9
$UCSORGBACK
 10
0.0
 20
0.0
 30
0.0
  9
$PUCSBASE
  2

  9
$PUCSNAME
  2

  9
$PUCSORG
 10
0.0
 20
0.0
 30
0.0
  9
$PUCSXDIR
 10
1.0
 20
0.0
 30
0.0
  9
$PUCSYDIR
 10
0.0
 20
1.0
 30
0.0
  9
$PUCSORTHOREF
  2

  9
$PUCSORTHOVIEW
 70
     0
  9
$PUCSORGTOP
 10
0.0
 20
0.0
 30
0.0
  9
$PUCSORGBOTTOM
 10
0.0
 20
0.0
 30
0.0
  9
$PUCSORGLEFT
 10
0.0
 20
0.0
 30
0.0
  9
$PUCSORGRIGHT
 10
0.0
 20
0.0
 30
0.0
  9
$PUCSORGFRONT
 10
0.0
 20
0.0
 30
0.0
  9
$PUCSORGBACK
 10
0.0
 20
0.0
 30
0.0
  9
$USERI1
 70
     0
  9
$USERI2
 70
     0
  9
$USERI3
 70
     0
  9
$USERI4
 70
     0
  9
$USERI5
 70
     0
  9
$USERR1
 40
0.0
  9
$USERR2
 40
0.0
  9
$USERR3
 40
0.0
  9
$USERR4
 40
0.0
  9
$USERR5
 40
0.0
  9
$WORLDVIEW
 70
     1
  9
$SHADEDGE
 70
     3
  9
$SHADEDIF
 70
    70
  9
$TILEMODE
 70
     1
  9
$MAXACTVP
 70
    48
  9
$PINSBASE
 10
0.0
 20
0.0
 30
0.0
  9
$PLIMCHECK
 70
     0
  9
$PEXTMIN
 10
1.000000000000000E+20
 20
1.000000000000000E+20
 30
1.000000000000000E+20
  9
$PEXTMAX
 10
-1.000000000000000E+20
 20
-1.000000000000000E+20
 30
-1.000000000000000E+20
  9
$PLIMMIN
 10
0.0
 20
0.0
  9
$PLIMMAX
 10
420.0
 20
297.0
  9
$UNITMODE
 70
     0
  9
$VISRETAIN
 70
     1
  9
$PLINEGEN
 70
     0
  9
$PSLTSCALE
 70
     1
  9
$TREEDEPTH
 70
  3020
  9
$CMLSTYLE
  2
STANDARD
  9
$CMLJUST
 70
     0
  9
$CMLSCALE
 40
20.0
  9
$PROXYGRAPHICS
 70
     1
  9
$MEASUREMENT
 70
     1
  9
$CELWEIGHT
370
    -1
  9
$ENDCAPS
280
     0
  9
$JOINSTYLE
280
     0
  9
$LWDISPLAY
290
     0
  9
$INSUNITS
 70
     0
  9
$HYPERLINKBASE
  1

  9
$STYLESHEET
  1
LIN.ctb
  9
$XEDIT
290
     1
  9
$CEPSNTYPE
380
     0
  9
$PSTYLEMODE
290
     1
  9
$FINGERPRINTGUID
  2
{1CF51E8A-A506-11D4-A7D9-AF69F5C20846}
  9
$VERSIONGUID
  2
{F9FBF589-83BD-4CA4-BB1A-28D623CEB0AF}
  9
$EXTNAMES
290
     1
  9
$PSVPSCALE
 40
0.0
  9
$OLESTARTUP
290
     0
  0
ENDSEC
  0
SECTION
  2
CLASSES
  0
CLASS
  1
DICTIONARYVAR
  2
AcDbDictionaryVar
  3
ObjectDBX Classes
 90
        0
280
     0
281
     0
  0
CLASS
  1
SORTENTSTABLE
  2
AcDbSortentsTable
  3
ObjectDBX Classes
 90
        0
280
     0
281
     0
  0
CLASS
  1
ACDBDICTIONARYWDFLT
  2
AcDbDictionaryWithDefault
  3
ObjectDBX Classes
 90
        0
280
     0
281
     0
  0
CLASS
  1
ACDBPLACEHOLDER
  2
AcDbPlaceHolder
  3
ObjectDBX Classes
 90
        0
280
     0
281
     0
  0
CLASS
  1
LAYOUT
  2
AcDbLayout
  3
ObjectDBX Classes
 90
        0
280
     0
281
     0
  0
CLASS
  1
TABLESTYLE
  2
AcDbTableStyle
  3
ObjectDBX Classes
 90
     2047
280
     0
281
     0
  0
ENDSEC
  0
SECTION
  2
TABLES
  0
TABLE
  2
VPORT
  5
8
330
0
100
AcDbSymbolTable
 70
     2
  0
VPORT
  5
8789
330
8
100
AcDbSymbolTableRecord
100
AcDbViewportTableRecord
  2
*Active
 70
     0
 10
0.0
 20
0.0
 11
1.0
 21
1.0
 12
350.6357788617443
 22
146.3813559746851
 13
0.0
 23
0.0
 14
10.0
 24
10.0
 15
10.0
 25
10.0
 16
0.0
 26
0.0
 36
1.0
 17
0.0
 27
0.0
 37
0.0
 40
146.8038364117972
 41
2.647181628392484
 42
50.0
 43
0.0
 44
0.0
 50
0.0
 51
0.0
 71
     0
 72
   100
 73
     1
 74
     1
 75
     0
 76
     0
 77
     0
 78
     0
281
     0
 65
     1
110
0.0
120
0.0
130
0.0
111
1.0
121
0.0
131
0.0
112
0.0
122
1.0
132
0.0
 79
     1
146
0.0
  0
ENDTAB
  0
TABLE
  2
LTYPE
  5
5
330
0
100
AcDbSymbolTable
 70
     9
  0
LTYPE
  5
12
330
5
100
AcDbSymbolTableRecord
100
AcDbLinetypeTableRecord
  2
BYBLOCK
 70
     0
  3

 72
    65
 73
     0
 40
0.0
  0
LTYPE
  5
13
330
5
100
AcDbSymbolTableRecord
100
AcDbLinetypeTableRecord
  2
BYLAYER
 70
     0
  3

 72
    65
 73
     0
 40
0.0
  0
LTYPE
  5
14
330
5
100
AcDbSymbolTableRecord
100
AcDbLinetypeTableRecord
  2
CONTINUOUS
 70
     0
  3
Solid line
 72
    65
 73
     0
 40
0.0
  0
LTYPE
  5
9D
330
5
100
AcDbSymbolTableRecord
100
AcDbLinetypeTableRecord
  2
CENTERX2
 70
     0
  3
Center (2x) ________  __  ________  __  _____
 72
    65
 73
     4
 40
101.6
 49
63.5
 74
     0
 49
-12.7
 74
     0
 49
12.7
 74
     0
 49
-12.7
 74
     0
  0
LTYPE
  5
A1
330
5
100
AcDbSymbolTableRecord
100
AcDbLinetypeTableRecord
  2
DASHED
 70
     0
  3
Dashed __ __ __ __ __ __ __ __ __ __ __ __ __ _
 72
    65
 73
     2
 40
19.05
 49
12.7
 74
     0
 49
-6.349999999999999
 74
     0
  0
LTYPE
  5
A2
330
5
100
AcDbSymbolTableRecord
100
AcDbLinetypeTableRecord
  2
DASHED2
 70
     0
  3
Dashed (.5x) _ _ _ _ _ _ _ _ _ _ _ _ _ _ _ _ _
 72
    65
 73
     2
 40
9.524999999999998
 49
6.349999999999999
 74
     0
 49
-3.174999999999999
 74
     0
  0
LTYPE
  5
A5
330
5
100
AcDbSymbolTableRecord
100
AcDbLinetypeTableRecord
  2
DIVIDE2
 70
     0
  3
Divide (.5x) __..__..__..__..__..__..__..__.._
 72
    65
 73
     6
 40
15.875
 49
6.349999999999999
 74
     0
 49
-3.174999999999999
 74
     0
 49
0.0
 74
     0
 49
-3.174999999999999
 74
     0
 49
0.0
 74
     0
 49
-3.174999999999999
 74
     0
  0
LTYPE
  5
650B
330
5
100
AcDbSymbolTableRecord
100
AcDbLinetypeTableRecord
  2
CENTER
 70
     0
  3
Center ____ _ ____ _ ____ _ ____ _ ____ _ ____
 72
    65
 73
     4
 40
50.8
 49
31.75
 74
     0
 49
-6.349999999999999
 74
     0
 49
6.349999999999999
 74
     0
 49
-6.349999999999999
 74
     0
  0
LTYPE
  5
650C
330
5
100
AcDbSymbolTableRecord
100
AcDbLinetypeTableRecord
  2
HIDDEN
 70
     0
  3
Hidden __ __ __ __ __ __ __ __ __ __ __ __ __ _
 72
    65
 73
     2
 40
9.524999999999998
 49
6.349999999999999
 74
     0
 49
-3.174999999999999
 74
     0
  0
LTYPE
  5
6684
330
5
100
AcDbSymbolTableRecord
100
AcDbLinetypeTableRecord
  2
HIDDEN2
 70
     0
  3
Hidden (.5x) _ _ _ _ _ _ _ _ _ _ _ _ _ _ _ _ _
 72
    65
 73
     2
 40
4.762499999999999
 49
3.174999999999999
 74
     0
 49
-1.587499999999999
 74
     0
  0
LTYPE
  5
6AF9
330
5
100
AcDbSymbolTableRecord
100
AcDbLinetypeTableRecord
  2
ACAD_ISO03W100
 70
     0
  3
ISO dash space __    __    __    __    __    __
 72
    65
 73
     2
 40
30.0
 49
12.0
 74
     0
 49
-18.0
 74
     0
  0
ENDTAB
  0
TABLE
  2
LAYER
  5
2
330
0
100
AcDbSymbolTable
 70
    10
  0
LAYER
  5
E
330
2
100
AcDbSymbolTableRecord
100
AcDbLayerTableRecord
  2
0
 70
     0
 62
     7
  6
CONTINUOUS
370
    -3
390
5CF2
  0
LAYER
  5
B9
330
2
100
AcDbSymbolTableRecord
100
AcDbLayerTableRecord
  2
DIM
 70
     0
 62
     3
  6
CONTINUOUS
370
    -3
390
5CF2
  0
LAYER
  5
F2
330
2
100
AcDbSymbolTableRecord
100
AcDbLayerTableRecord
  2
DEFPOINTS
 70
     0
 62
     7
  6
CONTINUOUS
290
     0
370
    -3
390
5CF2
  0
LAYER
  5
5F8B
330
2
100
AcDbSymbolTableRecord
100
AcDbLayerTableRecord
  2
公差
 70
     0
 62
     6
  6
CONTINUOUS
370
    -3
390
5CF2
  0
LAYER
  5
644E
330
2
100
AcDbSymbolTableRecord
100
AcDbLayerTableRecord
  2
図框線
 70
     0
 62
     9
  6
CONTINUOUS
370
    -3
390
5CF2
  0
LAYER
  5
650D
330
2
100
AcDbSymbolTableRecord
100
AcDbLayerTableRecord
  2
中心線
 70
     0
 62
     1
  6
CENTER
370
    -3
390
5CF2
  0
LAYER
  5
650E
330
2
100
AcDbSymbolTableRecord
100
AcDbLayerTableRecord
  2
本体内線
 70
     0
 62
     4
  6
HIDDEN
370
    -3
390
5CF2
  0
LAYER
  5
650F
330
2
100
AcDbSymbolTableRecord
100
AcDbLayerTableRecord
  2
本体外線
 70
     0
 62
     2
  6
CONTINUOUS
370
    -3
390
5CF2
  0
LAYER
  5
6510
330
2
100
AcDbSymbolTableRecord
100
AcDbLayerTableRecord
  2
剖面線
 70
     0
 62
     5
  6
CONTINUOUS
370
    -3
390
5CF2
  0
LAYER
  5
875A
330
2
100
AcDbSymbolTableRecord
100
AcDbLayerTableRecord
  2
mark
 70
     0
 62
     6
  6
CONTINUOUS
370
    -3
390
5CF2
  0
ENDTAB
  0
TABLE
  2
STYLE
  5
3
330
0
100
AcDbSymbolTable
 70
     5
  0
STYLE
  5
F
330
3
100
AcDbSymbolTableRecord
100
AcDbTextStyleTableRecord
  2
STANDARD
 70
     0
 40
0.0
 41
1.0
 50
0.0
 71
     0
 42
2.5
  3
txt
  4

  0
STYLE
  5
BE
330
3
100
AcDbSymbolTableRecord
100
AcDbTextStyleTableRecord
  2
ISOCP3
 70
     0
 40
0.0
 41
1.0
 50
0.0
 71
     0
 42
2.5
  3
isocp3.shx
  4

  0
STYLE
  5
2A37
330
3
100
AcDbSymbolTableRecord
100
AcDbTextStyleTableRecord
  2
TXT
 70
     0
 40
0.0
 41
1.0
 50
0.0
 71
     0
 42
2.5
  3
txt.shx
  4
bigfont.shx
  0
STYLE
  5
5DCB
330
3
100
AcDbSymbolTableRecord
100
AcDbTextStyleTableRecord
  2
LKK
 70
     0
 40
50.0
 41
1.5
 50
0.0
 71
     0
 42
50.0
  3
MS PGothic.ttf
  4

1001
ACAD
1000
MS PGothic
1071
    32818
  0
STYLE
  5
5DCC
330
3
100
AcDbSymbolTableRecord
100
AcDbTextStyleTableRecord
  2
JL
 70
     0
 40
10.0
 41
0.5
 50
0.0
 71
     0
 42
5.0
  3
MS Mincho.ttf
  4

1001
ACAD
1000
MS Mincho
1071
    32785
  0
ENDTAB
  0
TABLE
  2
VIEW
  5
6
330
0
100
AcDbSymbolTable
 70
     0
  0
ENDTAB
  0
TABLE
  2
UCS
  5
7
330
0
100
AcDbSymbolTable
 70
     0
  0
ENDTAB
  0
TABLE
  2
APPID
  5
9
330
0
100
AcDbSymbolTable
 70
     7
  0
APPID
  5
10
330
9
100
AcDbSymbolTableRecord
100
AcDbRegAppTableRecord
  2
ACAD
 70
     0
  0
APPID
  5
873F
330
9
100
AcDbSymbolTableRecord
100
AcDbRegAppTableRecord
  2
ACAD_PSEXT
 70
     0
  0
APPID
  5
875B
330
9
100
AcDbSymbolTableRecord
100
AcDbRegAppTableRecord
  2
ACAD_DSTYLE_DIMEXT_LENGTH
 70
     0
  0
APPID
  5
875C
330
9
100
AcDbSymbolTableRecord
100
AcDbRegAppTableRecord
  2
ACAD_DSTYLE_DIMEXT_ENABLED
 70
     0
  0
APPID
  5
875D
330
9
100
AcDbSymbolTableRecord
100
AcDbRegAppTableRecord
  2
ACAD_DSTYLE_DIMJOGGED_JOGANGLE_SYMBOL
 70
     0
  0
APPID
  5
875E
330
9
100
AcDbSymbolTableRecord
100
AcDbRegAppTableRecord
  2
ACAD_DSTYLE_DIMARC_LENGTH_SYMBOL
 70
     0
  0
APPID
  5
8772
330
9
100
AcDbSymbolTableRecord
100
AcDbRegAppTableRecord
  2
ACAD_EXEMPT_FROM_CAD_STANDARDS
 70
     0
  0
ENDTAB
  0
TABLE
  2
DIMSTYLE
  5
A
330
0
100
AcDbSymbolTable
 70
     3
100
AcDbDimStyleTable
 71
     1
340
1A4
  0
DIMSTYLE
105
1D
330
A
100
AcDbSymbolTableRecord
100
AcDbDimStyleTableRecord
  2
STANDARD
 70
     0
 41
3.0
 42
0.06
 77
     3
140
4.0
144
0.3333333333333333
172
     1
340
F
  0
DIMSTYLE
105
1A4
102
{ACAD_REACTORS
330
678A
330
6947
330
6EA2
330
6EAB
330
7064
330
747B
330
7B74
330
8300
102
}
330
A
100
AcDbSymbolTableRecord
100
AcDbDimStyleTableRecord
  2
A
 70
     0
 41
1.25
 42
1.0
 43
3.0
 44
1.0
 73
     0
 74
     0
 77
     3
 78
     8
140
1.75
141
0.0
147
0.5
176
     6
177
     6
178
     3
271
     0
272
     0
279
     1
340
2A37
  0
DIMSTYLE
105
6006
330
A
100
AcDbSymbolTableRecord
100
AcDbDimStyleTableRecord
  2
ISO-25
 70
     0
 40
0.0
 41
2.0
 42
0.3
 43
1.0
 44
0.3
 73
     0
 74
     0
 77
     1
 78
     8
140
3.0
147
1.0
172
     1
176
     6
177
     6
178
     3
271
     1
272
     2
284
     8
288
     1
289
     2
340
F
  0
ENDTAB
  0
TABLE
  2
BLOCK_RECORD
  5
1
330
0
100
AcDbSymbolTable
 70
    11
  0
BLOCK_RECORD
  5
18
102
{ACAD_XDICTIONARY
360
45F
102
}
330
1
100
AcDbSymbolTableRecord
100
AcDbBlockTableRecord
  2
*MODEL_SPACE
340
5CF5
  0
BLOCK_RECORD
  5
15
102
{ACAD_XDICTIONARY
360
5D89
102
}
330
1
100
AcDbSymbolTableRecord
100
AcDbBlockTableRecord
  2
*PAPER_SPACE
340
5CF6
  0
BLOCK_RECORD
  5
639D
330
1
100
AcDbSymbolTableRecord
100
AcDbBlockTableRecord
  2
A$C255C26A2
340
0
102
{BLKREFS
331
63A3
102
}
  0
BLOCK_RECORD
  5
67DE
330
1
100
AcDbSymbolTableRecord
100
AcDbBlockTableRecord
  2
*D1
340
0
  0
BLOCK_RECORD
  5
6937
330
1
100
AcDbSymbolTableRecord
100
AcDbBlockTableRecord
  2
*D2
340
0
  0
BLOCK_RECORD
  5
6EDF
330
1
100
AcDbSymbolTableRecord
100
AcDbBlockTableRecord
  2
*D3
340
0
  0
BLOCK_RECORD
  5
6EF7
330
1
100
AcDbSymbolTableRecord
100
AcDbBlockTableRecord
  2
*D4
340
0
  0
BLOCK_RECORD
  5
7058
330
1
100
AcDbSymbolTableRecord
100
AcDbBlockTableRecord
  2
*D5
340
0
  0
BLOCK_RECORD
  5
7500
330
1
100
AcDbSymbolTableRecord
100
AcDbBlockTableRecord
  2
*D6
340
0
  0
BLOCK_RECORD
  5
7B64
330
1
100
AcDbSymbolTableRecord
100
AcDbBlockTableRecord
  2
*D7
340
0
  0
BLOCK_RECORD
  5
82F8
330
1
100
AcDbSymbolTableRecord
100
AcDbBlockTableRecord
  2
*D8
340
0
  0
BLOCK_RECORD
  5
8329
330
1
100
AcDbSymbolTableRecord
100
AcDbBlockTableRecord
  2
_DOTSMALL
340
0
  0
BLOCK_RECORD
  5
8754
330
1
100
AcDbSymbolTableRecord
100
AcDbBlockTableRecord
  2
_Open30
340
0
  0
ENDTAB
  0
ENDSEC
  0
SECTION
  2
BLOCKS
  0
BLOCK
  5
19
330
18
100
AcDbEntity
  8
0
100
AcDbBlockBegin
  2
*MODEL_SPACE
 70
     0
 10
0.0
 20
0.0
 30
0.0
  3
*MODEL_SPACE
  1

  0
ENDBLK
  5
1A
330
18
100
AcDbEntity
  8
0
100
AcDbBlockEnd
  0
BLOCK
  5
16
330
15
100
AcDbEntity
 67
     1
  8
0
100
AcDbBlockBegin
  2
*PAPER_SPACE
 70
     0
 10
0.0
 20
0.0
 30
0.0
  3
*PAPER_SPACE
  1

  0
ENDBLK
  5
17
330
15
100
AcDbEntity
 67
     1
  8
0
100
AcDbBlockEnd
  0
BLOCK
  5
63A1
330
639D
100
AcDbEntity
  8
0
100
AcDbBlockBegin
  2
A$C255C26A2
 70
     0
 10
0.0
 20
0.0
 30
0.0
  3
A$C255C26A2
  1

  0
LWPOLYLINE
  5
639E
330
639D
100
AcDbEntity
  8
0
100
AcDbPolyline
 90
        3
 70
     1
 43
0.0
 10
7.014806023851633
 20
0.0000006939811783
 10
5.611844869720698
 20
2.430000693981241
 10
8.417767177982568
 20
2.430000693981241
  0
LWPOLYLINE
  5
639F
330
639D
100
AcDbEntity
  8
0
100
AcDbPolyline
 90
        3
 70
     1
 43
0.0
 10
4.20888371558999
 20
0.0000006939811783
 10
2.805922561459283
 20
2.430000693981241
 10
5.611844869720698
 20
2.430000693981241
  0
LWPOLYLINE
  5
63A0
330
639D
100
AcDbEntity
  8
0
100
AcDbPolyline
 90
        3
 70
     1
 43
0.0
 10
1.402961407328348
 20
0.0000006939811783
 10
0.0000002531974133
 20
2.430000693981241
 10
2.805922561459283
 20
2.430000693981241
  0
ENDBLK
  5
63A2
330
639D
100
AcDbEntity
  8
0
100
AcDbBlockEnd
  0
BLOCK
  5
7D89
330
67DE
100
AcDbEntity
  8
0
100
AcDbBlockBegin
  2
*D1
 70
     1
 10
0.0
 20
0.0
 30
0.0
  3
*D1
  1

  0
LINE
  5
7D8A
330
67DE
100
AcDbEntity
  8
0
  6
ByBlock
 62
     6
100
AcDbLine
 10
237.6571141388387
 20
172.0924874234589
 30
0.0
 11
237.6571141388387
 21
154.7301776296207
 31
0.0
  0
LINE
  5
7D8B
330
67DE
100
AcDbEntity
  8
0
  6
ByBlock
 62
     6
100
AcDbLine
 10
239.6612338134881
 20
172.0924874234589
 30
0.0
 11
239.6612338134881
 21
154.7301776296207
 31
0.0
  0
LINE
  5
7D8C
330
67DE
100
AcDbEntity
  8
0
  6
ByBlock
 62
     6
100
AcDbLine
 10
236.4071141388387
 20
155.7301776296207
 30
0.0
 11
235.1571141388387
 21
155.7301776296207
 31
0.0
  0
LINE
  5
7D8D
330
67DE
100
AcDbEntity
  8
0
  6
ByBlock
 62
     6
100
AcDbLine
 10
240.9112338134881
 20
155.7301776296207
 30
0.0
 11
242.1612338134881
 21
155.7301776296207
 31
0.0
  0
MTEXT
  5
7D8E
330
67DE
100
AcDbEntity
  8
0
  6
ByBlock
 62
     3
100
AcDbMText
 10
238.6591739761634
 20
157.1051776296207
 30
0.0
 40
1.75
 41
0.0
 71
     5
 72
     1
  1
\A1;2
  7
TXT
 73
     1
 44
1.0
1001
ACAD
1000
MTEXTBEGIN
1070
    73
1070
     1
1070
    44
1040
1.0
1070
    74
1070
     0
1000
MTEXTEND
  0
LINE
  5
7D8F
330
67DE
100
AcDbEntity
  8
0
  6
ByBlock
 62
     6
100
AcDbLine
 10
237.6571141388387
 20
155.7301776296207
 30
0.0
 11
239.6612338134881
 21
155.7301776296207
 31
0.0
  0
SOLID
  5
7D90
330
67DE
100
AcDbEntity
  8
0
  6
ByBlock
 62
     6
100
AcDbTrace
 10
236.4071141388387
 20
155.938510962954
 30
0.0
 11
236.4071141388387
 21
155.5218442962873
 31
0.0
 12
237.6571141388387
 22
155.7301776296207
 32
0.0
 13
237.6571141388387
 23
155.7301776296207
 33
0.0
  0
SOLID
  5
7D91
330
67DE
100
AcDbEntity
  8
0
  6
ByBlock
 62
     6
100
AcDbTrace
 10
240.9112338134881
 20
155.938510962954
 30
0.0
 11
240.9112338134881
 21
155.5218442962873
 31
0.0
 12
239.6612338134881
 22
155.7301776296207
 32
0.0
 13
239.6612338134881
 23
155.7301776296207
 33
0.0
  0
POINT
  5
7D92
330
67DE
100
AcDbEntity
  8
DEFPOINTS
  6
ByBlock
 62
     0
100
AcDbPoint
 10
237.6571141388387
 20
173.0924874234589
 30
0.0
  0
POINT
  5
7D93
330
67DE
100
AcDbEntity
  8
DEFPOINTS
  6
ByBlock
 62
     0
100
AcDbPoint
 10
239.6612338134881
 20
173.0924874234589
 30
0.0
  0
POINT
  5
7D94
330
67DE
100
AcDbEntity
  8
DEFPOINTS
  6
ByBlock
 62
     0
100
AcDbPoint
 10
239.6612338134881
 20
155.7301776296207
 30
0.0
  0
ENDBLK
  5
7D95
330
67DE
100
AcDbEntity
  8
0
100
AcDbBlockEnd
  0
BLOCK
  5
812A
330
6937
100
AcDbEntity
  8
0
100
AcDbBlockBegin
  2
*D2
 70
     1
 10
0.0
 20
0.0
 30
0.0
  3
*D2
  1

  0
LINE
  5
812B
330
6937
100
AcDbEntity
  8
0
  6
ByBlock
 62
     6
100
AcDbLine
 10
246.9542763780193
 20
173.9490178289489
 30
0.0
 11
239.6535194625435
 21
173.9490178289489
 31
0.0
  0
LINE
  5
812C
330
6937
100
AcDbEntity
  8
0
  6
ByBlock
 62
     6
100
AcDbLine
 10
246.9542763780194
 20
170.949017828949
 30
0.0
 11
239.6535194625435
 21
170.949017828949
 31
0.0
  0
LINE
  5
812D
330
6937
100
AcDbEntity
  8
0
  6
ByBlock
 62
     6
100
AcDbLine
 10
240.6535194625435
 20
175.1990178289489
 30
0.0
 11
240.6535194625435
 21
176.4490178289489
 31
0.0
  0
LINE
  5
812E
330
6937
100
AcDbEntity
  8
0
  6
ByBlock
 62
     6
100
AcDbLine
 10
240.6535194625435
 20
169.699017828949
 30
0.0
 11
240.6535194625435
 21
168.449017828949
 31
0.0
  0
MTEXT
  5
812F
330
6937
100
AcDbEntity
  8
0
  6
ByBlock
 62
     3
100
AcDbMText
 10
238.7920151232206
 20
179.6461017507857
 30
0.0
 40
1.75
 41
0.0
 71
     5
 72
     1
  1
\A1;3      (3等分)
  7
TXT
 11
0.0000000000000001
 21
1.0
 31
0.0
 73
     1
 44
1.0
1001
ACAD
1000
MTEXTBEGIN
1070
    73
1070
     1
1070
    44
1040
1.0
1070
    74
1070
     0
1000
MTEXTEND
  0
LINE
  5
8130
330
6937
100
AcDbEntity
  8
0
  6
ByBlock
 62
     6
100
AcDbLine
 10
240.6535194625435
 20
173.9490178289489
 30
0.0
 11
240.6535194625435
 21
170.949017828949
 31
0.0
  0
SOLID
  5
8131
330
6937
100
AcDbEntity
  8
0
  6
ByBlock
 62
     6
100
AcDbTrace
 10
240.4451861292102
 20
175.1990178289489
 30
0.0
 11
240.8618527958769
 21
175.1990178289489
 31
0.0
 12
240.6535194625435
 22
173.9490178289489
 32
0.0
 13
240.6535194625435
 23
173.9490178289489
 33
0.0
  0
SOLID
  5
8132
330
6937
100
AcDbEntity
  8
0
  6
ByBlock
 62
     6
100
AcDbTrace
 10
240.4451861292102
 20
169.699017828949
 30
0.0
 11
240.8618527958769
 21
169.699017828949
 31
0.0
 12
240.6535194625435
 22
170.949017828949
 32
0.0
 13
240.6535194625435
 23
170.949017828949
 33
0.0
  0
POINT
  5
8133
330
6937
100
AcDbEntity
  8
DEFPOINTS
  6
ByBlock
 62
     0
100
AcDbPoint
 10
247.9542763780194
 20
173.9490178289489
 30
0.0
  0
POINT
  5
8134
330
6937
100
AcDbEntity
  8
DEFPOINTS
  6
ByBlock
 62
     0
100
AcDbPoint
 10
247.9542763780194
 20
170.949017828949
 30
0.0
  0
POINT
  5
8135
330
6937
100
AcDbEntity
  8
DEFPOINTS
  6
ByBlock
 62
     0
100
AcDbPoint
 10
240.6535194625435
 20
170.949017828949
 30
0.0
  0
ENDBLK
  5
8136
330
6937
100
AcDbEntity
  8
0
100
AcDbBlockEnd
  0
BLOCK
  5
865F
330
6EDF
100
AcDbEntity
  8
0
100
AcDbBlockBegin
  2
*D3
 70
     1
 10
0.0
 20
0.0
 30
0.0
  3
*D3
  1

  0
LINE
  5
8660
330
6EDF
100
AcDbEntity
  8
0
  6
ByBlock
 62
     6
100
AcDbLine
 10
328.1341842808886
 20
131.1296329141656
 30
0.0
 11
328.1341842808886
 21
146.9113603914988
 31
0.0
  0
LINE
  5
8661
330
6EDF
100
AcDbEntity
  8
0
  6
ByBlock
 62
     6
100
AcDbLine
 10
344.1341842808886
 20
131.1296329141657
 30
0.0
 11
344.1341842808886
 21
146.9113603914988
 31
0.0
  0
LINE
  5
8662
330
6EDF
100
AcDbEntity
  8
0
  6
ByBlock
 62
     6
100
AcDbLine
 10
329.3841842808886
 20
145.9113603914988
 30
0.0
 11
342.8841842808886
 21
145.9113603914988
 31
0.0
  0
MTEXT
  5
8663
330
6EDF
100
AcDbEntity
  8
0
  6
ByBlock
 62
     3
100
AcDbMText
 10
333.2264283113215
 20
148.2176447213067
 30
0.0
 40
1.75
 41
0.0
 71
     5
 72
     1
  1
\A1;\U+220516
  7
TXT
 73
     1
 44
1.0
1001
ACAD
1000
MTEXTBEGIN
1070
    73
1070
     1
1070
    44
1040
1.0
1070
    74
1070
     0
1000
MTEXTEND
  0
SOLID
  5
8664
330
6EDF
100
AcDbEntity
  8
0
  6
ByBlock
 62
     6
100
AcDbTrace
 10
329.3841842808886
 20
146.1196937248321
 30
0.0
 11
329.3841842808886
 21
145.7030270581654
 31
0.0
 12
328.1341842808886
 22
145.9113603914988
 32
0.0
 13
328.1341842808886
 23
145.9113603914988
 33
0.0
  0
SOLID
  5
8665
330
6EDF
100
AcDbEntity
  8
0
  6
ByBlock
 62
     6
100
AcDbTrace
 10
342.8841842808886
 20
146.1196937248321
 30
0.0
 11
342.8841842808886
 21
145.7030270581654
 31
0.0
 12
344.1341842808886
 22
145.9113603914988
 32
0.0
 13
344.1341842808886
 23
145.9113603914988
 33
0.0
  0
POINT
  5
8666
330
6EDF
100
AcDbEntity
  8
DEFPOINTS
  6
ByBlock
 62
     0
100
AcDbPoint
 10
328.1341842808886
 20
130.1296329141656
 30
0.0
  0
POINT
  5
8667
330
6EDF
100
AcDbEntity
  8
DEFPOINTS
  6
ByBlock
 62
     0
100
AcDbPoint
 10
344.1341842808886
 20
130.1296329141657
 30
0.0
  0
POINT
  5
8668
330
6EDF
100
AcDbEntity
  8
DEFPOINTS
  6
ByBlock
 62
     0
100
AcDbPoint
 10
344.1341842808886
 20
145.9113603914988
 30
0.0
  0
ENDBLK
  5
8669
330
6EDF
100
AcDbEntity
  8
0
100
AcDbBlockEnd
  0
BLOCK
  5
869C
330
6EF7
100
AcDbEntity
  8
0
100
AcDbBlockBegin
  2
*D4
 70
     1
 10
0.0
 20
0.0
 30
0.0
  3
*D4
  1

  0
LINE
  5
869D
330
6EF7
100
AcDbEntity
  8
0
  6
ByBlock
 62
     6
100
AcDbLine
 10
332.1341842808887
 20
123.0046329141657
 30
0.0
 11
332.1341842808887
 21
113.6502999439972
 31
0.0
  0
LINE
  5
869E
330
6EF7
100
AcDbEntity
  8
0
  6
ByBlock
 62
     6
100
AcDbLine
 10
340.1341842808887
 20
123.0046329141655
 30
0.0
 11
340.1341842808887
 21
113.6502999439972
 31
0.0
  0
LINE
  5
869F
330
6EF7
100
AcDbEntity
  8
0
  6
ByBlock
 62
     6
100
AcDbLine
 10
333.3841842808887
 20
114.6502999439972
 30
0.0
 11
338.8841842808887
 21
114.6502999439972
 31
0.0
  0
MTEXT
  5
86A0
330
6EF7
100
AcDbEntity
  8
0
  6
ByBlock
 62
     3
100
AcDbMText
 10
336.1341842808886
 20
116.0252999439972
 30
0.0
 40
1.75
 41
0.0
 71
     5
 72
     1
  1
\A1;M8
  7
TXT
 73
     1
 44
1.0
1001
ACAD
1000
MTEXTBEGIN
1070
    73
1070
     1
1070
    44
1040
1.0
1070
    74
1070
     0
1000
MTEXTEND
  0
SOLID
  5
86A1
330
6EF7
100
AcDbEntity
  8
0
  6
ByBlock
 62
     6
100
AcDbTrace
 10
333.3841842808887
 20
114.8586332773305
 30
0.0
 11
333.3841842808887
 21
114.4419666106639
 31
0.0
 12
332.1341842808887
 22
114.6502999439972
 32
0.0
 13
332.1341842808887
 23
114.6502999439972
 33
0.0
  0
SOLID
  5
86A2
330
6EF7
100
AcDbEntity
  8
0
  6
ByBlock
 62
     6
100
AcDbTrace
 10
338.8841842808887
 20
114.8586332773305
 30
0.0
 11
338.8841842808887
 21
114.4419666106639
 31
0.0
 12
340.1341842808887
 22
114.6502999439972
 32
0.0
 13
340.1341842808887
 23
114.6502999439972
 33
0.0
  0
POINT
  5
86A3
330
6EF7
100
AcDbEntity
  8
DEFPOINTS
  6
ByBlock
 62
     0
100
AcDbPoint
 10
332.1341842808887
 20
124.0046329141657
 30
0.0
  0
POINT
  5
86A4
330
6EF7
100
AcDbEntity
  8
DEFPOINTS
  6
ByBlock
 62
     0
100
AcDbPoint
 10
340.1341842808887
 20
124.0046329141655
 30
0.0
  0
POINT
  5
86A5
330
6EF7
100
AcDbEntity
  8
DEFPOINTS
  6
ByBlock
 62
     0
100
AcDbPoint
 10
340.1341842808887
 20
114.6502999439972
 30
0.0
  0
ENDBLK
  5
86A6
330
6EF7
100
AcDbEntity
  8
0
100
AcDbBlockEnd
  0
BLOCK
  5
863E
330
7058
100
AcDbEntity
  8
0
100
AcDbBlockBegin
  2
*D5
 70
     1
 10
0.0
 20
0.0
 30
0.0
  3
*D5
  1

  0
LINE
  5
863F
330
7058
100
AcDbEntity
  8
0
  6
ByBlock
 62
     6
100
AcDbLine
 10
330.6341842808886
 20
132.6296329141656
 30
0.0
 11
330.6341842808886
 21
142.3214584004478
 31
0.0
  0
LINE
  5
8640
330
7058
100
AcDbEntity
  8
0
  6
ByBlock
 62
     6
100
AcDbLine
 10
341.6341842808886
 20
132.6296329141656
 30
0.0
 11
341.6341842808886
 21
142.3214584004478
 31
0.0
  0
LINE
  5
8641
330
7058
100
AcDbEntity
  8
0
  6
ByBlock
 62
     6
100
AcDbLine
 10
331.8841842808887
 20
141.3214584004478
 30
0.0
 11
340.3841842808887
 21
141.3214584004478
 31
0.0
  0
SOLID
  5
8642
330
7058
100
AcDbEntity
  8
0
  6
ByBlock
 62
     6
100
AcDbTrace
 10
331.8841842808887
 20
141.5297917337811
 30
0.0
 11
331.8841842808887
 21
141.1131250671144
 31
0.0
 12
330.6341842808886
 22
141.3214584004478
 32
0.0
 13
330.6341842808886
 23
141.3214584004478
 33
0.0
  0
SOLID
  5
8643
330
7058
100
AcDbEntity
  8
0
  6
ByBlock
 62
     6
100
AcDbTrace
 10
340.3841842808887
 20
141.5297917337811
 30
0.0
 11
340.3841842808887
 21
141.1131250671144
 31
0.0
 12
341.6341842808886
 22
141.3214584004478
 32
0.0
 13
341.6341842808886
 23
141.3214584004478
 33
0.0
  0
MTEXT
  5
8644
330
7058
100
AcDbEntity
  8
0
  6
ByBlock
 62
     3
100
AcDbMText
 10
336.1341842808887
 20
142.6964584004478
 30
0.0
 40
1.75
 41
0.0
 71
     5
 72
     1
  1
\A1;\U+220511±0.5
  7
TXT
 73
     1
 44
1.0
1001
ACAD
1000
MTEXTBEGIN
1070
    73
1070
     1
1070
    44
1040
1.0
1070
    74
1070
     0
1000
MTEXTEND
  0
POINT
  5
8645
330
7058
100
AcDbEntity
  8
DEFPOINTS
  6
ByBlock
 62
     0
100
AcDbPoint
 10
330.6341842808886
 20
131.6296329141656
 30
0.0
  0
POINT
  5
8646
330
7058
100
AcDbEntity
  8
DEFPOINTS
  6
ByBlock
 62
     0
100
AcDbPoint
 10
341.6341842808886
 20
131.6296329141656
 30
0.0
  0
POINT
  5
8647
330
7058
100
AcDbEntity
  8
DEFPOINTS
  6
ByBlock
 62
     0
100
AcDbPoint
 10
341.6341842808886
 20
141.3214584004478
 30
0.0
  0
ENDBLK
  5
8648
330
7058
100
AcDbEntity
  8
0
100
AcDbBlockEnd
  0
BLOCK
  5
831E
330
7500
100
AcDbEntity
  8
0
100
AcDbBlockBegin
  2
*D6
 70
     1
 10
0.0
 20
0.0
 30
0.0
  3
*D6
  1

  0
LINE
  5
831F
330
7500
100
AcDbEntity
  8
0
  6
ByBlock
 62
     6
100
AcDbLine
 10
264.3283960526687
 20
134.397753729084
 30
0.0
 11
277.0563939101884
 21
134.397753729084
 31
0.0
  0
LINE
  5
8320
330
7500
100
AcDbEntity
  8
0
  6
ByBlock
 62
     6
100
AcDbLine
 10
265.8283960526687
 20
126.397753729084
 30
0.0
 11
277.0563939101884
 21
126.397753729084
 31
0.0
  0
LINE
  5
8321
330
7500
100
AcDbEntity
  8
0
  6
ByBlock
 62
     6
100
AcDbLine
 10
276.0563939101884
 20
133.147753729084
 30
0.0
 11
276.0563939101884
 21
127.647753729084
 31
0.0
  0
MTEXT
  5
8322
330
7500
100
AcDbEntity
  8
0
  6
ByBlock
 62
     3
100
AcDbMText
 10
274.6813939101884
 20
130.397753729084
 30
0.0
 40
1.75
 41
0.0
 71
     5
 72
     1
  1
\A1;8±0.2
  7
TXT
 11
0.0000000000000001
 21
1.0
 31
0.0
 73
     1
 44
1.0
1001
ACAD
1000
MTEXTBEGIN
1070
    73
1070
     1
1070
    44
1040
1.0
1070
    74
1070
     0
1000
MTEXTEND
  0
SOLID
  5
8323
330
7500
100
AcDbEntity
  8
0
  6
ByBlock
 62
     6
100
AcDbTrace
 10
275.848060576855
 20
133.147753729084
 30
0.0
 11
276.2647272435217
 21
133.147753729084
 31
0.0
 12
276.0563939101884
 22
134.397753729084
 32
0.0
 13
276.0563939101884
 23
134.397753729084
 33
0.0
  0
SOLID
  5
8324
330
7500
100
AcDbEntity
  8
0
  6
ByBlock
 62
     6
100
AcDbTrace
 10
275.848060576855
 20
127.647753729084
 30
0.0
 11
276.2647272435217
 21
127.647753729084
 31
0.0
 12
276.0563939101884
 22
126.397753729084
 32
0.0
 13
276.0563939101884
 23
126.397753729084
 33
0.0
  0
POINT
  5
8325
330
7500
100
AcDbEntity
  8
DEFPOINTS
  6
ByBlock
 62
     0
100
AcDbPoint
 10
263.3283960526687
 20
134.397753729084
 30
0.0
  0
POINT
  5
8326
330
7500
100
AcDbEntity
  8
DEFPOINTS
  6
ByBlock
 62
     0
100
AcDbPoint
 10
264.8283960526687
 20
126.397753729084
 30
0.0
  0
POINT
  5
8327
330
7500
100
AcDbEntity
  8
DEFPOINTS
  6
ByBlock
 62
     0
100
AcDbPoint
 10
276.0563939101884
 20
126.397753729084
 30
0.0
  0
ENDBLK
  5
8328
330
7500
100
AcDbEntity
  8
0
100
AcDbBlockEnd
  0
BLOCK
  5
8678
330
7B64
100
AcDbEntity
  8
0
100
AcDbBlockBegin
  2
*D7
 70
     1
 10
0.0
 20
0.0
 30
0.0
  3
*D7
  1

  0
LINE
  5
8679
330
7B64
100
AcDbEntity
  8
0
  6
ByBlock
 62
     6
100
AcDbLine
 10
328.1341842808886
 20
131.1296329141656
 30
0.0
 11
318.3293076907633
 21
131.1296329141656
 31
0.0
  0
LINE
  5
867A
330
7B64
100
AcDbEntity
  8
0
  6
ByBlock
 62
     6
100
AcDbLine
 10
329.6341842808886
 20
131.6296329141656
 30
0.0
 11
318.3293076907633
 21
131.6296329141656
 31
0.0
  0
LINE
  5
867B
330
7B64
100
AcDbEntity
  8
0
  6
ByBlock
 62
     6
100
AcDbLine
 10
319.3293076907634
 20
129.8796329141656
 30
0.0
 11
319.3293076907634
 21
128.6296329141656
 31
0.0
  0
LINE
  5
867C
330
7B64
100
AcDbEntity
  8
0
  6
ByBlock
 62
     6
100
AcDbLine
 10
319.3293076907634
 20
132.8796329141656
 30
0.0
 11
319.3293076907634
 21
134.1296329141656
 31
0.0
  0
LINE
  5
867D
330
7B64
100
AcDbEntity
  8
0
  6
ByBlock
 62
     6
100
AcDbLine
 10
319.3293076907634
 20
138.4085681557941
 30
0.0
 11
319.3293076907634
 21
131.6296329141656
 31
0.0
  0
MTEXT
  5
867E
330
7B64
100
AcDbEntity
  8
0
  6
ByBlock
 62
     3
100
AcDbMText
 10
317.9543076907634
 20
136.3044014891274
 30
0.0
 40
1.75
 41
0.0
 71
     5
 72
     1
  1
\A1;0.5
  7
TXT
 11
0.0000000000000001
 21
1.0
 31
0.0
 73
     1
 44
1.0
1001
ACAD
1000
MTEXTBEGIN
1070
    73
1070
     1
1070
    44
1040
1.0
1070
    74
1070
     0
1000
MTEXTEND
  0
LINE
  5
867F
330
7B64
100
AcDbEntity
  8
0
  6
ByBlock
 62
     6
100
AcDbLine
 10
319.3293076907634
 20
131.1296329141656
 30
0.0
 11
319.3293076907634
 21
131.6296329141656
 31
0.0
  0
SOLID
  5
8680
330
7B64
100
AcDbEntity
  8
0
  6
ByBlock
 62
     6
100
AcDbTrace
 10
319.12097435743
 20
129.8796329141656
 30
0.0
 11
319.5376410240967
 21
129.8796329141656
 31
0.0
 12
319.3293076907634
 22
131.1296329141656
 32
0.0
 13
319.3293076907634
 23
131.1296329141656
 33
0.0
  0
SOLID
  5
8681
330
7B64
100
AcDbEntity
  8
0
  6
ByBlock
 62
     6
100
AcDbTrace
 10
319.12097435743
 20
132.8796329141656
 30
0.0
 11
319.5376410240967
 21
132.8796329141656
 31
0.0
 12
319.3293076907634
 22
131.6296329141656
 32
0.0
 13
319.3293076907634
 23
131.6296329141656
 33
0.0
  0
POINT
  5
8682
330
7B64
100
AcDbEntity
  8
DEFPOINTS
  6
ByBlock
 62
     0
100
AcDbPoint
 10
329.1341842808886
 20
131.1296329141656
 30
0.0
  0
POINT
  5
8683
330
7B64
100
AcDbEntity
  8
DEFPOINTS
  6
ByBlock
 62
     0
100
AcDbPoint
 10
330.6341842808886
 20
131.6296329141656
 30
0.0
  0
POINT
  5
8684
330
7B64
100
AcDbEntity
  8
DEFPOINTS
  6
ByBlock
 62
     0
100
AcDbPoint
 10
319.3293076907634
 20
131.6296329141656
 30
0.0
  0
ENDBLK
  5
8685
330
7B64
100
AcDbEntity
  8
0
100
AcDbBlockEnd
  0
BLOCK
  5
8301
330
82F8
100
AcDbEntity
  8
0
100
AcDbBlockBegin
  2
*D8
 70
     1
 10
0.0
 20
0.0
 30
0.0
  3
*D8
  1

  0
LINE
  5
8302
330
82F8
100
AcDbEntity
  8
0
  6
ByBlock
 62
     6
100
AcDbLine
 10
241.4837650305545
 20
120.1290418124665
 30
0.0
 11
248.1176253085931
 21
126.6943299952177
 31
0.0
  0
MTEXT
  5
8303
330
82F8
100
AcDbEntity
  8
0
  6
ByBlock
 62
     3
100
AcDbMText
 10
242.9450241054133
 20
123.5097160096132
 30
0.0
 40
1.75
 41
0.0
 71
     5
 72
     1
  1
\A1;2-R1
  7
TXT
 11
0.7107707440755619
 21
0.703423733866204
 31
0.0
 73
     1
 44
1.0
1001
ACAD
1000
MTEXTBEGIN
1070
    73
1070
     1
1070
    44
1040
1.0
1070
    74
1070
     0
1000
MTEXTEND
  0
SOLID
  5
8304
330
82F8
100
AcDbEntity
  8
0
  6
ByBlock
 62
     6
100
AcDbTrace
 10
247.0826152672765
 20
125.9631275662341
 30
0.0
 11
247.3757084897207
 21
125.6669730895359
 31
0.0
 12
248.1176253085931
 22
126.6943299952177
 32
0.0
 13
248.1176253085931
 23
126.6943299952177
 33
0.0
  0
POINT
  5
8305
330
82F8
100
AcDbEntity
  8
DEFPOINTS
  6
ByBlock
 62
     0
100
AcDbPoint
 10
248.1176253085931
 20
126.6943299952177
 30
0.0
  0
POINT
  5
8306
330
82F8
100
AcDbEntity
  8
DEFPOINTS
  6
ByBlock
 62
     0
100
AcDbPoint
 10
248.8283960526687
 20
127.397753729084
 30
0.0
  0
ENDBLK
  5
8307
330
82F8
100
AcDbEntity
  8
0
100
AcDbBlockEnd
  0
BLOCK
  5
832A
330
8329
100
AcDbEntity
  8
0
100
AcDbBlockBegin
  2
_DOTSMALL
 70
     0
 10
0.0
 20
0.0
 30
0.0
  3
_DOTSMALL
  1

  0
LWPOLYLINE
  5
832B
330
8329
100
AcDbEntity
  8
0
  6
ByBlock
 62
     0
100
AcDbPolyline
 90
        2
 70
     1
 43
0.5
 10
-0.0625
 20
0.0
 42
1.0
 10
0.0625
 20
0.0
 42
1.0
  0
ENDBLK
  5
832F
330
8329
100
AcDbEntity
  8
0
100
AcDbBlockEnd
  0
BLOCK
  5
8755
330
8754
100
AcDbEntity
  8
0
100
AcDbBlockBegin
  2
_Open30
 70
     0
 10
0.0
 20
0.0
 30
0.0
  3
_Open30
  1

  0
LINE
  5
8756
330
8754
100
AcDbEntity
  8
0
  6
ByBlock
 62
     0
370
    -2
100
AcDbLine
 10
-1.0
 20
0.26794919
 30
0.0
 11
0.0
 21
0.0
 31
0.0
  0
LINE
  5
8757
330
8754
100
AcDbEntity
  8
0
  6
ByBlock
 62
     0
370
    -2
100
AcDbLine
 10
0.0
 20
0.0
 30
0.0
 11
-1.0
 21
-0.26794919
 31
0.0
  0
LINE
  5
8758
330
8754
100
AcDbEntity
  8
0
  6
ByBlock
 62
     0
370
    -2
100
AcDbLine
 10
0.0
 20
0.0
 30
0.0
 11
-1.0
 21
0.0
 31
0.0
  0
ENDBLK
  5
8759
330
8754
100
AcDbEntity
  8
0
100
AcDbBlockEnd
  0
ENDSEC
  0
SECTION
  2
ENTITIES
  0
MTEXT
  5
C0
330
18
100
AcDbEntity
  8
0
100
AcDbMText
 10
41.26970765600413
 20
233.6950877649332
 30
0.0
 40
2.5
 41
0.0
 71
     1
 72
     5
  1

  7
ISOCP3
 73
     1
 44
1.0
1001
ACAD
1000
MTEXTBEGIN
1070
    73
1070
     1
1070
    44
1040
1.0
1070
    74
1070
     0
1000
MTEXTEND
  0
MTEXT
  5
608E
330
18
100
AcDbEntity
  8
0
100
AcDbMText
 10
218.9159379645269
 20
83.56812717502874
 30
0.0
 40
2.5
 41
0.0
 71
     1
 72
     5
  1
\Ftxt.shx,bigfont.shx|c128;呉銘宏
  7
JL
 73
     1
 44
1.0
1001
ACAD
1000
MTEXTBEGIN
1070
    73
1070
     1
1070
    44
1040
1.0
1070
    74
1070
     0
1000
MTEXTEND
  0
MTEXT
  5
6095
330
18
100
AcDbEntity
  8
0
100
AcDbMText
 10
250.62378489576
 20
88.49503953014197
 30
0.0
 40
2.25
 41
0.0
 71
     1
 72
     5
  1
\Ftxt.shx,bigfont.shx|c128;2 : 1
  7
JL
 73
     1
 44
1.0
1001
ACAD
1000
MTEXTBEGIN
1070
    73
1070
     1
1070
    44
1040
1.0
1070
    74
1070
     0
1000
MTEXTEND
  0
MTEXT
  5
6098
330
18
100
AcDbEntity
  8
0
 48
2.0
370
    25
100
AcDbMText
 10
283.0679100150939
 20
75.69961297086194
 30
0.0
 40
2.25
 41
0.0
 71
     5
 72
     1
  1
\Ftxt.shx,bigfont.shx|c128;N L 4 0 2 3 8
 73
     1
 44
1.0
1001
ACAD
1000
MTEXTBEGIN
1070
    73
1070
     1
1070
    44
1040
1.0
1070
    74
1070
     0
1000
MTEXTEND
  0
MTEXT
  5
609C
330
18
100
AcDbEntity
  8
0
 48
2.0
100
AcDbMText
 10
297.9895929198718
 20
84.96887935368665
 30
0.0
 40
2.25
 41
0.0
 71
     5
 72
     1
  1
\P\Ftxt.shx,bigfont.shx|c128;MRZ8X0.75P
 73
     1
 44
1.0
1001
ACAD
1000
MTEXTBEGIN
1070
    73
1070
     1
1070
    44
1040
1.0
1070
    74
1070
     0
1000
MTEXTEND
  0
MTEXT
  5
635A
330
18
100
AcDbEntity
  8
0
100
AcDbMText
 10
218.0179371153258
 20
88.20409093100721
 30
0.0
 40
2.25
 41
0.0
 71
     1
 72
     5
  1
\Ftxt.shx,bigfont.shx|c128;05.03.07
  7
JL
 73
     1
 44
1.0
1001
ACAD
1000
MTEXTBEGIN
1070
    73
1070
     1
1070
    44
1040
1.0
1070
    74
1070
     0
1000
MTEXTEND
  0
INSERT
  5
63A3
330
18
100
AcDbEntity
  8
0
100
AcDbBlockReference
  2
A$C255C26A2
 10
254.9578972345686
 20
131.629632567175
 30
0.0
 41
0.5
 42
0.5
 43
0.5
  0
LEADER
  5
63C9
330
18
100
AcDbEntity
  8
DIM
 62
     6
100
AcDbLeader
  3
A
 76
     2
 10
261.697731327507
 20
178.6512637719812
 30
0.0
 10
268.8294611370773
 20
183.7974809633364
 30
0.0
  0
LEADER
  5
63CB
330
18
100
AcDbEntity
  8
DIM
 62
     6
100
AcDbLeader
  3
A
 76
     2
 10
262.0138881531052
 20
127.6296329141658
 30
0.0
 10
268.5636341695664
 20
120.4698938779667
 30
0.0
  0
MTEXT
  5
63CC
330
18
100
AcDbEntity
  8
DIM
100
AcDbMText
 10
269.5166086460513
 20
145.6265109318354
 30
0.0
 40
2.5
 41
1.0
 71
     1
 72
     5
  1
\Ftxt.shx,bigfont.shx|c128;3
 73
     1
 44
1.0
1001
ACAD
1000
MTEXTBEGIN
1070
    73
1070
     1
1070
    44
1040
1.0
1070
    74
1070
     0
1000
MTEXTEND
  0
MTEXT
  5
63CD
330
18
100
AcDbEntity
  8
DIM
100
AcDbMText
 10
269.3131651383003
 20
186.1816068270416
 30
0.0
 40
2.5
 41
1.0
 71
     1
 72
     5
  1
\Ftxt.shx,bigfont.shx|c128;1
 73
     1
 44
1.0
1001
ACAD
1000
MTEXTBEGIN
1070
    73
1070
     1
1070
    44
1040
1.0
1070
    74
1070
     0
1000
MTEXTEND
  0
MTEXT
  5
63CE
330
18
100
AcDbEntity
  8
DIM
100
AcDbMText
 10
268.625326820149
 20
120.2154112056516
 30
0.0
 40
2.5
 41
1.0
 71
     1
 72
     5
  1
\Ftxt.shx,bigfont.shx|c128;2
 73
     1
 44
1.0
1001
ACAD
1000
MTEXTBEGIN
1070
    73
1070
     1
1070
    44
1040
1.0
1070
    74
1070
     0
1000
MTEXTEND
  0
LINE
  5
64AF
330
18
100
AcDbEntity
  8
図框線
100
AcDbLine
 10
309.006196569778
 20
218.8811280034474
 30
0.0
 11
309.006196569778
 21
73.8811280034474
 31
0.0
  0
LINE
  5
64B0
330
18
100
AcDbEntity
  8
図框線
370
    30
100
AcDbLine
 10
210.006196569778
 20
73.88112800344742
 30
0.0
 11
210.006196569778
 21
218.8811280034475
 31
0.0
  0
LINE
  5
64B1
330
18
100
AcDbEntity
  8
0
 62
     7
 48
5.0
100
AcDbLine
 39
2.0
 10
234.9799491479497
 20
87.82878999263653
 30
0.0
 11
237.6458510058043
 21
88.49526545710018
 31
0.0
  0
MTEXT
  5
64B2
330
18
100
AcDbEntity
  8
0
100
AcDbMText
 10
217.9955314555718
 20
78.69679805584155
 30
0.0
 40
3.0
 41
0.0
 71
     1
 72
     5
  1
\Ftxt.shx,bigfont.shx|c128;日機株式会社
  7
LKK
 73
     1
 44
1.0
1001
ACAD
1000
MTEXTBEGIN
1070
    73
1070
     1
1070
    44
1040
1.0
1070
    74
1070
     0
1000
MTEXTEND
  0
LINE
  5
64B3
330
18
100
AcDbEntity
  8
図框線
100
AcDbLine
 10
210.0061965697781
 20
73.88112800344742
 30
0.0
 11
309.006196569778
 21
73.88112800344742
 31
0.0
  0
LINE
  5
64B7
330
18
100
AcDbEntity
  8
図框線
100
AcDbLine
 10
210.0061965697781
 20
79.88112800344743
 30
0.0
 11
309.006196569778
 21
79.88112800344746
 31
0.0
  0
LINE
  5
64B8
330
18
100
AcDbEntity
  8
図框線
100
AcDbLine
 10
210.0061965697781
 20
84.88112800344742
 30
0.0
 11
258.0061965697781
 21
84.88112800344742
 31
0.0
  0
LINE
  5
64B9
330
18
100
AcDbEntity
  8
図框線
100
AcDbLine
 10
210.0061965697781
 20
89.88112800344742
 30
0.0
 11
309.006196569778
 21
89.88112800344742
 31
0.0
  0
LINE
  5
64BA
330
18
100
AcDbEntity
  8
図框線
100
AcDbLine
 10
216.0061965697781
 20
89.88112800344742
 30
0.0
 11
216.0061965697781
 21
79.88112800344743
 31
0.0
  0
LINE
  5
64BB
330
18
100
AcDbEntity
  8
図框線
100
AcDbLine
 10
226.0061965697781
 20
89.88112800344742
 30
0.0
 11
226.0061965697781
 21
79.88112800344743
 31
0.0
  0
MTEXT
  5
64BC
330
18
100
AcDbEntity
  8
0
100
AcDbMText
 10
211.4809186941885
 20
88.40470317020356
 30
0.0
 40
2.25
 41
0.0
 71
     1
 72
     5
  1
\Ftxt.shx,bigfont.shx|c128;日 付
  7
JL
 73
     1
 44
1.0
1001
ACAD
1000
MTEXTBEGIN
1070
    73
1070
     1
1070
    44
1040
1.0
1070
    74
1070
     0
1000
MTEXTEND
  0
MTEXT
  5
64BD
330
18
100
AcDbEntity
  8
0
100
AcDbMText
 10
211.5540527522331
 20
83.80029750080201
 30
0.0
 40
2.25
 41
0.0
 71
     1
 72
     5
  1
\Ftxt.shx,bigfont.shx|c128;製 図
  7
JL
 73
     1
 44
1.0
1001
ACAD
1000
MTEXTBEGIN
1070
    73
1070
     1
1070
    44
1040
1.0
1070
    74
1070
     0
1000
MTEXTEND
  0
LINE
  5
64C0
330
18
100
AcDbEntity
  8
0
 62
     7
370
    25
100
AcDbLine
 10
237.6458510058043
 20
85.82936359924559
 30
0.0
 11
237.6458510058043
 21
88.49526545710018
 31
0.0
  0
MTEXT
  5
64C1
330
18
100
AcDbEntity
  8
0
100
AcDbMText
 10
243.3574669064409
 20
88.59228735478666
 30
0.0
 40
2.25
 41
0.0
 71
     1
 72
     5
  1
\Ftxt.shx,bigfont.shx|c128;尺 度
  7
JL
 73
     1
 44
1.0
1001
ACAD
1000
MTEXTBEGIN
1070
    73
1070
     1
1070
    44
1040
1.0
1070
    74
1070
     0
1000
MTEXTEND
  0
LINE
  5
64C2
330
18
100
AcDbEntity
  8
図框線
100
AcDbLine
 10
242.0061965697781
 20
89.88112800344742
 30
0.0
 11
242.0061965697781
 21
79.88112800344743
 31
0.0
  0
LINE
  5
64C3
330
18
100
AcDbEntity
  8
0
 62
     7
370
    25
100
AcDbLine
 10
230.647858628936
 20
85.500602362128
 30
0.0
 11
230.647858628936
 21
88.7184617534757
 31
0.0
  0
CIRCLE
  5
64C4
330
18
100
AcDbEntity
  8
0
 62
     7
100
AcDbCircle
 10
230.647858628936
 20
87.16231452817282
 30
0.0
 40
1.33295092892732
  0
LINE
  5
64C6
330
18
100
AcDbEntity
  8
0
 62
     7
370
    25
100
AcDbLine
 10
234.5963479753085
 20
87.16231452817288
 30
0.0
 11
237.8851831792939
 21
87.16231452817288
 31
0.0
  0
LINE
  5
64C7
330
18
100
AcDbEntity
  8
0
 62
     7
100
AcDbLine
 10
234.9799491479497
 20
86.49583906370924
 30
0.0
 11
237.6458510058043
 21
85.82936359924559
 31
0.0
  0
LINE
  5
64C8
330
18
100
AcDbEntity
  8
図框線
100
AcDbLine
 10
232.0061965697781
 20
84.88112800344737
 30
0.0
 11
232.0061965697781
 21
79.88112800344743
 31
0.0
  0
LINE
  5
64C9
330
18
100
AcDbEntity
  8
0
 62
     7
370
    25
100
AcDbLine
 10
228.9820592339978
 20
87.16231452817282
 30
0.0
 11
232.4131545431627
 21
87.16231452817288
 31
0.0
  0
CIRCLE
  5
64CA
330
18
100
AcDbEntity
  8
0
 62
     7
100
AcDbCircle
 10
230.647858628936
 20
87.16231452817282
 30
0.0
 40
0.6664754644636604
  0
MTEXT
  5
64CB
330
18
100
AcDbEntity
  8
0
100
AcDbMText
 10
227.566629159977
 20
83.58103971928768
 30
0.0
 40
2.25
 41
0.0
 71
     1
 72
     5
  1
\Ftxt.shx,bigfont.shx|c128;検 図
  7
JL
 73
     1
 44
1.0
1001
ACAD
1000
MTEXTBEGIN
1070
    73
1070
     1
1070
    44
1040
1.0
1070
    74
1070
     0
1000
MTEXTEND
  0
LINE
  5
64CC
330
18
100
AcDbEntity
  8
0
 62
     7
370
    25
100
AcDbLine
 10
234.9799491479497
 20
86.49583906370924
 30
0.0
 11
234.9799491479497
 21
87.82878999263653
 31
0.0
  0
MTEXT
  5
64CD
330
18
100
AcDbEntity
  8
0
100
AcDbMText
 10
243.5037336614656
 20
83.69553826345475
 30
0.0
 40
2.25
 41
0.0
 71
     1
 72
     5
  1
\Ftxt.shx,bigfont.shx|c128;承 認
  7
JL
 73
     1
 44
1.0
1001
ACAD
1000
MTEXTBEGIN
1070
    73
1070
     1
1070
    44
1040
1.0
1070
    74
1070
     0
1000
MTEXTEND
  0
LINE
  5
64CE
330
18
100
AcDbEntity
  8
図框線
100
AcDbLine
 10
276.8769738641711
 20
96.00311030409091
 30
0.0
 11
306.8769738641711
 21
96.00311030409086
 31
0.0
  0
LINE
  5
64CF
330
18
100
AcDbEntity
  8
図框線
100
AcDbLine
 10
276.8769738641711
 20
99.60311030409094
 30
0.0
 11
306.8769738641711
 21
99.60311030409094
 31
0.0
  0
LINE
  5
64D0
330
18
100
AcDbEntity
  8
図框線
100
AcDbLine
 10
276.8769738641711
 20
103.2031103040909
 30
0.0
 11
306.8769738641711
 21
103.2031103040908
 31
0.0
  0
LINE
  5
64D1
330
18
100
AcDbEntity
  8
図框線
100
AcDbLine
 10
276.8769738641711
 20
106.8031103040909
 30
0.0
 11
306.8769738641711
 21
106.8031103040908
 31
0.0
  0
LINE
  5
64D2
330
18
100
AcDbEntity
  8
図框線
100
AcDbLine
 10
276.8769738641711
 20
92.40311030409088
 30
0.0
 11
306.8769738641711
 21
92.40311030409088
 31
0.0
  0
MTEXT
  5
64D3
330
18
100
AcDbEntity
  8
0
 62
     7
 48
2.0
100
AcDbMText
 10
291.8196738471067
 20
107.199694509383
 30
0.0
 40
2.4
 41
0.0
 71
     5
 72
     1
  1
\P\Ftxt.shx,bigfont.shx|c128;諸　　　　元
 73
     1
 44
1.0
1001
ACAD
1000
MTEXTBEGIN
1070
    73
1070
     1
1070
    44
1040
1.0
1070
    74
1070
     0
1000
MTEXTEND
  0
LINE
  5
64D5
330
18
100
AcDbEntity
  8
図框線
100
AcDbLine
 10
276.8769738641711
 20
106.8031103040908
 30
0.0
 11
276.8769738641711
 21
92.40311030409088
 31
0.0
  0
MTEXT
  5
64D6
330
18
100
AcDbEntity
  8
0
100
AcDbMText
 10
278.6381917710112
 20
102.4398557205305
 30
0.0
 40
2.2
 41
81.95814342112454
 71
     1
 72
     5
  1
\Ftxt.shx,bigfont.shx|c128;熱　処　理
  7
JL
 73
     1
 44
1.0
1001
ACAD
1000
MTEXTBEGIN
1070
    73
1070
     1
1070
    44
1040
1.0
1070
    74
1070
     0
1000
MTEXTEND
  0
LINE
  5
64D7
330
18
100
AcDbEntity
  8
図框線
100
AcDbLine
 10
288.8769738641711
 20
103.2031103040908
 30
0.0
 11
288.8769738641711
 21
92.40311030409088
 31
0.0
  0
MTEXT
  5
64D8
330
18
100
AcDbEntity
  8
0
100
AcDbMText
 10
258.8347093510972
 20
79.45778872672611
 30
0.0
 40
2.5
 41
0.0
 71
     1
 72
     5
  1
\Ftxt.shx,bigfont.shx|c128;図  面  番  号
  7
JL
 73
     1
 44
1.0
1001
ACAD
1000
MTEXTBEGIN
1070
    73
1070
     1
1070
    44
1040
1.0
1070
    74
1070
     0
1000
MTEXTEND
  0
MTEXT
  5
64D9
330
18
100
AcDbEntity
  8
0
 62
     7
 48
2.0
100
AcDbMText
 10
270.9192391024712
 20
85.02691213071523
 30
0.0
 40
2.25
 41
0.0
 71
     5
 72
     1
  1
\P\Ftxt.shx,bigfont.shx|c128;    精密ロックナット
 73
     1
 44
1.0
1001
ACAD
1000
MTEXTBEGIN
1070
    73
1070
     1
1070
    44
1040
1.0
1070
    74
1070
     0
1000
MTEXTEND
  0
MTEXT
  5
64DA
330
18
100
AcDbEntity
  8
0
370
    25
100
AcDbMText
 10
259.406342722458
 20
88.78457208046729
 30
0.0
 40
2.5
 41
0.0
 71
     1
 72
     5
  1
\Ftxt.shx,bigfont.shx|c128;品  名
  7
JL
 73
     1
 44
1.0
1001
ACAD
1000
MTEXTBEGIN
1070
    73
1070
     1
1070
    44
1040
1.0
1070
    74
1070
     0
1000
MTEXTEND
  0
LINE
  5
64DB
330
18
100
AcDbEntity
  8
図框線
100
AcDbLine
 10
258.0061965697781
 20
89.88112800344742
 30
0.0
 11
258.0061965697781
 21
73.97664880890999
 31
0.0
  0
LINE
  5
64DC
330
18
100
AcDbEntity
  8
図框線
100
AcDbLine
 10
248.0061965697781
 20
89.88112800344742
 30
0.0
 11
248.0061965697781
 21
79.88112800344743
 31
0.0
  0
LINE
  5
64DE
330
18
100
AcDbEntity
  8
図框線
100
AcDbLine
 10
286.6179766652123
 20
89.88112800344742
 30
0.0
 11
286.6179766652123
 21
79.88112800344743
 31
0.0
  0
MTEXT
  5
64DF
330
18
100
AcDbEntity
  8
0
100
AcDbMText
 10
278.4980545873216
 20
98.93874149690043
 30
0.0
 40
2.2
 41
81.80293144248363
 71
     1
 72
     5
  1
\Ftxt.shx,bigfont.shx|c128;表 面 処 理
  7
JL
 73
     1
 44
1.0
1001
ACAD
1000
MTEXTBEGIN
1070
    73
1070
     1
1070
    44
1040
1.0
1070
    74
1070
     0
1000
MTEXTEND
  0
MTEXT
  5
64E0
330
18
100
AcDbEntity
  8
0
100
AcDbMText
 10
278.6430875115391
 20
95.29450507009647
 30
0.0
 40
2.2
 41
83.0859
 71
     1
 72
     5
  1
\Ftxt.shx,bigfont.shx|c128;等     　級
  7
JL
 73
     1
 44
1.0
1001
ACAD
1000
MTEXTBEGIN
1070
    73
1070
     1
1070
    44
1040
1.0
1070
    74
1070
     0
1000
MTEXTEND
  0
LINE
  5
64E1
330
18
100
AcDbEntity
  8
図框線
100
AcDbLine
 10
306.8769738641711
 20
106.8031103040908
 30
0.0
 11
306.8769738641711
 21
92.40311030409094
 31
0.0
  0
MTEXT
  5
64E2
330
18
100
AcDbEntity
  8
0
100
AcDbMText
 10
291.2504755188924
 20
102.3523767668256
 30
0.0
 40
2.2
 41
145.9480028428943
 71
     1
 72
     5
  1
\Ftxt.shx,bigfont.shx|c128;調質　HRC30%%d%%p２%%d
  7
JL
 73
     1
 44
1.0
1001
ACAD
1000
MTEXTBEGIN
1070
    73
1070
     1
1070
    44
1040
1.0
1070
    74
1070
     0
1000
MTEXTEND
  0
MTEXT
  5
64E4
330
18
100
AcDbEntity
  8
0
370
    25
100
AcDbMText
 10
288.6309333341493
 20
88.67397682391526
 30
0.0
 40
2.5
 41
0.0
 71
     1
 72
     5
  1
\Ftxt.shx,bigfont.shx|c128;型  番
  7
JL
 73
     1
 44
1.0
1001
ACAD
1000
MTEXTBEGIN
1070
    73
1070
     1
1070
    44
1040
1.0
1070
    74
1070
     0
1000
MTEXTEND
  0
MTEXT
  5
64E5
330
18
100
AcDbEntity
  8
0
100
AcDbMText
 10
296.3998291309476
 20
79.49962902040454
 30
0.0
 40
2.5
 41
0.0
 71
     1
 72
     5
  1
\Ftxt.shx,bigfont.shx|c128;変更
  7
JL
 73
     1
 44
1.0
1001
ACAD
1000
MTEXTBEGIN
1070
    73
1070
     1
1070
    44
1040
1.0
1070
    74
1070
     0
1000
MTEXTEND
  0
LINE
  5
64E6
330
18
100
AcDbEntity
  8
図框線
100
AcDbLine
 10
295.5061965697781
 20
79.88566314266108
 30
0.0
 11
295.5061965697781
 21
73.88112800344742
 31
0.0
  0
MTEXT
  5
64E7
330
18
100
AcDbEntity
  8
0
100
AcDbMText
 10
291.3807950196106
 20
95.29481035582206
 30
0.0
 40
2.2
 41
145.3916823984455
 71
     1
 72
     5
  1
\Ftxt.shx,bigfont.shx|c128;ＩＳＯ - ４Ｈ
  7
JL
 73
     1
 44
1.0
1001
ACAD
1000
MTEXTBEGIN
1070
    73
1070
     1
1070
    44
1040
1.0
1070
    74
1070
     0
1000
MTEXTEND
  0
MTEXT
  5
64E8
330
18
100
AcDbEntity
  8
0
100
AcDbMText
 10
291.4680256186757
 20
98.76229502842301
 30
0.0
 40
2.2
 41
145.7274
 71
     1
 72
     5
  1
\Ftxt.shx,bigfont.shx|c128;黒  　    染
  7
JL
 73
     1
 44
1.0
1001
ACAD
1000
MTEXTBEGIN
1070
    73
1070
     1
1070
    44
1040
1.0
1070
    74
1070
     0
1000
MTEXTEND
  0
MTEXT
  5
64EA
330
18
100
AcDbEntity
  8
0
100
AcDbMText
 10
240.0377895735732
 20
208.9290531322199
 30
0.0
 40
2.5
 41
0.0
 71
     1
 72
     5
  1
\Ftxt.shx,bigfont.shx|c128;M4X0.75P-3L
  7
JL
 73
     1
 44
1.0
1001
ACAD
1000
MTEXTBEGIN
1070
    73
1070
     1
1070
    44
1040
1.0
1070
    74
1070
     0
1000
MTEXTEND
  0
MTEXT
  5
64EB
330
18
100
AcDbEntity
  8
0
100
AcDbMText
 10
240.0377895735732
 20
204.9290531322199
 30
0.0
 40
2.5
 41
0.0
 71
     1
 72
     5
  1
\Ftxt.shx,bigfont.shx|c128;%%c3.5X2L
  7
JL
 73
     1
 44
1.0
1001
ACAD
1000
MTEXTBEGIN
1070
    73
1070
     1
1070
    44
1040
1.0
1070
    74
1070
     0
1000
MTEXTEND
  0
LINE
  5
64EC
330
18
100
AcDbEntity
  8
図框線
100
AcDbLine
 10
210.006196569778
 20
205.8811280034474
 30
0.0
 11
309.006196569778
 21
205.8811280034474
 31
0.0
  0
LINE
  5
64ED
330
18
100
AcDbEntity
  8
図框線
100
AcDbLine
 10
210.006196569778
 20
209.8811280034474
 30
0.0
 11
309.006196569778
 21
209.8811280034474
 31
0.0
  0
LINE
  5
64EE
330
18
100
AcDbEntity
  8
図框線
 62
     9
100
AcDbLine
 10
210.006196569778
 20
213.8811280034474
 30
0.0
 11
309.006196569778
 21
213.8811280034474
 31
0.0
  0
LINE
  5
64EF
330
18
100
AcDbEntity
  8
図框線
100
AcDbLine
 10
210.006196569778
 20
218.8811280034475
 30
0.0
 11
309.006196569778
 21
218.8811280034475
 31
0.0
  0
MTEXT
  5
64F0
330
18
100
AcDbEntity
  8
0
100
AcDbMText
 10
239.7143478681868
 20
217.5389256060026
 30
0.0
 40
2.5
 41
0.0
 71
     1
 72
     5
  1
\Ftxt.shx,bigfont.shx|c128;図    番 / 規　　格
  7
JL
 73
     1
 44
1.0
1001
ACAD
1000
MTEXTBEGIN
1070
    73
1070
     1
1070
    44
1040
1.0
1070
    74
1070
     0
1000
MTEXTEND
  0
LINE
  5
64F1
330
18
100
AcDbEntity
  8
図框線
100
AcDbLine
 10
210.006196569778
 20
205.8811280034474
 30
0.0
 11
309.006196569778
 21
205.8811280034474
 31
0.0
  0
LINE
  5
64F2
330
18
100
AcDbEntity
  8
図框線
100
AcDbLine
 10
210.006196569778
 20
201.8811280034474
 30
0.0
 11
309.006196569778
 21
201.8811280034474
 31
0.0
  0
MTEXT
  5
64F3
330
18
100
AcDbEntity
  8
0
100
AcDbMText
 10
221.0133711404843
 20
217.2755292944388
 30
0.0
 40
2.5
 41
0.0
 71
     1
 72
     5
  1
\Ftxt.shx,bigfont.shx|c128;品　          名
  7
JL
 73
     1
 44
1.0
1001
ACAD
1000
MTEXTBEGIN
1070
    73
1070
     1
1070
    44
1040
1.0
1070
    74
1070
     0
1000
MTEXTEND
  0
MTEXT
  5
64F4
330
18
100
AcDbEntity
  8
0
100
AcDbMText
 10
219.4387153762992
 20
209.1460554932147
 30
0.0
 40
3.0
 41
0.0
 71
     1
 72
     5
  1
\Ftxt.shx,bigfont.shx|c128;セットスクリュ-
  7
JL
 73
     1
 44
1.0
1001
ACAD
1000
MTEXTBEGIN
1070
    73
1070
     1
1070
    44
1040
1.0
1070
    74
1070
     0
1000
MTEXTEND
  0
MTEXT
  5
64F5
330
18
100
AcDbEntity
  8
0
100
AcDbMText
 10
219.3409038648018
 20
213.0641605287176
 30
0.0
 40
3.0
 41
0.0
 71
     1
 72
     5
  1
\Ftxt.shx,bigfont.shx|c128;ロックナット　  
  7
JL
 73
     1
 44
1.0
1001
ACAD
1000
MTEXTBEGIN
1070
    73
1070
     1
1070
    44
1040
1.0
1070
    74
1070
     0
1000
MTEXTEND
  0
MTEXT
  5
64F6
330
18
100
AcDbEntity
  8
0
100
AcDbMText
 10
219.4387153762992
 20
205.1460554932147
 30
0.0
 40
3.0
 41
0.0
 71
     1
 72
     5
  1
\Ftxt.shx,bigfont.shx|c128;ロックピン 
  7
JL
 73
     1
 44
1.0
1001
ACAD
1000
MTEXTBEGIN
1070
    73
1070
     1
1070
    44
1040
1.0
1070
    74
1070
     0
1000
MTEXTEND
  0
LINE
  5
64F7
330
18
100
AcDbEntity
  8
図框線
100
AcDbLine
 10
217.506196569778
 20
218.8811280034473
 30
0.0
 11
217.5061965697782
 21
201.8811280034474
 31
0.0
  0
MTEXT
  5
64F9
330
18
100
AcDbEntity
  8
0
100
AcDbMText
 10
213.1138411134734
 20
205.2529484712671
 30
0.0
 40
2.5
 41
0.0
 71
     1
 72
     5
  1
\Ftxt.shx,bigfont.shx|c128;3
  7
JL
 73
     1
 44
1.0
1001
ACAD
1000
MTEXTBEGIN
1070
    73
1070
     1
1070
    44
1040
1.0
1070
    74
1070
     0
1000
MTEXTEND
  0
MTEXT
  5
64FA
330
18
100
AcDbEntity
  8
0
100
AcDbMText
 10
213.5571750831115
 20
213.1710535067701
 30
0.0
 40
2.5
 41
0.0
 71
     1
 72
     5
  1
\Ftxt.shx,bigfont.shx|c128;1
  7
JL
 73
     1
 44
1.0
1001
ACAD
1000
MTEXTBEGIN
1070
    73
1070
     1
1070
    44
1040
1.0
1070
    74
1070
     0
1000
MTEXTEND
  0
MTEXT
  5
64FB
330
18
100
AcDbEntity
  8
0
100
AcDbMText
 10
213.1138411134734
 20
209.2529484712671
 30
0.0
 40
2.5
 41
0.0
 71
     1
 72
     5
  1
\Ftxt.shx,bigfont.shx|c128;2
  7
JL
 73
     1
 44
1.0
1001
ACAD
1000
MTEXTBEGIN
1070
    73
1070
     1
1070
    44
1040
1.0
1070
    74
1070
     0
1000
MTEXTEND
  0
MTEXT
  5
64FC
330
18
100
AcDbEntity
  8
0
100
AcDbMText
 10
211.1107385656993
 20
217.4253907116503
 30
0.0
 40
2.5
 41
0.0
 71
     1
 72
     5
  1
\Ftxt.shx,bigfont.shx|c128;照   号
  7
JL
 73
     1
 44
1.0
1001
ACAD
1000
MTEXTBEGIN
1070
    73
1070
     1
1070
    44
1040
1.0
1070
    74
1070
     0
1000
MTEXTEND
  0
LINE
  5
64FD
330
18
100
AcDbEntity
  8
図框線
 62
     9
100
AcDbLine
 10
237.506196569778
 20
218.8811280034473
 30
0.0
 11
237.506196569778
 21
201.8811280034474
 31
0.0
  0
MTEXT
  5
64FE
330
18
100
AcDbEntity
  8
0
100
AcDbMText
 10
283.173884866047
 20
217.6713304905659
 30
0.0
 40
2.5
 41
0.0
 71
     1
 72
     5
  1
\Ftxt.shx,bigfont.shx|c128;備           考
  7
JL
 73
     1
 44
1.0
1001
ACAD
1000
MTEXTBEGIN
1070
    73
1070
     1
1070
    44
1040
1.0
1070
    74
1070
     0
1000
MTEXTEND
  0
LINE
  5
64FF
330
18
100
AcDbEntity
  8
図框線
 62
     9
100
AcDbLine
 10
257.506196569778
 20
218.8811280034474
 30
0.0
 11
257.506196569778
 21
201.8811280034474
 31
0.0
  0
MTEXT
  5
6500
330
18
100
AcDbEntity
  8
0
100
AcDbMText
 10
258.39813171866
 20
205.0641605287176
 30
0.0
 40
2.5
 41
0.0
 71
     1
 72
     5
  1
\Ftxt.shx,bigfont.shx|c128;C3604
  7
JL
 73
     1
 44
1.0
1001
ACAD
1000
MTEXTBEGIN
1070
    73
1070
     1
1070
    44
1040
1.0
1070
    74
1070
     0
1000
MTEXTEND
  0
MTEXT
  5
6501
330
18
100
AcDbEntity
  8
0
100
AcDbMText
 10
258.39813171866
 20
213.0641605287176
 30
0.0
 40
2.5
 41
0.0
 71
     1
 72
     5
  1
\Ftxt.shx,bigfont.shx|c128;SCM-440
  7
JL
 73
     1
 44
1.0
1001
ACAD
1000
MTEXTBEGIN
1070
    73
1070
     1
1070
    44
1040
1.0
1070
    74
1070
     0
1000
MTEXTEND
  0
MTEXT
  5
6502
330
18
100
AcDbEntity
  8
0
100
AcDbMText
 10
258.39813171866
 20
209.0641605287176
 30
0.0
 40
2.5
 41
0.0
 71
     1
 72
     5
  1
\Ftxt.shx,bigfont.shx|c128;SCM435
  7
JL
 73
     1
 44
1.0
1001
ACAD
1000
MTEXTBEGIN
1070
    73
1070
     1
1070
    44
1040
1.0
1070
    74
1070
     0
1000
MTEXTEND
  0
MTEXT
  5
6503
330
18
100
AcDbEntity
  8
0
100
AcDbMText
 10
259.9063590670052
 20
217.6713304905659
 30
0.0
 40
2.5
 41
0.0
 71
     1
 72
     5
  1
\Ftxt.shx,bigfont.shx|c128;材　質
  7
JL
 73
     1
 44
1.0
1001
ACAD
1000
MTEXTBEGIN
1070
    73
1070
     1
1070
    44
1040
1.0
1070
    74
1070
     0
1000
MTEXTEND
  0
LINE
  5
6504
330
18
100
AcDbEntity
  8
図框線
 62
     9
100
AcDbLine
 10
267.506196569778
 20
218.8811280034474
 30
0.0
 11
267.506196569778
 21
201.8811280034474
 31
0.0
  0
LINE
  5
6505
330
18
100
AcDbEntity
  8
図框線
100
AcDbLine
 10
275.006196569778
 20
218.8811280034474
 30
0.0
 11
275.006196569778
 21
201.8811280034474
 31
0.0
  0
MTEXT
  5
6506
330
18
100
AcDbEntity
  8
0
100
AcDbMText
 10
270.6138411134733
 20
205.2529484712671
 30
0.0
 40
2.5
 41
0.0
 71
     1
 72
     5
  1
\Ftxt.shx,bigfont.shx|c128;3
  7
JL
 73
     1
 44
1.0
1001
ACAD
1000
MTEXTBEGIN
1070
    73
1070
     1
1070
    44
1040
1.0
1070
    74
1070
     0
1000
MTEXTEND
  0
MTEXT
  5
6507
330
18
100
AcDbEntity
  8
0
100
AcDbMText
 10
271.0571750831115
 20
213.1710535067701
 30
0.0
 40
2.5
 41
0.0
 71
     1
 72
     5
  1
\Ftxt.shx,bigfont.shx|c128;1
  7
JL
 73
     1
 44
1.0
1001
ACAD
1000
MTEXTBEGIN
1070
    73
1070
     1
1070
    44
1040
1.0
1070
    74
1070
     0
1000
MTEXTEND
  0
MTEXT
  5
6508
330
18
100
AcDbEntity
  8
0
100
AcDbMText
 10
270.6138411134733
 20
209.2529484712671
 30
0.0
 40
2.5
 41
0.0
 71
     1
 72
     5
  1
\Ftxt.shx,bigfont.shx|c128;3
  7
JL
 73
     1
 44
1.0
1001
ACAD
1000
MTEXTBEGIN
1070
    73
1070
     1
1070
    44
1040
1.0
1070
    74
1070
     0
1000
MTEXTEND
  0
MTEXT
  5
6509
330
18
100
AcDbEntity
  8
0
100
AcDbMText
 10
268.2230667257367
 20
217.6713304905659
 30
0.0
 40
2.5
 41
0.0
 71
     1
 72
     5
  1
\Ftxt.shx,bigfont.shx|c128;数   量
  7
JL
 73
     1
 44
1.0
1001
ACAD
1000
MTEXTBEGIN
1070
    73
1070
     1
1070
    44
1040
1.0
1070
    74
1070
     0
1000
MTEXTEND
  0
MTEXT
  5
6740
330
18
100
AcDbEntity
  8
公差
100
AcDbMText
 10
235.2266750577566
 20
178.936805752896
 30
0.0
 40
1.25
 41
6.816289586974903
 71
     1
 72
     5
  1
+0.15\P+0
  7
TXT
 11
0.0000000000000001
 21
1.0
 31
0.0
 73
     1
 44
1.0
1001
ACAD
1000
MTEXTBEGIN
1070
    73
1070
     1
1070
    44
1040
1.0
1070
    74
1070
     0
1000
MTEXTEND
  0
MTEXT
  5
6741
330
18
100
AcDbEntity
  8
公差
100
AcDbMText
 10
249.2104411474253
 20
161.233868943911
 30
0.0
 40
1.25
 41
15.60204752540142
 71
     1
 72
     5
  1
+0.15\P+0
  7
TXT
 73
     1
 44
1.0
1001
ACAD
1000
MTEXTBEGIN
1070
    73
1070
     1
1070
    44
1040
1.0
1070
    74
1070
     0
1000
MTEXTEND
  0
LINE
  5
6764
330
18
100
AcDbEntity
  8
0
 62
     6
100
AcDbLine
 10
272.2418860106249
 20
131.6244336852818
 30
0.0
 11
272.2418860106249
 21
138.4314745800887
 31
0.0
  0
LINE
  5
6765
330
18
100
AcDbEntity
  8
0
 62
     6
100
AcDbLine
 10
272.2418860106249
 20
138.4314745800887
 30
0.0
 11
278.8729043444634
 21
138.4314745800887
 31
0.0
  0
TOLERANCE
  5
6766
330
18
100
AcDbEntity
  8
0
  6
ByBlock
100
AcDbFcf
  3
A
 10
278.8729043444634
 20
138.4942499484205
 30
0.0
  1
{\Fgdt;h}%%v0.005%%v%%vA%%v%%v
1001
ACAD
1000
DSTYLE
1002
{
1070
   140
1040
1.371999999999999
1070
    40
1040
1.0
1070
   147
1040
0.3429999999999999
1002
}
  0
MTEXT
  5
676D
330
18
100
AcDbEntity
  8
公差
100
AcDbMText
 10
253.6519828050372
 20
150.1309262064101
 30
0.0
 40
1.25
 41
5.603326618818573
 71
     1
 72
     5
  1
+0\P-0.12
  7
TXT
 73
     1
 44
1.0
1001
ACAD
1000
MTEXTBEGIN
1070
    73
1070
     1
1070
    44
1040
1.0
1070
    74
1070
     0
1000
MTEXTEND
  0
LINE
  5
6775
330
18
100
AcDbEntity
  8
DIM
100
AcDbLine
 10
250.0138881531054
 20
111.3243978237518
 30
0.0
 11
250.4701173272183
 21
110.8354607758893
 31
0.0
  0
HATCH
  5
6776
330
18
100
AcDbEntity
  8
DIM
100
AcDbHatch
 10
0.0
 20
0.0
 30
0.0
210
0.0
220
0.0
230
1.0
  2
SOLID
 70
     1
 71
     0
 91
        1
 92
        7
 72
     0
 73
     1
 93
        3
 10
250.0133260958792
 20
110.3325536262616
 10
250.4726921401792
 20
110.8249575238834
 10
250.0133260958792
 20
111.3173614215053
 97
        0
 75
     0
 76
     1
 47
0.2359147607200769
 98
        1
 10
250.1572340939946
 20
110.9306955267292
  0
LINE
  5
6777
330
18
100
AcDbEntity
  8
DIM
100
AcDbLine
 10
252.8436637305663
 20
109.9286338738095
 30
0.0
 11
252.8436637305663
 21
111.7517832688201
 31
0.0
  0
LINE
  5
6778
330
18
100
AcDbEntity
  8
DIM
100
AcDbLine
 10
252.8436637305663
 20
111.7517832688201
 30
0.0
 11
254.7479813533216
 21
111.7517832688201
 31
0.0
  0
LINE
  5
6779
330
18
100
AcDbEntity
  8
DIM
100
AcDbLine
 10
254.7479813533216
 20
109.9286338738095
 30
0.0
 11
254.7479813533216
 21
111.7517832688201
 31
0.0
  0
LINE
  5
677A
330
18
100
AcDbEntity
  8
DIM
100
AcDbLine
 10
252.8436637305663
 20
109.9286338738095
 30
0.0
 11
254.7479813533216
 21
109.9286338738095
 31
0.0
  0
LINE
  5
677B
330
18
100
AcDbEntity
  8
DIM
100
AcDbLine
 10
252.8436637305663
 20
110.8402085713148
 30
0.0
 11
250.4632668127048
 21
110.8402085713148
 31
0.0
  0
MTEXT
  5
677C
330
18
100
AcDbEntity
  8
DIM
100
AcDbMText
 10
253.3603517465605
 20
111.5836920760933
 30
0.0
 40
1.5
 41
1.177437992777239
 71
     1
 72
     5
  1
A
  7
ISOCP3
 73
     1
 44
1.0
1001
ACAD
1000
MTEXTBEGIN
1070
    73
1070
     1
1070
    44
1040
1.0
1070
    74
1070
     0
1000
MTEXTEND
  0
DIMENSION
  5
678A
330
18
100
AcDbEntity
  8
0
100
AcDbDimension
  2
*D1
 10
248.1538881531053
 20
157.5621728772705
 30
0.0
 11
247.1518283157806
 21
157.5621728772705
 31
0.0
 12
8.492654339617189
 22
1.831995247649786
 32
0.0
 70
   160
 71
     5
 42
-1.0
  3
A
100
AcDbAlignedDimension
 13
246.1497684784559
 23
174.9244826711087
 33
0.0
 14
248.1538881531053
 24
174.9244826711086
 34
0.0
100
AcDbRotatedDimension
1001
ACAD
1000
DSTYLE
1002
{
1070
    40
1040
1.0
1002
}
  0
DIMENSION
  5
6947
330
18
100
AcDbEntity
  8
DIM
100
AcDbDimension
  2
*D2
 10
238.8490115629801
 20
174.9244826711087
 30
0.0
 11
238.3625072236571
 21
183.6215665929454
 31
0.0
 12
-1.804507899563475
 22
3.975464842159652
 32
0.0
 70
   160
  1
<>      (3等分)
 71
     5
 42
-1.0
  3
A
100
AcDbAlignedDimension
 13
246.1497684784559
 23
177.9244826711086
 33
0.0
 14
246.1497684784559
 24
174.9244826711087
 34
0.0
 50
90.0
100
AcDbRotatedDimension
  0
DIMENSION
  5
6EA2
330
18
100
AcDbEntity
  8
0
100
AcDbDimension
  2
*D3
 10
262.0138881531053
 20
145.9113603914988
 30
0.0
 11
251.1061321835382
 21
146.8426447213067
 31
0.0
 12
-82.12029612778326
 22
0.0
 32
0.0
 70
   160
  1
%%C<>
 71
     5
 42
-1.0
  3
A
100
AcDbAlignedDimension
 13
246.0138881531054
 23
130.1296329141656
 33
0.0
 14
262.0138881531053
 24
130.1296329141657
 34
0.0
100
AcDbRotatedDimension
  0
DIMENSION
  5
6EAB
330
18
100
AcDbEntity
  8
0
100
AcDbDimension
  2
*D4
 10
258.0138881531054
 20
114.6502999439972
 30
0.0
 11
254.0138881531053
 21
114.6502999439972
 31
0.0
 12
-82.12029612778326
 22
0.0
 32
0.0
 70
   160
  1
M<>
 71
     5
 42
-1.0
  3
A
100
AcDbAlignedDimension
 13
250.0138881531054
 23
124.0046329141657
 33
0.0
 14
258.0138881531054
 24
124.0046329141655
 34
0.0
100
AcDbRotatedDimension
  0
DIMENSION
  5
7064
330
18
100
AcDbEntity
  8
0
100
AcDbDimension
  2
*D5
 10
259.5138881531054
 20
141.3214584004478
 30
0.0
 11
254.0138881531054
 21
142.6964584004478
 31
0.0
 12
-82.12029612778326
 22
0.0
 32
0.0
 70
    32
  1
%%c<>%%p0.5
 71
     5
 42
-1.0
  3
A
100
AcDbAlignedDimension
 13
248.5138881531054
 23
131.6296329141656
 33
0.0
 14
259.5138881531054
 24
131.6296329141656
 34
0.0
100
AcDbRotatedDimension
  0
LINE
  5
7136
330
18
100
AcDbEntity
  8
DIM
 62
     6
100
AcDbLine
 10
250.6538881531053
 20
157.5621728772705
 30
0.0
 11
254.0050578421494
 21
157.5621728772705
 31
0.0
  0
LINE
  5
715F
330
18
100
AcDbEntity
  8
DIM
 62
     6
100
AcDbLine
 10
238.8490115629801
 20
178.9244826711086
 30
0.0
 11
238.8490115629801
 21
192.038860937314
 31
0.0
  0
DIMENSION
  5
747B
330
18
100
AcDbEntity
  8
0
100
AcDbDimension
  2
*D6
 10
272.2418860106249
 20
123.6244336852818
 30
0.0
 11
272.2418860106249
 21
127.6244336852818
 31
0.0
 12
-3.814507899563523
 22
-2.773320043802158
 32
0.0
 70
   160
  1
<>%%p0.2
 71
     5
 42
-1.0
  3
A
100
AcDbAlignedDimension
 13
259.5138881531052
 23
131.6244336852818
 33
0.0
 14
261.0138881531051
 24
123.6244336852818
 34
0.0
 50
90.0
100
AcDbRotatedDimension
  0
DIMENSION
  5
7B74
330
18
100
AcDbEntity
  8
DIM
100
AcDbDimension
  2
*D7
 10
237.2090115629801
 20
131.6296329141656
 30
0.0
 11
237.2090115629801
 21
136.3044014891274
 31
0.0
 12
-82.12029612778326
 22
0.0
 32
0.0
 70
   160
  1
0.5
 71
     5
 42
-1.0
  3
A
100
AcDbAlignedDimension
 13
247.0138881531054
 23
131.1296329141656
 33
0.0
 14
248.5138881531054
 24
131.6296329141656
 34
0.0
 50
90.0
100
AcDbRotatedDimension
  0
LINE
  5
8022
330
18
100
AcDbEntity
  8
本体内線
  6
HIDDEN
 48
0.2
100
AcDbLine
 10
257.0372348087174
 20
178.4244826711086
 30
0.0
 11
261.7598548455203
 21
178.4244826711085
 31
0.0
  0
LINE
  5
8023
330
18
100
AcDbEntity
  8
本体内線
  6
HIDDEN
 48
0.2
100
AcDbLine
 10
257.0372348087174
 20
174.4244826711085
 30
0.0
 11
261.7598548455202
 21
174.4244826711085
 31
0.0
  0
LINE
  5
8024
330
18
100
AcDbEntity
  8
本体内線
  6
HIDDEN
 48
0.2
100
AcDbLine
 10
257.2416001910668
 20
178.0744826711085
 30
0.0
 11
261.8418827877485
 21
178.0744826711086
 31
0.0
  0
LINE
  5
8025
330
18
100
AcDbEntity
  8
本体内線
  6
HIDDEN
 48
0.2
100
AcDbLine
 10
257.2416001910667
 20
174.7744826711085
 30
0.0
 11
261.8418827877484
 21
174.7744826711085
 31
0.0
  0
LINE
  5
82DC
330
18
100
AcDbEntity
  8
DIM
100
AcDbLine
 10
250.0138881531054
 20
111.3243978237518
 30
0.0
 11
250.0138881531054
 21
114.6502999439972
 31
0.0
  0
MTEXT
  5
82F5
330
18
100
AcDbEntity
  8
公差
100
AcDbMText
 10
258.8308133397559
 20
116.904370042818
 30
0.0
 40
1.75
 41
5.603326618818573
 71
     1
 72
     5
  1
X0.75P
  7
TXT
 73
     1
 44
1.0
1001
ACAD
1000
MTEXTBEGIN
1070
    73
1070
     1
1070
    44
1040
1.0
1070
    74
1070
     0
1000
MTEXTEND
  0
LINE
  5
82F6
330
18
100
AcDbEntity
  8
DIM
 62
     6
100
AcDbLine
 10
258.0138881531054
 20
114.6502999439972
 30
0.0
 11
267.8412879485469
 21
114.6502999439972
 31
0.0
  0
DIMENSION
  5
8300
330
18
100
AcDbEntity
  8
DIM
100
AcDbDimension
  2
*D8
 10
247.0175521159945
 20
124.6259498668454
 30
0.0
 11
242.1013878028051
 21
119.7606023742708
 31
0.0
 12
-1.810843936674245
 22
-2.771803862238613
 32
0.0
 70
   164
  1
2-<>
 71
     5
 42
-1.0
  3
A
100
AcDbRadialDimension
 15
246.3067813719189
 25
123.9225261329792
 35
0.0
 40
0.0
1001
ACAD
1000
DSTYLE
1002
{
1070
   288
1070
     1
1070
   284
1070
     8
1070
   272
1070
     1
1070
   271
1070
     1
1002
}
  0
LEADER
  5
8339
330
18
100
AcDbEntity
  8
DIM
 62
     6
100
AcDbLeader
  3
A
 76
     2
 10
258.5169915340586
 20
128.9124344846203
 30
0.0
 10
269.8808896477731
 20
142.9182929261873
 30
0.0
1001
ACAD
1000
DSTYLE
1002
{
1070
   341
1005
8329
1070
   173
1070
     1
1070
   271
1070
     1
1070
   272
1070
     1
1070
   284
1070
     8
1070
   343
1005
8329
1070
   344
1005
8329
1002
}
  0
LINE
  5
84D3
330
18
100
AcDbEntity
  8
中心線
  6
CENTER
 48
0.1
100
AcDbLine
 10
254.0138881531054
 20
185.4244826711086
 30
0.0
 11
254.0138881531054
 21
167.4244826711086
 31
0.0
  0
ARC
  5
84D4
330
18
100
AcDbEntity
  8
本体外線
100
AcDbCircle
 10
254.0138881531054
 20
176.4244826711086
 30
0.0
 40
8.0
100
AcDbArc
 50
70.8069228748603
 51
169.1930771251394
  0
CIRCLE
  5
84D5
330
18
100
AcDbEntity
  8
本体外線
100
AcDbCircle
 10
254.0138881531054
 20
176.4244826711086
 30
0.0
 40
5.5
  0
LINE
  5
84D6
330
18
100
AcDbEntity
  8
本体外線
100
AcDbLine
 10
259.2419846701575
 20
182.4798114655167
 30
0.0
 11
258.2429262587821
 21
180.7493915372855
 31
0.0
  0
LINE
  5
84D7
330
18
100
AcDbEntity
  8
本体外線
100
AcDbLine
 10
256.6439084588042
 20
183.9798114655167
 30
0.0
 11
255.6448500474288
 21
182.2493915372854
 31
0.0
  0
LINE
  5
84D8
330
18
100
AcDbEntity
  8
本体外線
100
AcDbLine
 10
255.6448500474288
 20
182.2493915372854
 30
0.0
 11
258.2429262587821
 21
180.7493915372855
 31
0.0
  0
LINE
  5
84DA
330
18
100
AcDbEntity
  8
本体外線
100
AcDbLine
 10
246.1557713303545
 20
177.9244826711087
 30
0.0
 11
248.1538881531053
 21
177.9244826711086
 31
0.0
  0
LINE
  5
84DB
330
18
100
AcDbEntity
  8
本体外線
100
AcDbLine
 10
246.1557713303545
 20
174.9244826711086
 30
0.0
 11
248.1538881531053
 21
174.9244826711086
 31
0.0
  0
LINE
  5
84DC
330
18
100
AcDbEntity
  8
本体外線
100
AcDbLine
 10
248.1538881531053
 20
174.9244826711086
 30
0.0
 11
248.1538881531053
 21
177.9244826711086
 31
0.0
  0
LINE
  5
84DD
330
18
100
AcDbEntity
  8
中心線
  6
CENTER
 48
0.1
100
AcDbLine
 10
249.5138881531054
 20
168.6302540370487
 30
0.0
 11
252.7013881531054
 21
174.1511659861745
 31
0.0
  0
LINE
  5
84DE
330
18
100
AcDbEntity
  8
本体外線
100
AcDbLine
 10
256.6439084588041
 20
168.8691538767005
 30
0.0
 11
255.6448500474287
 21
170.5995738049317
 31
0.0
  0
LINE
  5
84DF
330
18
100
AcDbEntity
  8
本体外線
100
AcDbLine
 10
259.2419846701574
 20
170.3691538767005
 30
0.0
 11
258.242926258782
 21
172.0995738049317
 31
0.0
  0
LINE
  5
84E0
330
18
100
AcDbEntity
  8
本体外線
100
AcDbLine
 10
258.2429262587821
 20
172.0995738049318
 30
0.0
 11
255.6448500474287
 21
170.5995738049317
 31
0.0
  0
ARC
  5
84E5
330
18
100
AcDbEntity
  8
本体外線
100
AcDbCircle
 10
254.0138881531054
 20
176.4244826711086
 30
0.0
 40
8.0
100
AcDbArc
 50
190.8069228748603
 51
289.1930771251389
  0
ARC
  5
84E6
330
18
100
AcDbEntity
  8
本体外線
100
AcDbCircle
 10
254.0138881531054
 20
176.4244826711086
 30
0.0
 40
8.0
100
AcDbArc
 50
310.80692287486
 51
49.19307712513941
  0
LINE
  5
84ED
330
18
100
AcDbEntity
  8
中心線
  6
CENTER
 48
0.1
100
AcDbLine
 10
252.7013881531054
 20
178.6977993560427
 30
0.0
 11
249.5138881531055
 21
184.2187113051686
 31
0.0
  0
LINE
  5
84F0
330
18
100
AcDbEntity
  8
中心線
  6
CENTER
 48
0.1
100
AcDbLine
 10
245.0138881531054
 20
176.4244826711086
 30
0.0
 11
263.0138881531054
 21
176.4244826711086
 31
0.0
  0
POINT
  5
84F2
330
18
100
AcDbEntity
  8
本体外線
100
AcDbPoint
 10
259.5138881531054
 20
131.5996329141656
 30
0.0
  0
ARC
  5
84FB
330
18
100
AcDbEntity
  8
0
100
AcDbCircle
 10
254.0138881531054
 20
176.4244826711086
 30
0.0
 40
4.0
100
AcDbArc
 50
168.77438934935
 51
103.2662189630746
  0
CIRCLE
  5
84FC
330
18
100
AcDbEntity
  8
本体外線
100
AcDbCircle
 10
254.0138881531054
 20
176.4244826711086
 30
0.0
 40
3.625
  0
LINE
  5
8505
330
18
100
AcDbEntity
  8
本体外線
100
AcDbLine
 10
248.5138881531054
 20
131.6296329141656
 30
0.0
 11
259.5138881531054
 21
131.6296329141656
 31
0.0
  0
LINE
  5
8506
102
{ACAD_REACTORS
330
8530
102
}
330
18
100
AcDbEntity
  8
中心線
  6
CENTER
 48
0.1
100
AcDbLine
 10
256.7249033464841
 20
127.6296329141656
 30
0.0
 11
263.4997654291428
 21
127.6296329141656
 31
0.0
  0
LINE
  5
8507
102
{ACAD_REACTORS
330
8701
102
}
330
18
100
AcDbEntity
  8
本体外線
100
AcDbLine
 10
247.0138881531054
 20
123.6296329141657
 30
0.0
 11
261.0138881531054
 21
123.6296329141656
 31
0.0
  0
LINE
  5
8508
330
18
100
AcDbEntity
  8
本体外線
100
AcDbLine
 10
246.0138881531054
 20
130.1296329141656
 30
0.0
 11
246.0138881531054
 21
124.6296329141657
 31
0.0
  0
LINE
  5
8509
102
{ACAD_REACTORS
330
8701
102
}
330
18
100
AcDbEntity
  8
本体外線
100
AcDbLine
 10
262.0138881531053
 20
130.1296329141656
 30
0.0
 11
262.0138881531054
 21
124.6296329141656
 31
0.0
  0
LINE
  5
850A
330
18
100
AcDbEntity
  8
中心線
  6
CENTER
 48
0.1
100
AcDbLine
 10
254.0138881531054
 20
132.8728061105781
 30
0.0
 11
254.0138881531054
 21
122.0002104447339
 31
0.0
  0
LINE
  5
850B
102
{ACAD_REACTORS
330
8701
102
}
330
18
100
AcDbEntity
  8
本体外線
100
AcDbLine
 10
259.5138881531054
 20
131.6296329141656
 30
0.0
 11
259.5138881531054
 21
131.1296329141656
 31
0.0
  0
LINE
  5
850C
102
{ACAD_REACTORS
330
8701
102
}
330
18
100
AcDbEntity
  8
本体外線
100
AcDbLine
 10
248.5138881531054
 20
131.6296329141656
 30
0.0
 11
248.5138881531054
 21
131.1296329141656
 31
0.0
  0
LINE
  5
850D
102
{ACAD_REACTORS
330
8701
102
}
330
18
100
AcDbEntity
  8
0
100
AcDbLine
 10
258.0138881531054
 20
131.2546329141657
 30
0.0
 11
258.0138881531054
 21
129.6296329141656
 31
0.0
  0
LINE
  5
850E
102
{ACAD_REACTORS
330
8701
102
}
330
18
100
AcDbEntity
  8
0
100
AcDbLine
 10
250.0138881531054
 20
131.2546329141657
 30
0.0
 11
250.0138881531054
 21
124.0046329141656
 31
0.0
  0
LINE
  5
850F
102
{ACAD_REACTORS
330
8530
330
8701
102
}
330
18
100
AcDbEntity
  8
本体外線
100
AcDbLine
 10
257.6388881531053
 20
130.8796329141656
 30
0.0
 11
257.6388881531054
 21
124.3796329141657
 31
0.0
  0
LINE
  5
8510
102
{ACAD_REACTORS
330
8701
102
}
330
18
100
AcDbEntity
  8
本体外線
100
AcDbLine
 10
250.3888881531054
 20
130.8796329141656
 30
0.0
 11
250.3888881531055
 21
124.3796329141657
 31
0.0
  0
LINE
  5
8511
102
{ACAD_REACTORS
330
8701
102
}
330
18
100
AcDbEntity
  8
本体外線
100
AcDbLine
 10
247.0138881531054
 20
131.1296329141656
 30
0.0
 11
248.5138881531054
 21
131.1296329141656
 31
0.0
  0
LINE
  5
8512
102
{ACAD_REACTORS
330
8701
102
}
330
18
100
AcDbEntity
  8
本体外線
100
AcDbLine
 10
259.5138881531054
 20
131.1296329141656
 30
0.0
 11
261.0138881531053
 21
131.1296329141656
 31
0.0
  0
LINE
  5
8517
102
{ACAD_REACTORS
330
8530
102
}
330
18
100
AcDbEntity
  8
0
100
AcDbLine
 10
259.0138881531053
 20
129.3796329141656
 30
0.0
 11
259.0138881531053
 21
125.8796329141656
 31
0.0
  0
LINE
  5
8518
102
{ACAD_REACTORS
330
8701
102
}
330
18
100
AcDbEntity
  8
0
100
AcDbLine
 10
257.6388881531054
 20
129.6296329141656
 30
0.0
 11
262.0138881531054
 21
129.6296329141656
 31
0.0
  0
LINE
  5
8519
102
{ACAD_REACTORS
330
8701
102
}
330
18
100
AcDbEntity
  8
0
100
AcDbLine
 10
257.6388881531055
 20
125.6296329141656
 30
0.0
 11
262.0138881531054
 21
125.6296329141656
 31
0.0
  0
LINE
  5
851A
102
{ACAD_REACTORS
330
8530
102
}
330
18
100
AcDbEntity
  8
0
100
AcDbLine
 10
257.6388881531054
 20
129.3796329141656
 30
0.0
 11
259.0138881531053
 21
129.3796329141656
 31
0.0
  0
LINE
  5
851B
102
{ACAD_REACTORS
330
8530
102
}
330
18
100
AcDbEntity
  8
0
100
AcDbLine
 10
257.6388881531054
 20
125.8796329141656
 30
0.0
 11
259.0138881531053
 21
125.8796329141656
 31
0.0
  0
LINE
  5
851C
102
{ACAD_REACTORS
330
8701
102
}
330
18
100
AcDbEntity
  8
0
100
AcDbLine
 10
258.0138881531054
 20
125.6296329141656
 30
0.0
 11
258.0138881531054
 21
124.0046329141656
 31
0.0
  0
LINE
  5
851D
330
18
100
AcDbEntity
  8
本体内線
  6
HIDDEN
 48
0.1
100
AcDbLine
 10
260.5138881531053
 20
128.6296329141656
 30
0.0
 11
262.0138881531054
 21
128.6296329141656
 31
0.0
  0
LINE
  5
851E
330
18
100
AcDbEntity
  8
本体内線
  6
HIDDEN
 48
0.1
100
AcDbLine
 10
260.5138881531053
 20
126.6296329141656
 30
0.0
 11
262.0138881531054
 21
126.6296329141656
 31
0.0
  0
LINE
  5
851F
330
18
100
AcDbEntity
  8
本体内線
  6
HIDDEN
 48
0.1
100
AcDbLine
 10
260.5138881531053
 20
128.6296329141656
 30
0.0
 11
260.5138881531053
 21
126.6296329141656
 31
0.0
  0
LINE
  5
8520
330
18
100
AcDbEntity
  8
0
100
AcDbLine
 10
261.7138881531054
 20
129.6296329141656
 30
0.0
 11
261.7138881531054
 21
125.6296329141656
 31
0.0
  0
LINE
  5
8521
330
18
100
AcDbEntity
  8
0
100
AcDbLine
 10
259.0138881531053
 20
128.6296329141656
 30
0.0
 11
260.0138881531054
 21
129.6296329141656
 31
0.0
  0
LINE
  5
8522
330
18
100
AcDbEntity
  8
0
100
AcDbLine
 10
260.0138881531054
 20
129.3796329141656
 30
0.0
 11
262.0138881531054
 21
129.3796329141656
 31
0.0
  0
LINE
  5
8523
330
18
100
AcDbEntity
  8
0
100
AcDbLine
 10
259.0138881531053
 20
126.6296329141656
 30
0.0
 11
260.0138881531053
 21
125.6296329141656
 31
0.0
  0
LINE
  5
8524
330
18
100
AcDbEntity
  8
0
100
AcDbLine
 10
260.0138881531054
 20
125.8796329141656
 30
0.0
 11
262.0138881531054
 21
125.8796329141656
 31
0.0
  0
LINE
  5
8525
330
18
100
AcDbEntity
  8
0
100
AcDbLine
 10
260.0138881531054
 20
129.6296329141656
 30
0.0
 11
260.0138881531054
 21
125.6296329141656
 31
0.0
  0
LINE
  5
8526
330
18
100
AcDbEntity
  8
本体内線
  6
HIDDEN
 48
0.1
100
AcDbLine
 10
260.5138881531053
 20
128.6296329141656
 30
0.0
 11
260.3584019505144
 21
127.6180976384273
 31
0.0
  0
LINE
  5
8527
330
18
100
AcDbEntity
  8
本体内線
  6
HIDDEN
 48
0.1
100
AcDbLine
 10
260.3584019505144
 20
127.6180976384273
 30
0.0
 11
260.5138881531053
 21
126.6296329141656
 31
0.0
  0
LINE
  5
8528
330
18
100
AcDbEntity
  8
0
100
AcDbLine
 10
261.7138881531054
 20
129.6296329141656
 30
0.0
 11
262.0138881531053
 21
129.4564278334088
 31
0.0
  0
LINE
  5
8529
330
18
100
AcDbEntity
  8
0
100
AcDbLine
 10
261.7138881531054
 20
125.6296329141656
 30
0.0
 11
262.0138881531053
 21
125.8028379949225
 31
0.0
  0
LINE
  5
852A
102
{ACAD_REACTORS
330
8701
102
}
330
18
100
AcDbEntity
  8
本体外線
100
AcDbLine
 10
250.3888881531054
 20
130.8796329141656
 30
0.0
 11
249.6388881531054
 21
131.6296329141656
 31
0.0
  0
LINE
  5
852D
102
{ACAD_REACTORS
330
8701
102
}
330
18
100
AcDbEntity
  8
本体外線
100
AcDbLine
 10
257.6388881531053
 20
130.8796329141656
 30
0.0
 11
258.3888881531054
 21
131.6296329141656
 31
0.0
  0
HATCH
  5
8530
330
18
100
AcDbEntity
  8
0
100
AcDbHatch
 10
0.0
 20
0.0
 30
0.0
210
0.0
220
0.0
230
1.0
  2
AR-SAND
 70
     0
 71
     1
 91
        2
 92
        7
 72
     0
 73
     1
 93
        4
 10
259.0138881531053
 20
127.6296329141656
 10
257.6388881531054
 20
127.6296329141656
 10
257.6388881531054
 20
125.8796329141656
 10
259.0138881531053
 20
125.8796329141656
 97
        4
330
8506
330
850F
330
851B
330
8517
 92
        7
 72
     0
 73
     1
 93
        4
 10
259.0138881531053
 20
129.3796329141656
 10
257.6388881531053
 20
129.3796329141656
 10
257.6388881531053
 20
127.6296329141656
 10
259.0138881531053
 20
127.6296329141656
 97
        4
330
851A
330
850F
330
8506
330
8517
 75
     0
 76
     1
 52
0.0
 41
0.05
 77
     0
 78
     4
 53
37.5
 43
-2.257189784331615
 44
-8.369716078592546
 45
-0.0800015647992023
 46
2.447066186646711
 79
     6
 49
0.0
 49
-1.9304
 49
0.0
 49
-2.159
 49
0.0
 49
-2.06375
 53
7.499999999999999
 43
-2.257189784331615
 44
-8.369716078592546
 45
2.247616415690013
 46
3.584125502841771
 79
     6
 49
0.0
 49
-1.0414
 49
0.0
 49
-1.7399
 49
0.0
 49
-0.6667500000000001
 53
327.5
 43
-3.819289784331601
 44
-8.369716078592546
 45
3.95496185120729
 46
0.0071859233927285
 79
     6
 49
0.0
 49
-0.635
 49
0.0
 49
-2.286
 49
0.0
 49
-2.9845
 53
317.5
 43
-3.819289784331601
 44
-8.369716078592546
 45
3.817782262361486
 46
1.114646616286081
 79
     6
 49
0.0
 49
-0.3175
 49
0.0
 49
-1.498599999999999
 49
0.0
 49
-1.7145
 47
0.0844132836620238
 98
        2
 10
258.9566225354874
 20
126.6988538278042
 10
258.8721283961801
 20
128.3027066936527
  0
LINE
  5
8531
102
{ACAD_REACTORS
330
8701
102
}
330
18
100
AcDbEntity
  8
本体外線
100
AcDbLine
 10
248.5138881531054
 20
131.6296329141656
 30
0.0
 11
259.5138881531054
 21
131.6296329141656
 31
0.0
  0
POINT
  5
8540
330
18
100
AcDbEntity
  8
本体外線
100
AcDbPoint
 10
258.9756168428602
 20
131.6296329141656
 30
0.0
  0
POINT
  5
8541
330
18
100
AcDbEntity
  8
本体外線
100
AcDbPoint
 10
258.9756168428602
 20
123.6296329141656
 30
0.0
  0
POINT
  5
854D
330
18
100
AcDbEntity
  8
本体外線
100
AcDbPoint
 10
246.1557713303546
 20
177.9244826711087
 30
0.0
  0
POINT
  5
854E
330
18
100
AcDbEntity
  8
本体外線
100
AcDbPoint
 10
246.1557713303546
 20
174.9244826711086
 30
0.0
  0
LINE
  5
8551
102
{ACAD_REACTORS
330
8701
102
}
330
18
100
AcDbEntity
  8
本体外線
100
AcDbLine
 10
248.1538881531053
 20
131.1296329141656
 30
0.0
 11
248.1538881531053
 21
123.6296329141657
 31
0.0
  0
LINE
  5
861C
330
18
100
AcDbEntity
  8
本体内線
  6
HIDDEN
 48
0.2
100
AcDbLine
 10
250.7701640177305
 20
178.0427776793152
 30
0.0
 11
248.4088539993292
 21
182.1326866036081
 31
0.0
  0
LINE
  5
861D
330
18
100
AcDbEntity
  8
本体内線
  6
HIDDEN
 48
0.2
100
AcDbLine
 10
254.0138881531054
 20
180.4244826711086
 30
0.0
 11
251.8729556144669
 21
184.132686603608
 31
0.0
  0
LINE
  5
861E
330
18
100
AcDbEntity
  8
本体内線
  6
HIDDEN
 48
0.2
100
AcDbLine
 10
250.9710902178805
 20
178.3947632920839
 30
0.0
 11
248.6709489195396
 21
182.3787248853978
 31
0.0
  0
LINE
  5
861F
330
18
100
AcDbEntity
  8
本体内線
  6
HIDDEN
 48
0.2
100
AcDbLine
 10
253.6209148682496
 20
180.4051323664962
 30
0.0
 11
251.5288327520283
 21
184.0287248853977
 31
0.0
  0
LINE
  5
8620
330
18
100
AcDbEntity
  8
本体内線
  6
HIDDEN
 48
0.2
100
AcDbLine
 10
254.2342656328685
 20
172.806187662902
 30
0.0
 11
251.8729556144668
 21
168.7162787386091
 31
0.0
  0
LINE
  5
8621
330
18
100
AcDbEntity
  8
本体内線
  6
HIDDEN
 48
0.2
100
AcDbLine
 10
250.7701640177306
 20
174.8061876629018
 30
0.0
 11
248.4088539993292
 21
170.7162787386091
 31
0.0
  0
LINE
  5
8622
330
18
100
AcDbEntity
  8
本体内線
  6
HIDDEN
 48
0.2
100
AcDbLine
 10
253.8289740503691
 20
172.8042020501334
 30
0.0
 11
251.5288327520283
 21
168.8202404568193
 31
0.0
  0
LINE
  5
8623
330
18
100
AcDbEntity
  8
本体内線
  6
HIDDEN
 48
0.2
100
AcDbLine
 10
250.9710902178805
 20
174.4542020501333
 30
0.0
 11
248.6709489195396
 21
170.4702404568194
 31
0.0
  0
ARC
  5
8628
330
18
100
AcDbEntity
  8
本体外線
100
AcDbCircle
 10
247.0138881531054
 20
130.1296329141656
 30
0.0
 40
1.0
100
AcDbArc
 50
90.0
 51
180.0
  0
ARC
  5
8629
330
18
100
AcDbEntity
  8
本体外線
100
AcDbCircle
 10
247.0138881531054
 20
124.6296329141657
 30
0.0
 40
1.0
100
AcDbArc
 50
180.0
 51
269.9999999999999
  0
ARC
  5
862A
102
{ACAD_REACTORS
330
8701
102
}
330
18
100
AcDbEntity
  8
本体外線
100
AcDbCircle
 10
261.0138881531054
 20
124.6296329141656
 30
0.0
 40
1.0
100
AcDbArc
 50
269.9999999999999
 51
0.0000000000005343
  0
ARC
  5
862B
102
{ACAD_REACTORS
330
8701
102
}
330
18
100
AcDbEntity
  8
本体外線
100
AcDbCircle
 10
261.0138881531053
 20
130.1296329141656
 30
0.0
 40
1.0
100
AcDbArc
 50
0.0000000000005598
 51
90.0
  0
LINE
  5
862C
330
18
100
AcDbEntity
  8
本体外線
100
AcDbLine
 10
250.3888881531055
 20
124.3796329141657
 30
0.0
 11
257.6388881531054
 21
124.3796329141657
 31
0.0
  0
LINE
  5
862D
330
18
100
AcDbEntity
  8
本体外線
100
AcDbLine
 10
250.3888881531054
 20
130.8796329141656
 30
0.0
 11
257.6388881531053
 21
130.8796329141656
 31
0.0
  0
LINE
  5
8630
102
{ACAD_REACTORS
330
8701
102
}
330
18
100
AcDbEntity
  8
本体外線
100
AcDbLine
 10
250.3888881531054
 20
124.3796329141656
 30
0.0
 11
249.6388881531054
 21
123.6296329141656
 31
0.0
  0
LINE
  5
8631
102
{ACAD_REACTORS
330
8701
102
}
330
18
100
AcDbEntity
  8
本体外線
100
AcDbLine
 10
257.6388881531053
 20
124.3796329141656
 30
0.0
 11
258.3888881531054
 21
123.6296329141656
 31
0.0
  0
HATCH
  5
8701
330
18
100
AcDbEntity
  8
剖面線
100
AcDbHatch
 10
0.0
 20
0.0
 30
0.0
210
0.0
220
0.0
230
1.0
  2
ANSI31
 70
     0
 71
     1
 91
        6
 92
        7
 72
     0
 73
     1
 93
        8
 10
250.0138881531054
 20
131.2546329141656
 10
249.6388881531054
 20
131.6296329141656
 10
248.5138881531054
 20
131.6296329141656
 10
248.5138881531054
 20
131.1296329141656
 10
248.1538881531053
 20
131.1296329141656
 10
248.1538881531053
 20
123.6296329141657
 10
249.6388881531055
 20
123.6296329141657
 10
250.0138881531055
 20
124.0046329141657
 97
        8
330
852A
330
8531
330
850C
330
8511
330
8551
330
8507
330
8630
330
850E
 92
        7
 72
     0
 73
     1
 93
        4
 10
250.3888881531053
 20
130.8796329141656
 10
250.0138881531054
 20
131.2546329141656
 10
250.0138881531055
 20
124.0046329141657
 10
250.3888881531055
 20
124.3796329141658
 97
        4
330
852A
330
850E
330
8630
330
8510
 92
        7
 72
     1
 73
     1
 93
        8
 10
258.0138881531054
 20
129.6296329141656
 42
0.0
 10
262.0138881531054
 20
129.6296329141656
 42
0.0
 10
262.0138881531053
 20
130.1296329141657
 42
0.4142135623730588
 10
261.0138881531053
 20
131.1296329141656
 42
0.0
 10
259.5138881531054
 20
131.1296329141656
 42
0.0
 10
259.5138881531054
 20
131.6296329141656
 42
0.0
 10
258.3888881531053
 20
131.6296329141656
 42
0.0
 10
258.0138881531055
 20
131.2546329141658
 42
0.0
 97
        8
330
8512
330
850B
330
8531
330
852D
330
850D
330
8518
330
8509
330
862B
 92
        7
 72
     0
 73
     1
 93
        4
 10
258.0138881531054
 20
131.2546329141657
 10
257.6388881531053
 20
130.8796329141656
 10
257.6388881531053
 20
129.6296329141656
 10
258.0138881531054
 20
129.6296329141657
 97
        4
330
852D
330
850F
330
8518
330
850D
 92
        7
 72
     1
 73
     1
 93
        6
 10
258.0138881531054
 20
125.6296329141656
 42
0.0
 10
258.0138881531054
 20
124.0046329141656
 42
0.0
 10
258.3888881531053
 20
123.6296329141656
 42
0.0
 10
261.0138881531054
 20
123.6296329141656
 42
0.4142135623730982
 10
262.0138881531054
 20
124.6296329141656
 42
0.0
 10
262.0138881531054
 20
125.6296329141656
 42
0.0
 97
        6
330
8519
330
851C
330
8631
330
8507
330
862A
330
8509
 92
        7
 72
     0
 73
     1
 93
        4
 10
258.0138881531053
 20
125.6296329141656
 10
257.6388881531054
 20
125.6296329141656
 10
257.6388881531055
 20
124.3796329141656
 10
258.0138881531054
 20
124.0046329141656
 97
        4
330
8519
330
850F
330
8631
330
851C
 75
     0
 76
     1
 52
0.0
 41
0.5
 77
     0
 78
     1
 53
45.0
 43
-82.12029612778326
 44
0.0
 45
-1.122532015133643
 46
1.122532015133644
 79
     0
 47
0.0470570320115542
 98
        6
 10
249.1872946926485
 20
126.2508955112978
 10
250.2233795989017
 20
126.9096939764756
 10
258.747532272541
 20
130.5330855349534
 10
257.85273130531
 20
130.2036863023645
 10
259.0771957564822
 20
125.2626978135311
 10
257.8998263354733
 20
125.1215269550664
  0
TEXT
  5
8716
330
18
100
AcDbEntity
  8
0
 62
     3
100
AcDbText
 10
250.3446483492257
 20
132.1464623358781
 30
0.0
 40
1.75
  1
2-C0.75
 50
45.0
  7
TXT
100
AcDbText
  0
LEADER
  5
871A
330
18
100
AcDbEntity
  8
0
 62
     6
100
AcDbLeader
  3
A
 76
     2
 10
250.0138881531054
 20
131.2546329141656
 30
0.0
 10
257.8484506549602
 20
139.0985526517319
 30
0.0
1001
ACAD
1000
DSTYLE
1002
{
1070
   284
1070
     8
1070
   272
1070
     1
1070
   271
1070
     1
1002
}
  0
MTEXT
  5
8731
330
18
100
AcDbEntity
  8
0
100
AcDbMText
 10
234.915937964527
 20
83.56812717502874
 30
0.0
 40
2.5
 41
0.0
 71
     1
 72
     5
  1
{\Ftxt,bigfont|c128;小\~柳}
  7
JL
 73
     1
 44
1.0
1001
ACAD
1000
ACAD_MTEXT_DEFINED_HEIGHT_BEGIN
1070
    46
1040
0.0
1000
ACAD_MTEXT_DEFINED_HEIGHT_END
1000
MTEXTBEGIN
1070
    73
1070
     1
1070
    44
1040
1.0
1070
    74
1070
     0
1000
MTEXTEND
  0
LWPOLYLINE
  5
8769
330
18
100
AcDbEntity
  8
mark
100
AcDbPolyline
 90
        3
 70
     1
 43
0.0
 10
214.5000222889865
 20
91.33100737716766
 10
213.0566466160125
 20
93.83100737716766
 10
211.6132709430384
 20
91.33100737716766
  0
MTEXT
  5
876A
330
18
100
AcDbEntity
  8
DIM
100
AcDbMText
 10
212.8777463578722
 20
92.95830098197818
 30
0.0
 40
1.25
 41
4.581557073439626
 71
     1
 72
     5
  1
1
 73
     1
 44
1.0
1001
ACAD
1000
ACAD_MTEXT_DEFINED_HEIGHT_BEGIN
1070
    46
1040
0.0
1000
ACAD_MTEXT_DEFINED_HEIGHT_END
1000
MTEXTBEGIN
1070
    73
1070
     1
1070
    44
1040
1.0
1070
    74
1070
     0
1000
MTEXTEND
  0
MTEXT
  5
876B
330
18
100
AcDbEntity
  8
DIM
100
AcDbMText
 10
215.3816215447224
 20
93.56128636839281
 30
0.0
 40
2.25
 41
0.0
 71
     1
 72
     5
  1
{\Ftxt,bigfont|c128;08.08.08 振れ精度の変更  林}
  7
JL
 73
     1
 44
1.0
1001
ACAD
1000
ACAD_MTEXT_DEFINED_HEIGHT_BEGIN
1070
    46
1040
0.0
1000
ACAD_MTEXT_DEFINED_HEIGHT_END
1000
MTEXTBEGIN
1070
    73
1070
     1
1070
    44
1040
1.0
1070
    74
1070
     0
1000
MTEXTEND
  0
CIRCLE
  5
876C
330
18
100
AcDbEntity
  8
DIM
100
AcDbCircle
 10
234.2687731917352
 20
92.40637705840942
 30
0.0
 40
1.381204854054431
  0
LWPOLYLINE
  5
876D
330
18
100
AcDbEntity
  8
mark
100
AcDbPolyline
 90
        3
 70
     1
 43
0.0
 10
282.3299080712615
 20
140.6318212601009
 10
280.8865323982875
 20
143.1318212601009
 10
279.4431567253134
 20
140.6318212601009
  0
MTEXT
  5
876E
330
18
100
AcDbEntity
  8
DIM
100
AcDbMText
 10
280.7076321401472
 20
142.2591148649114
 30
0.0
 40
1.25
 41
4.581557073439626
 71
     1
 72
     5
  1
1
 73
     1
 44
1.0
1001
ACAD
1000
ACAD_MTEXT_DEFINED_HEIGHT_BEGIN
1070
    46
1040
0.0
1000
ACAD_MTEXT_DEFINED_HEIGHT_END
1000
MTEXTBEGIN
1070
    73
1070
     1
1070
    44
1040
1.0
1070
    74
1070
     0
1000
MTEXTEND
  0
MTEXT
  5
876F
330
18
100
AcDbEntity
  8
DIM
  6
ByBlock
100
AcDbMText
 10
282.9897976176054
 20
142.2591148649114
 30
0.0
 40
1.399999999999999
 41
4.581557073439626
 71
     1
 72
     5
  1
0.007
 73
     1
 44
1.0
1001
ACAD
1000
ACAD_MTEXT_DEFINED_HEIGHT_BEGIN
1070
    46
1040
0.0
1000
ACAD_MTEXT_DEFINED_HEIGHT_END
1000
MTEXTBEGIN
1070
    73
1070
     1
1070
    44
1040
1.0
1070
    74
1070
     0
1000
MTEXTEND
  0
LINE
  5
8770
330
18
100
AcDbEntity
  8
0
 62
     1
100
AcDbLine
 10
282.4930664953449
 20
138.7779048961276
 30
0.0
 11
288.2561845813784
 21
138.7779048961276
 31
0.0
  0
LINE
  5
8778
330
18
100
AcDbEntity
  8
0
 62
     1
100
AcDbLine
 10
282.4930664953449
 20
138.2704375937231
 30
0.0
 11
288.2561845813784
 21
138.2704375937231
 31
0.0
  0
LWPOLYLINE
  5
8779
330
18
100
AcDbEntity
  8
mark
100
AcDbPolyline
 90
        3
 70
     1
 43
0.0
 10
304.7508839144279
 20
75.26365428577179
 10
303.3075082414539
 20
77.76365428577179
 10
301.8641325684798
 20
75.26365428577179
  0
MTEXT
  5
877A
330
18
100
AcDbEntity
  8
DIM
100
AcDbMText
 10
303.1286079833136
 20
76.89094789058231
 30
0.0
 40
1.25
 41
4.581557073439626
 71
     1
 72
     5
  1
1
 73
     1
 44
1.0
1001
ACAD
1000
ACAD_MTEXT_DEFINED_HEIGHT_BEGIN
1070
    46
1040
0.0
1000
ACAD_MTEXT_DEFINED_HEIGHT_END
1000
MTEXTBEGIN
1070
    73
1070
     1
1070
    44
1040
1.0
1070
    74
1070
     0
1000
MTEXTEND
  0
ENDSEC
  0
SECTION
  2
OBJECTS
  0
DICTIONARY
  5
C
330
0
100
AcDbDictionary
281
     1
  3
ACAD_COLOR
350
8727
  3
ACAD_GROUP
350
D
  3
ACAD_LAYOUT
350
5CF3
  3
ACAD_MATERIAL
350
8726
  3
ACAD_MLINESTYLE
350
1B
  3
ACAD_PLOTSETTINGS
350
5CF4
  3
ACAD_PLOTSTYLENAME
350
5CF1
  3
ACAD_TABLESTYLE
350
8728
  3
ACDBHEADERROUNDTRIPXREC
350
878A
  3
ACDBVARIABLEDICTIONARY
350
45D
  0
DICTIONARY
  5
45F
330
18
100
AcDbDictionary
280
     1
281
     1
  3
ACAD_LAYOUTSELFREF
360
5D8B
  3
ACAD_SORTENTS
360
460
  0
DICTIONARY
  5
5D89
330
15
100
AcDbDictionary
280
     1
281
     1
  3
ACAD_LAYOUTSELFREF
360
5D8A
  0
DICTIONARY
  5
8727
102
{ACAD_REACTORS
330
C
102
}
330
C
100
AcDbDictionary
281
     1
  0
DICTIONARY
  5
D
102
{ACAD_REACTORS
330
C
102
}
330
C
100
AcDbDictionary
281
     1
  0
DICTIONARY
  5
5CF3
102
{ACAD_REACTORS
330
C
102
}
330
C
100
AcDbDictionary
281
     1
  3
Model
350
5CF5
  3
配置1
350
5CF6
  0
DICTIONARY
  5
8726
102
{ACAD_REACTORS
330
C
102
}
330
C
100
AcDbDictionary
281
     1
  0
DICTIONARY
  5
1B
102
{ACAD_REACTORS
330
C
102
}
330
C
100
AcDbDictionary
281
     1
  3
STANDARD
350
1C
  0
DICTIONARY
  5
5CF4
102
{ACAD_REACTORS
330
C
102
}
330
C
100
AcDbDictionary
281
     1
  0
ACDBDICTIONARYWDFLT
  5
5CF1
102
{ACAD_REACTORS
330
C
102
}
330
C
100
AcDbDictionary
281
     1
  3
Normal
350
5CF2
100
AcDbDictionaryWithDefault
340
5CF2
  0
DICTIONARY
  5
8728
102
{ACAD_REACTORS
330
C
102
}
330
C
100
AcDbDictionary
281
     1
  3
Standard
350
8729
  0
DICTIONARY
  5
878A
102
{ACAD_REACTORS
330
C
102
}
330
C
100
AcDbDictionary
281
     1
  0
DICTIONARY
  5
45D
102
{ACAD_REACTORS
330
C
102
}
330
C
100
AcDbDictionary
281
     1
  3
CTABLESTYLE
350
8733
  3
DIMASSOC
350
8787
  3
PROJECTNAME
350
8788
  3
SORTENTS
350
45E
  0
XRECORD
  5
5D8B
102
{ACAD_REACTORS
330
45F
102
}
330
45F
100
AcDbXrecord
280
     1
340
18
  0
SORTENTSTABLE
  5
460
102
{ACAD_REACTORS
330
45F
102
}
330
45F
100
AcDbSortentsTable
330
18
331
C0
  5
CB
  0
XRECORD
  5
5D8A
102
{ACAD_REACTORS
330
5D89
102
}
330
5D89
100
AcDbXrecord
280
     1
340
15
  0
LAYOUT
  5
5CF5
102
{ACAD_XDICTIONARY
360
878B
102
}
102
{ACAD_REACTORS
330
5CF3
102
}
330
5CF3
100
AcDbPlotSettings
  1

  2
hp LaserJet 1300 PCL 6
  4
A4
  6

 40
5.027083396911621
 41
5.069413185119628
 42
5.027084350585937
 43
5.027069091796875
 44
209.9733276367187
 45
296.9683227539062
 46
2.02746888522445
 47
0.0
 48
210.006196569778
 49
73.88112800344742
140
309.006196569778
141
218.8811280034475
142
1.0
143
0.5054521899357724
 70
 11956
 72
     1
 73
     0
 74
     4
  7
LIN.ctb
 75
     0
147
1.978426486048205
148
-210.006196569778
149
-73.88112800344742
100
AcDbLayout
  1
Model
 70
     1
 71
     0
 10
0.0
 20
0.0
 11
12.0
 21
9.0
 12
0.0
 22
0.0
 32
0.0
 14
0.0
 24
0.0
 34
0.0
 15
0.0
 25
0.0
 35
0.0
146
0.0
 13
0.0
 23
0.0
 33
0.0
 16
1.0
 26
0.0
 36
0.0
 17
0.0
 27
1.0
 37
0.0
 76
     0
330
18
1001
ACAD_PSEXT
1000
hp LaserJet 1300 PCL 6
1000
hp LaserJet 1300 PCL 6
1000
HP 1300
1000

1070
     0
  0
LAYOUT
  5
5CF6
102
{ACAD_XDICTIONARY
360
878D
102
}
102
{ACAD_REACTORS
330
5CF3
102
}
330
5CF3
100
AcDbPlotSettings
  1

  2
EPSON STYLUS COLOR 440
  4

  6

 40
0.0
 41
0.0
 42
0.0
 43
0.0
 44
0.0
 45
0.0
 46
0.0
 47
0.0
 48
0.0
 49
0.0
140
0.0
141
0.0
142
1.0
143
1.0
 70
   688
 72
     0
 73
     0
 74
     5
  7
LIN.ctb
 75
    16
147
1.0
148
0.0
149
0.0
100
AcDbLayout
  1
ｰtｸm1
 70
     1
 71
     1
 10
0.0
 20
0.0
 11
420.0
 21
297.0
 12
0.0
 22
0.0
 32
0.0
 14
1.000000000000000E+20
 24
1.000000000000000E+20
 34
1.000000000000000E+20
 15
-1.000000000000000E+20
 25
-1.000000000000000E+20
 35
-1.000000000000000E+20
146
0.0
 13
0.0
 23
0.0
 33
0.0
 16
1.0
 26
0.0
 36
0.0
 17
0.0
 27
1.0
 37
0.0
 76
     0
330
15
  0
MLINESTYLE
  5
1C
102
{ACAD_REACTORS
330
1B
102
}
330
1B
100
AcDbMlineStyle
  2
STANDARD
 70
     0
  3

 62
   256
 51
90.0
 52
90.0
 71
     2
 49
0.5
 62
   256
  6
BYLAYER
 49
-0.5
 62
   256
  6
BYLAYER
  0
ACDBPLACEHOLDER
  5
5CF2
102
{ACAD_REACTORS
330
5CF1
102
}
330
5CF1
  0
TABLESTYLE
  5
8729
102
{ACAD_REACTORS
330
8728
102
}
330
8728
100
AcDbTableStyle
  3
Standard
 70
     0
 71
     0
 40
1.5
 41
1.5
280
     0
281
     0
  7
STANDARD
140
4.5
170
     2
 62
     0
 63
     7
283
     0
274
    -2
284
     1
 64
     0
275
    -2
285
     1
 65
     0
276
    -2
286
     1
 66
     0
277
    -2
287
     1
 67
     0
278
    -2
288
     1
 68
     0
279
    -2
289
     1
 69
     0
  7
STANDARD
140
6.0
170
     5
 62
     0
 63
     7
283
     0
274
    -2
284
     1
 64
     0
275
    -2
285
     1
 65
     0
276
    -2
286
     1
 66
     0
277
    -2
287
     1
 67
     0
278
    -2
288
     1
 68
     0
279
    -2
289
     1
 69
     0
  7
STANDARD
140
4.5
170
     5
 62
     0
 63
     7
283
     0
274
    -2
284
     1
 64
     0
275
    -2
285
     1
 65
     0
276
    -2
286
     1
 66
     0
277
    -2
287
     1
 67
     0
278
    -2
288
     1
 68
     0
279
    -2
289
     1
 69
     0
  0
DICTIONARYVAR
  5
8733
102
{ACAD_REACTORS
330
45D
102
}
330
45D
100
DictionaryVariables
280
     0
  1
STANDARD
  0
DICTIONARYVAR
  5
8787
102
{ACAD_REACTORS
330
45D
102
}
330
45D
100
DictionaryVariables
280
     0
  1
1
  0
DICTIONARYVAR
  5
8788
102
{ACAD_REACTORS
330
45D
102
}
330
45D
100
DictionaryVariables
280
     0
  1

  0
DICTIONARYVAR
  5
45E
102
{ACAD_REACTORS
330
45D
102
}
330
45D
100
DictionaryVariables
280
     0
  1
127
  0
DICTIONARY
  5
878B
330
5CF5
100
AcDbDictionary
280
     1
281
     1
  3
ACAD_XREC_ROUNDTRIP
360
878C
  0
DICTIONARY
  5
878D
330
5CF6
100
AcDbDictionary
280
     1
281
     1
  3
ACAD_XREC_ROUNDTRIP
360
878E
  0
XRECORD
  5
878C
102
{ACAD_REACTORS
330
878B
102
}
330
878B
100
AcDbXrecord
280
     1
102
SHADEPLOT
 70
     0
102
SHADEPLOTRESLEVEL
 70
     2
102
SHADEPLOTCUSTOMDPI
 70
   300
  0
XRECORD
  5
878E
102
{ACAD_REACTORS
330
878D
102
}
330
878D
100
AcDbXrecord
280
     1
102
SHADEPLOT
 70
     0
102
SHADEPLOTRESLEVEL
 70
     2
102
SHADEPLOTCUSTOMDPI
 70
   300
  0
ENDSEC
  0
EOF
