  0
SECTION
  2
HEADER
  9
$ACADVER
  1
AC1015
  9
$ACADMAINTVER
 70
    20
  9
$DWGCODEPAGE
  3
ANSI_932
  9
$INSBASE
 10
0.0
 20
0.0
 30
0.0
  9
$EXTMIN
 10
-0.0000000000002274
 20
0.0
 30
0.0
  9
$EXTMAX
 10
190.0
 20
280.0000000000001
 30
3.838383838383842
  9
$LIMMIN
 10
0.0
 20
0.0
  9
$LIMMAX
 10
420.0
 20
297.0
  9
$ORTHOMODE
 70
     1
  9
$REGENMODE
 70
     1
  9
$FILLMODE
 70
     1
  9
$QTEXTMODE
 70
     0
  9
$MIRRTEXT
 70
     1
  9
$LTSCALE
 40
1.0
  9
$ATTMODE
 70
     1
  9
$TEXTSIZE
 40
2.5
  9
$TRACEWID
 40
1.0
  9
$TEXTSTYLE
  7
TXT
  9
$CLAYER
  8
0
  9
$CELTYPE
  6
BYLAYER
  9
$CECOLOR
 62
   256
  9
$CELTSCALE
 40
1.0
  9
$DISPSILH
 70
     0
  9
$DIMSCALE
 40
1.0
  9
$DIMASZ
 40
2.5
  9
$DIMEXO
 40
0.8
  9
$DIMDLI
 40
0.38
  9
$DIMRND
 40
0.0
  9
$DIMDLE
 40
0.0
  9
$DIMEXE
 40
0.8
  9
$DIMTP
 40
0.0
  9
$DIMTM
 40
0.0
  9
$DIMTXT
 40
2.5
  9
$DIMCEN
 40
0.09
  9
$DIMTSZ
 40
0.0
  9
$DIMTOL
 70
     0
  9
$DIMLIM
 70
     0
  9
$DIMTIH
 70
     0
  9
$DIMTOH
 70
     0
  9
$DIMSE1
 70
     0
  9
$DIMSE2
 70
     0
  9
$DIMTAD
 70
     3
  9
$DIMZIN
 70
     8
  9
$DIMBLK
  1
Open30
  9
$DIMASO
 70
     1
  9
$DIMSHO
 70
     1
  9
$DIMPOST
  1

  9
$DIMAPOST
  1

  9
$DIMALT
 70
     0
  9
$DIMALTD
 70
     2
  9
$DIMALTF
 40
25.4
  9
$DIMLFAC
 40
1.0
  9
$DIMTOFL
 70
     1
  9
$DIMTVP
 40
0.0
  9
$DIMTIX
 70
     0
  9
$DIMSOXD
 70
     0
  9
$DIMSAH
 70
     0
  9
$DIMBLK1
  1

  9
$DIMBLK2
  1

  9
$DIMSTYLE
  2
STANDARD
  9
$DIMCLRD
 70
   256
  9
$DIMCLRE
 70
   256
  9
$DIMCLRT
 70
     3
  9
$DIMTFAC
 40
1.0
  9
$DIMGAP
 40
0.8
  9
$DIMJUST
 70
     0
  9
$DIMSD1
 70
     0
  9
$DIMSD2
 70
     0
  9
$DIMTOLJ
 70
     1
  9
$DIMTZIN
 70
     0
  9
$DIMALTZ
 70
     0
  9
$DIMALTTZ
 70
     0
  9
$DIMUPT
 70
     0
  9
$DIMDEC
 70
     2
  9
$DIMTDEC
 70
     2
  9
$DIMALTU
 70
     2
  9
$DIMALTTD
 70
     2
  9
$DIMTXSTY
  7
STANDARD
  9
$DIMAUNIT
 70
     0
  9
$DIMADEC
 70
     2
  9
$DIMALTRND
 40
0.0
  9
$DIMAZIN
 70
     2
  9
$DIMDSEP
 70
    46
  9
$DIMATFIT
 70
     3
  9
$DIMFRAC
 70
     0
  9
$DIMLDRBLK
  1
Open30
  9
$DIMLUNIT
 70
     2
  9
$DIMLWD
 70
    -2
  9
$DIMLWE
 70
    -2
  9
$DIMTMOVE
 70
     0
  9
$LUNITS
 70
     2
  9
$LUPREC
 70
     2
  9
$SKETCHINC
 40
1.0
  9
$FILLETRAD
 40
1.5
  9
$AUNITS
 70
     0
  9
$AUPREC
 70
     2
  9
$MENU
  1
.
  9
$ELEVATION
 40
0.0
  9
$PELEVATION
 40
0.0
  9
$THICKNESS
 40
0.0
  9
$LIMCHECK
 70
     0
  9
$CHAMFERA
 40
0.0
  9
$CHAMFERB
 40
0.0
  9
$CHAMFERC
 40
1.75
  9
$CHAMFERD
 40
0.0174532925199433
  9
$SKPOLY
 70
     0
  9
$TDCREATE
 40
2451555.620234838
  9
$TDUCREATE
 40
2451555.245234838
  9
$TDUPDATE
 40
2457828.485267142
  9
$TDUUPDATE
 40
2457828.110267141
  9
$TDINDWG
 40
2.4892952662
  9
$TDUSRTIMER
 40
2.4892952662
  9
$USRTIMER
 70
     1
  9
$ANGBASE
 50
0.0
  9
$ANGDIR
 70
     0
  9
$PDMODE
 70
     0
  9
$PDSIZE
 40
0.0
  9
$PLINEWID
 40
0.0
  9
$SPLFRAME
 70
     0
  9
$SPLINETYPE
 70
     6
  9
$SPLINESEGS
 70
     8
  9
$HANDSEED
  5
9241
  9
$SURFTAB1
 70
     6
  9
$SURFTAB2
 70
     6
  9
$SURFTYPE
 70
     6
  9
$SURFU
 70
     6
  9
$SURFV
 70
     6
  9
$UCSBASE
  2

  9
$UCSNAME
  2

  9
$UCSORG
 10
0.0
 20
0.0
 30
0.0
  9
$UCSXDIR
 10
1.0
 20
0.0
 30
0.0
  9
$UCSYDIR
 10
0.0
 20
1.0
 30
0.0
  9
$UCSORTHOREF
  2

  9
$UCSORTHOVIEW
 70
     0
  9
$UCSORGTOP
 10
0.0
 20
0.0
 30
0.0
  9
$UCSORGBOTTOM
 10
0.0
 20
0.0
 30
0.0
  9
$UCSORGLEFT
 10
0.0
 20
0.0
 30
0.0
  9
$UCSORGRIGHT
 10
0.0
 20
0.0
 30
0.0
  9
$UCSORGFRONT
 10
0.0
 20
0.0
 30
0.0
  9
$UCSORGBACK
 10
0.0
 20
0.0
 30
0.0
  9
$PUCSBASE
  2

  9
$PUCSNAME
  2

  9
$PUCSORG
 10
0.0
 20
0.0
 30
0.0
  9
$PUCSXDIR
 10
1.0
 20
0.0
 30
0.0
  9
$PUCSYDIR
 10
0.0
 20
1.0
 30
0.0
  9
$PUCSORTHOREF
  2

  9
$PUCSORTHOVIEW
 70
     0
  9
$PUCSORGTOP
 10
0.0
 20
0.0
 30
0.0
  9
$PUCSORGBOTTOM
 10
0.0
 20
0.0
 30
0.0
  9
$PUCSORGLEFT
 10
0.0
 20
0.0
 30
0.0
  9
$PUCSORGRIGHT
 10
0.0
 20
0.0
 30
0.0
  9
$PUCSORGFRONT
 10
0.0
 20
0.0
 30
0.0
  9
$PUCSORGBACK
 10
0.0
 20
0.0
 30
0.0
  9
$USERI1
 70
     0
  9
$USERI2
 70
     0
  9
$USERI3
 70
     0
  9
$USERI4
 70
     0
  9
$USERI5
 70
     0
  9
$USERR1
 40
0.0
  9
$USERR2
 40
0.0
  9
$USERR3
 40
0.0
  9
$USERR4
 40
0.0
  9
$USERR5
 40
0.0
  9
$WORLDVIEW
 70
     1
  9
$SHADEDGE
 70
     3
  9
$SHADEDIF
 70
    70
  9
$TILEMODE
 70
     1
  9
$MAXACTVP
 70
    48
  9
$PINSBASE
 10
0.0
 20
0.0
 30
0.0
  9
$PLIMCHECK
 70
     0
  9
$PEXTMIN
 10
1.000000000000000E+20
 20
1.000000000000000E+20
 30
1.000000000000000E+20
  9
$PEXTMAX
 10
-1.000000000000000E+20
 20
-1.000000000000000E+20
 30
-1.000000000000000E+20
  9
$PLIMMIN
 10
0.0
 20
0.0
  9
$PLIMMAX
 10
420.0
 20
297.0
  9
$UNITMODE
 70
     0
  9
$VISRETAIN
 70
     1
  9
$PLINEGEN
 70
     0
  9
$PSLTSCALE
 70
     1
  9
$TREEDEPTH
 70
  3020
  9
$CMLSTYLE
  2
STANDARD
  9
$CMLJUST
 70
     0
  9
$CMLSCALE
 40
20.0
  9
$PROXYGRAPHICS
 70
     1
  9
$MEASUREMENT
 70
     1
  9
$CELWEIGHT
370
    -1
  9
$ENDCAPS
280
     0
  9
$JOINSTYLE
280
     0
  9
$LWDISPLAY
290
     0
  9
$INSUNITS
 70
     0
  9
$HYPERLINKBASE
  1

  9
$STYLESHEET
  1
LIN.ctb
  9
$XEDIT
290
     1
  9
$CEPSNTYPE
380
     0
  9
$PSTYLEMODE
290
     1
  9
$FINGERPRINTGUID
  2
{1CF51E8A-A506-11D4-A7D9-AF69F5C20846}
  9
$VERSIONGUID
  2
{BEC88B52-23FF-4473-AF15-D8A8D9CC320E}
  9
$EXTNAMES
290
     1
  9
$PSVPSCALE
 40
0.0
  9
$OLESTARTUP
290
     0
  0
ENDSEC
  0
SECTION
  2
CLASSES
  0
CLASS
  1
DICTIONARYVAR
  2
AcDbDictionaryVar
  3
ObjectDBX Classes
 90
        0
280
     0
281
     0
  0
CLASS
  1
SORTENTSTABLE
  2
AcDbSortentsTable
  3
ObjectDBX Classes
 90
        0
280
     0
281
     0
  0
CLASS
  1
ACDBDICTIONARYWDFLT
  2
AcDbDictionaryWithDefault
  3
ObjectDBX Classes
 90
        0
280
     0
281
     0
  0
CLASS
  1
ACDBPLACEHOLDER
  2
AcDbPlaceHolder
  3
ObjectDBX Classes
 90
        0
280
     0
281
     0
  0
CLASS
  1
LAYOUT
  2
AcDbLayout
  3
ObjectDBX Classes
 90
        0
280
     0
281
     0
  0
CLASS
  1
TABLESTYLE
  2
AcDbTableStyle
  3
ObjectDBX Classes
 90
     2047
280
     0
281
     0
  0
ENDSEC
  0
SECTION
  2
TABLES
  0
TABLE
  2
VPORT
  5
8
330
0
100
AcDbSymbolTable
 70
     2
  0
VPORT
  5
923B
330
8
100
AcDbSymbolTableRecord
100
AcDbViewportTableRecord
  2
*Active
 70
     0
 10
0.0
 20
0.0
 11
1.0
 21
1.0
 12
270.9409557812484
 22
140.0045110987434
 13
0.0
 23
0.0
 14
10.0
 24
10.0
 15
10.0
 25
10.0
 16
0.0
 26
0.0
 36
1.0
 17
0.0
 27
0.0
 37
0.0
 40
283.4191099824692
 41
2.647181628392484
 42
50.0
 43
0.0
 44
0.0
 50
0.0
 51
0.0
 71
     0
 72
 20000
 73
     1
 74
     1
 75
     0
 76
     0
 77
     0
 78
     0
281
     0
 65
     1
110
0.0
120
0.0
130
0.0
111
1.0
121
0.0
131
0.0
112
0.0
122
1.0
132
0.0
 79
     0
146
0.0
  0
ENDTAB
  0
TABLE
  2
LTYPE
  5
5
330
0
100
AcDbSymbolTable
 70
     7
  0
LTYPE
  5
12
330
5
100
AcDbSymbolTableRecord
100
AcDbLinetypeTableRecord
  2
BYBLOCK
 70
     0
  3

 72
    65
 73
     0
 40
0.0
  0
LTYPE
  5
13
330
5
100
AcDbSymbolTableRecord
100
AcDbLinetypeTableRecord
  2
BYLAYER
 70
     0
  3

 72
    65
 73
     0
 40
0.0
  0
LTYPE
  5
14
330
5
100
AcDbSymbolTableRecord
100
AcDbLinetypeTableRecord
  2
CONTINUOUS
 70
     0
  3
Solid line
 72
    65
 73
     0
 40
0.0
  0
LTYPE
  5
9D
330
5
100
AcDbSymbolTableRecord
100
AcDbLinetypeTableRecord
  2
CENTERX2
 70
     0
  3
Center (2x) ________  __  ________  __  _____
 72
    65
 73
     4
 40
101.6
 49
63.5
 74
     0
 49
-12.7
 74
     0
 49
12.7
 74
     0
 49
-12.7
 74
     0
  0
LTYPE
  5
A1
330
5
100
AcDbSymbolTableRecord
100
AcDbLinetypeTableRecord
  2
DASHED
 70
     0
  3
Dashed __ __ __ __ __ __ __ __ __ __ __ __ __ _
 72
    65
 73
     2
 40
19.05
 49
12.7
 74
     0
 49
-6.349999999999999
 74
     0
  0
LTYPE
  5
A2
330
5
100
AcDbSymbolTableRecord
100
AcDbLinetypeTableRecord
  2
DASHED2
 70
     0
  3
Dashed (.5x) _ _ _ _ _ _ _ _ _ _ _ _ _ _ _ _ _
 72
    65
 73
     2
 40
9.524999999999998
 49
6.349999999999999
 74
     0
 49
-3.174999999999999
 74
     0
  0
LTYPE
  5
A5
330
5
100
AcDbSymbolTableRecord
100
AcDbLinetypeTableRecord
  2
DIVIDE2
 70
     0
  3
Divide (.5x) __..__..__..__..__..__..__..__.._
 72
    65
 73
     6
 40
15.875
 49
6.349999999999999
 74
     0
 49
-3.174999999999999
 74
     0
 49
0.0
 74
     0
 49
-3.174999999999999
 74
     0
 49
0.0
 74
     0
 49
-3.174999999999999
 74
     0
  0
LTYPE
  5
650B
330
5
100
AcDbSymbolTableRecord
100
AcDbLinetypeTableRecord
  2
CENTER
 70
     0
  3
Center ____ _ ____ _ ____ _ ____ _ ____ _ ____
 72
    65
 73
     4
 40
50.8
 49
31.75
 74
     0
 49
-6.349999999999999
 74
     0
 49
6.349999999999999
 74
     0
 49
-6.349999999999999
 74
     0
  0
LTYPE
  5
650C
330
5
100
AcDbSymbolTableRecord
100
AcDbLinetypeTableRecord
  2
HIDDEN
 70
     0
  3
Hidden __ __ __ __ __ __ __ __ __ __ __ __ __ _
 72
    65
 73
     2
 40
9.524999999999998
 49
6.349999999999999
 74
     0
 49
-3.174999999999999
 74
     0
  0
ENDTAB
  0
TABLE
  2
LAYER
  5
2
102
{ACAD_XDICTIONARY
360
82D9
102
}
330
0
100
AcDbSymbolTable
 70
    10
  0
LAYER
  5
E
330
2
100
AcDbSymbolTableRecord
100
AcDbLayerTableRecord
  2
0
 70
     0
 62
     7
  6
CONTINUOUS
370
    -3
390
5CF2
  0
LAYER
  5
B9
330
2
100
AcDbSymbolTableRecord
100
AcDbLayerTableRecord
  2
DIM
 70
     0
 62
     3
  6
CONTINUOUS
370
    -3
390
5CF2
  0
LAYER
  5
F2
330
2
100
AcDbSymbolTableRecord
100
AcDbLayerTableRecord
  2
DEFPOINTS
 70
     0
 62
     4
  6
CONTINUOUS
290
     0
370
    -3
390
5CF2
  0
LAYER
  5
5F8B
330
2
100
AcDbSymbolTableRecord
100
AcDbLayerTableRecord
  2
mark
 70
     0
 62
     6
  6
CONTINUOUS
370
    -3
390
5CF2
  0
LAYER
  5
644E
330
2
100
AcDbSymbolTableRecord
100
AcDbLayerTableRecord
  2
frame
 70
     0
 62
     9
  6
CONTINUOUS
370
    -3
390
5CF2
  0
LAYER
  5
650D
330
2
100
AcDbSymbolTableRecord
100
AcDbLayerTableRecord
  2
center
 70
     0
 62
     1
  6
CENTER
370
    -3
390
5CF2
  0
LAYER
  5
650E
330
2
100
AcDbSymbolTableRecord
100
AcDbLayerTableRecord
  2
bowle
 70
     0
 62
     4
  6
HIDDEN
370
    -3
390
5CF2
  0
LAYER
  5
650F
330
2
100
AcDbSymbolTableRecord
100
AcDbLayerTableRecord
  2
contoru
 70
     0
 62
     2
  6
CONTINUOUS
370
    -3
390
5CF2
  0
LAYER
  5
6510
330
2
100
AcDbSymbolTableRecord
100
AcDbLayerTableRecord
  2
section
 70
     0
 62
     5
  6
CONTINUOUS
370
    -3
390
5CF2
  0
LAYER
  5
8377
330
2
100
AcDbSymbolTableRecord
100
AcDbLayerTableRecord
  2
contour
 70
     0
 62
     2
  6
CONTINUOUS
370
    -3
390
5CF2
  0
ENDTAB
  0
TABLE
  2
STYLE
  5
3
330
0
100
AcDbSymbolTable
 70
     5
  0
STYLE
  5
F
330
3
100
AcDbSymbolTableRecord
100
AcDbTextStyleTableRecord
  2
STANDARD
 70
     0
 40
0.0
 41
1.0
 50
0.0
 71
     0
 42
2.5
  3
txt
  4

  0
STYLE
  5
BE
330
3
100
AcDbSymbolTableRecord
100
AcDbTextStyleTableRecord
  2
ISOCP3
 70
     0
 40
0.0
 41
1.0
 50
0.0
 71
     0
 42
2.5
  3
isocp3.shx
  4

  0
STYLE
  5
2A37
330
3
100
AcDbSymbolTableRecord
100
AcDbTextStyleTableRecord
  2
TXT
 70
     0
 40
0.0
 41
1.0
 50
0.0
 71
     0
 42
2.5
  3
txt.shx
  4
bigfont.shx
  0
STYLE
  5
5DCB
330
3
100
AcDbSymbolTableRecord
100
AcDbTextStyleTableRecord
  2
LKK
 70
     0
 40
50.0
 41
1.5
 50
0.0
 71
     0
 42
50.0
  3
MS PGothic.ttf
  4

1001
ACAD
1000
MS PGothic
1071
    32818
  0
STYLE
  5
5DCC
330
3
100
AcDbSymbolTableRecord
100
AcDbTextStyleTableRecord
  2
JL
 70
     0
 40
10.0
 41
0.5
 50
0.0
 71
     0
 42
5.0
  3
MS Mincho.ttf
  4

1001
ACAD
1000
MS Mincho
1071
    32785
  0
ENDTAB
  0
TABLE
  2
VIEW
  5
6
330
0
100
AcDbSymbolTable
 70
     0
  0
ENDTAB
  0
TABLE
  2
UCS
  5
7
330
0
100
AcDbSymbolTable
 70
     0
  0
ENDTAB
  0
TABLE
  2
APPID
  5
9
330
0
100
AcDbSymbolTable
 70
    10
  0
APPID
  5
10
330
9
100
AcDbSymbolTableRecord
100
AcDbRegAppTableRecord
  2
ACAD
 70
     0
  0
APPID
  5
8378
330
9
100
AcDbSymbolTableRecord
100
AcDbRegAppTableRecord
  2
ACAD_DSTYLE_DIMEXT_LENGTH
 70
     0
  0
APPID
  5
8379
330
9
100
AcDbSymbolTableRecord
100
AcDbRegAppTableRecord
  2
ACAD_DSTYLE_DIMEXT_ENABLED
 70
     0
  0
APPID
  5
837A
330
9
100
AcDbSymbolTableRecord
100
AcDbRegAppTableRecord
  2
ACAD_DSTYLE_DIMJOGGED_JOGANGLE_SYMBOL
 70
     0
  0
APPID
  5
837B
330
9
100
AcDbSymbolTableRecord
100
AcDbRegAppTableRecord
  2
ACAD_DSTYLE_DIMARC_LENGTH_SYMBOL
 70
     0
  0
APPID
  5
8444
330
9
100
AcDbSymbolTableRecord
100
AcDbRegAppTableRecord
  2
ACAD_DSTYLE_DIMTEXT_FILL
 70
     0
  0
APPID
  5
8447
330
9
100
AcDbSymbolTableRecord
100
AcDbRegAppTableRecord
  2
ACAD_DSTYLE_DIM_LINETYPE
 70
     0
  0
APPID
  5
8448
330
9
100
AcDbSymbolTableRecord
100
AcDbRegAppTableRecord
  2
ACAD_DSTYLE_DIM_EXT1_LINETYPE
 70
     0
  0
APPID
  5
8449
330
9
100
AcDbSymbolTableRecord
100
AcDbRegAppTableRecord
  2
ACAD_DSTYLE_DIM_EXT2_LINETYPE
 70
     0
  0
APPID
  5
91EE
330
9
100
AcDbSymbolTableRecord
100
AcDbRegAppTableRecord
  2
ACAD_PSEXT
 70
     0
  0
ENDTAB
  0
TABLE
  2
DIMSTYLE
  5
A
330
0
100
AcDbSymbolTable
 70
     2
100
AcDbDimStyleTable
 71
     2
340
1D
340
1A4
  0
DIMSTYLE
105
1D
102
{ACAD_REACTORS
330
8E51
330
8E52
330
8E53
330
8E54
330
8E55
330
8E56
330
8E58
330
8E59
330
8E5A
330
8E5F
330
8E70
330
8E5D
330
8E61
330
8E65
330
8E68
330
8E69
330
842A
330
842E
330
8432
330
8435
330
8436
102
}
330
A
100
AcDbSymbolTableRecord
100
AcDbDimStyleTableRecord
  2
STANDARD
 70
     0
 41
2.5
 42
0.8
 44
0.8
 73
     0
 74
     0
 77
     3
 78
     8
 79
     2
140
2.5
147
0.8
172
     1
176
   256
177
   256
178
     3
179
     2
271
     2
272
     2
340
F
341
82DC
342
82DC
1001
ACAD_DSTYLE_DIMEXT_LENGTH
1070
   378
1040
0.18
1001
ACAD_DSTYLE_DIMEXT_ENABLED
1070
   383
1070
     0
1001
ACAD_DSTYLE_DIMARC_LENGTH_SYMBOL
1070
   379
1070
     0
1001
ACAD_DSTYLE_DIMJOGGED_JOGANGLE_SYMBOL
1070
   384
1040
1.570796326794896
  0
DIMSTYLE
105
1A4
330
A
100
AcDbSymbolTableRecord
100
AcDbDimStyleTableRecord
  2
A
 70
     0
 41
2.5
 42
1.0
 43
6.0
 44
1.0
 73
     0
 74
     0
 77
     3
 78
     8
140
3.0
141
0.0
147
1.0
176
     6
177
     6
178
     3
271
     1
272
     1
279
     1
340
2A37
  0
ENDTAB
  0
TABLE
  2
BLOCK_RECORD
  5
1
330
0
100
AcDbSymbolTable
 70
    27
  0
BLOCK_RECORD
  5
18
102
{ACAD_XDICTIONARY
360
45F
102
}
330
1
100
AcDbSymbolTableRecord
100
AcDbBlockTableRecord
  2
*MODEL_SPACE
340
5CF5
  0
BLOCK_RECORD
  5
15
102
{ACAD_XDICTIONARY
360
5D89
102
}
330
1
100
AcDbSymbolTableRecord
100
AcDbBlockTableRecord
  2
*PAPER_SPACE
340
5CF6
  0
BLOCK_RECORD
  5
639D
330
1
100
AcDbSymbolTableRecord
100
AcDbBlockTableRecord
  2
A$C255C26A2
340
0
  0
BLOCK_RECORD
  5
7A5F
330
1
100
AcDbSymbolTableRecord
100
AcDbBlockTableRecord
  2
_DOTSMALL
340
0
  0
BLOCK_RECORD
  5
82DC
330
1
100
AcDbSymbolTableRecord
100
AcDbBlockTableRecord
  2
_Open30
340
0
102
{BLKREFS
331
82F5
331
82F6
331
8303
331
8304
331
8311
331
8312
331
831D
331
831E
331
8329
331
832A
331
8335
331
8336
331
8343
331
8344
331
834F
331
8350
331
835B
331
835C
331
8367
331
8370
331
8371
331
9143
331
9144
331
914E
331
914F
331
9159
331
915A
331
9162
331
9163
331
916B
331
916C
331
9174
331
9175
331
917F
331
9180
331
9188
331
9189
331
9191
331
9192
331
919A
331
91A0
331
91A1
102
}
  0
BLOCK_RECORD
  5
82E2
102
{ACAD_XDICTIONARY
360
82E3
102
}
330
1
100
AcDbSymbolTableRecord
100
AcDbBlockTableRecord
  2
A
340
0
310
2800000020000000200000000100080000000000000400000000000000000000000000000000000000000000000080000080000000808000800000008000800080800000C0C0C000C0DCC000F0CAA6000020400000206000002080000020A0000020C0000020E00000400000004020000040400000406000004080000040A0
310
000040C0000040E00000600000006020000060400000606000006080000060A0000060C0000060E00000800000008020000080400000806000008080000080A0000080C0000080E00000A0000000A0200000A0400000A0600000A0800000A0A00000A0C00000A0E00000C0000000C0200000C0400000C0600000C0800000C0
310
A00000C0C00000C0E00000E0000000E0200000E0400000E0600000E0800000E0A00000E0C00000E0E00040000000400020004000400040006000400080004000A0004000C0004000E00040200000402020004020400040206000402080004020A0004020C0004020E000404000004040200040404000404060004040800040
310
40A0004040C0004040E00040600000406020004060400040606000406080004060A0004060C0004060E00040800000408020004080400040806000408080004080A0004080C0004080E00040A0000040A0200040A0400040A0600040A0800040A0A00040A0C00040A0E00040C0000040C0200040C0400040C0600040C08000
310
40C0A00040C0C00040C0E00040E0000040E0200040E0400040E0600040E0800040E0A00040E0C00040E0E00080000000800020008000400080006000800080008000A0008000C0008000E00080200000802020008020400080206000802080008020A0008020C0008020E00080400000804020008040400080406000804080
310
008040A0008040C0008040E00080600000806020008060400080606000806080008060A0008060C0008060E00080800000808020008080400080806000808080008080A0008080C0008080E00080A0000080A0200080A0400080A0600080A0800080A0A00080A0C00080A0E00080C0000080C0200080C0400080C0600080C0
310
800080C0A00080C0C00080C0E00080E0000080E0200080E0400080E0600080E0800080E0A00080E0C00080E0E000C0000000C0002000C0004000C0006000C0008000C000A000C000C000C000E000C0200000C0202000C0204000C0206000C0208000C020A000C020C000C020E000C0400000C0402000C0404000C0406000C0
310
408000C040A000C040C000C040E000C0600000C0602000C0604000C0606000C0608000C060A000C060C000C060E000C0800000C0802000C0804000C0806000C0808000C080A000C080C000C080E000C0A00000C0A02000C0A04000C0A06000C0A08000C0A0A000C0A0C000C0A0E000C0C00000C0C02000C0C04000C0C06000
310
C0C08000C0C0A000F0FBFF00A4A0A000808080000000FF0000FF000000FFFF00FF000000FF00FF00FFFF0000FFFFFF0000000000000000000000000000000000000000000000000000000000000000000000000000000000000000000000000000000000000000000000000000000000000000000000000000000000000000
310
00000000000000000000000000000000000000000000000000000000000000000000000000000000000000000000000000000000000000000000000000000000000000000000000000000000000000000000000000000000000000000000000000000000000000000000000000000000000000000000000000000000000000
310
00000000000000000000000000000000000000000000000000000000000000000000000000000000000000000000000000000000000000000000000000000000000000000000000000000000000000000000000000000000000000000000000000000000000000000000000000000000000000000000000000000000000000
310
000000000000FDFDFDFDFDFDFDFDFDFDFDFD0000FD0000000000000000000000000000000000FD0000FA0000000000FA00FD0000FDFD00000000000000000000000000000000FD0000FA0000000000FA00FD0000FDFDFD000000000000000000000000000000FD0000FA0000000000FA00FD0000FDFDFDFD00000000000000
310
00000000000000FD0000FAFAFAFAFAFAFA00FD0000FDFDFDFDFD00000000000000000000000000FD000000FA00000000FA00FD0000FDFDFDFDFDFDFDFDFDFDFDFDFDFDFDFDFDFDFD000000FA000000FA0000FD0000FDFDFDFDFD00000000000000000000000000FD00000000FA0000FA0000FD0000FDFDFDFD000000000000
310
0000000000000000FD00000000FA00FA000000FD0000FDFD00000000000000000000000000000000FD0000000000FAFA000000FD0000FD0000000000000000000000000000000000FD0000000000FA00000000FD0000000000000000000000000000000000000000FDFDFDFDFDFDFDFDFDFDFDFD0000000000000000000000
310
00000000000000000000000000000000000000000000000000000000000000000000000000000000000000000000000000000000000000000000000000000000000000000000000000000000000000000000000000000000000000000000000000000000000000000000000000000000000000000000000000000000000000
310
00000000000000000000000000000000000000000000000000000000000000000000000000000000000000000000000000000000000000000000000000000000000000000000000000000000000000000000000000000000000000000000000000000000000000000000000000000000000000000000000000000000000000
310
0000000000000000000000000000000000000000000000000000000000000000000000000000000000000000000000000000000000000000
102
{BLKREFS
331
8429
331
8E5C
102
}
  0
BLOCK_RECORD
  5
82EE
330
1
100
AcDbSymbolTableRecord
100
AcDbBlockTableRecord
  2
*D4
340
0
  0
BLOCK_RECORD
  5
82FC
330
1
100
AcDbSymbolTableRecord
100
AcDbBlockTableRecord
  2
*D5
340
0
  0
BLOCK_RECORD
  5
830A
330
1
100
AcDbSymbolTableRecord
100
AcDbBlockTableRecord
  2
*D6
340
0
  0
BLOCK_RECORD
  5
8318
330
1
100
AcDbSymbolTableRecord
100
AcDbBlockTableRecord
  2
*D7
340
0
  0
BLOCK_RECORD
  5
8324
330
1
100
AcDbSymbolTableRecord
100
AcDbBlockTableRecord
  2
*D8
340
0
  0
BLOCK_RECORD
  5
8330
330
1
100
AcDbSymbolTableRecord
100
AcDbBlockTableRecord
  2
*D9
340
0
  0
BLOCK_RECORD
  5
833C
330
1
100
AcDbSymbolTableRecord
100
AcDbBlockTableRecord
  2
*D10
340
0
  0
BLOCK_RECORD
  5
834A
330
1
100
AcDbSymbolTableRecord
100
AcDbBlockTableRecord
  2
*D11
340
0
  0
BLOCK_RECORD
  5
8356
330
1
100
AcDbSymbolTableRecord
100
AcDbBlockTableRecord
  2
*D12
340
0
  0
BLOCK_RECORD
  5
8362
330
1
100
AcDbSymbolTableRecord
100
AcDbBlockTableRecord
  2
*D13
340
0
  0
BLOCK_RECORD
  5
836B
330
1
100
AcDbSymbolTableRecord
100
AcDbBlockTableRecord
  2
*D14
340
0
  0
BLOCK_RECORD
  5
837C
102
{ACAD_XDICTIONARY
360
8440
102
}
330
1
100
AcDbSymbolTableRecord
100
AcDbBlockTableRecord
  2
A$C4E6279B2
340
0
1001
ACAD
1000
DesignCenter Data
1002
{
1070
     1
1070
     0
1002
}
  0
BLOCK_RECORD
  5
8E73
330
1
100
AcDbSymbolTableRecord
100
AcDbBlockTableRecord
  2
*D16
340
0
  0
BLOCK_RECORD
  5
8E81
330
1
100
AcDbSymbolTableRecord
100
AcDbBlockTableRecord
  2
*D17
340
0
  0
BLOCK_RECORD
  5
8E8F
330
1
100
AcDbSymbolTableRecord
100
AcDbBlockTableRecord
  2
*D18
340
0
  0
BLOCK_RECORD
  5
8E9D
330
1
100
AcDbSymbolTableRecord
100
AcDbBlockTableRecord
  2
*D19
340
0
  0
BLOCK_RECORD
  5
8EA9
330
1
100
AcDbSymbolTableRecord
100
AcDbBlockTableRecord
  2
*D20
340
0
  0
BLOCK_RECORD
  5
8EB5
330
1
100
AcDbSymbolTableRecord
100
AcDbBlockTableRecord
  2
*D21
340
0
  0
BLOCK_RECORD
  5
8EC1
330
1
100
AcDbSymbolTableRecord
100
AcDbBlockTableRecord
  2
*D22
340
0
  0
BLOCK_RECORD
  5
8ECF
330
1
100
AcDbSymbolTableRecord
100
AcDbBlockTableRecord
  2
*D23
340
0
  0
BLOCK_RECORD
  5
8EDB
330
1
100
AcDbSymbolTableRecord
100
AcDbBlockTableRecord
  2
*D24
340
0
  0
BLOCK_RECORD
  5
8EE7
330
1
100
AcDbSymbolTableRecord
100
AcDbBlockTableRecord
  2
*D25
340
0
  0
BLOCK_RECORD
  5
8EF0
330
1
100
AcDbSymbolTableRecord
100
AcDbBlockTableRecord
  2
*D26
340
0
  0
ENDTAB
  0
ENDSEC
  0
SECTION
  2
BLOCKS
  0
BLOCK
  5
19
330
18
100
AcDbEntity
  8
0
100
AcDbBlockBegin
  2
*MODEL_SPACE
 70
     0
 10
0.0
 20
0.0
 30
0.0
  3
*MODEL_SPACE
  1

  0
ENDBLK
  5
1A
330
18
100
AcDbEntity
  8
0
100
AcDbBlockEnd
  0
BLOCK
  5
16
330
15
100
AcDbEntity
 67
     1
  8
0
100
AcDbBlockBegin
  2
*PAPER_SPACE
 70
     0
 10
0.0
 20
0.0
 30
0.0
  3
*PAPER_SPACE
  1

  0
ENDBLK
  5
17
330
15
100
AcDbEntity
 67
     1
  8
0
100
AcDbBlockEnd
  0
BLOCK
  5
63A1
330
639D
100
AcDbEntity
  8
0
100
AcDbBlockBegin
  2
A$C255C26A2
 70
     0
 10
0.0
 20
0.0
 30
0.0
  3
A$C255C26A2
  1

  0
LWPOLYLINE
  5
639E
330
639D
100
AcDbEntity
  8
0
100
AcDbPolyline
 90
        3
 70
     1
 43
0.0
 10
7.014806023851633
 20
0.0000006939811783
 10
5.611844869720698
 20
2.430000693981241
 10
8.417767177982568
 20
2.430000693981241
  0
LWPOLYLINE
  5
639F
330
639D
100
AcDbEntity
  8
0
100
AcDbPolyline
 90
        3
 70
     1
 43
0.0
 10
4.20888371558999
 20
0.0000006939811783
 10
2.805922561459283
 20
2.430000693981241
 10
5.611844869720698
 20
2.430000693981241
  0
LWPOLYLINE
  5
63A0
330
639D
100
AcDbEntity
  8
0
100
AcDbPolyline
 90
        3
 70
     1
 43
0.0
 10
1.402961407328348
 20
0.0000006939811783
 10
0.0000002531974133
 20
2.430000693981241
 10
2.805922561459283
 20
2.430000693981241
  0
ENDBLK
  5
63A2
330
639D
100
AcDbEntity
  8
0
100
AcDbBlockEnd
  0
BLOCK
  5
7A64
330
7A5F
100
AcDbEntity
  8
0
100
AcDbBlockBegin
  2
_DOTSMALL
 70
     0
 10
0.0
 20
0.0
 30
0.0
  3
_DOTSMALL
  1

  0
LWPOLYLINE
  5
7A60
330
7A5F
100
AcDbEntity
  8
0
  6
ByBlock
 62
     0
100
AcDbPolyline
 90
        2
 70
     1
 43
0.5
 10
-0.0625
 20
0.0
 42
1.0
 10
0.0625
 20
0.0
 42
1.0
  0
ENDBLK
  5
7A65
330
7A5F
100
AcDbEntity
  8
0
100
AcDbBlockEnd
  0
BLOCK
  5
82DD
330
82DC
100
AcDbEntity
  8
0
100
AcDbBlockBegin
  2
_Open30
 70
     0
 10
0.0
 20
0.0
 30
0.0
  3
_Open30
  1

  0
LINE
  5
82DE
330
82DC
100
AcDbEntity
  8
0
  6
ByBlock
 62
     0
370
    -2
100
AcDbLine
 10
-1.0
 20
0.26794919
 30
0.0
 11
0.0
 21
0.0
 31
0.0
  0
LINE
  5
82DF
330
82DC
100
AcDbEntity
  8
0
  6
ByBlock
 62
     0
370
    -2
100
AcDbLine
 10
0.0
 20
0.0
 30
0.0
 11
-1.0
 21
-0.26794919
 31
0.0
  0
LINE
  5
82E0
330
82DC
100
AcDbEntity
  8
0
  6
ByBlock
 62
     0
370
    -2
100
AcDbLine
 10
0.0
 20
0.0
 30
0.0
 11
-1.0
 21
0.0
 31
0.0
  0
ENDBLK
  5
82E1
330
82DC
100
AcDbEntity
  8
0
100
AcDbBlockEnd
  0
BLOCK
  5
82E6
330
82E2
100
AcDbEntity
  8
0
100
AcDbBlockBegin
  2
A
 70
     0
 10
0.0
 20
0.0
 30
0.0
  3
A
  1

  0
MTEXT
  5
82E7
330
82E2
100
AcDbEntity
  8
mark
 62
     3
100
AcDbMText
 10
10.65641897020822
 20
-5.596245361730467
 30
0.0
 40
2.5
 41
0.0
 71
     5
 72
     1
  1
A
 73
     1
 44
1.0
1001
ACAD
1000
ACAD_MTEXT_DEFINED_HEIGHT_BEGIN
1070
    46
1040
0.0
1000
ACAD_MTEXT_DEFINED_HEIGHT_END
1000
MTEXTBEGIN
1070
    73
1070
     1
1070
    44
1040
1.0
1070
    74
1070
     0
1000
MTEXTEND
  0
LWPOLYLINE
  5
82E8
330
82E2
100
AcDbEntity
  8
mark
100
AcDbPolyline
 90
        4
 70
     1
 43
0.0
 10
9.07926800414657
 20
-7.141145101782569
 10
12.07926800414657
 20
-7.141145101782569
 10
12.07926800414657
 20
-4.141145101782569
 10
9.07926800414657
 20
-4.141145101782569
  0
HATCH
  5
82E9
330
82E2
100
AcDbEntity
  8
mark
100
AcDbHatch
 10
0.0
 20
0.0
 30
0.0
210
0.0
220
0.0
230
1.0
  2
SOLID
 70
     1
 71
     0
 91
        1
 92
        7
 72
     0
 73
     1
 93
        3
 10
5.32926800414657
 20
-5.641145101782569
 10
4.07926800414657
 20
-4.391145101782541
 10
4.07926800414657
 20
-6.891145101782541
 97
        0
 75
     0
 76
     1
 47
0.0398277943677868
 98
        1
 10
4.589689734415287
 20
-5.732163331855076
1001
ACAD
1010
0.0
1020
0.0
1030
0.0
  0
LINE
  5
82EA
330
82E2
100
AcDbEntity
  8
mark
100
AcDbLine
 10
5.32926800414657
 20
-5.641145101782569
 30
0.0
 11
9.07926800414657
 21
-5.641145101782569
 31
0.0
  0
LINE
  5
82EB
330
82E2
100
AcDbEntity
  8
mark
100
AcDbLine
 10
5.32926800414657
 20
-5.641145101782569
 30
0.0
 11
4.07926800414657
 21
-4.391145101782569
 31
0.0
  0
LINE
  5
82EC
330
82E2
100
AcDbEntity
  8
mark
100
AcDbLine
 10
5.32926800414657
 20
-5.641145101782569
 30
0.0
 11
4.07926800414657
 21
-6.891145101782569
 31
0.0
  0
ENDBLK
  5
82ED
330
82E2
100
AcDbEntity
  8
0
100
AcDbBlockEnd
  0
BLOCK
  5
82EF
330
82EE
100
AcDbEntity
  8
0
100
AcDbBlockBegin
  2
*D4
 70
     1
 10
0.0
 20
0.0
 30
0.0
  3
*D4
  1

  0
LINE
  5
82F0
330
82EE
100
AcDbEntity
  8
mark
370
    -2
100
AcDbLine
 10
68.00093638661817
 20
182.5889193723554
 30
0.0
 11
58.73426971995145
 21
182.5889193723554
 31
0.0
  0
LINE
  5
82F1
330
82EE
100
AcDbEntity
  8
mark
370
    -2
100
AcDbLine
 10
68.0009363866181
 20
187.5889193723554
 30
0.0
 11
58.73426971995145
 21
187.5889193723554
 31
0.0
  0
LINE
  5
82F2
330
82EE
100
AcDbEntity
  8
mark
370
    -2
100
AcDbLine
 10
59.53426971995146
 20
180.0889193723554
 30
0.0
 11
59.53426971995146
 21
177.5889193723554
 31
0.0
  0
LINE
  5
82F3
330
82EE
100
AcDbEntity
  8
mark
370
    -2
100
AcDbLine
 10
59.53426971995146
 20
190.0889193723554
 30
0.0
 11
59.53426971995146
 21
192.5889193723554
 31
0.0
  0
LINE
  5
82F4
330
82EE
100
AcDbEntity
  8
mark
370
    -2
100
AcDbLine
 10
59.53426971995146
 20
182.5889193723554
 30
0.0
 11
59.53426971995146
 21
187.5889193723554
 31
0.0
  0
INSERT
  5
82F5
330
82EE
100
AcDbEntity
  8
mark
370
    -2
100
AcDbBlockReference
  2
_Open30
 10
59.53426971995146
 20
182.5889193723554
 30
0.0
 41
2.5
 42
2.5
 43
2.5
 50
90.0
  0
INSERT
  5
82F6
330
82EE
100
AcDbEntity
  8
mark
370
    -2
100
AcDbBlockReference
  2
_Open30
 10
59.53426971995146
 20
187.5889193723554
 30
0.0
 41
2.5
 42
2.5
 43
2.5
 50
270.0
  0
MTEXT
  5
82F7
330
82EE
100
AcDbEntity
  8
mark
 62
     3
100
AcDbMText
 10
57.48426971995143
 20
185.0889193723554
 30
0.0
 40
2.5
 41
0.0
 71
     5
 72
     1
  1
\A1;5
 11
0.0000000000000001
 21
1.0
 31
0.0
 73
     1
 44
1.0
1001
ACAD
1000
MTEXTBEGIN
1070
    73
1070
     1
1070
    44
1040
1.0
1070
    74
1070
     0
1000
MTEXTEND
  0
POINT
  5
82F8
330
82EE
100
AcDbEntity
  8
DEFPOINTS
 62
     0
100
AcDbPoint
 10
68.80093638661816
 20
182.5889193723554
 30
0.0
  0
POINT
  5
82F9
330
82EE
100
AcDbEntity
  8
DEFPOINTS
 62
     0
100
AcDbPoint
 10
68.80093638661811
 20
187.5889193723554
 30
0.0
  0
POINT
  5
82FA
330
82EE
100
AcDbEntity
  8
DEFPOINTS
 62
     0
100
AcDbPoint
 10
59.53426971995146
 20
187.5889193723554
 30
0.0
  0
ENDBLK
  5
82FB
330
82EE
100
AcDbEntity
  8
0
100
AcDbBlockEnd
  0
BLOCK
  5
82FD
330
82FC
100
AcDbEntity
  8
0
100
AcDbBlockBegin
  2
*D5
 70
     1
 10
0.0
 20
0.0
 30
0.0
  3
*D5
  1

  0
LINE
  5
82FE
330
82FC
100
AcDbEntity
  8
mark
370
    -2
100
AcDbLine
 10
70.80093638661816
 20
181.7889193723554
 30
0.0
 11
70.80093638661816
 21
161.7889193723554
 31
0.0
  0
LINE
  5
82FF
330
82FC
100
AcDbEntity
  8
mark
370
    -2
100
AcDbLine
 10
68.80093638661816
 20
181.7889193723554
 30
0.0
 11
68.80093638661816
 21
161.7889193723554
 31
0.0
  0
LINE
  5
8300
330
82FC
100
AcDbEntity
  8
mark
370
    -2
100
AcDbLine
 10
73.30093638661816
 20
162.5889193723554
 30
0.0
 11
75.80093638661816
 21
162.5889193723554
 31
0.0
  0
LINE
  5
8301
330
82FC
100
AcDbEntity
  8
mark
370
    -2
100
AcDbLine
 10
66.30093638661816
 20
162.5889193723554
 30
0.0
 11
60.5342697199515
 21
162.5889193723554
 31
0.0
  0
LINE
  5
8302
330
82FC
100
AcDbEntity
  8
mark
370
    -2
100
AcDbLine
 10
70.80093638661816
 20
162.5889193723554
 30
0.0
 11
68.80093638661816
 21
162.5889193723554
 31
0.0
  0
INSERT
  5
8303
330
82FC
100
AcDbEntity
  8
mark
370
    -2
100
AcDbBlockReference
  2
_Open30
 10
70.80093638661816
 20
162.5889193723554
 30
0.0
 41
2.5
 42
2.5
 43
2.5
 50
180.0
  0
INSERT
  5
8304
330
82FC
100
AcDbEntity
  8
mark
370
    -2
100
AcDbBlockReference
  2
_Open30
 10
68.80093638661816
 20
162.5889193723554
 30
0.0
 41
2.5
 42
2.5
 43
2.5
  0
MTEXT
  5
8305
330
82FC
100
AcDbEntity
  8
mark
 62
     3
100
AcDbMText
 10
62.16760305328483
 20
164.6389193723554
 30
0.0
 40
2.5
 41
0.0
 71
     5
 72
     1
  1
\A1;2
 73
     1
 44
1.0
1001
ACAD
1000
MTEXTBEGIN
1070
    73
1070
     1
1070
    44
1040
1.0
1070
    74
1070
     0
1000
MTEXTEND
  0
POINT
  5
8306
330
82FC
100
AcDbEntity
  8
DEFPOINTS
 62
     0
100
AcDbPoint
 10
70.80093638661816
 20
182.5889193723554
 30
0.0
  0
POINT
  5
8307
330
82FC
100
AcDbEntity
  8
DEFPOINTS
 62
     0
100
AcDbPoint
 10
68.80093638661816
 20
182.5889193723554
 30
0.0
  0
POINT
  5
8308
330
82FC
100
AcDbEntity
  8
DEFPOINTS
 62
     0
100
AcDbPoint
 10
68.80093638661816
 20
162.5889193723554
 30
0.0
  0
ENDBLK
  5
8309
330
82FC
100
AcDbEntity
  8
0
100
AcDbBlockEnd
  0
BLOCK
  5
830B
330
830A
100
AcDbEntity
  8
0
100
AcDbBlockBegin
  2
*D6
 70
     1
 10
0.0
 20
0.0
 30
0.0
  3
*D6
  1

  0
LINE
  5
830C
330
830A
100
AcDbEntity
  8
mark
370
    -2
100
AcDbLine
 10
69.36161616161605
 20
106.7438972185179
 30
0.0
 11
58.73426971995145
 21
106.7438972185179
 31
0.0
  0
LINE
  5
830D
330
830A
100
AcDbEntity
  8
mark
370
    -2
100
AcDbLine
 10
70.36161616161606
 20
107.2438972185179
 30
0.0
 11
58.73426971995145
 21
107.2438972185179
 31
0.0
  0
LINE
  5
830E
330
830A
100
AcDbEntity
  8
mark
370
    -2
100
AcDbLine
 10
59.53426971995146
 20
104.2438972185179
 30
0.0
 11
59.53426971995146
 21
101.7438972185179
 31
0.0
  0
LINE
  5
830F
330
830A
100
AcDbEntity
  8
mark
370
    -2
100
AcDbLine
 10
59.53426971995146
 20
109.7438972185179
 30
0.0
 11
59.53426971995146
 21
118.4272305518512
 31
0.0
  0
LINE
  5
8310
330
830A
100
AcDbEntity
  8
mark
370
    -2
100
AcDbLine
 10
59.53426971995146
 20
106.7438972185179
 30
0.0
 11
59.53426971995146
 21
107.2438972185179
 31
0.0
  0
INSERT
  5
8311
330
830A
100
AcDbEntity
  8
mark
370
    -2
100
AcDbBlockReference
  2
_Open30
 10
59.53426971995146
 20
106.7438972185179
 30
0.0
 41
2.5
 42
2.5
 43
2.5
 50
90.0
  0
INSERT
  5
8312
330
830A
100
AcDbEntity
  8
mark
370
    -2
100
AcDbBlockReference
  2
_Open30
 10
59.53426971995146
 20
107.2438972185179
 30
0.0
 41
2.5
 42
2.5
 43
2.5
 50
270.0
  0
MTEXT
  5
8313
330
830A
100
AcDbEntity
  8
mark
 62
     3
100
AcDbMText
 10
57.48426971995144
 20
115.3355638851846
 30
0.0
 40
2.5
 41
0.0
 71
     5
 72
     1
  1
\A1;0.5
 11
0.0000000000000001
 21
1.0
 31
0.0
 73
     1
 44
1.0
1001
ACAD
1000
MTEXTBEGIN
1070
    73
1070
     1
1070
    44
1040
1.0
1070
    74
1070
     0
1000
MTEXTEND
  0
POINT
  5
8314
330
830A
100
AcDbEntity
  8
DEFPOINTS
 62
     0
100
AcDbPoint
 10
70.16161616161605
 20
106.7438972185179
 30
0.0
  0
POINT
  5
8315
330
830A
100
AcDbEntity
  8
DEFPOINTS
 62
     0
100
AcDbPoint
 10
71.16161616161605
 20
107.2438972185179
 30
0.0
  0
POINT
  5
8316
330
830A
100
AcDbEntity
  8
DEFPOINTS
 62
     0
100
AcDbPoint
 10
59.53426971995146
 20
107.2438972185179
 30
0.0
  0
ENDBLK
  5
8317
330
830A
100
AcDbEntity
  8
0
100
AcDbBlockEnd
  0
BLOCK
  5
8319
330
8318
100
AcDbEntity
  8
0
100
AcDbBlockBegin
  2
*D7
 70
     1
 10
0.0
 20
0.0
 30
0.0
  3
*D7
  1

  0
LINE
  5
831A
330
8318
100
AcDbEntity
  8
mark
370
    -2
100
AcDbLine
 10
75.66161616161605
 20
108.0438972185179
 30
0.0
 11
75.66161616161605
 21
117.053051303068
 31
0.0
  0
LINE
  5
831B
330
8318
100
AcDbEntity
  8
mark
370
    -2
100
AcDbLine
 10
106.661616161616
 20
108.0438972185179
 30
0.0
 11
106.661616161616
 21
117.053051303068
 31
0.0
  0
LINE
  5
831C
330
8318
100
AcDbEntity
  8
mark
370
    -2
100
AcDbLine
 10
78.16161616161605
 20
116.253051303068
 30
0.0
 11
104.161616161616
 21
116.253051303068
 31
0.0
  0
INSERT
  5
831D
330
8318
100
AcDbEntity
  8
mark
370
    -2
100
AcDbBlockReference
  2
_Open30
 10
75.66161616161605
 20
116.253051303068
 30
0.0
 41
2.5
 42
2.5
 43
2.5
 50
180.0
  0
INSERT
  5
831E
330
8318
100
AcDbEntity
  8
mark
370
    -2
100
AcDbBlockReference
  2
_Open30
 10
106.661616161616
 20
116.253051303068
 30
0.0
 41
2.5
 42
2.5
 43
2.5
  0
MTEXT
  5
831F
330
8318
100
AcDbEntity
  8
mark
 62
     3
100
AcDbMText
 10
91.16161616161605
 20
118.303051303068
 30
0.0
 40
2.5
 41
0.0
 71
     5
 72
     1
  1
\A1;%%c31
 73
     1
 44
1.0
1001
ACAD
1000
MTEXTBEGIN
1070
    73
1070
     1
1070
    44
1040
1.0
1070
    74
1070
     0
1000
MTEXTEND
  0
POINT
  5
8320
330
8318
100
AcDbEntity
  8
DEFPOINTS
 62
     0
100
AcDbPoint
 10
75.66161616161605
 20
107.2438972185179
 30
0.0
  0
POINT
  5
8321
330
8318
100
AcDbEntity
  8
DEFPOINTS
 62
     0
100
AcDbPoint
 10
106.661616161616
 20
107.2438972185179
 30
0.0
  0
POINT
  5
8322
330
8318
100
AcDbEntity
  8
DEFPOINTS
 62
     0
100
AcDbPoint
 10
106.661616161616
 20
116.253051303068
 30
0.0
  0
ENDBLK
  5
8323
330
8318
100
AcDbEntity
  8
0
100
AcDbBlockEnd
  0
BLOCK
  5
8325
330
8324
100
AcDbEntity
  8
0
100
AcDbBlockBegin
  2
*D8
 70
     1
 10
0.0
 20
0.0
 30
0.0
  3
*D8
  1

  0
LINE
  5
8326
330
8324
100
AcDbEntity
  8
mark
370
    -2
100
AcDbLine
 10
71.16161616161605
 20
108.0438972185179
 30
0.0
 11
71.16161616161605
 21
122.2638839655853
 31
0.0
  0
LINE
  5
8327
330
8324
100
AcDbEntity
  8
mark
370
    -2
100
AcDbLine
 10
111.161616161616
 20
108.0438972185179
 30
0.0
 11
111.161616161616
 21
122.2638839655853
 31
0.0
  0
LINE
  5
8328
330
8324
100
AcDbEntity
  8
mark
370
    -2
100
AcDbLine
 10
73.66161616161605
 20
121.4638839655853
 30
0.0
 11
108.661616161616
 21
121.4638839655853
 31
0.0
  0
INSERT
  5
8329
330
8324
100
AcDbEntity
  8
mark
370
    -2
100
AcDbBlockReference
  2
_Open30
 10
71.16161616161605
 20
121.4638839655853
 30
0.0
 41
2.5
 42
2.5
 43
2.5
 50
180.0
  0
INSERT
  5
832A
330
8324
100
AcDbEntity
  8
mark
370
    -2
100
AcDbBlockReference
  2
_Open30
 10
111.161616161616
 20
121.4638839655853
 30
0.0
 41
2.5
 42
2.5
 43
2.5
  0
MTEXT
  5
832B
330
8324
100
AcDbEntity
  8
mark
 62
     3
100
AcDbMText
 10
91.16161616161605
 20
123.5138839655853
 30
0.0
 40
2.5
 41
0.0
 71
     5
 72
     1
  1
\A1;%%c40%%p0.5
 73
     1
 44
1.0
1001
ACAD
1000
MTEXTBEGIN
1070
    73
1070
     1
1070
    44
1040
1.0
1070
    74
1070
     0
1000
MTEXTEND
  0
POINT
  5
832C
330
8324
100
AcDbEntity
  8
DEFPOINTS
 62
     0
100
AcDbPoint
 10
71.16161616161605
 20
107.2438972185179
 30
0.0
  0
POINT
  5
832D
330
8324
100
AcDbEntity
  8
DEFPOINTS
 62
     0
100
AcDbPoint
 10
111.161616161616
 20
107.2438972185179
 30
0.0
  0
POINT
  5
832E
330
8324
100
AcDbEntity
  8
DEFPOINTS
 62
     0
100
AcDbPoint
 10
111.161616161616
 20
121.4638839655853
 30
0.0
  0
ENDBLK
  5
832F
330
8324
100
AcDbEntity
  8
0
100
AcDbBlockEnd
  0
BLOCK
  5
8331
330
8330
100
AcDbEntity
  8
0
100
AcDbBlockBegin
  2
*D9
 70
     1
 10
0.0
 20
0.0
 30
0.0
  3
*D9
  1

  0
LINE
  5
8332
330
8330
100
AcDbEntity
  8
mark
370
    -2
100
AcDbLine
 10
68.66161616161605
 20
106.0438972185179
 30
0.0
 11
68.66161616161605
 21
128.3068537932815
 31
0.0
  0
LINE
  5
8333
330
8330
100
AcDbEntity
  8
mark
370
    -2
100
AcDbLine
 10
113.6616161616161
 20
106.0438972185179
 30
0.0
 11
113.6616161616161
 21
128.3068537932815
 31
0.0
  0
LINE
  5
8334
330
8330
100
AcDbEntity
  8
mark
370
    -2
100
AcDbLine
 10
71.16161616161605
 20
127.5068537932815
 30
0.0
 11
111.1616161616161
 21
127.5068537932815
 31
0.0
  0
INSERT
  5
8335
330
8330
100
AcDbEntity
  8
mark
370
    -2
100
AcDbBlockReference
  2
_Open30
 10
68.66161616161605
 20
127.5068537932815
 30
0.0
 41
2.5
 42
2.5
 43
2.5
 50
180.0
  0
INSERT
  5
8336
330
8330
100
AcDbEntity
  8
mark
370
    -2
100
AcDbBlockReference
  2
_Open30
 10
113.6616161616161
 20
127.5068537932815
 30
0.0
 41
2.5
 42
2.5
 43
2.5
  0
MTEXT
  5
8337
330
8330
100
AcDbEntity
  8
mark
 62
     3
100
AcDbMText
 10
91.16161616161608
 20
129.5568537932815
 30
0.0
 40
2.5
 41
0.0
 71
     5
 72
     1
  1
\A1;%%c45
 73
     1
 44
1.0
1001
ACAD
1000
MTEXTBEGIN
1070
    73
1070
     1
1070
    44
1040
1.0
1070
    74
1070
     0
1000
MTEXTEND
  0
POINT
  5
8338
330
8330
100
AcDbEntity
  8
DEFPOINTS
 62
     0
100
AcDbPoint
 10
68.66161616161605
 20
105.2438972185179
 30
0.0
  0
POINT
  5
8339
330
8330
100
AcDbEntity
  8
DEFPOINTS
 62
     0
100
AcDbPoint
 10
113.6616161616161
 20
105.2438972185179
 30
0.0
  0
POINT
  5
833A
330
8330
100
AcDbEntity
  8
DEFPOINTS
 62
     0
100
AcDbPoint
 10
113.6616161616161
 20
127.5068537932815
 30
0.0
  0
ENDBLK
  5
833B
330
8330
100
AcDbEntity
  8
0
100
AcDbBlockEnd
  0
BLOCK
  5
833D
330
833C
100
AcDbEntity
  8
0
100
AcDbBlockBegin
  2
*D10
 70
     1
 10
0.0
 20
0.0
 30
0.0
  3
*D10
  1

  0
LINE
  5
833E
330
833C
100
AcDbEntity
  8
mark
370
    -2
100
AcDbLine
 10
111.961616161616
 20
107.2438972185179
 30
0.0
 11
122.3451241448776
 21
107.2438972185179
 31
0.0
  0
LINE
  5
833F
330
833C
100
AcDbEntity
  8
mark
370
    -2
100
AcDbLine
 10
115.4616161616161
 20
101.2438972185179
 30
0.0
 11
122.3451241448776
 21
101.2438972185179
 31
0.0
  0
LINE
  5
8340
330
833C
100
AcDbEntity
  8
mark
370
    -2
100
AcDbLine
 10
121.5451241448776
 20
109.7438972185179
 30
0.0
 11
121.5451241448776
 21
112.2438972185179
 31
0.0
  0
LINE
  5
8341
330
833C
100
AcDbEntity
  8
mark
370
    -2
100
AcDbLine
 10
121.5451241448776
 20
98.74389721851793
 30
0.0
 11
121.5451241448776
 21
96.24389721851793
 31
0.0
  0
LINE
  5
8342
330
833C
100
AcDbEntity
  8
mark
370
    -2
100
AcDbLine
 10
121.5451241448776
 20
107.2438972185179
 30
0.0
 11
121.5451241448776
 21
101.2438972185179
 31
0.0
  0
INSERT
  5
8343
330
833C
100
AcDbEntity
  8
mark
370
    -2
100
AcDbBlockReference
  2
_Open30
 10
121.5451241448776
 20
107.2438972185179
 30
0.0
 41
2.5
 42
2.5
 43
2.5
 50
270.0
  0
INSERT
  5
8344
330
833C
100
AcDbEntity
  8
mark
370
    -2
100
AcDbBlockReference
  2
_Open30
 10
121.5451241448776
 20
101.2438972185179
 30
0.0
 41
2.5
 42
2.5
 43
2.5
 50
90.0
  0
MTEXT
  5
8345
330
833C
100
AcDbEntity
  8
mark
 62
     3
100
AcDbMText
 10
119.4951241448775
 20
104.2438972185179
 30
0.0
 40
2.5
 41
0.0
 71
     5
 72
     1
  1
\A1;6
 11
0.0000000000000001
 21
1.0
 31
0.0
 73
     1
 44
1.0
1001
ACAD
1000
MTEXTBEGIN
1070
    73
1070
     1
1070
    44
1040
1.0
1070
    74
1070
     0
1000
MTEXTEND
  0
POINT
  5
8346
330
833C
100
AcDbEntity
  8
DEFPOINTS
 62
     0
100
AcDbPoint
 10
111.161616161616
 20
107.2438972185179
 30
0.0
  0
POINT
  5
8347
330
833C
100
AcDbEntity
  8
DEFPOINTS
 62
     0
100
AcDbPoint
 10
114.6616161616161
 20
101.2438972185179
 30
0.0
  0
POINT
  5
8348
330
833C
100
AcDbEntity
  8
DEFPOINTS
 62
     0
100
AcDbPoint
 10
121.5451241448776
 20
101.2438972185179
 30
0.0
  0
ENDBLK
  5
8349
330
833C
100
AcDbEntity
  8
0
100
AcDbBlockEnd
  0
BLOCK
  5
834B
330
834A
100
AcDbEntity
  8
0
100
AcDbBlockBegin
  2
*D11
 70
     1
 10
0.0
 20
0.0
 30
0.0
  3
*D11
  1

  0
LINE
  5
834C
330
834A
100
AcDbEntity
  8
mark
370
    -2
100
AcDbLine
 10
111.961616161616
 20
107.2438972185179
 30
0.0
 11
130.0580034046781
 21
107.2438972185179
 31
0.0
  0
LINE
  5
834D
330
834A
100
AcDbEntity
  8
mark
370
    -2
100
AcDbLine
 10
112.961616161616
 20
95.24389721851793
 30
0.0
 11
130.0580034046781
 21
95.24389721851793
 31
0.0
  0
LINE
  5
834E
330
834A
100
AcDbEntity
  8
mark
370
    -2
100
AcDbLine
 10
129.2580034046781
 20
104.7438972185179
 30
0.0
 11
129.2580034046781
 21
97.74389721851793
 31
0.0
  0
INSERT
  5
834F
330
834A
100
AcDbEntity
  8
mark
370
    -2
100
AcDbBlockReference
  2
_Open30
 10
129.2580034046781
 20
107.2438972185179
 30
0.0
 41
2.5
 42
2.5
 43
2.5
 50
90.0
  0
INSERT
  5
8350
330
834A
100
AcDbEntity
  8
mark
370
    -2
100
AcDbBlockReference
  2
_Open30
 10
129.2580034046781
 20
95.24389721851793
 30
0.0
 41
2.5
 42
2.5
 43
2.5
 50
270.0
  0
MTEXT
  5
8351
330
834A
100
AcDbEntity
  8
mark
 62
     3
100
AcDbMText
 10
127.2080034046781
 20
101.2438972185179
 30
0.0
 40
2.5
 41
0.0
 71
     5
 72
     1
  1
\A1;12%%p0.2
 11
0.0000000000000001
 21
1.0
 31
0.0
 73
     1
 44
1.0
1001
ACAD
1000
MTEXTBEGIN
1070
    73
1070
     1
1070
    44
1040
1.0
1070
    74
1070
     0
1000
MTEXTEND
  0
POINT
  5
8352
330
834A
100
AcDbEntity
  8
DEFPOINTS
 62
     0
100
AcDbPoint
 10
111.161616161616
 20
107.2438972185179
 30
0.0
  0
POINT
  5
8353
330
834A
100
AcDbEntity
  8
DEFPOINTS
 62
     0
100
AcDbPoint
 10
112.161616161616
 20
95.24389721851793
 30
0.0
  0
POINT
  5
8354
330
834A
100
AcDbEntity
  8
DEFPOINTS
 62
     0
100
AcDbPoint
 10
129.2580034046781
 20
95.24389721851793
 30
0.0
  0
ENDBLK
  5
8355
330
834A
100
AcDbEntity
  8
0
100
AcDbBlockEnd
  0
BLOCK
  5
8357
330
8356
100
AcDbEntity
  8
0
100
AcDbBlockBegin
  2
*D12
 70
     1
 10
0.0
 20
0.0
 30
0.0
  3
*D12
  1

  0
LINE
  5
8358
330
8356
100
AcDbEntity
  8
mark
370
    -2
100
AcDbLine
 10
76.16161616161605
 20
95.13189721851793
 30
0.0
 11
76.16161616161605
 21
81.29549744102964
 31
0.0
  0
LINE
  5
8359
330
8356
100
AcDbEntity
  8
mark
370
    -2
100
AcDbLine
 10
106.161616161616
 20
95.13189721851906
 30
0.0
 11
106.161616161616
 21
81.29549744102964
 31
0.0
  0
LINE
  5
835A
330
8356
100
AcDbEntity
  8
mark
370
    -2
100
AcDbLine
 10
78.66161616161605
 20
82.09549744102963
 30
0.0
 11
103.661616161616
 21
82.09549744102963
 31
0.0
  0
INSERT
  5
835B
330
8356
100
AcDbEntity
  8
mark
370
    -2
100
AcDbBlockReference
  2
_Open30
 10
76.16161616161605
 20
82.09549744102963
 30
0.0
 41
2.5
 42
2.5
 43
2.5
 50
180.0
  0
INSERT
  5
835C
330
8356
100
AcDbEntity
  8
mark
370
    -2
100
AcDbBlockReference
  2
_Open30
 10
106.161616161616
 20
82.09549744102963
 30
0.0
 41
2.5
 42
2.5
 43
2.5
  0
MTEXT
  5
835D
330
8356
100
AcDbEntity
  8
mark
 62
     3
100
AcDbMText
 10
84.96945733676273
 20
84.14549744102963
 30
0.0
 40
2.5
 41
0.0
 71
     5
 72
     1
  1
\A1;M30X1.5P
 73
     1
 44
1.0
1001
ACAD
1000
MTEXTBEGIN
1070
    73
1070
     1
1070
    44
1040
1.0
1070
    74
1070
     0
1000
MTEXTEND
  0
POINT
  5
835E
330
8356
100
AcDbEntity
  8
DEFPOINTS
 62
     0
100
AcDbPoint
 10
76.16161616161605
 20
95.93189721851791
 30
0.0
  0
POINT
  5
835F
330
8356
100
AcDbEntity
  8
DEFPOINTS
 62
     0
100
AcDbPoint
 10
106.161616161616
 20
95.93189721851905
 30
0.0
  0
POINT
  5
8360
330
8356
100
AcDbEntity
  8
DEFPOINTS
 62
     0
100
AcDbPoint
 10
106.161616161616
 20
82.09549744102963
 30
0.0
  0
ENDBLK
  5
8361
330
8356
100
AcDbEntity
  8
0
100
AcDbBlockEnd
  0
BLOCK
  5
8363
330
8362
100
AcDbEntity
  8
0
100
AcDbBlockBegin
  2
*D13
 70
     1
 10
0.0
 20
0.0
 30
0.0
  3
*D13
  1

  0
LINE
  5
8364
330
8362
100
AcDbEntity
  8
mark
370
    -2
100
AcDbLine
 10
56.18447212016104
 20
82.76675317706505
 30
0.0
 11
67.33318903686984
 21
93.91547009377203
 31
0.0
  0
MTEXT
  5
8365
330
8362
100
AcDbEntity
  8
mark
 62
     3
100
AcDbMText
 10
59.42537820059987
 20
88.90679706036797
 30
0.0
 40
2.5
 41
0.0
 71
     5
 72
     1
  1
\A1;2-R1.5
 11
0.7071067811866048
 21
0.7071067811864903
 31
0.0
 73
     1
 44
1.0
1001
ACAD
1000
MTEXTBEGIN
1070
    73
1070
     1
1070
    44
1040
1.0
1070
    74
1070
     0
1000
MTEXTEND
  0
LINE
  5
8366
330
8362
100
AcDbEntity
  8
mark
370
    -2
100
AcDbLine
 10
70.16161616161628
 20
96.74389721851804
 30
0.0
 11
69.10095598983635
 21
95.68323704673828
 31
0.0
  0
INSERT
  5
8367
330
8362
100
AcDbEntity
  8
mark
370
    -2
100
AcDbBlockReference
  2
_Open30
 10
69.10095598983635
 20
95.68323704673828
 30
0.0
 41
2.5
 42
2.5
 43
2.5
 50
44.99999999999536
  0
POINT
  5
8368
330
8362
100
AcDbEntity
  8
DEFPOINTS
 62
     0
100
AcDbPoint
 10
69.10095598983635
 20
95.68323704673828
 30
0.0
  0
POINT
  5
8369
330
8362
100
AcDbEntity
  8
DEFPOINTS
 62
     0
100
AcDbPoint
 10
70.16161616161628
 20
96.74389721851804
 30
0.0
  0
ENDBLK
  5
836A
330
8362
100
AcDbEntity
  8
0
100
AcDbBlockEnd
  0
BLOCK
  5
836C
330
836B
100
AcDbEntity
  8
0
100
AcDbBlockBegin
  2
*D14
 70
     1
 10
0.0
 20
0.0
 30
0.0
  3
*D14
  1

  0
LINE
  5
836D
330
836B
100
AcDbEntity
  8
mark
370
    -2
100
AcDbLine
 10
84.4351684553102
 20
109.7438972185179
 30
0.0
 11
84.4351684553102
 21
112.2438972185179
 31
0.0
  0
LINE
  5
836E
330
836B
100
AcDbEntity
  8
mark
370
    -2
100
AcDbLine
 10
84.4351684553102
 20
103.7438972185179
 30
0.0
 11
84.4351684553102
 21
98.81056388518459
 31
0.0
  0
LINE
  5
836F
330
836B
100
AcDbEntity
  8
mark
370
    -2
100
AcDbLine
 10
84.4351684553102
 20
107.2438972185179
 30
0.0
 11
84.4351684553102
 21
106.2438972185179
 31
0.0
  0
INSERT
  5
8370
330
836B
100
AcDbEntity
  8
mark
370
    -2
100
AcDbBlockReference
  2
_Open30
 10
84.4351684553102
 20
107.2438972185179
 30
0.0
 41
2.5
 42
2.5
 43
2.5
 50
270.0
  0
INSERT
  5
8371
330
836B
100
AcDbEntity
  8
mark
370
    -2
100
AcDbBlockReference
  2
_Open30
 10
84.4351684553102
 20
106.2438972185179
 30
0.0
 41
2.5
 42
2.5
 43
2.5
 50
90.0
  0
MTEXT
  5
8372
330
836B
100
AcDbEntity
  8
mark
 62
     3
100
AcDbMText
 10
82.38516845531016
 20
100.0272305518512
 30
0.0
 40
2.5
 41
0.0
 71
     5
 72
     1
  1
\A1;1
 11
0.0000000000000001
 21
1.0
 31
0.0
 73
     1
 44
1.0
1001
ACAD
1000
MTEXTBEGIN
1070
    73
1070
     1
1070
    44
1040
1.0
1070
    74
1070
     0
1000
MTEXTEND
  0
POINT
  5
8373
330
836B
100
AcDbEntity
  8
DEFPOINTS
 62
     0
100
AcDbPoint
 10
84.4351684553102
 20
107.2438972185179
 30
0.0
  0
POINT
  5
8374
330
836B
100
AcDbEntity
  8
DEFPOINTS
 62
     0
100
AcDbPoint
 10
84.4351684553102
 20
106.2438972185179
 30
0.0
  0
POINT
  5
8375
330
836B
100
AcDbEntity
  8
DEFPOINTS
 62
     0
100
AcDbPoint
 10
84.4351684553102
 20
106.2438972185179
 30
0.0
  0
ENDBLK
  5
8376
330
836B
100
AcDbEntity
  8
0
100
AcDbBlockEnd
  0
BLOCK
  5
8442
330
837C
100
AcDbEntity
  8
0
100
AcDbBlockBegin
  2
A$C4E6279B2
 70
     0
 10
0.0
 20
0.0
 30
0.0
  3
A$C4E6279B2
  1

  0
MTEXT
  5
837D
330
837C
100
AcDbEntity
  8
0
100
AcDbMText
 10
17.0995034785713
 20
18.59121043581876
 30
0.0
 40
4.797979797979802
 41
0.0
 71
     1
 72
     5
  1
{\Ftxt,bigfont|c128;林彦旭}
  7
JL
 73
     1
 44
1.0
1001
ACAD
1000
ACAD_MTEXT_DEFINED_HEIGHT_BEGIN
1070
    46
1040
0.0
1000
ACAD_MTEXT_DEFINED_HEIGHT_END
1000
MTEXTBEGIN
1070
    73
1070
     1
1070
    44
1040
1.0
1070
    74
1070
     0
1000
MTEXTEND
  0
MTEXT
  5
837E
330
837C
100
AcDbEntity
  8
0
100
AcDbMText
 10
77.95294708396801
 20
28.04690081431892
 30
0.0
 40
4.318181818181822
 41
0.0
 71
     1
 72
     5
  1
\Ftxt.shx,bigfont.shx|c128;1 : 1
  7
JL
 73
     1
 44
1.0
1001
ACAD
1000
MTEXTBEGIN
1070
    73
1070
     1
1070
    44
1040
1.0
1070
    74
1070
     0
1000
MTEXTEND
  0
MTEXT
  5
837F
330
837C
100
AcDbEntity
  8
0
 48
2.0
370
    25
100
AcDbMText
 10
140.2194498382452
 20
3.490021559135016
 30
0.0
 40
4.318181818181822
 41
0.0
 71
     5
 72
     1
  1
{\Ftxt,bigfont|c128;N L 4 0 2 2 5}
 73
     1
 44
1.0
1001
ACAD
1000
ACAD_MTEXT_DEFINED_HEIGHT_BEGIN
1070
    46
1040
0.0
1000
ACAD_MTEXT_DEFINED_HEIGHT_END
1000
MTEXTBEGIN
1070
    73
1070
     1
1070
    44
1040
1.0
1070
    74
1070
     0
1000
MTEXTEND
  0
MTEXT
  5
8380
330
837C
100
AcDbEntity
  8
0
 48
2.0
100
AcDbMText
 10
170.9328997561126
 20
23.42597690710596
 30
0.0
 40
4.318181818181822
 41
0.0
 71
     5
 72
     1
  1
\P{\Ftxt,bigfont|c128;    MRZ30X1.5P}
 73
     1
 44
1.0
1001
ACAD
1000
ACAD_MTEXT_DEFINED_HEIGHT_BEGIN
1070
    46
1040
0.0
1000
ACAD_MTEXT_DEFINED_HEIGHT_END
1000
MTEXTBEGIN
1070
    73
1070
     1
1070
    44
1040
1.0
1070
    74
1070
     0
1000
MTEXTEND
  0
MTEXT
  5
8381
330
837C
100
AcDbEntity
  8
0
100
AcDbMText
 10
15.37606750535696
 20
27.4885146139593
 30
0.0
 40
4.318181818181822
 41
0.0
 71
     1
 72
     5
  1
{\Ftxt,bigfont|c128;06.07.03}
  7
JL
 73
     1
 44
1.0
1001
ACAD
1000
ACAD_MTEXT_DEFINED_HEIGHT_BEGIN
1070
    46
1040
0.0
1000
ACAD_MTEXT_DEFINED_HEIGHT_END
1000
MTEXTBEGIN
1070
    73
1070
     1
1070
    44
1040
1.0
1070
    74
1070
     0
1000
MTEXTEND
  0
LINE
  5
8382
330
837C
100
AcDbEntity
  8
0
 62
     7
 48
5.0
100
AcDbLine
 39
3.838383838383842
 10
47.92942393160484
 20
26.76824008577313
 30
0.0
 11
53.0458012345581
 21
28.04733441151143
 31
0.0
  0
MTEXT
  5
8383
330
837C
100
AcDbEntity
  8
0
100
AcDbMText
 10
15.33306674421294
 20
9.242194954550427
 30
0.0
 40
5.757575757575764
 41
0.0
 71
     1
 72
     5
  1
\Ftxt.shx,bigfont.shx|c128;日機株式会社
  7
LKK
 73
     1
 44
1.0
1001
ACAD
1000
MTEXTBEGIN
1070
    73
1070
     1
1070
    44
1040
1.0
1070
    74
1070
     0
1000
MTEXTEND
  0
LWPOLYLINE
  5
8384
330
837C
100
AcDbEntity
  8
frame
100
AcDbPolyline
 90
        4
 70
     1
 43
0.0
 10
-0.0000002083206709
 20
279.9999999045012
 10
-0.0000002083204436
 20
-0.0000000954989332
 10
189.9999997916795
 20
-0.0000000954989332
 10
189.9999997916795
 20
279.9999999045012
  0
LINE
  5
8385
330
837C
100
AcDbEntity
  8
frame
100
AcDbLine
 10
-0.0000002083204436
 20
11.51515141965257
 30
0.0
 11
189.9999997916795
 21
11.51515141965262
 31
0.0
  0
LINE
  5
8386
330
837C
100
AcDbEntity
  8
frame
100
AcDbLine
 10
-0.0000002083204436
 20
21.11111101561221
 30
0.0
 11
92.12121191289179
 21
21.11111101561221
 31
0.0
  0
LINE
  5
8387
330
837C
100
AcDbEntity
  8
frame
100
AcDbLine
 10
-0.0000002083204436
 20
30.70707061157179
 30
0.0
 11
189.9999997916795
 21
30.70707061157179
 31
0.0
  0
LINE
  5
8388
330
837C
100
AcDbEntity
  8
frame
100
AcDbLine
 10
11.51515130683111
 20
30.70707061157179
 30
0.0
 11
11.51515130683111
 21
11.51515141965257
 31
0.0
  0
LINE
  5
8389
330
837C
100
AcDbEntity
  8
frame
100
AcDbLine
 10
30.70707049875029
 20
30.70707061157179
 30
0.0
 11
30.70707049875029
 21
11.51515141965257
 31
0.0
  0
MTEXT
  5
838A
330
837C
100
AcDbEntity
  8
0
100
AcDbMText
 10
2.830274575901512
 20
27.87352800231588
 30
0.0
 40
4.318181818181822
 41
0.0
 71
     1
 72
     5
  1
\Ftxt.shx,bigfont.shx|c128;日 付
  7
JL
 73
     1
 44
1.0
1001
ACAD
1000
MTEXTBEGIN
1070
    73
1070
     1
1070
    44
1040
1.0
1070
    74
1070
     0
1000
MTEXTEND
  0
MTEXT
  5
838B
330
837C
100
AcDbEntity
  8
0
100
AcDbMText
 10
2.970632869118446
 20
19.03678984891894
 30
0.0
 40
4.318181818181822
 41
0.0
 71
     1
 72
     5
  1
\Ftxt.shx,bigfont.shx|c128;製 図
  7
JL
 73
     1
 44
1.0
1001
ACAD
1000
MTEXTBEGIN
1070
    73
1070
     1
1070
    44
1040
1.0
1070
    74
1070
     0
1000
MTEXTEND
  0
LINE
  5
838C
330
837C
100
AcDbEntity
  8
0
 62
     7
370
    25
100
AcDbLine
 10
53.0458012345581
 20
22.93095710855817
 30
0.0
 11
53.0458012345581
 21
28.04733441151143
 31
0.0
  0
MTEXT
  5
838D
330
837C
100
AcDbEntity
  8
0
100
AcDbMText
 10
64.00748831658797
 20
28.233538053536
 30
0.0
 40
4.318181818181822
 41
0.0
 71
     1
 72
     5
  1
\Ftxt.shx,bigfont.shx|c128;尺 度
  7
JL
 73
     1
 44
1.0
1001
ACAD
1000
MTEXTBEGIN
1070
    73
1070
     1
1070
    44
1040
1.0
1070
    74
1070
     0
1000
MTEXTEND
  0
LINE
  5
838E
330
837C
100
AcDbEntity
  8
frame
100
AcDbLine
 10
61.41414120582101
 20
30.70707061157179
 30
0.0
 11
61.41414120582101
 21
11.51515141965257
 31
0.0
  0
LINE
  5
838F
330
837C
100
AcDbEntity
  8
0
 62
     7
370
    25
100
AcDbLine
 10
39.61531081430576
 20
22.30000119893856
 30
0.0
 11
39.61531081430576
 21
28.47569093990893
 31
0.0
  0
CIRCLE
  5
8390
330
837C
100
AcDbEntity
  8
0
 62
     7
100
AcDbCircle
 10
39.61531081430576
 20
25.48914576003466
 30
0.0
 40
2.558188651476678
  0
LINE
  5
8391
330
837C
100
AcDbEntity
  8
0
 62
     7
370
    25
100
AcDbLine
 10
47.19321966087932
 20
25.48914576003478
 30
0.0
 11
53.50512560792203
 21
25.48914576003478
 31
0.0
  0
LINE
  5
8392
330
837C
100
AcDbEntity
  8
0
 62
     7
100
AcDbLine
 10
47.92942393160484
 20
24.21005143429648
 30
0.0
 11
53.0458012345581
 21
22.93095710855817
 31
0.0
  0
LINE
  5
8393
330
837C
100
AcDbEntity
  8
frame
100
AcDbLine
 10
42.22222201390184
 20
21.1111110156121
 30
0.0
 11
42.22222201390184
 21
11.51515141965257
 31
0.0
  0
LINE
  5
8394
330
837C
100
AcDbEntity
  8
0
 62
     7
370
    25
100
AcDbLine
 10
36.41832207654568
 20
25.48914576003466
 30
0.0
 11
43.00325246787224
 21
25.48914576003478
 31
0.0
  0
CIRCLE
  5
8395
330
837C
100
AcDbEntity
  8
0
 62
     7
100
AcDbCircle
 10
39.61531081430576
 20
25.48914576003466
 30
0.0
 40
1.279094325738339
  0
MTEXT
  5
8396
330
837C
100
AcDbEntity
  8
0
100
AcDbMText
 10
33.70184011630363
 20
18.61599208641672
 30
0.0
 40
4.318181818181822
 41
0.0
 71
     1
 72
     5
  1
\Ftxt.shx,bigfont.shx|c128;検 図
  7
JL
 73
     1
 44
1.0
1001
ACAD
1000
MTEXTBEGIN
1070
    73
1070
     1
1070
    44
1040
1.0
1070
    74
1070
     0
1000
MTEXTEND
  0
LINE
  5
8397
330
837C
100
AcDbEntity
  8
0
 62
     7
370
    25
100
AcDbLine
 10
47.92942393160484
 20
24.21005143429648
 30
0.0
 11
47.92942393160484
 21
26.76824008577313
 31
0.0
  0
MTEXT
  5
8398
330
837C
100
AcDbEntity
  8
0
100
AcDbMText
 10
64.28820229087785
 20
18.83573676714138
 30
0.0
 40
4.318181818181822
 41
0.0
 71
     1
 72
     5
  1
\Ftxt.shx,bigfont.shx|c128;承 認
  7
JL
 73
     1
 44
1.0
1001
ACAD
1000
MTEXTBEGIN
1070
    73
1070
     1
1070
    44
1040
1.0
1070
    74
1070
     0
1000
MTEXTEND
  0
LINE
  5
8399
330
837C
100
AcDbEntity
  8
frame
100
AcDbLine
 10
127.2575761297677
 20
41.39208860630179
 30
0.0
 11
184.8333337055253
 21
41.39208860630168
 31
0.0
  0
LINE
  5
839A
330
837C
100
AcDbEntity
  8
frame
100
AcDbLine
 10
127.2575761297677
 20
48.30117951539273
 30
0.0
 11
184.8333337055253
 21
48.30117951539273
 31
0.0
  0
LINE
  5
839B
330
837C
100
AcDbEntity
  8
frame
100
AcDbLine
 10
127.2575761297677
 20
55.21027042448361
 30
0.0
 11
184.8333337055253
 21
55.21027042448349
 31
0.0
  0
LINE
  5
839C
330
837C
100
AcDbEntity
  8
frame
100
AcDbLine
 10
127.2575761297677
 20
62.11936133357454
 30
0.0
 11
184.8333337055253
 21
62.11936133357443
 31
0.0
  0
LINE
  5
839D
330
837C
100
AcDbEntity
  8
frame
100
AcDbLine
 10
127.2575761297677
 20
34.48299769721081
 30
0.0
 11
184.8333337055253
 21
34.48299769721081
 31
0.0
  0
MTEXT
  5
839E
330
837C
100
AcDbEntity
  8
0
 62
     7
 48
2.0
100
AcDbMText
 10
155.935485187927
 20
62.88048253565029
 30
0.0
 40
4.606060606060611
 41
0.0
 71
     5
 72
     1
  1
\P\Ftxt.shx,bigfont.shx|c128;諸　　　　元
 73
     1
 44
1.0
1001
ACAD
1000
MTEXTBEGIN
1070
    73
1070
     1
1070
    44
1040
1.0
1070
    74
1070
     0
1000
MTEXTEND
  0
LINE
  5
839F
330
837C
100
AcDbEntity
  8
frame
100
AcDbLine
 10
127.2575761297677
 20
62.11936133357443
 30
0.0
 11
127.2575761297677
 21
34.48299769721081
 31
0.0
  0
MTEXT
  5
83A0
330
837C
100
AcDbEntity
  8
0
100
AcDbMText
 10
130.6376913045113
 20
53.74543839542827
 30
0.0
 40
4.222222222222227
 41
157.2934065657947
 71
     1
 72
     5
  1
\Ftxt.shx,bigfont.shx|c128;熱　処　理
  7
JL
 73
     1
 44
1.0
1001
ACAD
1000
MTEXTBEGIN
1070
    73
1070
     1
1070
    44
1040
1.0
1070
    74
1070
     0
1000
MTEXTEND
  0
LINE
  5
83A1
330
837C
100
AcDbEntity
  8
frame
100
AcDbLine
 10
150.2878791600707
 20
55.21027042448349
 30
0.0
 11
150.2878791600707
 21
34.48299769721081
 31
0.0
  0
MTEXT
  5
83A2
330
837C
100
AcDbEntity
  8
0
100
AcDbMText
 10
93.71128694774659
 20
10.70268210069247
 30
0.0
 40
4.797979797979802
 41
0.0
 71
     1
 72
     5
  1
\Ftxt.shx,bigfont.shx|c128;図  面  番  号
  7
JL
 73
     1
 44
1.0
1001
ACAD
1000
MTEXTBEGIN
1070
    73
1070
     1
1070
    44
1040
1.0
1070
    74
1070
     0
1000
MTEXTEND
  0
MTEXT
  5
83A3
330
837C
100
AcDbEntity
  8
0
 62
     7
 48
2.0
100
AcDbMText
 10
116.903818793818
 20
21.39089873461103
 30
0.0
 40
4.318181818181822
 41
0.0
 71
     5
 72
     1
  1
\P\Ftxt.shx,bigfont.shx|c128;    精密ロックナット
 73
     1
 44
1.0
1001
ACAD
1000
MTEXTBEGIN
1070
    73
1070
     1
1070
    44
1040
1.0
1070
    74
1070
     0
1000
MTEXTEND
  0
MTEXT
  5
83A4
330
837C
100
AcDbEntity
  8
0
370
    25
100
AcDbMText
 10
94.8083610948027
 20
28.60256934524625
 30
0.0
 40
4.797979797979802
 41
0.0
 71
     1
 72
     5
  1
\Ftxt.shx,bigfont.shx|c128;品  名
  7
JL
 73
     1
 44
1.0
1001
ACAD
1000
MTEXTBEGIN
1070
    73
1070
     1
1070
    44
1040
1.0
1070
    74
1070
     0
1000
MTEXTEND
  0
LINE
  5
83A5
330
837C
100
AcDbEntity
  8
frame
100
AcDbLine
 10
92.12121191289179
 20
30.70707061157179
 30
0.0
 11
92.12121191289179
 21
0.1833226624595454
 31
0.0
  0
LINE
  5
83A6
330
837C
100
AcDbEntity
  8
frame
100
AcDbLine
 10
72.92929272097257
 20
30.70707061157179
 30
0.0
 11
72.92929272097257
 21
11.51515141965257
 31
0.0
  0
LINE
  5
83A7
330
837C
100
AcDbEntity
  8
frame
100
AcDbLine
 10
147.0327090657453
 20
30.70707061157179
 30
0.0
 11
147.0327090657453
 21
11.51515141965257
 31
0.0
  0
MTEXT
  5
83A8
330
837C
100
AcDbEntity
  8
0
100
AcDbMText
 10
130.3687411539959
 20
47.02612826926958
 30
0.0
 40
4.222222222222227
 41
156.9955249906253
 71
     1
 72
     5
  1
\Ftxt.shx,bigfont.shx|c128;表 面 処 理
  7
JL
 73
     1
 44
1.0
1001
ACAD
1000
MTEXTBEGIN
1070
    73
1070
     1
1070
    44
1040
1.0
1070
    74
1070
     0
1000
MTEXTEND
  0
MTEXT
  5
83A9
330
837C
100
AcDbEntity
  8
0
100
AcDbMText
 10
130.6470871701709
 20
40.03213916732256
 30
0.0
 40
4.222222222222227
 41
159.457787878788
 71
     1
 72
     5
  1
\Ftxt.shx,bigfont.shx|c128;等     　級
  7
JL
 73
     1
 44
1.0
1001
ACAD
1000
MTEXTBEGIN
1070
    73
1070
     1
1070
    44
1040
1.0
1070
    74
1070
     0
1000
MTEXTEND
  0
LINE
  5
83AA
330
837C
100
AcDbEntity
  8
frame
100
AcDbLine
 10
184.8333337055253
 20
62.11936133357443
 30
0.0
 11
184.8333337055253
 21
34.48299769721092
 31
0.0
  0
MTEXT
  5
83AB
330
837C
100
AcDbEntity
  8
0
100
AcDbMText
 10
154.8430843560004
 20
53.57754949437861
 30
0.0
 40
4.222222222222227
 41
280.1022276782824
 71
     1
 72
     5
  1
\Ftxt.shx,bigfont.shx|c128;調質　HRC30%%d%%p２%%d
  7
JL
 73
     1
 44
1.0
1001
ACAD
1000
MTEXTBEGIN
1070
    73
1070
     1
1070
    44
1040
1.0
1070
    74
1070
     0
1000
MTEXTEND
  0
MTEXT
  5
83AC
330
837C
100
AcDbEntity
  8
0
370
    25
100
AcDbMText
 10
150.8959592384526
 20
28.3903158225707
 30
0.0
 40
4.797979797979802
 41
0.0
 71
     1
 72
     5
  1
\Ftxt.shx,bigfont.shx|c128;型  番
  7
JL
 73
     1
 44
1.0
1001
ACAD
1000
MTEXTBEGIN
1070
    73
1070
     1
1070
    44
1040
1.0
1070
    74
1070
     0
1000
MTEXTEND
  0
MTEXT
  5
83AD
330
837C
100
AcDbEntity
  8
0
100
AcDbMText
 10
165.8059612727121
 20
10.78298165421677
 30
0.0
 40
4.797979797979802
 41
0.0
 71
     1
 72
     5
  1
\Ftxt.shx,bigfont.shx|c128;変更
  7
JL
 73
     1
 44
1.0
1001
ACAD
1000
MTEXTBEGIN
1070
    73
1070
     1
1070
    44
1040
1.0
1070
    74
1070
     0
1000
MTEXTEND
  0
LINE
  5
83AE
330
837C
100
AcDbEntity
  8
frame
100
AcDbLine
 10
164.0909088825888
 20
11.52385522218384
 30
0.0
 11
164.0909088825888
 21
-0.0000000954989332
 31
0.0
  0
MTEXT
  5
83AF
330
837C
100
AcDbEntity
  8
0
100
AcDbMText
 10
155.093192488692
 20
40.03272506922013
 30
0.0
 40
4.222222222222227
 41
279.0345419768148
 71
     1
 72
     5
  1
\Ftxt.shx,bigfont.shx|c128;ＩＳＯ - ４Ｈ
  7
JL
 73
     1
 44
1.0
1001
ACAD
1000
MTEXTBEGIN
1070
    73
1070
     1
1070
    44
1040
1.0
1070
    74
1070
     0
1000
MTEXTEND
  0
MTEXT
  5
83B0
330
837C
100
AcDbEntity
  8
0
100
AcDbMText
 10
155.2606047495241
 20
46.68749363279772
 30
0.0
 40
4.222222222222227
 41
279.6788484848488
 71
     1
 72
     5
  1
\Ftxt.shx,bigfont.shx|c128;黒  　    染
  7
JL
 73
     1
 44
1.0
1001
ACAD
1000
MTEXTBEGIN
1070
    73
1070
     1
1070
    44
1040
1.0
1070
    74
1070
     0
1000
MTEXTEND
  0
MTEXT
  5
83B1
330
837C
100
AcDbEntity
  8
0
100
AcDbMText
 10
57.63639040502363
 20
260.9000582324484
 30
0.0
 40
4.797979797979802
 41
0.0
 71
     1
 72
     5
  1
{\Ftxt,bigfont|c128;M6X1.0P-5L}
  7
JL
 73
     1
 44
1.0
1001
ACAD
1000
ACAD_MTEXT_DEFINED_HEIGHT_BEGIN
1070
    46
1040
0.0
1000
ACAD_MTEXT_DEFINED_HEIGHT_END
1000
MTEXTBEGIN
1070
    73
1070
     1
1070
    44
1040
1.0
1070
    74
1070
     0
1000
MTEXTEND
  0
MTEXT
  5
83B2
330
837C
100
AcDbEntity
  8
0
100
AcDbMText
 10
57.63639040502363
 20
253.2232905556806
 30
0.0
 40
4.797979797979802
 41
0.0
 71
     1
 72
     5
  1
\Ftxt.shx,bigfont.shx|c128;%%c5.2X4L
  7
JL
 73
     1
 44
1.0
1001
ACAD
1000
MTEXTBEGIN
1070
    73
1070
     1
1070
    44
1040
1.0
1070
    74
1070
     0
1000
MTEXTEND
  0
LINE
  5
83B3
330
837C
100
AcDbEntity
  8
frame
100
AcDbLine
 10
-0.0000002083206141
 20
255.0505049550062
 30
0.0
 11
189.9999997916795
 21
255.0505049550062
 31
0.0
  0
LINE
  5
83B4
330
837C
100
AcDbEntity
  8
frame
100
AcDbLine
 10
-0.0000002083206141
 20
262.7272726317738
 30
0.0
 11
189.9999997916795
 21
262.7272726317738
 31
0.0
  0
LINE
  5
83B5
330
837C
100
AcDbEntity
  8
frame
 62
     9
100
AcDbLine
 10
-0.0000002083206141
 20
270.4040403085415
 30
0.0
 11
189.9999997916795
 21
270.4040403085415
 31
0.0
  0
MTEXT
  5
83B6
330
837C
100
AcDbEntity
  8
0
100
AcDbMText
 10
57.01564369771649
 20
277.4240559094051
 30
0.0
 40
4.797979797979802
 41
0.0
 71
     1
 72
     5
  1
\Ftxt.shx,bigfont.shx|c128;図    番 / 規　　格
  7
JL
 73
     1
 44
1.0
1001
ACAD
1000
MTEXTBEGIN
1070
    73
1070
     1
1070
    44
1040
1.0
1070
    74
1070
     0
1000
MTEXTEND
  0
LINE
  5
83B7
330
837C
100
AcDbEntity
  8
frame
100
AcDbLine
 10
-0.0000002083206141
 20
255.0505049550062
 30
0.0
 11
189.9999997916795
 21
255.0505049550062
 31
0.0
  0
LINE
  5
83B8
330
837C
100
AcDbEntity
  8
frame
100
AcDbLine
 10
-0.0000002083206141
 20
247.3737372782385
 30
0.0
 11
189.9999997916795
 21
247.3737372782385
 31
0.0
  0
MTEXT
  5
83B9
330
837C
100
AcDbEntity
  8
0
100
AcDbMText
 10
21.12488028091371
 20
276.9185478367069
 30
0.0
 40
4.797979797979802
 41
0.0
 71
     1
 72
     5
  1
\Ftxt.shx,bigfont.shx|c128;品　          名
  7
JL
 73
     1
 44
1.0
1001
ACAD
1000
MTEXTBEGIN
1070
    73
1070
     1
1070
    44
1040
1.0
1070
    74
1070
     0
1000
MTEXTEND
  0
MTEXT
  5
83BA
330
837C
100
AcDbEntity
  8
0
100
AcDbMText
 10
18.1028136627807
 20
261.3165274101151
 30
0.0
 40
5.757575757575764
 41
0.0
 71
     1
 72
     5
  1
\Ftxt.shx,bigfont.shx|c128;セットスクリュ-
  7
JL
 73
     1
 44
1.0
1001
ACAD
1000
MTEXTBEGIN
1070
    73
1070
     1
1070
    44
1040
1.0
1070
    74
1070
     0
1000
MTEXTEND
  0
MTEXT
  5
83BB
330
837C
100
AcDbEntity
  8
0
100
AcDbMText
 10
17.91509460031091
 20
268.8361229327975
 30
0.0
 40
5.757575757575764
 41
0.0
 71
     1
 72
     5
  1
\Ftxt.shx,bigfont.shx|c128;ロックナット　  
  7
JL
 73
     1
 44
1.0
1001
ACAD
1000
MTEXTBEGIN
1070
    73
1070
     1
1070
    44
1040
1.0
1070
    74
1070
     0
1000
MTEXTEND
  0
MTEXT
  5
83BC
330
837C
100
AcDbEntity
  8
0
100
AcDbMText
 10
18.1028136627807
 20
253.6397597333475
 30
0.0
 40
5.757575757575764
 41
0.0
 71
     1
 72
     5
  1
\Ftxt.shx,bigfont.shx|c128;ロックピン 
  7
JL
 73
     1
 44
1.0
1001
ACAD
1000
MTEXTBEGIN
1070
    73
1070
     1
1070
    44
1040
1.0
1070
    74
1070
     0
1000
MTEXTEND
  0
LINE
  5
83BD
330
837C
100
AcDbEntity
  8
frame
100
AcDbLine
 10
14.39393918561876
 20
279.9999999045009
 30
0.0
 11
14.3939391856191
 21
247.3737372782385
 31
0.0
  0
MTEXT
  5
83BE
330
837C
100
AcDbEntity
  8
0
100
AcDbMText
 10
5.964166087660373
 20
253.8449078730441
 30
0.0
 40
4.797979797979802
 41
0.0
 71
     1
 72
     5
  1
\Ftxt.shx,bigfont.shx|c128;3
  7
JL
 73
     1
 44
1.0
1001
ACAD
1000
MTEXTBEGIN
1070
    73
1070
     1
1070
    44
1040
1.0
1070
    74
1070
     0
1000
MTEXTEND
  0
MTEXT
  5
83BF
330
837C
100
AcDbEntity
  8
0
100
AcDbMText
 10
6.815009059693181
 20
269.0412710724944
 30
0.0
 40
4.797979797979802
 41
0.0
 71
     1
 72
     5
  1
\Ftxt.shx,bigfont.shx|c128;1
  7
JL
 73
     1
 44
1.0
1001
ACAD
1000
MTEXTBEGIN
1070
    73
1070
     1
1070
    44
1040
1.0
1070
    74
1070
     0
1000
MTEXTEND
  0
MTEXT
  5
83C0
330
837C
100
AcDbEntity
  8
0
100
AcDbMText
 10
5.964166087660373
 20
261.5216755498117
 30
0.0
 40
4.797979797979802
 41
0.0
 71
     1
 72
     5
  1
\Ftxt.shx,bigfont.shx|c128;2
  7
JL
 73
     1
 44
1.0
1001
ACAD
1000
MTEXTBEGIN
1070
    73
1070
     1
1070
    44
1040
1.0
1070
    74
1070
     0
1000
MTEXTEND
  0
MTEXT
  5
83C1
330
837C
100
AcDbEntity
  8
0
100
AcDbMText
 10
2.119827864659612
 20
277.2061606576178
 30
0.0
 40
4.797979797979802
 41
0.0
 71
     1
 72
     5
  1
\Ftxt.shx,bigfont.shx|c128;照   号
  7
JL
 73
     1
 44
1.0
1001
ACAD
1000
MTEXTBEGIN
1070
    73
1070
     1
1070
    44
1040
1.0
1070
    74
1070
     0
1000
MTEXTEND
  0
LINE
  5
83C2
330
837C
100
AcDbEntity
  8
frame
 62
     9
100
AcDbLine
 10
52.77777756945721
 20
279.9999999045009
 30
0.0
 11
52.77777756945721
 21
247.3737372782385
 31
0.0
  0
MTEXT
  5
83C3
330
837C
100
AcDbEntity
  8
0
100
AcDbMText
 10
140.4228359158322
 20
277.6781662939205
 30
0.0
 40
4.797979797979802
 41
0.0
 71
     1
 72
     5
  1
\Ftxt.shx,bigfont.shx|c128;備           考
  7
JL
 73
     1
 44
1.0
1001
ACAD
1000
MTEXTBEGIN
1070
    73
1070
     1
1070
    44
1040
1.0
1070
    74
1070
     0
1000
MTEXTEND
  0
LINE
  5
83C4
330
837C
100
AcDbEntity
  8
frame
 62
     9
100
AcDbLine
 10
91.16161595329561
 20
279.9999999045011
 30
0.0
 11
91.16161595329561
 21
247.3737372782385
 31
0.0
  0
MTEXT
  5
83C5
330
837C
100
AcDbEntity
  8
0
100
AcDbMText
 10
92.8734106834732
 20
253.4825875792621
 30
0.0
 40
4.797979797979802
 41
0.0
 71
     1
 72
     5
  1
\Ftxt.shx,bigfont.shx|c128;C3604
  7
JL
 73
     1
 44
1.0
1001
ACAD
1000
MTEXTBEGIN
1070
    73
1070
     1
1070
    44
1040
1.0
1070
    74
1070
     0
1000
MTEXTEND
  0
MTEXT
  5
83C6
330
837C
100
AcDbEntity
  8
0
100
AcDbMText
 10
92.8734106834732
 20
268.8361229327975
 30
0.0
 40
4.797979797979802
 41
0.0
 71
     1
 72
     5
  1
\Ftxt.shx,bigfont.shx|c128;SCM-440
  7
JL
 73
     1
 44
1.0
1001
ACAD
1000
MTEXTBEGIN
1070
    73
1070
     1
1070
    44
1040
1.0
1070
    74
1070
     0
1000
MTEXTEND
  0
MTEXT
  5
83C7
330
837C
100
AcDbEntity
  8
0
100
AcDbMText
 10
92.8734106834732
 20
261.1593552560298
 30
0.0
 40
4.797979797979802
 41
0.0
 71
     1
 72
     5
  1
\Ftxt.shx,bigfont.shx|c128;SCM435
  7
JL
 73
     1
 44
1.0
1001
ACAD
1000
MTEXTBEGIN
1070
    73
1070
     1
1070
    44
1040
1.0
1070
    74
1070
     0
1000
MTEXTEND
  0
MTEXT
  5
83C8
330
837C
100
AcDbEntity
  8
0
100
AcDbMText
 10
95.76798842272149
 20
277.6781662939205
 30
0.0
 40
4.797979797979802
 41
0.0
 71
     1
 72
     5
  1
\Ftxt.shx,bigfont.shx|c128;材　質
  7
JL
 73
     1
 44
1.0
1001
ACAD
1000
MTEXTBEGIN
1070
    73
1070
     1
1070
    44
1040
1.0
1070
    74
1070
     0
1000
MTEXTEND
  0
LINE
  5
83C9
330
837C
100
AcDbEntity
  8
frame
 62
     9
100
AcDbLine
 10
110.3535351452148
 20
279.9999999045011
 30
0.0
 11
110.3535351452148
 21
247.3737372782385
 31
0.0
  0
LINE
  5
83CA
330
837C
100
AcDbEntity
  8
frame
100
AcDbLine
 10
124.7474745391542
 20
279.9999999045011
 30
0.0
 11
124.7474745391542
 21
247.3737372782385
 31
0.0
  0
MTEXT
  5
83CB
330
837C
100
AcDbEntity
  8
0
100
AcDbMText
 10
116.3177014411957
 20
253.8449078730441
 30
0.0
 40
4.797979797979802
 41
0.0
 71
     1
 72
     5
  1
\Ftxt.shx,bigfont.shx|c128;3
  7
JL
 73
     1
 44
1.0
1001
ACAD
1000
MTEXTBEGIN
1070
    73
1070
     1
1070
    44
1040
1.0
1070
    74
1070
     0
1000
MTEXTEND
  0
MTEXT
  5
83CC
330
837C
100
AcDbEntity
  8
0
100
AcDbMText
 10
117.1685444132285
 20
269.0412710724944
 30
0.0
 40
4.797979797979802
 41
0.0
 71
     1
 72
     5
  1
\Ftxt.shx,bigfont.shx|c128;1
  7
JL
 73
     1
 44
1.0
1001
ACAD
1000
MTEXTBEGIN
1070
    73
1070
     1
1070
    44
1040
1.0
1070
    74
1070
     0
1000
MTEXTEND
  0
MTEXT
  5
83CD
330
837C
100
AcDbEntity
  8
0
100
AcDbMText
 10
116.3177014411957
 20
261.5216755498117
 30
0.0
 40
4.797979797979802
 41
0.0
 71
     1
 72
     5
  1
\Ftxt.shx,bigfont.shx|c128;3
  7
JL
 73
     1
 44
1.0
1001
ACAD
1000
MTEXTBEGIN
1070
    73
1070
     1
1070
    44
1040
1.0
1070
    74
1070
     0
1000
MTEXTEND
  0
MTEXT
  5
83CE
330
837C
100
AcDbEntity
  8
0
100
AcDbMText
 10
111.7293465556405
 20
277.6781662939205
 30
0.0
 40
4.797979797979802
 41
0.0
 71
     1
 72
     5
  1
\Ftxt.shx,bigfont.shx|c128;数   量
  7
JL
 73
     1
 44
1.0
1001
ACAD
1000
MTEXTBEGIN
1070
    73
1070
     1
1070
    44
1040
1.0
1070
    74
1070
     0
1000
MTEXTEND
  0
ARC
  5
83CF
330
837C
100
AcDbEntity
  8
contour
100
AcDbCircle
 10
91.16161595329561
 20
188.57353856933
 30
0.0
 40
22.5
100
AcDbArc
 50
186.3793702084431
 51
293.6206297915559
  0
ARC
  5
83D0
330
837C
100
AcDbEntity
  8
contour
100
AcDbCircle
 10
91.16161595329561
 20
188.57353856933
 30
0.0
 40
22.5
100
AcDbArc
 50
306.3793702084431
 51
53.62062979155687
  0
ARC
  5
83D1
330
837C
100
AcDbEntity
  8
contour
100
AcDbCircle
 10
91.16161595329561
 20
188.57353856933
 30
0.0
 40
22.5
100
AcDbArc
 50
66.3793702084411
 51
173.6206297915568
  0
LINE
  5
83D2
330
837C
100
AcDbEntity
  8
center
 48
0.2
100
AcDbLine
 10
67.66161595329561
 20
188.57353856933
 30
0.0
 11
114.6616159532956
 21
188.57353856933
 31
0.0
  0
LINE
  5
83D3
330
837C
100
AcDbEntity
  8
contour
100
AcDbLine
 10
68.80093617829771
 20
186.0735385693301
 30
0.0
 11
70.80093617829778
 21
186.0735385693301
 31
0.0
  0
LINE
  5
83D4
330
837C
100
AcDbEntity
  8
contour
100
AcDbLine
 10
68.80093617829771
 20
191.0735385693301
 30
0.0
 11
70.80093617829778
 21
191.0735385693301
 31
0.0
  0
LINE
  5
83D5
330
837C
100
AcDbEntity
  8
center
 48
0.2
100
AcDbLine
 10
91.16161595329561
 20
212.0735385693301
 30
0.0
 11
91.16161595329561
 21
165.0735385693301
 31
0.0
  0
LINE
  5
83D6
330
837C
100
AcDbEntity
  8
contour
100
AcDbLine
 10
70.80093617829771
 20
191.0735385693301
 30
0.0
 11
70.80093617829771
 21
186.0735385693301
 31
0.0
  0
LINE
  5
83D7
330
837C
100
AcDbEntity
  8
contour
100
AcDbLine
 10
104.5070193502556
 20
170.458621838293
 30
0.0
 11
103.5070193502556
 21
172.1906726458619
 31
0.0
  0
LINE
  5
83D8
330
837C
100
AcDbEntity
  8
contour
100
AcDbLine
 10
100.1768923313335
 20
167.958621838293
 30
0.0
 11
99.17689233133343
 21
169.6906726458618
 31
0.0
  0
LINE
  5
83D9
330
837C
100
AcDbEntity
  8
contour
100
AcDbLine
 10
99.17689233133343
 20
169.6906726458618
 30
0.0
 11
103.5070193502556
 21
172.1906726458619
 31
0.0
  0
LINE
  5
83DA
330
837C
100
AcDbEntity
  8
contour
100
AcDbLine
 10
100.1768923313334
 20
209.1884553003672
 30
0.0
 11
99.17689233133343
 21
207.4564044927982
 31
0.0
  0
LINE
  5
83DB
330
837C
100
AcDbEntity
  8
contour
100
AcDbLine
 10
104.5070193502555
 20
206.6884553003672
 30
0.0
 11
103.5070193502556
 21
204.9564044927982
 31
0.0
  0
LINE
  5
83DC
330
837C
100
AcDbEntity
  8
contour
100
AcDbLine
 10
103.5070193502556
 20
204.9564044927983
 30
0.0
 11
99.17689233133343
 21
207.4564044927983
 31
0.0
  0
CIRCLE
  5
83DD
330
837C
100
AcDbEntity
  8
contour
100
AcDbCircle
 10
91.16161595329561
 20
188.57353856933
 30
0.0
 40
20.0
  0
ARC
  5
83DE
330
837C
100
AcDbEntity
  8
contour
 62
     4
100
AcDbCircle
 10
91.16161595329561
 20
188.57353856933
 30
0.0
 40
15.0
100
AcDbArc
 50
172.3377443392343
 51
97.66225566076565
  0
CIRCLE
  5
83DF
330
837C
100
AcDbEntity
  8
contour
100
AcDbCircle
 10
91.16161595329561
 20
188.57353856933
 30
0.0
 40
14.188
  0
CIRCLE
  5
83E0
330
837C
100
AcDbEntity
  8
contour
100
AcDbCircle
 10
91.16161595329561
 20
188.57353856933
 30
0.0
 40
15.5
  0
LINE
  5
83E1
330
837C
100
AcDbEntity
  8
bowle
 48
0.2
100
AcDbLine
 10
105.028819853145
 20
185.57353856933
 30
0.0
 11
113.4607190742733
 21
185.57353856933
 31
0.0
  0
LINE
  5
83E2
330
837C
100
AcDbEntity
  8
bowle
 48
0.2
100
AcDbLine
 10
105.028819853145
 20
191.5735385693301
 30
0.0
 11
113.4607190742733
 21
191.5735385693301
 31
0.0
  0
LINE
  5
83E3
330
837C
100
AcDbEntity
  8
bowle
 48
0.2
100
AcDbLine
 10
105.1347238395176
 20
191.0335385693302
 30
0.0
 11
113.5267316471613
 21
191.0335385693302
 31
0.0
  0
LINE
  5
83E4
330
837C
100
AcDbEntity
  8
bowle
 48
0.2
100
AcDbLine
 10
105.1347238395176
 20
186.1135385693299
 30
0.0
 11
113.5267316471613
 21
186.1135385693299
 31
0.0
  0
LINE
  5
83E5
330
837C
100
AcDbEntity
  8
bowle
 48
0.2
100
AcDbLine
 10
86.82609021472421
 20
202.0828894260583
 30
0.0
 11
82.61014060416011
 21
209.3851283537057
 31
0.0
  0
LINE
  5
83E6
330
837C
100
AcDbEntity
  8
bowle
 48
0.2
100
AcDbLine
 10
81.62993779201753
 20
199.0828894260583
 30
0.0
 11
77.41398818145341
 21
206.3851283537057
 31
0.0
  0
LINE
  5
83E7
330
837C
100
AcDbEntity
  8
bowle
 48
0.2
100
AcDbLine
 10
82.04463951687477
 20
199.4446049686189
 30
0.0
 11
77.84863561305292
 21
206.7122969187957
 31
0.0
  0
LINE
  5
83E8
330
837C
100
AcDbEntity
  8
bowle
 48
0.2
100
AcDbLine
 10
86.30548450349449
 20
201.9046049686191
 30
0.0
 11
82.10948059967263
 21
209.1722969187959
 31
0.0
  0
LINE
  5
83E9
330
837C
100
AcDbEntity
  8
bowle
 48
0.2
100
AcDbLine
 10
81.62993779201753
 20
178.0641877126018
 30
0.0
 11
77.41398818145336
 21
170.7619487849545
 31
0.0
  0
LINE
  5
83EA
330
837C
100
AcDbEntity
  8
bowle
 48
0.2
100
AcDbLine
 10
86.82609021472416
 20
175.0641877126018
 30
0.0
 11
82.61014060416
 21
167.7619487849545
 31
0.0
  0
LINE
  5
83EB
330
837C
100
AcDbEntity
  8
bowle
 48
0.2
100
AcDbLine
 10
86.30548450349442
 20
175.2424721700411
 30
0.0
 11
82.10948059967256
 21
167.9747802198642
 31
0.0
  0
LINE
  5
83EC
330
837C
100
AcDbEntity
  8
bowle
 48
0.2
100
AcDbLine
 10
82.04463951687472
 20
177.7024721700412
 30
0.0
 11
77.84863561305286
 21
170.4347802198644
 31
0.0
  0
HATCH
  5
83ED
330
837C
100
AcDbEntity
  8
section
100
AcDbHatch
 10
0.0
 20
0.0
 30
0.0
210
0.0
220
0.0
230
1.0
  2
ANSI31
 70
     0
 71
     0
 91
       10
 92
        7
 72
     0
 73
     1
 93
        9
 10
76.16161595329566
 20
109.2285164154925
 10
75.6616159532956
 20
109.7285164154926
 10
75.6616159532956
 20
110.7285164154926
 10
71.16161595329561
 20
110.7285164154926
 10
71.16161595329561
 20
110.2285164154926
 10
70.80093617829778
 20
110.2285164154926
 10
70.80093617829771
 20
98.7285164154926
 10
75.47361595329562
 20
98.7285164154926
 10
76.16161595329561
 20
99.4165164154926
 97
        0
 92
        7
 72
     0
 73
     1
 93
        4
 10
76.97361595329562
 20
108.4165164154926
 10
76.16161595329572
 20
109.2285164154925
 10
76.16161595329561
 20
99.4165164154926
 10
76.97361595329562
 20
100.2285164154926
 97
        0
 92
        7
 72
     1
 73
     1
 93
        9
 10
113.6616159532956
 20
108.7285164154926
 42
0.4142135623730951
 10
112.1616159532957
 20
110.2285164154926
 42
0.0
 10
111.1616159532956
 20
110.2285164154926
 42
0.0
 10
111.1616159532956
 20
110.7285164154926
 42
0.0
 10
106.6616159532956
 20
110.7285164154926
 42
0.0
 10
106.6616159532956
 20
109.7285164154926
 42
0.0
 10
106.1616159532955
 20
109.2285164154925
 42
0.0
 10
106.1616159532955
 20
107.7285164154926
 42
0.0
 10
113.6616159532957
 20
107.7285164154926
 42
0.0
 97
        0
 92
        7
 72
     0
 73
     1
 93
        4
 10
106.1616159532956
 20
109.2285164154925
 10
105.3496159532956
 20
108.4165164154926
 10
105.3496159532956
 20
107.7285164154926
 10
106.1616159532955
 20
107.7285164154926
 97
        0
 92
        7
 72
     0
 73
     1
 93
        6
 10
110.1616159532957
 20
107.7285164154926
 10
105.3496159532956
 20
107.7285164154926
 10
105.3496159532956
 20
107.3285164154926
 10
108.6616159532957
 20
107.3285164154926
 10
108.6616159532957
 20
107.1885164154927
 10
109.6216159532958
 20
107.1885164154927
 97
        0
 92
        7
 72
     0
 73
     1
 93
        6
 10
109.6216159532958
 20
102.2685164154924
 10
108.6616159532956
 20
102.2685164154924
 10
108.6616159532956
 20
102.1285164154926
 10
105.3496159532956
 20
102.1285164154927
 10
105.3496159532956
 20
101.7285164154927
 10
110.1616159532956
 20
101.7285164154926
 97
        0
 92
        7
 72
     0
 73
     1
 93
        4
 10
106.1616159532955
 20
101.7285164154927
 10
105.3496159532956
 20
101.7285164154927
 10
105.3496159532956
 20
100.2285164154926
 10
106.1616159532956
 20
99.41651641549265
 97
        0
 92
        7
 72
     1
 73
     1
 93
        6
 10
113.6616159532956
 20
100.2285164154926
 42
0.0
 10
113.6616159532956
 20
101.7285164154926
 42
0.0
 10
106.1616159532955
 20
101.7285164154927
 42
0.0
 10
106.1616159532956
 20
99.41651641549265
 42
0.0
 10
106.8496159532956
 20
98.7285164154926
 42
0.0
 10
112.1616159532956
 20
98.7285164154926
 42
0.4142135623730951
 97
        0
 92
        7
 72
     0
 73
     1
 93
        3
 10
113.6616159532957
 20
102.2685164154924
 10
112.7263085172087
 20
101.7285164154926
 10
113.6616159532956
 20
101.7285164154926
 97
        0
 92
        7
 72
     0
 73
     1
 93
        3
 10
113.6616159532957
 20
107.7285164154926
 10
112.7263085172087
 20
107.7285164154926
 10
113.6616159532956
 20
107.1885164154927
 97
        0
 75
     0
 76
     1
 52
0.0
 41
0.5
 77
     0
 78
     1
 53
45.0
 43
-147.2208447727761
 44
17.71466631562617
 45
-1.122532015133643
 46
1.122532015133644
 79
     0
 47
0.0240230326415467
 98
       10
 10
71.57251219677267
 20
107.0506570524335
 10
76.34925703572605
 20
104.6277419675394
 10
108.0446379347894
 20
108.5799471098292
 10
105.9949588675471
 20
108.287229221419
 10
107.9470349851625
 20
107.5554327148241
 10
109.5574972113592
 20
102.1401368994903
 10
105.8973544908305
 20
100.5789708600373
 10
108.3374496378495
 20
100.0911069191005
 10
113.4871130090915
 20
102.0045705309565
 10
113.5111437734791
 20
107.5779154123041
1001
ACAD
1010
0.0
1020
0.0
1030
0.0
  0
LINE
  5
83EE
330
837C
100
AcDbEntity
  8
contour
100
AcDbLine
 10
113.6616159532956
 20
108.7285164154926
 30
0.0
 11
113.6616159532956
 21
100.2285164154926
 31
0.0
  0
ARC
  5
83EF
330
837C
100
AcDbEntity
  8
contour
100
AcDbCircle
 10
112.1616159532956
 20
100.2285164154926
 30
0.0
 40
1.5
100
AcDbArc
 50
270.0
 51
0.0
  0
LINE
  5
83F0
330
837C
100
AcDbEntity
  8
contour
100
AcDbLine
 10
112.1616159532956
 20
98.7285164154926
 30
0.0
 11
70.16161595329561
 21
98.7285164154926
 31
0.0
  0
LINE
  5
83F1
330
837C
100
AcDbEntity
  8
contour
100
AcDbLine
 10
68.66161595329561
 20
100.2285164154926
 30
0.0
 11
68.66161595329561
 21
108.7285164154926
 31
0.0
  0
ARC
  5
83F2
330
837C
100
AcDbEntity
  8
contour
100
AcDbCircle
 10
70.16161595329561
 20
108.7285164154926
 30
0.0
 40
1.5
100
AcDbArc
 50
90.0
 51
180.0
  0
ARC
  5
83F3
330
837C
100
AcDbEntity
  8
contour
100
AcDbCircle
 10
70.16161595329561
 20
100.2285164154926
 30
0.0
 40
1.5
100
AcDbArc
 50
180.0
 51
270.0
  0
LINE
  5
83F4
330
837C
100
AcDbEntity
  8
contour
100
AcDbLine
 10
71.16161595329561
 20
110.7285164154926
 30
0.0
 11
111.1616159532956
 21
110.7285164154926
 31
0.0
  0
LINE
  5
83F5
330
837C
100
AcDbEntity
  8
contour
100
AcDbLine
 10
71.16161595329561
 20
110.7285164154926
 30
0.0
 11
71.16161595329561
 21
110.2285164154926
 31
0.0
  0
LINE
  5
83F6
330
837C
100
AcDbEntity
  8
contour
100
AcDbLine
 10
71.16161595329561
 20
110.2285164154926
 30
0.0
 11
70.16161595329561
 21
110.2285164154926
 31
0.0
  0
LINE
  5
83F7
330
837C
100
AcDbEntity
  8
contour
100
AcDbLine
 10
111.1616159532956
 20
110.7285164154926
 30
0.0
 11
111.1616159532956
 21
110.2285164154926
 31
0.0
  0
LINE
  5
83F8
330
837C
100
AcDbEntity
  8
contour
100
AcDbLine
 10
111.1616159532956
 20
110.2285164154926
 30
0.0
 11
112.1616159532957
 21
110.2285164154926
 31
0.0
  0
ARC
  5
83F9
330
837C
100
AcDbEntity
  8
contour
100
AcDbCircle
 10
112.1616159532957
 20
108.7285164154926
 30
0.0
 40
1.5
100
AcDbArc
 50
0.0
 51
90.0
  0
LINE
  5
83FA
330
837C
100
AcDbEntity
  8
contour
100
AcDbLine
 10
76.97361595329562
 20
108.4165164154926
 30
0.0
 11
76.97361595329562
 21
100.2285164154926
 31
0.0
  0
LINE
  5
83FB
330
837C
100
AcDbEntity
  8
contour
100
AcDbLine
 10
75.47361595329562
 20
98.7285164154926
 30
0.0
 11
76.97361595329562
 21
100.2285164154926
 31
0.0
  0
LINE
  5
83FC
330
837C
100
AcDbEntity
  8
contour
 62
     4
100
AcDbLine
 10
76.16161595329566
 20
109.2285164154926
 30
0.0
 11
76.16161595329561
 21
99.4165164154926
 31
0.0
  0
LINE
  5
83FD
330
837C
100
AcDbEntity
  8
contour
100
AcDbLine
 10
75.6616159532956
 20
110.7285164154926
 30
0.0
 11
75.6616159532956
 21
109.7285164154926
 31
0.0
  0
LINE
  5
83FE
330
837C
100
AcDbEntity
  8
contour
100
AcDbLine
 10
75.6616159532956
 20
109.7285164154926
 30
0.0
 11
76.97361595329562
 21
108.4165164154926
 31
0.0
  0
LINE
  5
83FF
330
837C
100
AcDbEntity
  8
contour
100
AcDbLine
 10
105.3496159532956
 20
108.4165164154926
 30
0.0
 11
105.3496159532956
 21
100.2285164154926
 31
0.0
  0
LINE
  5
8400
330
837C
100
AcDbEntity
  8
contour
100
AcDbLine
 10
106.8496159532956
 20
98.7285164154926
 30
0.0
 11
105.3496159532956
 21
100.2285164154926
 31
0.0
  0
LINE
  5
8401
330
837C
100
AcDbEntity
  8
contour
 62
     4
100
AcDbLine
 10
106.1616159532955
 20
109.2285164154926
 30
0.0
 11
106.1616159532955
 21
107.7285164154926
 31
0.0
  0
LINE
  5
8402
330
837C
100
AcDbEntity
  8
contour
 62
     4
100
AcDbLine
 10
106.1616159532955
 20
101.7285164154927
 30
0.0
 11
106.1616159532956
 21
99.4165164154926
 31
0.0
  0
LINE
  5
8403
330
837C
100
AcDbEntity
  8
contour
100
AcDbLine
 10
106.6616159532956
 20
110.7285164154926
 30
0.0
 11
106.6616159532956
 21
109.7285164154926
 31
0.0
  0
LINE
  5
8404
330
837C
100
AcDbEntity
  8
contour
100
AcDbLine
 10
106.6616159532956
 20
109.7285164154926
 30
0.0
 11
105.3496159532956
 21
108.4165164154926
 31
0.0
  0
LINE
  5
8405
330
837C
100
AcDbEntity
  8
contour
100
AcDbLine
 10
76.97361595329562
 20
108.4165164154926
 30
0.0
 11
105.3496159532956
 21
108.4165164154926
 31
0.0
  0
LINE
  5
8406
330
837C
100
AcDbEntity
  8
contour
100
AcDbLine
 10
105.3496159532956
 20
100.2285164154926
 30
0.0
 11
76.97361595329562
 21
100.2285164154927
 31
0.0
  0
LINE
  5
8407
330
837C
100
AcDbEntity
  8
contour
100
AcDbLine
 10
75.6616159532956
 20
109.7285164154926
 30
0.0
 11
106.6616159532956
 21
109.7285164154926
 31
0.0
  0
LINE
  5
8408
330
837C
100
AcDbEntity
  8
contour
100
AcDbLine
 10
70.80093617829778
 20
110.2285164154926
 30
0.0
 11
70.80093617829778
 21
98.7285164154926
 31
0.0
  0
LINE
  5
8409
330
837C
100
AcDbEntity
  8
center
 48
0.2
100
AcDbLine
 10
91.16161595329561
 20
111.7285164154926
 30
0.0
 11
91.16161595329561
 21
97.72851641549261
 31
0.0
  0
LINE
  5
840A
330
837C
100
AcDbEntity
  8
center
 48
0.2
100
AcDbLine
 10
104.3496159532956
 20
104.7285164154926
 30
0.0
 11
114.6616159532956
 21
104.7285164154926
 31
0.0
  0
LWPOLYLINE
  5
840B
330
837C
100
AcDbEntity
  8
contour
100
AcDbPolyline
 90
        2
 70
     0
 43
0.0
 10
113.6616159532956
 20
102.2685164154924
 10
113.6616159532956
 20
107.1885164154927
  0
LWPOLYLINE
  5
840C
330
837C
100
AcDbEntity
  8
contour
100
AcDbPolyline
 90
        6
 70
     0
 43
0.0
 10
110.1616159532956
 20
107.7285164154926
 10
110.1616159532956
 20
107.7285164154926
 10
108.6616159532956
 20
106.2285164154926
 10
108.6616159532956
 20
103.2285164154926
 10
110.1616159532956
 20
101.7285164154926
 10
110.1616159532956
 20
101.7285164154926
  0
LINE
  5
840D
330
837C
100
AcDbEntity
  8
contour
 62
     4
100
AcDbLine
 10
105.3496159532956
 20
101.7285164154927
 30
0.0
 11
113.6616159532958
 21
101.7285164154926
 31
0.0
  0
LINE
  5
840E
330
837C
100
AcDbEntity
  8
contour
 62
     4
100
AcDbLine
 10
105.3496159532956
 20
107.7285164154926
 30
0.0
 11
113.6616159532956
 21
107.7285164154926
 31
0.0
  0
LINE
  5
840F
330
837C
100
AcDbEntity
  8
contour
100
AcDbLine
 10
108.6616159532956
 20
107.1885164154927
 30
0.0
 11
109.6216159532958
 21
107.1885164154927
 31
0.0
  0
LINE
  5
8410
330
837C
100
AcDbEntity
  8
contour
100
AcDbLine
 10
108.6616159532956
 20
102.2685164154924
 30
0.0
 11
109.6216159532958
 21
102.2685164154924
 31
0.0
  0
LINE
  5
8411
330
837C
100
AcDbEntity
  8
contour
100
AcDbLine
 10
110.1616159532956
 20
107.7285164154926
 30
0.0
 11
110.1616159532956
 21
101.7285164154926
 31
0.0
  0
LINE
  5
8412
330
837C
100
AcDbEntity
  8
contour
100
AcDbLine
 10
111.6616159532955
 20
106.2285164154926
 30
0.0
 11
113.6616159532955
 21
106.2285164154926
 31
0.0
  0
LINE
  5
8413
330
837C
100
AcDbEntity
  8
contour
100
AcDbLine
 10
111.6616159532955
 20
103.2285164154926
 30
0.0
 11
113.6616159532955
 21
103.2285164154926
 31
0.0
  0
LINE
  5
8414
330
837C
100
AcDbEntity
  8
contour
100
AcDbLine
 10
111.6616159532955
 20
106.2285164154926
 30
0.0
 11
111.6616159532955
 21
103.2285164154926
 31
0.0
  0
LINE
  5
8415
330
837C
100
AcDbEntity
  8
contour
100
AcDbLine
 10
111.6616159532955
 20
106.2285164154926
 30
0.0
 11
111.1609437867835
 21
104.7371470404728
 31
0.0
  0
LINE
  5
8416
330
837C
100
AcDbEntity
  8
contour
100
AcDbLine
 10
111.1609437867835
 20
104.7371470404728
 30
0.0
 11
111.6616159532955
 21
103.2285164154926
 31
0.0
  0
LINE
  5
8417
330
837C
100
AcDbEntity
  8
contour
 62
     4
100
AcDbLine
 10
109.6216159532958
 20
107.1885164154927
 30
0.0
 11
113.6616159532956
 21
107.1885164154927
 31
0.0
  0
LINE
  5
8418
330
837C
100
AcDbEntity
  8
contour
 62
     4
100
AcDbLine
 10
109.6216159532958
 20
102.2685164154924
 30
0.0
 11
113.6616159532958
 21
102.2685164154924
 31
0.0
  0
LINE
  5
8419
330
837C
100
AcDbEntity
  8
contour
100
AcDbLine
 10
112.7263085172087
 20
107.7285164154926
 30
0.0
 11
113.6616159532956
 21
107.1885164154927
 31
0.0
  0
LINE
  5
841A
330
837C
100
AcDbEntity
  8
contour
100
AcDbLine
 10
112.7263085172087
 20
101.7285164154926
 30
0.0
 11
113.6616159532956
 21
102.2685164154924
 31
0.0
  0
LINE
  5
841B
330
837C
100
AcDbEntity
  8
contour
100
AcDbLine
 10
112.7263085172087
 20
107.7285164154926
 30
0.0
 11
112.7263085172087
 21
101.7285164154926
 31
0.0
  0
HATCH
  5
841C
330
837C
100
AcDbEntity
  8
section
100
AcDbHatch
 10
0.0
 20
0.0
 30
0.0
210
0.0
220
0.0
230
1.0
  2
AR-SAND
 70
     0
 71
     1
 91
        1
 92
        7
 72
     0
 73
     1
 93
        4
 10
105.3496159532956
 20
107.3285164154926
 10
105.3496159532956
 20
102.1285164154927
 10
108.6616159532956
 20
102.1285164154926
 10
108.6616159532956
 20
107.3285164154926
 97
        1
330
841D
 75
     0
 76
     1
 52
0.0
 41
0.02
 77
     0
 78
     4
 53
37.5
 43
-62.2911114161605
 44
-50.89262819728531
 45
-0.0320006259196809
 46
0.9788264746586847
 79
     6
 49
0.0
 49
-0.7721600000000001
 49
0.0
 49
-0.8636000000000001
 49
0.0
 49
-0.8255
 53
7.499999999999999
 43
-62.2911114161605
 44
-50.89262819728531
 45
0.8990465662760053
 46
1.433650201136708
 79
     6
 49
0.0
 49
-0.4165600000000001
 49
0.0
 49
-0.69596
 49
0.0
 49
-0.2667000000000001
 53
327.5
 43
-62.91595141616051
 44
-50.89262819728531
 45
1.581984740482915
 46
0.0028743693570914
 79
     6
 49
0.0
 49
-0.254
 49
0.0
 49
-0.9144
 49
0.0
 49
-1.193799999999999
 53
317.5
 43
-62.91595141616051
 44
-50.89262819728531
 45
1.527112904944594
 46
0.4458586465144325
 79
     6
 49
0.0
 49
-0.127
 49
0.0
 49
-0.59944
 49
0.0
 49
-0.6858
 47
0.0273978319239897
 98
        1
 10
106.8974578335368
 20
105.9023996491387
1001
ACAD
1010
0.0
1020
0.0
1030
0.0
  0
LWPOLYLINE
  5
841D
102
{ACAD_REACTORS
330
841C
102
}
330
837C
100
AcDbEntity
  8
contour
100
AcDbPolyline
 90
        4
 70
     1
 43
0.0
 10
105.3496159532956
 20
107.3285164154926
 10
105.3496159532956
 20
102.1285164154927
 10
108.6616159532956
 20
102.1285164154926
 10
108.6616159532956
 20
107.3285164154926
  0
DIMENSION
  5
841E
330
837C
100
AcDbEntity
  8
mark
100
AcDbDimension
  2
*D4
 10
59.53426951163101
 20
191.0735385693301
 30
0.0
 11
57.48426951163098
 21
188.5735385693301
 31
0.0
 12
-0.0000002083204436
 22
3.484619196974676
 32
0.0
 71
     5
 42
5.0
  3
STANDARD
100
AcDbAlignedDimension
 13
68.80093617829771
 23
186.0735385693301
 33
0.0
 14
68.80093617829766
 24
191.0735385693301
 34
0.0
 50
90.0
100
AcDbRotatedDimension
  0
DIMENSION
  5
841F
330
837C
100
AcDbEntity
  8
mark
100
AcDbDimension
  2
*D5
 10
68.80093617829771
 20
166.0735385693301
 30
0.0
 11
62.16760284496438
 21
168.1235385693301
 31
0.0
 12
-0.0000002083204436
 22
3.484619196974676
 32
0.0
 71
     5
 42
2.0
  3
STANDARD
100
AcDbAlignedDimension
 13
70.80093617829771
 23
186.0735385693301
 33
0.0
 14
68.80093617829771
 24
186.0735385693301
 34
0.0
100
AcDbRotatedDimension
  0
DIMENSION
  5
8420
330
837C
100
AcDbEntity
  8
mark
100
AcDbDimension
  2
*D6
 10
59.53426951163101
 20
110.7285164154926
 30
0.0
 11
57.484269511631
 21
118.8201830821593
 31
0.0
 12
-0.0000002083204436
 22
3.484619196974676
 32
0.0
 71
     5
 42
0.5
  3
STANDARD
100
AcDbAlignedDimension
 13
70.16161595329561
 23
110.2285164154926
 33
0.0
 14
71.16161595329561
 24
110.7285164154926
 34
0.0
 50
90.0
100
AcDbRotatedDimension
  0
DIMENSION
  5
8421
330
837C
100
AcDbEntity
  8
mark
100
AcDbDimension
  2
*D7
 10
106.6616159532956
 20
119.7376705000427
 30
0.0
 11
91.16161595329561
 21
121.7876705000427
 31
0.0
 12
-0.0000002083204436
 22
3.484619196974676
 32
0.0
  1
%%c31
 71
     5
 42
31.0
  3
STANDARD
100
AcDbAlignedDimension
 13
75.6616159532956
 23
110.7285164154926
 33
0.0
 14
106.6616159532956
 24
110.7285164154926
 34
0.0
100
AcDbRotatedDimension
  0
DIMENSION
  5
8422
330
837C
100
AcDbEntity
  8
mark
100
AcDbDimension
  2
*D8
 10
111.1616159532956
 20
124.94850316256
 30
0.0
 11
91.16161595329561
 21
126.99850316256
 31
0.0
 12
-0.0000002083204436
 22
3.484619196974676
 32
0.0
  1
%%c40%%p0.5
 71
     5
 42
40.0
  3
STANDARD
100
AcDbAlignedDimension
 13
71.16161595329561
 23
110.7285164154926
 33
0.0
 14
111.1616159532956
 24
110.7285164154926
 34
0.0
100
AcDbRotatedDimension
  0
DIMENSION
  5
8423
330
837C
100
AcDbEntity
  8
mark
100
AcDbDimension
  2
*D9
 10
113.6616159532956
 20
130.9914729902562
 30
0.0
 11
91.16161595329563
 21
133.0414729902562
 31
0.0
 12
-0.0000002083204436
 22
3.484619196974676
 32
0.0
  1
%%c45
 71
     5
 42
45.00000000000006
  3
STANDARD
100
AcDbAlignedDimension
 13
68.66161595329561
 23
108.7285164154926
 33
0.0
 14
113.6616159532956
 24
108.7285164154926
 34
0.0
100
AcDbRotatedDimension
  0
MTEXT
  5
8424
330
837C
100
AcDbEntity
  8
mark
 62
     3
100
AcDbMText
 10
95.4528798226687
 20
134.7880045756296
 30
0.0
 40
1.25
 41
0.0
 71
     1
 72
     1
  1
+0\P-0.2
 73
     1
 44
1.0
1001
ACAD
1000
ACAD_MTEXT_DEFINED_HEIGHT_BEGIN
1070
    46
1040
0.0
1000
ACAD_MTEXT_DEFINED_HEIGHT_END
1000
MTEXTBEGIN
1070
    73
1070
     1
1070
    44
1040
1.0
1070
    74
1070
     0
1000
MTEXTEND
  0
DIMENSION
  5
8425
330
837C
100
AcDbEntity
  8
mark
100
AcDbDimension
  2
*D10
 10
121.5451239365571
 20
104.7285164154926
 30
0.0
 11
119.4951239365571
 21
107.7285164154926
 31
0.0
 12
-0.0000002083204436
 22
3.484619196974676
 32
0.0
 71
     5
 42
6.0
  3
STANDARD
100
AcDbAlignedDimension
 13
111.1616159532956
 23
110.7285164154926
 33
0.0
 14
114.6616159532956
 24
104.7285164154926
 34
0.0
 50
90.0
100
AcDbRotatedDimension
  0
DIMENSION
  5
8426
330
837C
100
AcDbEntity
  8
mark
100
AcDbDimension
  2
*D11
 10
129.2580031963577
 20
98.7285164154926
 30
0.0
 11
129.2580031963576
 21
104.7285164154926
 31
0.0
 12
-0.0000002083204436
 22
3.484619196974676
 32
0.0
 70
   128
  1
12%%p0.2
 71
     5
 42
12.0
  3
STANDARD
100
AcDbAlignedDimension
 13
111.1616159532956
 23
110.7285164154926
 33
0.0
 14
112.1616159532956
 24
98.7285164154926
 34
0.0
 50
90.0
100
AcDbRotatedDimension
  0
DIMENSION
  5
8427
330
837C
100
AcDbEntity
  8
mark
100
AcDbDimension
  2
*D12
 10
106.1616159532956
 20
85.58011663800431
 30
0.0
 11
84.96945712844228
 21
85.58011663800431
 31
0.0
 12
-0.0000002083204436
 22
3.484619196974676
 32
0.0
 70
   128
  1
M30X1.5P
 71
     5
 42
30.0
  3
STANDARD
100
AcDbAlignedDimension
 13
76.16161595329561
 23
99.4165164154926
 33
0.0
 14
106.1616159532956
 24
99.41651641549373
 34
0.0
100
AcDbRotatedDimension
  0
LINE
  5
8428
330
837C
100
AcDbEntity
  8
mark
100
AcDbLine
 10
76.16161595329561
 20
85.03392340155484
 30
0.0
 11
76.16161595329561
 21
76.28392340155483
 31
0.0
  0
INSERT
  5
8429
330
837C
100
AcDbEntity
  8
mark
100
AcDbBlockReference
  2
A
 10
72.08234794914904
 20
80.67506850333741
 30
0.0
  0
TOLERANCE
  5
842A
330
837C
100
AcDbEntity
  8
mark
100
AcDbFcf
  3
STANDARD
 10
134.2580031963576
 20
120.7285164154919
 30
0.0
  1
{\Fgdt;h}%%v0.005%%v%%vA%%v%%v
1001
ACAD
1000
DSTYLE
1002
{
1070
    41
1040
2.5
1070
    42
1040
0.8
1070
    43
1040
6.0
1070
    44
1040
0.8
1070
    73
1070
     0
1070
    74
1070
     0
1070
    78
1070
     8
1070
    79
1070
     2
1070
   140
1040
2.5
1070
   141
1040
0.0
1070
   144
1040
1.0
1070
   147
1040
0.8
1070
   176
1070
   256
1070
   177
1070
   256
1070
   178
1070
     3
1070
   179
1070
     2
1070
   271
1070
     1
1070
   272
1070
     1
1070
   341
1005
82DC
1070
   342
1005
82DC
1002
}
  0
LWPOLYLINE
  5
842B
330
837C
100
AcDbEntity
  8
mark
100
AcDbPolyline
 90
        3
 70
     0
 43
0.0
 10
129.2580031963576
 20
110.7285164154919
 10
129.2580031963576
 20
120.7285164154919
 10
134.2580031963576
 20
120.7285164154919
  0
DIMENSION
  5
842C
330
837C
100
AcDbEntity
  8
mark
100
AcDbDimension
  2
*D13
 10
70.16161595329584
 20
100.2285164154927
 30
0.0
 11
59.42537799227943
 21
92.39141625734266
 31
0.0
 12
-0.0000002083204436
 22
3.484619196974676
 32
0.0
 70
     4
  1
2-R1.5
 71
     5
 42
1.500000000000042
  3
STANDARD
100
AcDbRadialDimension
 15
69.1009557815159
 25
99.16785624371295
 35
0.0
 40
0.0
1001
ACAD
1000
DSTYLE
1002
{
1070
   288
1070
     1
1002
}
  0
TEXT
  5
842D
330
837C
100
AcDbEntity
  8
DIM
100
AcDbText
 10
94.22640754484826
 20
86.3978014057614
 30
0.0
 40
2.5
  1
(左ネヅ)
  7
TXT
100
AcDbText
  0
LEADER
  5
842E
330
837C
100
AcDbEntity
  8
mark
100
AcDbLeader
  3
STANDARD
 76
     2
 10
106.0996159532956
 20
99.47851641549261
 30
0.0
 10
97.25655997246144
 20
90.63546043465846
 30
0.0
  0
MTEXT
  5
842F
330
837C
100
AcDbEntity
  8
DIM
100
AcDbMText
 10
97.93079501615535
 20
94.58709849509222
 30
0.0
 40
2.5
 41
0.0
 71
     5
 72
     1
  1
C1.5
 11
0.7071067811865575
 21
0.7071067811865376
 31
0.0
 73
     1
 44
1.0
1001
ACAD
1000
ACAD_MTEXT_DEFINED_HEIGHT_BEGIN
1070
    46
1040
0.0
1000
ACAD_MTEXT_DEFINED_HEIGHT_END
1000
MTEXTBEGIN
1070
    73
1070
     1
1070
    44
1040
1.0
1070
    74
1070
     0
1000
MTEXTEND
  0
LWPOLYLINE
  5
8430
330
837C
100
AcDbEntity
  8
mark
100
AcDbPolyline
 90
        7
 70
     1
 43
0.0
 10
93.16684523213927
 20
113.2368277375034
 10
101.8270992699837
 20
113.2368277375034
 10
100.3837235970095
 20
110.7368277375033
 10
98.94034792403557
 20
113.2368277375034
 10
97.49697225106139
 20
110.7368277375033
 10
96.05359657808742
 20
113.2368277375034
 10
94.61022090511324
 20
110.7368277375033
  0
MTEXT
  5
8431
330
837C
100
AcDbEntity
  8
mark
 62
     3
100
AcDbMText
 10
97.51764916906541
 20
115.2925041262562
 30
0.0
 40
2.5
 41
0.0
 71
     5
 72
     1
  1
G
 73
     1
 44
1.0
1001
ACAD
1000
ACAD_MTEXT_DEFINED_HEIGHT_BEGIN
1070
    46
1040
0.0
1000
ACAD_MTEXT_DEFINED_HEIGHT_END
1000
MTEXTBEGIN
1070
    73
1070
     1
1070
    44
1040
1.0
1070
    74
1070
     0
1000
MTEXTEND
  0
LEADER
  5
8432
330
837C
100
AcDbEntity
  8
mark
100
AcDbLeader
  3
STANDARD
 76
     2
 10
113.6616159532956
 20
104.7285164154926
 30
0.0
 10
126.2849082668451
 20
126.6268152510716
 30
0.0
211
0.5000000000000001
221
0.8660254037844385
231
0.0
  0
MTEXT
  5
8433
330
837C
100
AcDbEntity
  8
mark
 62
     3
100
AcDbMText
 10
128.5777949051355
 20
127.0235146719797
 30
0.0
 40
3.5
 41
0.0
 71
     5
 72
     1
  1
2
 73
     1
 44
1.0
1001
ACAD
1000
ACAD_MTEXT_DEFINED_HEIGHT_BEGIN
1070
    46
1040
0.0
1000
ACAD_MTEXT_DEFINED_HEIGHT_END
1000
MTEXTBEGIN
1070
    73
1070
     1
1070
    44
1040
1.0
1070
    74
1070
     0
1000
MTEXTEND
  0
MTEXT
  5
8434
330
837C
100
AcDbEntity
  8
mark
 62
     3
100
AcDbMText
 10
128.5777949051355
 20
91.61448184263651
 30
0.0
 40
3.5
 41
0.0
 71
     5
 72
     1
  1
3
 73
     1
 44
1.0
1001
ACAD
1000
ACAD_MTEXT_DEFINED_HEIGHT_BEGIN
1070
    46
1040
0.0
1000
ACAD_MTEXT_DEFINED_HEIGHT_END
1000
MTEXTBEGIN
1070
    73
1070
     1
1070
    44
1040
1.0
1070
    74
1070
     0
1000
MTEXTEND
  0
LEADER
  5
8435
330
837C
100
AcDbEntity
  8
mark
100
AcDbLeader
  3
STANDARD
 76
     2
 10
107.0056159532956
 20
102.1285164154926
 30
0.0
 10
127.3160906431521
 20
91.38539424188895
 30
0.0
  0
LEADER
  5
8436
330
837C
100
AcDbEntity
  8
mark
100
AcDbLeader
  3
STANDARD
 76
     2
 10
110.6471875384454
 20
199.82353856933
 30
0.0
 10
126.2849082668451
 20
208.8519808413838
 30
0.0
211
0.8660254037844387
221
0.5
231
0.0
1001
ACAD
1000
DSTYLE
1002
{
1070
   147
1040
0.8
1070
    77
1070
     0
1002
}
  0
MTEXT
  5
8437
330
837C
100
AcDbEntity
  8
mark
 62
     3
100
AcDbMText
 10
128.5777949051355
 20
208.753480290345
 30
0.0
 40
3.5
 41
0.0
 71
     5
 72
     1
  1
1
 73
     1
 44
1.0
1001
ACAD
1000
ACAD_MTEXT_DEFINED_HEIGHT_BEGIN
1070
    46
1040
0.0
1000
ACAD_MTEXT_DEFINED_HEIGHT_END
1000
MTEXTBEGIN
1070
    73
1070
     1
1070
    44
1040
1.0
1070
    74
1070
     0
1000
MTEXTEND
  0
LINE
  5
8438
330
837C
100
AcDbEntity
  8
center
 48
0.2
100
AcDbLine
 10
79.4116159532956
 20
208.9251355582644
 30
0.0
 11
84.56761595329556
 21
199.9946815944392
 31
0.0
  0
LINE
  5
8439
330
837C
100
AcDbEntity
  8
center
 48
0.2
100
AcDbLine
 10
79.4116159532956
 20
168.2219415803957
 30
0.0
 11
84.56761595329556
 21
177.1523955442209
 31
0.0
  0
MTEXT
  5
843A
330
837C
100
AcDbEntity
  8
mark
 62
     3
100
AcDbMText
 10
55.00123204881413
 20
191.0096239916482
 30
0.0
 40
1.25
 41
0.0
 71
     1
 72
     1
  1
+0.15\P+0
 11
0.0000000000000001
 21
1.0
 31
0.0
 73
     1
 44
1.0
1001
ACAD
1000
ACAD_MTEXT_DEFINED_HEIGHT_BEGIN
1070
    46
1040
0.0
1000
ACAD_MTEXT_DEFINED_HEIGHT_END
1000
MTEXTBEGIN
1070
    73
1070
     1
1070
    44
1040
1.0
1070
    74
1070
     0
1000
MTEXTEND
  0
MTEXT
  5
843B
330
837C
100
AcDbEntity
  8
mark
 62
     3
100
AcDbMText
 10
55.83456538214739
 20
196.2700209887341
 30
0.0
 40
2.5
 41
0.0
 71
     1
 72
     1
  1
({\Ftxt,bigfont|c128;3等分\Ftxt,bigfont|c136;)}
 11
0.0000000000000001
 21
1.0
 31
0.0
 73
     1
 44
1.0
1001
ACAD
1000
ACAD_MTEXT_DEFINED_HEIGHT_BEGIN
1070
    46
1040
0.0
1000
ACAD_MTEXT_DEFINED_HEIGHT_END
1000
MTEXTBEGIN
1070
    73
1070
     1
1070
    44
1040
1.0
1070
    74
1070
     0
1000
MTEXTEND
  0
MTEXT
  5
843C
330
837C
100
AcDbEntity
  8
mark
 62
     3
100
AcDbMText
 10
63.61635684495411
 20
169.8551094740574
 30
0.0
 40
1.25
 41
0.0
 71
     1
 72
     1
  1
+0.15\P+0
 73
     1
 44
1.0
1001
ACAD
1000
ACAD_MTEXT_DEFINED_HEIGHT_BEGIN
1070
    46
1040
0.0
1000
ACAD_MTEXT_DEFINED_HEIGHT_END
1000
MTEXTBEGIN
1070
    73
1070
     1
1070
    44
1040
1.0
1070
    74
1070
     0
1000
MTEXTEND
  0
DIMENSION
  5
843D
330
837C
100
AcDbEntity
  8
mark
100
AcDbDimension
  2
*D14
 10
84.43516824698974
 20
109.7285164154926
 30
0.0
 11
82.38516824698972
 21
103.5118497488259
 31
0.0
 12
-0.0000002083204436
 22
3.484619196974676
 32
0.0
 71
     5
  3
STANDARD
100
AcDbAlignedDimension
 13
84.43516824698974
 23
110.7285164154926
 33
0.0
 14
84.43516824698974
 24
109.7285164154926
 34
0.0
 50
90.0
100
AcDbRotatedDimension
  0
MTEXT
  5
843E
330
837C
100
AcDbEntity
  8
0
 48
2.0
100
AcDbMText
 10
157.5452034378255
 20
18.32852069651136
 30
0.0
 40
4.5
 41
0.0
 71
     5
 72
     1
  1
\P\Ftxt.shx,bigfont.shx|c128;    (左ネジ)
 73
     1
 44
1.0
1001
ACAD
1000
MTEXTBEGIN
1070
    73
1070
     1
1070
    44
1040
1.0
1070
    74
1070
     0
1000
MTEXTEND
  0
MTEXT
  5
843F
330
837C
100
AcDbEntity
  8
0
100
AcDbMText
 10
128.4168891292017
 20
269.4750276005132
 30
0.0
 40
6.0
 41
0.0
 71
     1
 72
     5
  1
\Ftxt.shx,bigfont.shx|c128;左ネジ　  
  7
JL
 73
     1
 44
1.0
1001
ACAD
1000
MTEXTBEGIN
1070
    73
1070
     1
1070
    44
1040
1.0
1070
    74
1070
     0
1000
MTEXTEND
  0
ENDBLK
  5
8443
330
837C
100
AcDbEntity
  8
0
100
AcDbBlockEnd
  0
BLOCK
  5
8E7F
330
8E73
100
AcDbEntity
  8
0
100
AcDbBlockBegin
  2
*D16
 70
     1
 10
0.0
 20
0.0
 30
0.0
  3
*D16
  1

  0
LINE
  5
913E
330
8E73
100
AcDbEntity
  8
mark
370
    -2
100
AcDbLine
 10
68.00093638661817
 20
186.073538664829
 30
0.0
 11
58.73426971995145
 21
186.073538664829
 31
0.0
  0
LINE
  5
913F
330
8E73
100
AcDbEntity
  8
mark
370
    -2
100
AcDbLine
 10
68.0009363866181
 20
191.073538664829
 30
0.0
 11
58.73426971995145
 21
191.073538664829
 31
0.0
  0
LINE
  5
9140
330
8E73
100
AcDbEntity
  8
mark
370
    -2
100
AcDbLine
 10
59.53426971995146
 20
183.573538664829
 30
0.0
 11
59.53426971995146
 21
181.073538664829
 31
0.0
  0
LINE
  5
9141
330
8E73
100
AcDbEntity
  8
mark
370
    -2
100
AcDbLine
 10
59.53426971995146
 20
193.573538664829
 30
0.0
 11
59.53426971995146
 21
196.073538664829
 31
0.0
  0
LINE
  5
9142
330
8E73
100
AcDbEntity
  8
mark
370
    -2
100
AcDbLine
 10
59.53426971995146
 20
186.073538664829
 30
0.0
 11
59.53426971995146
 21
191.073538664829
 31
0.0
  0
INSERT
  5
9143
330
8E73
100
AcDbEntity
  8
mark
370
    -2
100
AcDbBlockReference
  2
_Open30
 10
59.53426971995146
 20
186.073538664829
 30
0.0
 41
2.5
 42
2.5
 43
2.5
 50
90.0
  0
INSERT
  5
9144
330
8E73
100
AcDbEntity
  8
mark
370
    -2
100
AcDbBlockReference
  2
_Open30
 10
59.53426971995146
 20
191.073538664829
 30
0.0
 41
2.5
 42
2.5
 43
2.5
 50
270.0
  0
MTEXT
  5
9145
330
8E73
100
AcDbEntity
  8
mark
 62
     3
100
AcDbMText
 10
57.48426971995143
 20
188.573538664829
 30
0.0
 40
2.5
 41
0.0
 71
     5
 72
     1
  1
\A1;5
 11
0.0000000000000001
 21
1.0
 31
0.0
 73
     1
 44
1.0
1001
ACAD
1000
MTEXTBEGIN
1070
    73
1070
     1
1070
    44
1040
1.0
1070
    74
1070
     0
1000
MTEXTEND
  0
POINT
  5
9146
330
8E73
100
AcDbEntity
  8
DEFPOINTS
 62
     0
100
AcDbPoint
 10
68.80093638661816
 20
186.073538664829
 30
0.0
  0
POINT
  5
9147
330
8E73
100
AcDbEntity
  8
DEFPOINTS
 62
     0
100
AcDbPoint
 10
68.80093638661811
 20
191.073538664829
 30
0.0
  0
POINT
  5
9148
330
8E73
100
AcDbEntity
  8
DEFPOINTS
 62
     0
100
AcDbPoint
 10
59.53426971995146
 20
191.073538664829
 30
0.0
  0
ENDBLK
  5
8E80
330
8E73
100
AcDbEntity
  8
0
100
AcDbBlockEnd
  0
BLOCK
  5
8E8D
330
8E81
100
AcDbEntity
  8
0
100
AcDbBlockBegin
  2
*D17
 70
     1
 10
0.0
 20
0.0
 30
0.0
  3
*D17
  1

  0
LINE
  5
9149
330
8E81
100
AcDbEntity
  8
mark
370
    -2
100
AcDbLine
 10
70.80093638661816
 20
185.273538664829
 30
0.0
 11
70.80093638661816
 21
165.273538664829
 31
0.0
  0
LINE
  5
914A
330
8E81
100
AcDbEntity
  8
mark
370
    -2
100
AcDbLine
 10
68.80093638661816
 20
185.273538664829
 30
0.0
 11
68.80093638661816
 21
165.273538664829
 31
0.0
  0
LINE
  5
914B
330
8E81
100
AcDbEntity
  8
mark
370
    -2
100
AcDbLine
 10
73.30093638661816
 20
166.073538664829
 30
0.0
 11
75.80093638661816
 21
166.073538664829
 31
0.0
  0
LINE
  5
914C
330
8E81
100
AcDbEntity
  8
mark
370
    -2
100
AcDbLine
 10
66.30093638661816
 20
166.073538664829
 30
0.0
 11
60.5342697199515
 21
166.073538664829
 31
0.0
  0
LINE
  5
914D
330
8E81
100
AcDbEntity
  8
mark
370
    -2
100
AcDbLine
 10
70.80093638661816
 20
166.073538664829
 30
0.0
 11
68.80093638661816
 21
166.073538664829
 31
0.0
  0
INSERT
  5
914E
330
8E81
100
AcDbEntity
  8
mark
370
    -2
100
AcDbBlockReference
  2
_Open30
 10
70.80093638661816
 20
166.073538664829
 30
0.0
 41
2.5
 42
2.5
 43
2.5
 50
180.0
  0
INSERT
  5
914F
330
8E81
100
AcDbEntity
  8
mark
370
    -2
100
AcDbBlockReference
  2
_Open30
 10
68.80093638661816
 20
166.073538664829
 30
0.0
 41
2.5
 42
2.5
 43
2.5
  0
MTEXT
  5
9150
330
8E81
100
AcDbEntity
  8
mark
 62
     3
100
AcDbMText
 10
62.16760305328483
 20
168.123538664829
 30
0.0
 40
2.5
 41
0.0
 71
     5
 72
     1
  1
\A1;2
 73
     1
 44
1.0
1001
ACAD
1000
MTEXTBEGIN
1070
    73
1070
     1
1070
    44
1040
1.0
1070
    74
1070
     0
1000
MTEXTEND
  0
POINT
  5
9151
330
8E81
100
AcDbEntity
  8
DEFPOINTS
 62
     0
100
AcDbPoint
 10
70.80093638661816
 20
186.073538664829
 30
0.0
  0
POINT
  5
9152
330
8E81
100
AcDbEntity
  8
DEFPOINTS
 62
     0
100
AcDbPoint
 10
68.80093638661816
 20
186.073538664829
 30
0.0
  0
POINT
  5
9153
330
8E81
100
AcDbEntity
  8
DEFPOINTS
 62
     0
100
AcDbPoint
 10
68.80093638661816
 20
166.073538664829
 30
0.0
  0
ENDBLK
  5
8E8E
330
8E81
100
AcDbEntity
  8
0
100
AcDbBlockEnd
  0
BLOCK
  5
8E9B
330
8E8F
100
AcDbEntity
  8
0
100
AcDbBlockBegin
  2
*D18
 70
     1
 10
0.0
 20
0.0
 30
0.0
  3
*D18
  1

  0
LINE
  5
9154
330
8E8F
100
AcDbEntity
  8
mark
370
    -2
100
AcDbLine
 10
69.36161616161605
 20
110.2285165109915
 30
0.0
 11
58.73426971995145
 21
110.2285165109915
 31
0.0
  0
LINE
  5
9155
330
8E8F
100
AcDbEntity
  8
mark
370
    -2
100
AcDbLine
 10
70.36161616161606
 20
110.7285165109915
 30
0.0
 11
58.73426971995145
 21
110.7285165109915
 31
0.0
  0
LINE
  5
9156
330
8E8F
100
AcDbEntity
  8
mark
370
    -2
100
AcDbLine
 10
59.53426971995146
 20
107.7285165109915
 30
0.0
 11
59.53426971995146
 21
105.2285165109915
 31
0.0
  0
LINE
  5
9157
330
8E8F
100
AcDbEntity
  8
mark
370
    -2
100
AcDbLine
 10
59.53426971995146
 20
113.2285165109915
 30
0.0
 11
59.53426971995146
 21
121.9118498443249
 31
0.0
  0
LINE
  5
9158
330
8E8F
100
AcDbEntity
  8
mark
370
    -2
100
AcDbLine
 10
59.53426971995146
 20
110.2285165109915
 30
0.0
 11
59.53426971995146
 21
110.7285165109915
 31
0.0
  0
INSERT
  5
9159
330
8E8F
100
AcDbEntity
  8
mark
370
    -2
100
AcDbBlockReference
  2
_Open30
 10
59.53426971995146
 20
110.2285165109915
 30
0.0
 41
2.5
 42
2.5
 43
2.5
 50
90.0
  0
INSERT
  5
915A
330
8E8F
100
AcDbEntity
  8
mark
370
    -2
100
AcDbBlockReference
  2
_Open30
 10
59.53426971995146
 20
110.7285165109915
 30
0.0
 41
2.5
 42
2.5
 43
2.5
 50
270.0
  0
MTEXT
  5
915B
330
8E8F
100
AcDbEntity
  8
mark
 62
     3
100
AcDbMText
 10
57.48426971995144
 20
118.8201831776582
 30
0.0
 40
2.5
 41
0.0
 71
     5
 72
     1
  1
\A1;0.5
 11
0.0000000000000001
 21
1.0
 31
0.0
 73
     1
 44
1.0
1001
ACAD
1000
MTEXTBEGIN
1070
    73
1070
     1
1070
    44
1040
1.0
1070
    74
1070
     0
1000
MTEXTEND
  0
POINT
  5
915C
330
8E8F
100
AcDbEntity
  8
DEFPOINTS
 62
     0
100
AcDbPoint
 10
70.16161616161605
 20
110.2285165109915
 30
0.0
  0
POINT
  5
915D
330
8E8F
100
AcDbEntity
  8
DEFPOINTS
 62
     0
100
AcDbPoint
 10
71.16161616161605
 20
110.7285165109915
 30
0.0
  0
POINT
  5
915E
330
8E8F
100
AcDbEntity
  8
DEFPOINTS
 62
     0
100
AcDbPoint
 10
59.53426971995146
 20
110.7285165109915
 30
0.0
  0
ENDBLK
  5
8E9C
330
8E8F
100
AcDbEntity
  8
0
100
AcDbBlockEnd
  0
BLOCK
  5
8EA7
330
8E9D
100
AcDbEntity
  8
0
100
AcDbBlockBegin
  2
*D19
 70
     1
 10
0.0
 20
0.0
 30
0.0
  3
*D19
  1

  0
LINE
  5
915F
330
8E9D
100
AcDbEntity
  8
mark
370
    -2
100
AcDbLine
 10
75.66161616161605
 20
111.5285165109915
 30
0.0
 11
75.66161616161605
 21
120.5376705955416
 31
0.0
  0
LINE
  5
9160
330
8E9D
100
AcDbEntity
  8
mark
370
    -2
100
AcDbLine
 10
106.661616161616
 20
111.5285165109915
 30
0.0
 11
106.661616161616
 21
120.5376705955416
 31
0.0
  0
LINE
  5
9161
330
8E9D
100
AcDbEntity
  8
mark
370
    -2
100
AcDbLine
 10
78.16161616161605
 20
119.7376705955416
 30
0.0
 11
104.161616161616
 21
119.7376705955416
 31
0.0
  0
INSERT
  5
9162
330
8E9D
100
AcDbEntity
  8
mark
370
    -2
100
AcDbBlockReference
  2
_Open30
 10
75.66161616161605
 20
119.7376705955416
 30
0.0
 41
2.5
 42
2.5
 43
2.5
 50
180.0
  0
INSERT
  5
9163
330
8E9D
100
AcDbEntity
  8
mark
370
    -2
100
AcDbBlockReference
  2
_Open30
 10
106.661616161616
 20
119.7376705955416
 30
0.0
 41
2.5
 42
2.5
 43
2.5
  0
MTEXT
  5
9164
330
8E9D
100
AcDbEntity
  8
mark
 62
     3
100
AcDbMText
 10
91.16161616161605
 20
121.7876705955416
 30
0.0
 40
2.5
 41
0.0
 71
     5
 72
     1
  1
\A1;%%c31
 73
     1
 44
1.0
1001
ACAD
1000
MTEXTBEGIN
1070
    73
1070
     1
1070
    44
1040
1.0
1070
    74
1070
     0
1000
MTEXTEND
  0
POINT
  5
9165
330
8E9D
100
AcDbEntity
  8
DEFPOINTS
 62
     0
100
AcDbPoint
 10
75.66161616161605
 20
110.7285165109915
 30
0.0
  0
POINT
  5
9166
330
8E9D
100
AcDbEntity
  8
DEFPOINTS
 62
     0
100
AcDbPoint
 10
106.661616161616
 20
110.7285165109915
 30
0.0
  0
POINT
  5
9167
330
8E9D
100
AcDbEntity
  8
DEFPOINTS
 62
     0
100
AcDbPoint
 10
106.661616161616
 20
119.7376705955416
 30
0.0
  0
ENDBLK
  5
8EA8
330
8E9D
100
AcDbEntity
  8
0
100
AcDbBlockEnd
  0
BLOCK
  5
8EB3
330
8EA9
100
AcDbEntity
  8
0
100
AcDbBlockBegin
  2
*D20
 70
     1
 10
0.0
 20
0.0
 30
0.0
  3
*D20
  1

  0
LINE
  5
9168
330
8EA9
100
AcDbEntity
  8
mark
370
    -2
100
AcDbLine
 10
71.16161616161605
 20
111.5285165109915
 30
0.0
 11
71.16161616161605
 21
125.7485032580589
 31
0.0
  0
LINE
  5
9169
330
8EA9
100
AcDbEntity
  8
mark
370
    -2
100
AcDbLine
 10
111.161616161616
 20
111.5285165109915
 30
0.0
 11
111.161616161616
 21
125.7485032580589
 31
0.0
  0
LINE
  5
916A
330
8EA9
100
AcDbEntity
  8
mark
370
    -2
100
AcDbLine
 10
73.66161616161605
 20
124.9485032580589
 30
0.0
 11
108.661616161616
 21
124.9485032580589
 31
0.0
  0
INSERT
  5
916B
330
8EA9
100
AcDbEntity
  8
mark
370
    -2
100
AcDbBlockReference
  2
_Open30
 10
71.16161616161605
 20
124.9485032580589
 30
0.0
 41
2.5
 42
2.5
 43
2.5
 50
180.0
  0
INSERT
  5
916C
330
8EA9
100
AcDbEntity
  8
mark
370
    -2
100
AcDbBlockReference
  2
_Open30
 10
111.161616161616
 20
124.9485032580589
 30
0.0
 41
2.5
 42
2.5
 43
2.5
  0
MTEXT
  5
916D
330
8EA9
100
AcDbEntity
  8
mark
 62
     3
100
AcDbMText
 10
91.16161616161605
 20
126.9985032580589
 30
0.0
 40
2.5
 41
0.0
 71
     5
 72
     1
  1
\A1;%%c40%%p0.5
 73
     1
 44
1.0
1001
ACAD
1000
MTEXTBEGIN
1070
    73
1070
     1
1070
    44
1040
1.0
1070
    74
1070
     0
1000
MTEXTEND
  0
POINT
  5
916E
330
8EA9
100
AcDbEntity
  8
DEFPOINTS
 62
     0
100
AcDbPoint
 10
71.16161616161605
 20
110.7285165109915
 30
0.0
  0
POINT
  5
916F
330
8EA9
100
AcDbEntity
  8
DEFPOINTS
 62
     0
100
AcDbPoint
 10
111.161616161616
 20
110.7285165109915
 30
0.0
  0
POINT
  5
9170
330
8EA9
100
AcDbEntity
  8
DEFPOINTS
 62
     0
100
AcDbPoint
 10
111.161616161616
 20
124.9485032580589
 30
0.0
  0
ENDBLK
  5
8EB4
330
8EA9
100
AcDbEntity
  8
0
100
AcDbBlockEnd
  0
BLOCK
  5
8EBF
330
8EB5
100
AcDbEntity
  8
0
100
AcDbBlockBegin
  2
*D21
 70
     1
 10
0.0
 20
0.0
 30
0.0
  3
*D21
  1

  0
LINE
  5
9171
330
8EB5
100
AcDbEntity
  8
mark
370
    -2
100
AcDbLine
 10
68.66161616161605
 20
109.5285165109915
 30
0.0
 11
68.66161616161605
 21
131.7914730857552
 31
0.0
  0
LINE
  5
9172
330
8EB5
100
AcDbEntity
  8
mark
370
    -2
100
AcDbLine
 10
113.6616161616161
 20
109.5285165109915
 30
0.0
 11
113.6616161616161
 21
131.7914730857552
 31
0.0
  0
LINE
  5
9173
330
8EB5
100
AcDbEntity
  8
mark
370
    -2
100
AcDbLine
 10
71.16161616161605
 20
130.9914730857551
 30
0.0
 11
111.1616161616161
 21
130.9914730857551
 31
0.0
  0
INSERT
  5
9174
330
8EB5
100
AcDbEntity
  8
mark
370
    -2
100
AcDbBlockReference
  2
_Open30
 10
68.66161616161605
 20
130.9914730857551
 30
0.0
 41
2.5
 42
2.5
 43
2.5
 50
180.0
  0
INSERT
  5
9175
330
8EB5
100
AcDbEntity
  8
mark
370
    -2
100
AcDbBlockReference
  2
_Open30
 10
113.6616161616161
 20
130.9914730857551
 30
0.0
 41
2.5
 42
2.5
 43
2.5
  0
MTEXT
  5
9176
330
8EB5
100
AcDbEntity
  8
mark
 62
     3
100
AcDbMText
 10
91.16161616161608
 20
133.0414730857552
 30
0.0
 40
2.5
 41
0.0
 71
     5
 72
     1
  1
\A1;%%c45
 73
     1
 44
1.0
1001
ACAD
1000
MTEXTBEGIN
1070
    73
1070
     1
1070
    44
1040
1.0
1070
    74
1070
     0
1000
MTEXTEND
  0
POINT
  5
9177
330
8EB5
100
AcDbEntity
  8
DEFPOINTS
 62
     0
100
AcDbPoint
 10
68.66161616161605
 20
108.7285165109915
 30
0.0
  0
POINT
  5
9178
330
8EB5
100
AcDbEntity
  8
DEFPOINTS
 62
     0
100
AcDbPoint
 10
113.6616161616161
 20
108.7285165109915
 30
0.0
  0
POINT
  5
9179
330
8EB5
100
AcDbEntity
  8
DEFPOINTS
 62
     0
100
AcDbPoint
 10
113.6616161616161
 20
130.9914730857551
 30
0.0
  0
ENDBLK
  5
8EC0
330
8EB5
100
AcDbEntity
  8
0
100
AcDbBlockEnd
  0
BLOCK
  5
8ECD
330
8EC1
100
AcDbEntity
  8
0
100
AcDbBlockBegin
  2
*D22
 70
     1
 10
0.0
 20
0.0
 30
0.0
  3
*D22
  1

  0
LINE
  5
917A
330
8EC1
100
AcDbEntity
  8
mark
370
    -2
100
AcDbLine
 10
111.961616161616
 20
110.7285165109915
 30
0.0
 11
122.3451241448776
 21
110.7285165109915
 31
0.0
  0
LINE
  5
917B
330
8EC1
100
AcDbEntity
  8
mark
370
    -2
100
AcDbLine
 10
115.4616161616161
 20
104.7285165109915
 30
0.0
 11
122.3451241448776
 21
104.7285165109915
 31
0.0
  0
LINE
  5
917C
330
8EC1
100
AcDbEntity
  8
mark
370
    -2
100
AcDbLine
 10
121.5451241448776
 20
113.2285165109915
 30
0.0
 11
121.5451241448776
 21
115.7285165109915
 31
0.0
  0
LINE
  5
917D
330
8EC1
100
AcDbEntity
  8
mark
370
    -2
100
AcDbLine
 10
121.5451241448776
 20
102.2285165109915
 30
0.0
 11
121.5451241448776
 21
99.72851651099155
 31
0.0
  0
LINE
  5
917E
330
8EC1
100
AcDbEntity
  8
mark
370
    -2
100
AcDbLine
 10
121.5451241448776
 20
110.7285165109915
 30
0.0
 11
121.5451241448776
 21
104.7285165109915
 31
0.0
  0
INSERT
  5
917F
330
8EC1
100
AcDbEntity
  8
mark
370
    -2
100
AcDbBlockReference
  2
_Open30
 10
121.5451241448776
 20
110.7285165109915
 30
0.0
 41
2.5
 42
2.5
 43
2.5
 50
270.0
  0
INSERT
  5
9180
330
8EC1
100
AcDbEntity
  8
mark
370
    -2
100
AcDbBlockReference
  2
_Open30
 10
121.5451241448776
 20
104.7285165109915
 30
0.0
 41
2.5
 42
2.5
 43
2.5
 50
90.0
  0
MTEXT
  5
9181
330
8EC1
100
AcDbEntity
  8
mark
 62
     3
100
AcDbMText
 10
119.4951241448775
 20
107.7285165109915
 30
0.0
 40
2.5
 41
0.0
 71
     5
 72
     1
  1
\A1;6
 11
0.0000000000000001
 21
1.0
 31
0.0
 73
     1
 44
1.0
1001
ACAD
1000
MTEXTBEGIN
1070
    73
1070
     1
1070
    44
1040
1.0
1070
    74
1070
     0
1000
MTEXTEND
  0
POINT
  5
9182
330
8EC1
100
AcDbEntity
  8
DEFPOINTS
 62
     0
100
AcDbPoint
 10
111.161616161616
 20
110.7285165109915
 30
0.0
  0
POINT
  5
9183
330
8EC1
100
AcDbEntity
  8
DEFPOINTS
 62
     0
100
AcDbPoint
 10
114.6616161616161
 20
104.7285165109915
 30
0.0
  0
POINT
  5
9184
330
8EC1
100
AcDbEntity
  8
DEFPOINTS
 62
     0
100
AcDbPoint
 10
121.5451241448776
 20
104.7285165109915
 30
0.0
  0
ENDBLK
  5
8ECE
330
8EC1
100
AcDbEntity
  8
0
100
AcDbBlockEnd
  0
BLOCK
  5
8ED9
330
8ECF
100
AcDbEntity
  8
0
100
AcDbBlockBegin
  2
*D23
 70
     1
 10
0.0
 20
0.0
 30
0.0
  3
*D23
  1

  0
LINE
  5
9185
330
8ECF
100
AcDbEntity
  8
mark
370
    -2
100
AcDbLine
 10
111.961616161616
 20
110.7285165109915
 30
0.0
 11
130.0580034046781
 21
110.7285165109915
 31
0.0
  0
LINE
  5
9186
330
8ECF
100
AcDbEntity
  8
mark
370
    -2
100
AcDbLine
 10
112.961616161616
 20
98.72851651099153
 30
0.0
 11
130.0580034046781
 21
98.72851651099153
 31
0.0
  0
LINE
  5
9187
330
8ECF
100
AcDbEntity
  8
mark
370
    -2
100
AcDbLine
 10
129.2580034046781
 20
108.2285165109915
 30
0.0
 11
129.2580034046781
 21
101.2285165109915
 31
0.0
  0
INSERT
  5
9188
330
8ECF
100
AcDbEntity
  8
mark
370
    -2
100
AcDbBlockReference
  2
_Open30
 10
129.2580034046781
 20
110.7285165109915
 30
0.0
 41
2.5
 42
2.5
 43
2.5
 50
90.0
  0
INSERT
  5
9189
330
8ECF
100
AcDbEntity
  8
mark
370
    -2
100
AcDbBlockReference
  2
_Open30
 10
129.2580034046781
 20
98.72851651099153
 30
0.0
 41
2.5
 42
2.5
 43
2.5
 50
270.0
  0
MTEXT
  5
918A
330
8ECF
100
AcDbEntity
  8
mark
 62
     3
100
AcDbMText
 10
127.2080034046781
 20
104.7285165109915
 30
0.0
 40
2.5
 41
0.0
 71
     5
 72
     1
  1
\A1;12%%p0.2
 11
0.0000000000000001
 21
1.0
 31
0.0
 73
     1
 44
1.0
1001
ACAD
1000
MTEXTBEGIN
1070
    73
1070
     1
1070
    44
1040
1.0
1070
    74
1070
     0
1000
MTEXTEND
  0
POINT
  5
918B
330
8ECF
100
AcDbEntity
  8
DEFPOINTS
 62
     0
100
AcDbPoint
 10
111.161616161616
 20
110.7285165109915
 30
0.0
  0
POINT
  5
918C
330
8ECF
100
AcDbEntity
  8
DEFPOINTS
 62
     0
100
AcDbPoint
 10
112.161616161616
 20
98.72851651099153
 30
0.0
  0
POINT
  5
918D
330
8ECF
100
AcDbEntity
  8
DEFPOINTS
 62
     0
100
AcDbPoint
 10
129.2580034046781
 20
98.72851651099153
 30
0.0
  0
ENDBLK
  5
8EDA
330
8ECF
100
AcDbEntity
  8
0
100
AcDbBlockEnd
  0
BLOCK
  5
8EE5
330
8EDB
100
AcDbEntity
  8
0
100
AcDbBlockBegin
  2
*D24
 70
     1
 10
0.0
 20
0.0
 30
0.0
  3
*D24
  1

  0
LINE
  5
918E
330
8EDB
100
AcDbEntity
  8
mark
370
    -2
100
AcDbLine
 10
76.16161616161605
 20
98.61651651099153
 30
0.0
 11
76.16161616161605
 21
84.78011673350325
 31
0.0
  0
LINE
  5
918F
330
8EDB
100
AcDbEntity
  8
mark
370
    -2
100
AcDbLine
 10
106.161616161616
 20
98.61651651099267
 30
0.0
 11
106.161616161616
 21
84.78011673350325
 31
0.0
  0
LINE
  5
9190
330
8EDB
100
AcDbEntity
  8
mark
370
    -2
100
AcDbLine
 10
78.66161616161605
 20
85.58011673350325
 30
0.0
 11
103.661616161616
 21
85.58011673350325
 31
0.0
  0
INSERT
  5
9191
330
8EDB
100
AcDbEntity
  8
mark
370
    -2
100
AcDbBlockReference
  2
_Open30
 10
76.16161616161605
 20
85.58011673350325
 30
0.0
 41
2.5
 42
2.5
 43
2.5
 50
180.0
  0
INSERT
  5
9192
330
8EDB
100
AcDbEntity
  8
mark
370
    -2
100
AcDbBlockReference
  2
_Open30
 10
106.161616161616
 20
85.58011673350325
 30
0.0
 41
2.5
 42
2.5
 43
2.5
  0
MTEXT
  5
9193
330
8EDB
100
AcDbEntity
  8
mark
 62
     3
100
AcDbMText
 10
91.16161616161605
 20
87.63011673350325
 30
0.0
 40
2.5
 41
0.0
 71
     5
 72
     1
  1
\A1;M30X1.5P
 73
     1
 44
1.0
1001
ACAD
1000
MTEXTBEGIN
1070
    73
1070
     1
1070
    44
1040
1.0
1070
    74
1070
     0
1000
MTEXTEND
  0
POINT
  5
9194
330
8EDB
100
AcDbEntity
  8
DEFPOINTS
 62
     0
100
AcDbPoint
 10
76.16161616161605
 20
99.41651651099153
 30
0.0
  0
POINT
  5
9195
330
8EDB
100
AcDbEntity
  8
DEFPOINTS
 62
     0
100
AcDbPoint
 10
106.161616161616
 20
99.41651651099267
 30
0.0
  0
POINT
  5
9196
330
8EDB
100
AcDbEntity
  8
DEFPOINTS
 62
     0
100
AcDbPoint
 10
106.161616161616
 20
85.58011673350325
 30
0.0
  0
ENDBLK
  5
8EE6
330
8EDB
100
AcDbEntity
  8
0
100
AcDbBlockEnd
  0
BLOCK
  5
8EEE
330
8EE7
100
AcDbEntity
  8
0
100
AcDbBlockBegin
  2
*D25
 70
     1
 10
0.0
 20
0.0
 30
0.0
  3
*D25
  1

  0
LINE
  5
9197
330
8EE7
100
AcDbEntity
  8
mark
370
    -2
100
AcDbLine
 10
56.18447212016097
 20
86.25137246953869
 30
0.0
 11
67.33318903686982
 21
97.40008938624562
 31
0.0
  0
MTEXT
  5
9198
330
8EE7
100
AcDbEntity
  8
mark
 62
     3
100
AcDbMText
 10
59.42537820059984
 20
92.39141635284161
 30
0.0
 40
2.5
 41
0.0
 71
     5
 72
     1
  1
\A1;2-R1.5
 11
0.7071067811866088
 21
0.7071067811864865
 31
0.0
 73
     1
 44
1.0
1001
ACAD
1000
MTEXTBEGIN
1070
    73
1070
     1
1070
    44
1040
1.0
1070
    74
1070
     0
1000
MTEXTEND
  0
LINE
  5
9199
330
8EE7
100
AcDbEntity
  8
mark
370
    -2
100
AcDbLine
 10
70.16161616161629
 20
100.2285165109916
 30
0.0
 11
69.10095598983635
 21
99.16785633921184
 31
0.0
  0
INSERT
  5
919A
330
8EE7
100
AcDbEntity
  8
mark
370
    -2
100
AcDbBlockReference
  2
_Open30
 10
69.10095598983635
 20
99.16785633921184
 30
0.0
 41
2.5
 42
2.5
 43
2.5
 50
44.99999999999505
  0
POINT
  5
919B
330
8EE7
100
AcDbEntity
  8
DEFPOINTS
 62
     0
100
AcDbPoint
 10
69.10095598983635
 20
99.16785633921184
 30
0.0
  0
POINT
  5
919C
330
8EE7
100
AcDbEntity
  8
DEFPOINTS
 62
     0
100
AcDbPoint
 10
70.16161616161629
 20
100.2285165109916
 30
0.0
  0
ENDBLK
  5
8EEF
330
8EE7
100
AcDbEntity
  8
0
100
AcDbBlockEnd
  0
BLOCK
  5
8EFA
330
8EF0
100
AcDbEntity
  8
0
100
AcDbBlockBegin
  2
*D26
 70
     1
 10
0.0
 20
0.0
 30
0.0
  3
*D26
  1

  0
LINE
  5
919D
330
8EF0
100
AcDbEntity
  8
mark
370
    -2
100
AcDbLine
 10
84.4351684553102
 20
113.2285165109915
 30
0.0
 11
84.4351684553102
 21
115.7285165109915
 31
0.0
  0
LINE
  5
919E
330
8EF0
100
AcDbEntity
  8
mark
370
    -2
100
AcDbLine
 10
84.4351684553102
 20
107.2285165109915
 30
0.0
 11
84.4351684553102
 21
102.2951831776582
 31
0.0
  0
LINE
  5
919F
330
8EF0
100
AcDbEntity
  8
mark
370
    -2
100
AcDbLine
 10
84.4351684553102
 20
110.7285165109915
 30
0.0
 11
84.4351684553102
 21
109.7285165109915
 31
0.0
  0
INSERT
  5
91A0
330
8EF0
100
AcDbEntity
  8
mark
370
    -2
100
AcDbBlockReference
  2
_Open30
 10
84.4351684553102
 20
110.7285165109915
 30
0.0
 41
2.5
 42
2.5
 43
2.5
 50
270.0
  0
INSERT
  5
91A1
330
8EF0
100
AcDbEntity
  8
mark
370
    -2
100
AcDbBlockReference
  2
_Open30
 10
84.4351684553102
 20
109.7285165109915
 30
0.0
 41
2.5
 42
2.5
 43
2.5
 50
90.0
  0
MTEXT
  5
91A2
330
8EF0
100
AcDbEntity
  8
mark
 62
     3
100
AcDbMText
 10
82.38516845531016
 20
103.5118498443249
 30
0.0
 40
2.5
 41
0.0
 71
     5
 72
     1
  1
\A1;1
 11
0.0000000000000001
 21
1.0
 31
0.0
 73
     1
 44
1.0
1001
ACAD
1000
MTEXTBEGIN
1070
    73
1070
     1
1070
    44
1040
1.0
1070
    74
1070
     0
1000
MTEXTEND
  0
POINT
  5
91A3
330
8EF0
100
AcDbEntity
  8
DEFPOINTS
 62
     0
100
AcDbPoint
 10
84.4351684553102
 20
110.7285165109915
 30
0.0
  0
POINT
  5
91A4
330
8EF0
100
AcDbEntity
  8
DEFPOINTS
 62
     0
100
AcDbPoint
 10
84.4351684553102
 20
109.7285165109915
 30
0.0
  0
POINT
  5
91A5
330
8EF0
100
AcDbEntity
  8
DEFPOINTS
 62
     0
100
AcDbPoint
 10
84.4351684553102
 20
109.7285165109915
 30
0.0
  0
ENDBLK
  5
8EFB
330
8EF0
100
AcDbEntity
  8
0
100
AcDbBlockEnd
  0
ENDSEC
  0
SECTION
  2
ENTITIES
  0
MTEXT
  5
C0
330
18
100
AcDbEntity
  8
0
100
AcDbMText
 10
41.26970765600413
 20
233.6950877649332
 30
0.0
 40
2.5
 41
0.0
 71
     1
 72
     5
  1

  7
ISOCP3
 73
     1
 44
1.0
1001
ACAD
1000
MTEXTBEGIN
1070
    73
1070
     1
1070
    44
1040
1.0
1070
    74
1070
     0
1000
MTEXTEND
  0
MTEXT
  5
8100
330
18
100
AcDbEntity
  8
0
 62
     3
100
AcDbMText
 10
271.8936002556579
 20
231.0795154942946
 30
0.0
 40
4.0
 41
0.0
 71
     6
 72
     1
  1
\A1;
  7
TXT
 73
     1
 44
1.0
1001
ACAD
1000
MTEXTBEGIN
1070
    73
1070
     1
1070
    44
1040
1.0
1070
    74
1070
     0
1000
MTEXTEND
  0
MTEXT
  5
8DB0
330
18
100
AcDbEntity
  8
0
100
AcDbMText
 10
17.09950368689175
 20
18.5912105313177
 30
0.0
 40
4.797979797979802
 41
0.0
 71
     1
 72
     5
  1
{\Ftxt,bigfont|c128;林彦旭}
  7
JL
 73
     1
 44
1.0
1001
ACAD
1000
ACAD_MTEXT_DEFINED_HEIGHT_BEGIN
1070
    46
1040
0.0
1000
ACAD_MTEXT_DEFINED_HEIGHT_END
1000
MTEXTBEGIN
1070
    73
1070
     1
1070
    44
1040
1.0
1070
    74
1070
     0
1000
MTEXTEND
  0
MTEXT
  5
8DB1
330
18
100
AcDbEntity
  8
0
100
AcDbMText
 10
77.95294729228846
 20
28.04690090981785
 30
0.0
 40
4.318181818181822
 41
0.0
 71
     1
 72
     5
  1
\Ftxt.shx,bigfont.shx|c128;1 : 1
  7
JL
 73
     1
 44
1.0
1001
ACAD
1000
MTEXTBEGIN
1070
    73
1070
     1
1070
    44
1040
1.0
1070
    74
1070
     0
1000
MTEXTEND
  0
MTEXT
  5
8DB2
330
18
100
AcDbEntity
  8
0
 48
2.0
370
    25
100
AcDbMText
 10
140.2194500465656
 20
3.490021654633949
 30
0.0
 40
4.318181818181822
 41
0.0
 71
     5
 72
     1
  1
{\Ftxt,bigfont|c128;N L 4 0 2 1 9}
 73
     1
 44
1.0
1001
ACAD
1000
ACAD_MTEXT_DEFINED_HEIGHT_BEGIN
1070
    46
1040
0.0
1000
ACAD_MTEXT_DEFINED_HEIGHT_END
1000
MTEXTBEGIN
1070
    73
1070
     1
1070
    44
1040
1.0
1070
    74
1070
     0
1000
MTEXTEND
  0
MTEXT
  5
8DB3
330
18
100
AcDbEntity
  8
0
 48
2.0
100
AcDbMText
 10
170.9328999644331
 20
21.43324293179012
 30
0.0
 40
4.318181818181822
 41
0.0
 71
     5
 72
     1
  1
\P{\Ftxt,bigfont|c128;    MRZ30X1.5P}
 73
     1
 44
1.0
1001
ACAD
1000
ACAD_MTEXT_DEFINED_HEIGHT_BEGIN
1070
    46
1040
0.0
1000
ACAD_MTEXT_DEFINED_HEIGHT_END
1000
MTEXTBEGIN
1070
    73
1070
     1
1070
    44
1040
1.0
1070
    74
1070
     0
1000
MTEXTEND
  0
MTEXT
  5
8DB4
330
18
100
AcDbEntity
  8
0
100
AcDbMText
 10
15.3760677136774
 20
27.48851470945823
 30
0.0
 40
4.318181818181822
 41
0.0
 71
     1
 72
     5
  1
{\Ftxt,bigfont|c128;06.07.03}
  7
JL
 73
     1
 44
1.0
1001
ACAD
1000
ACAD_MTEXT_DEFINED_HEIGHT_BEGIN
1070
    46
1040
0.0
1000
ACAD_MTEXT_DEFINED_HEIGHT_END
1000
MTEXTBEGIN
1070
    73
1070
     1
1070
    44
1040
1.0
1070
    74
1070
     0
1000
MTEXTEND
  0
LINE
  5
8DB5
330
18
100
AcDbEntity
  8
0
 62
     7
 48
5.0
100
AcDbLine
 39
3.838383838383842
 10
47.92942413992529
 20
26.76824018127206
 30
0.0
 11
53.04580144287854
 21
28.04733450701036
 31
0.0
  0
MTEXT
  5
8DB6
330
18
100
AcDbEntity
  8
0
100
AcDbMText
 10
15.33306695253338
 20
9.24219505004936
 30
0.0
 40
5.757575757575764
 41
0.0
 71
     1
 72
     5
  1
\Ftxt.shx,bigfont.shx|c128;日機株式会社
  7
LKK
 73
     1
 44
1.0
1001
ACAD
1000
MTEXTBEGIN
1070
    73
1070
     1
1070
    44
1040
1.0
1070
    74
1070
     0
1000
MTEXTEND
  0
LWPOLYLINE
  5
8DB7
330
18
100
AcDbEntity
  8
frame
100
AcDbPolyline
 90
        4
 70
     1
 43
0.0
 10
-0.0000000000002274
 20
280.0000000000001
 10
0.0
 20
0.0
 10
190.0
 20
0.0
 10
190.0
 20
280.0000000000001
  0
LINE
  5
8DB8
330
18
100
AcDbEntity
  8
frame
100
AcDbLine
 10
0.0
 20
11.5151515151515
 30
0.0
 11
190.0
 21
11.51515151515156
 31
0.0
  0
LINE
  5
8DB9
330
18
100
AcDbEntity
  8
frame
100
AcDbLine
 10
0.0
 20
21.11111111111114
 30
0.0
 11
92.12121212121223
 21
21.11111111111114
 31
0.0
  0
LINE
  5
8DBA
330
18
100
AcDbEntity
  8
frame
100
AcDbLine
 10
0.0
 20
30.70707070707073
 30
0.0
 11
190.0
 21
30.70707070707073
 31
0.0
  0
LINE
  5
8DBB
330
18
100
AcDbEntity
  8
frame
100
AcDbLine
 10
11.51515151515156
 20
30.70707070707073
 30
0.0
 11
11.51515151515156
 21
11.5151515151515
 31
0.0
  0
LINE
  5
8DBC
330
18
100
AcDbEntity
  8
frame
100
AcDbLine
 10
30.70707070707073
 20
30.70707070707073
 30
0.0
 11
30.70707070707073
 21
11.5151515151515
 31
0.0
  0
MTEXT
  5
8DBD
330
18
100
AcDbEntity
  8
0
100
AcDbMText
 10
2.830274784221955
 20
27.87352809781481
 30
0.0
 40
4.318181818181822
 41
0.0
 71
     1
 72
     5
  1
\Ftxt.shx,bigfont.shx|c128;日 付
  7
JL
 73
     1
 44
1.0
1001
ACAD
1000
MTEXTBEGIN
1070
    73
1070
     1
1070
    44
1040
1.0
1070
    74
1070
     0
1000
MTEXTEND
  0
MTEXT
  5
8DBE
330
18
100
AcDbEntity
  8
0
100
AcDbMText
 10
2.97063307743889
 20
19.03678994441787
 30
0.0
 40
4.318181818181822
 41
0.0
 71
     1
 72
     5
  1
\Ftxt.shx,bigfont.shx|c128;製 図
  7
JL
 73
     1
 44
1.0
1001
ACAD
1000
MTEXTBEGIN
1070
    73
1070
     1
1070
    44
1040
1.0
1070
    74
1070
     0
1000
MTEXTEND
  0
LINE
  5
8DBF
330
18
100
AcDbEntity
  8
0
 62
     7
370
    25
100
AcDbLine
 10
53.04580144287854
 20
22.93095720405711
 30
0.0
 11
53.04580144287854
 21
28.04733450701036
 31
0.0
  0
MTEXT
  5
8DC0
330
18
100
AcDbEntity
  8
0
100
AcDbMText
 10
64.00748852490841
 20
28.23353814903493
 30
0.0
 40
4.318181818181822
 41
0.0
 71
     1
 72
     5
  1
\Ftxt.shx,bigfont.shx|c128;尺 度
  7
JL
 73
     1
 44
1.0
1001
ACAD
1000
MTEXTBEGIN
1070
    73
1070
     1
1070
    44
1040
1.0
1070
    74
1070
     0
1000
MTEXTEND
  0
LINE
  5
8DC1
330
18
100
AcDbEntity
  8
frame
100
AcDbLine
 10
61.41414141414145
 20
30.70707070707073
 30
0.0
 11
61.41414141414145
 21
11.5151515151515
 31
0.0
  0
LINE
  5
8DC2
330
18
100
AcDbEntity
  8
0
 62
     7
370
    25
100
AcDbLine
 10
39.6153110226262
 20
22.30000129443749
 30
0.0
 11
39.6153110226262
 21
28.47569103540786
 31
0.0
  0
CIRCLE
  5
8DC3
330
18
100
AcDbEntity
  8
0
 62
     7
100
AcDbCircle
 10
39.6153110226262
 20
25.48914585553359
 30
0.0
 40
2.558188651476678
  0
LINE
  5
8DC4
330
18
100
AcDbEntity
  8
0
 62
     7
370
    25
100
AcDbLine
 10
47.19321986919976
 20
25.48914585553371
 30
0.0
 11
53.50512581624247
 21
25.48914585553371
 31
0.0
  0
LINE
  5
8DC5
330
18
100
AcDbEntity
  8
0
 62
     7
100
AcDbLine
 10
47.92942413992529
 20
24.21005152979541
 30
0.0
 11
53.04580144287854
 21
22.93095720405711
 31
0.0
  0
LINE
  5
8DC6
330
18
100
AcDbEntity
  8
frame
100
AcDbLine
 10
42.22222222222228
 20
21.11111111111103
 30
0.0
 11
42.22222222222228
 21
11.5151515151515
 31
0.0
  0
LINE
  5
8DC7
330
18
100
AcDbEntity
  8
0
 62
     7
370
    25
100
AcDbLine
 10
36.41832228486612
 20
25.48914585553359
 30
0.0
 11
43.00325267619268
 21
25.48914585553371
 31
0.0
  0
CIRCLE
  5
8DC8
330
18
100
AcDbEntity
  8
0
 62
     7
100
AcDbCircle
 10
39.6153110226262
 20
25.48914585553359
 30
0.0
 40
1.279094325738339
  0
MTEXT
  5
8DC9
330
18
100
AcDbEntity
  8
0
100
AcDbMText
 10
33.70184032462407
 20
18.61599218191566
 30
0.0
 40
4.318181818181822
 41
0.0
 71
     1
 72
     5
  1
\Ftxt.shx,bigfont.shx|c128;検 図
  7
JL
 73
     1
 44
1.0
1001
ACAD
1000
MTEXTBEGIN
1070
    73
1070
     1
1070
    44
1040
1.0
1070
    74
1070
     0
1000
MTEXTEND
  0
LINE
  5
8DCA
330
18
100
AcDbEntity
  8
0
 62
     7
370
    25
100
AcDbLine
 10
47.92942413992529
 20
24.21005152979541
 30
0.0
 11
47.92942413992529
 21
26.76824018127206
 31
0.0
  0
MTEXT
  5
8DCB
330
18
100
AcDbEntity
  8
0
100
AcDbMText
 10
64.28820249919829
 20
18.83573686264032
 30
0.0
 40
4.318181818181822
 41
0.0
 71
     1
 72
     5
  1
\Ftxt.shx,bigfont.shx|c128;承 認
  7
JL
 73
     1
 44
1.0
1001
ACAD
1000
MTEXTBEGIN
1070
    73
1070
     1
1070
    44
1040
1.0
1070
    74
1070
     0
1000
MTEXTEND
  0
LINE
  5
8DCC
330
18
100
AcDbEntity
  8
frame
100
AcDbLine
 10
127.2575763380881
 20
41.39208870180072
 30
0.0
 11
184.8333339138457
 21
41.39208870180062
 31
0.0
  0
LINE
  5
8DCD
330
18
100
AcDbEntity
  8
frame
100
AcDbLine
 10
127.2575763380881
 20
48.30117961089166
 30
0.0
 11
184.8333339138457
 21
48.30117961089166
 31
0.0
  0
LINE
  5
8DCE
330
18
100
AcDbEntity
  8
frame
100
AcDbLine
 10
127.2575763380881
 20
55.21027051998254
 30
0.0
 11
184.8333339138457
 21
55.21027051998243
 31
0.0
  0
LINE
  5
8DCF
330
18
100
AcDbEntity
  8
frame
100
AcDbLine
 10
127.2575763380881
 20
62.11936142907347
 30
0.0
 11
184.8333339138457
 21
62.11936142907337
 31
0.0
  0
LINE
  5
8DD0
330
18
100
AcDbEntity
  8
frame
100
AcDbLine
 10
127.2575763380881
 20
34.48299779270974
 30
0.0
 11
184.8333339138457
 21
34.48299779270974
 31
0.0
  0
MTEXT
  5
8DD1
330
18
100
AcDbEntity
  8
0
 62
     7
 48
2.0
100
AcDbMText
 10
155.9354853962475
 20
62.88048263114922
 30
0.0
 40
4.606060606060611
 41
0.0
 71
     5
 72
     1
  1
\P\Ftxt.shx,bigfont.shx|c128;諸　　　　元
 73
     1
 44
1.0
1001
ACAD
1000
MTEXTBEGIN
1070
    73
1070
     1
1070
    44
1040
1.0
1070
    74
1070
     0
1000
MTEXTEND
  0
LINE
  5
8DD2
330
18
100
AcDbEntity
  8
frame
100
AcDbLine
 10
127.2575763380881
 20
62.11936142907337
 30
0.0
 11
127.2575763380881
 21
34.48299779270974
 31
0.0
  0
MTEXT
  5
8DD3
330
18
100
AcDbEntity
  8
0
100
AcDbMText
 10
130.6376915128318
 20
53.7454384909272
 30
0.0
 40
4.222222222222227
 41
157.2934065657947
 71
     1
 72
     5
  1
\Ftxt.shx,bigfont.shx|c128;熱　処　理
  7
JL
 73
     1
 44
1.0
1001
ACAD
1000
MTEXTBEGIN
1070
    73
1070
     1
1070
    44
1040
1.0
1070
    74
1070
     0
1000
MTEXTEND
  0
LINE
  5
8DD4
330
18
100
AcDbEntity
  8
frame
100
AcDbLine
 10
150.2878793683912
 20
55.21027051998243
 30
0.0
 11
150.2878793683912
 21
34.48299779270974
 31
0.0
  0
MTEXT
  5
8DD5
330
18
100
AcDbEntity
  8
0
100
AcDbMText
 10
93.71128715606705
 20
10.7026821961914
 30
0.0
 40
4.797979797979802
 41
0.0
 71
     1
 72
     5
  1
\Ftxt.shx,bigfont.shx|c128;図  面  番  号
  7
JL
 73
     1
 44
1.0
1001
ACAD
1000
MTEXTBEGIN
1070
    73
1070
     1
1070
    44
1040
1.0
1070
    74
1070
     0
1000
MTEXTEND
  0
MTEXT
  5
8DD6
330
18
100
AcDbEntity
  8
0
 62
     7
 48
2.0
100
AcDbMText
 10
116.9038190021384
 20
21.39089883010996
 30
0.0
 40
4.318181818181822
 41
0.0
 71
     5
 72
     1
  1
\P\Ftxt.shx,bigfont.shx|c128;    精密ロックナット
 73
     1
 44
1.0
1001
ACAD
1000
MTEXTBEGIN
1070
    73
1070
     1
1070
    44
1040
1.0
1070
    74
1070
     0
1000
MTEXTEND
  0
MTEXT
  5
8DD7
330
18
100
AcDbEntity
  8
0
370
    25
100
AcDbMText
 10
94.80836130312315
 20
28.60256944074519
 30
0.0
 40
4.797979797979802
 41
0.0
 71
     1
 72
     5
  1
\Ftxt.shx,bigfont.shx|c128;品  名
  7
JL
 73
     1
 44
1.0
1001
ACAD
1000
MTEXTBEGIN
1070
    73
1070
     1
1070
    44
1040
1.0
1070
    74
1070
     0
1000
MTEXTEND
  0
LINE
  5
8DD8
330
18
100
AcDbEntity
  8
frame
100
AcDbLine
 10
92.12121212121223
 20
30.70707070707073
 30
0.0
 11
92.12121212121223
 21
0.1833227579584786
 31
0.0
  0
LINE
  5
8DD9
330
18
100
AcDbEntity
  8
frame
100
AcDbLine
 10
72.92929292929301
 20
30.70707070707073
 30
0.0
 11
72.92929292929301
 21
11.5151515151515
 31
0.0
  0
LINE
  5
8DDA
330
18
100
AcDbEntity
  8
frame
100
AcDbLine
 10
147.0327092740657
 20
30.70707070707073
 30
0.0
 11
147.0327092740657
 21
11.5151515151515
 31
0.0
  0
MTEXT
  5
8DDB
330
18
100
AcDbEntity
  8
0
100
AcDbMText
 10
130.3687413623163
 20
47.02612836476851
 30
0.0
 40
4.222222222222227
 41
156.9955249906253
 71
     1
 72
     5
  1
\Ftxt.shx,bigfont.shx|c128;表 面 処 理
  7
JL
 73
     1
 44
1.0
1001
ACAD
1000
MTEXTBEGIN
1070
    73
1070
     1
1070
    44
1040
1.0
1070
    74
1070
     0
1000
MTEXTEND
  0
MTEXT
  5
8DDC
330
18
100
AcDbEntity
  8
0
100
AcDbMText
 10
130.6470873784914
 20
40.03213926282149
 30
0.0
 40
4.222222222222227
 41
159.457787878788
 71
     1
 72
     5
  1
\Ftxt.shx,bigfont.shx|c128;等     　級
  7
JL
 73
     1
 44
1.0
1001
ACAD
1000
MTEXTBEGIN
1070
    73
1070
     1
1070
    44
1040
1.0
1070
    74
1070
     0
1000
MTEXTEND
  0
LINE
  5
8DDD
330
18
100
AcDbEntity
  8
frame
100
AcDbLine
 10
184.8333339138457
 20
62.11936142907337
 30
0.0
 11
184.8333339138457
 21
34.48299779270985
 31
0.0
  0
MTEXT
  5
8DDE
330
18
100
AcDbEntity
  8
0
100
AcDbMText
 10
154.8430845643209
 20
53.57754958987754
 30
0.0
 40
4.222222222222227
 41
280.1022276782824
 71
     1
 72
     5
  1
\Ftxt.shx,bigfont.shx|c128;調質　HRC30%%d%%p２%%d
  7
JL
 73
     1
 44
1.0
1001
ACAD
1000
MTEXTBEGIN
1070
    73
1070
     1
1070
    44
1040
1.0
1070
    74
1070
     0
1000
MTEXTEND
  0
MTEXT
  5
8DDF
330
18
100
AcDbEntity
  8
0
370
    25
100
AcDbMText
 10
150.895959446773
 20
28.39031591806963
 30
0.0
 40
4.797979797979802
 41
0.0
 71
     1
 72
     5
  1
\Ftxt.shx,bigfont.shx|c128;型  番
  7
JL
 73
     1
 44
1.0
1001
ACAD
1000
MTEXTBEGIN
1070
    73
1070
     1
1070
    44
1040
1.0
1070
    74
1070
     0
1000
MTEXTEND
  0
MTEXT
  5
8DE0
330
18
100
AcDbEntity
  8
0
100
AcDbMText
 10
165.8059614810325
 20
10.7829817497157
 30
0.0
 40
4.797979797979802
 41
0.0
 71
     1
 72
     5
  1
\Ftxt.shx,bigfont.shx|c128;変更
  7
JL
 73
     1
 44
1.0
1001
ACAD
1000
MTEXTBEGIN
1070
    73
1070
     1
1070
    44
1040
1.0
1070
    74
1070
     0
1000
MTEXTEND
  0
LINE
  5
8DE1
330
18
100
AcDbEntity
  8
frame
100
AcDbLine
 10
164.0909090909092
 20
11.52385531768277
 30
0.0
 11
164.0909090909092
 21
0.0
 31
0.0
  0
MTEXT
  5
8DE2
330
18
100
AcDbEntity
  8
0
100
AcDbMText
 10
155.0931926970124
 20
40.03272516471906
 30
0.0
 40
4.222222222222227
 41
279.0345419768148
 71
     1
 72
     5
  1
\Ftxt.shx,bigfont.shx|c128;ＩＳＯ - ４Ｈ
  7
JL
 73
     1
 44
1.0
1001
ACAD
1000
MTEXTBEGIN
1070
    73
1070
     1
1070
    44
1040
1.0
1070
    74
1070
     0
1000
MTEXTEND
  0
MTEXT
  5
8DE3
330
18
100
AcDbEntity
  8
0
100
AcDbMText
 10
155.2606049578445
 20
46.68749372829665
 30
0.0
 40
4.222222222222227
 41
279.6788484848488
 71
     1
 72
     5
  1
\Ftxt.shx,bigfont.shx|c128;黒  　    染
  7
JL
 73
     1
 44
1.0
1001
ACAD
1000
MTEXTBEGIN
1070
    73
1070
     1
1070
    44
1040
1.0
1070
    74
1070
     0
1000
MTEXTEND
  0
MTEXT
  5
8DE4
330
18
100
AcDbEntity
  8
0
100
AcDbMText
 10
57.63639061334408
 20
260.9000583279474
 30
0.0
 40
4.797979797979802
 41
0.0
 71
     1
 72
     5
  1
{\Ftxt,bigfont|c128;M6X1.0P-5L}
  7
JL
 73
     1
 44
1.0
1001
ACAD
1000
ACAD_MTEXT_DEFINED_HEIGHT_BEGIN
1070
    46
1040
0.0
1000
ACAD_MTEXT_DEFINED_HEIGHT_END
1000
MTEXTBEGIN
1070
    73
1070
     1
1070
    44
1040
1.0
1070
    74
1070
     0
1000
MTEXTEND
  0
MTEXT
  5
8DE5
330
18
100
AcDbEntity
  8
0
100
AcDbMText
 10
57.63639061334408
 20
253.2232906511796
 30
0.0
 40
4.797979797979802
 41
0.0
 71
     1
 72
     5
  1
\Ftxt.shx,bigfont.shx|c128;%%c5.2X4L
  7
JL
 73
     1
 44
1.0
1001
ACAD
1000
MTEXTBEGIN
1070
    73
1070
     1
1070
    44
1040
1.0
1070
    74
1070
     0
1000
MTEXTEND
  0
LINE
  5
8DE6
330
18
100
AcDbEntity
  8
frame
100
AcDbLine
 10
-0.0000000000001705
 20
255.0505050505051
 30
0.0
 11
190.0
 21
255.0505050505051
 31
0.0
  0
LINE
  5
8DE7
330
18
100
AcDbEntity
  8
frame
100
AcDbLine
 10
-0.0000000000001705
 20
262.7272727272727
 30
0.0
 11
190.0
 21
262.7272727272727
 31
0.0
  0
LINE
  5
8DE8
330
18
100
AcDbEntity
  8
frame
 62
     9
100
AcDbLine
 10
-0.0000000000001705
 20
270.4040404040404
 30
0.0
 11
190.0
 21
270.4040404040404
 31
0.0
  0
MTEXT
  5
8DE9
330
18
100
AcDbEntity
  8
0
100
AcDbMText
 10
57.01564390603692
 20
277.4240560049041
 30
0.0
 40
4.797979797979802
 41
0.0
 71
     1
 72
     5
  1
\Ftxt.shx,bigfont.shx|c128;図    番 / 規　　格
  7
JL
 73
     1
 44
1.0
1001
ACAD
1000
MTEXTBEGIN
1070
    73
1070
     1
1070
    44
1040
1.0
1070
    74
1070
     0
1000
MTEXTEND
  0
LINE
  5
8DEA
330
18
100
AcDbEntity
  8
frame
100
AcDbLine
 10
-0.0000000000001705
 20
255.0505050505051
 30
0.0
 11
190.0
 21
255.0505050505051
 31
0.0
  0
LINE
  5
8DEB
330
18
100
AcDbEntity
  8
frame
100
AcDbLine
 10
-0.0000000000001705
 20
247.3737373737374
 30
0.0
 11
190.0
 21
247.3737373737374
 31
0.0
  0
MTEXT
  5
8DEC
330
18
100
AcDbEntity
  8
0
100
AcDbMText
 10
21.12488048923416
 20
276.9185479322058
 30
0.0
 40
4.797979797979802
 41
0.0
 71
     1
 72
     5
  1
\Ftxt.shx,bigfont.shx|c128;品　          名
  7
JL
 73
     1
 44
1.0
1001
ACAD
1000
MTEXTBEGIN
1070
    73
1070
     1
1070
    44
1040
1.0
1070
    74
1070
     0
1000
MTEXTEND
  0
MTEXT
  5
8DED
330
18
100
AcDbEntity
  8
0
100
AcDbMText
 10
18.10281387110115
 20
261.3165275056141
 30
0.0
 40
5.757575757575764
 41
0.0
 71
     1
 72
     5
  1
\Ftxt.shx,bigfont.shx|c128;セットスクリュ-
  7
JL
 73
     1
 44
1.0
1001
ACAD
1000
MTEXTBEGIN
1070
    73
1070
     1
1070
    44
1040
1.0
1070
    74
1070
     0
1000
MTEXTEND
  0
MTEXT
  5
8DEE
330
18
100
AcDbEntity
  8
0
100
AcDbMText
 10
17.91509480863135
 20
268.8361230282965
 30
0.0
 40
5.757575757575764
 41
0.0
 71
     1
 72
     5
  1
\Ftxt.shx,bigfont.shx|c128;ロックナット　  
  7
JL
 73
     1
 44
1.0
1001
ACAD
1000
MTEXTBEGIN
1070
    73
1070
     1
1070
    44
1040
1.0
1070
    74
1070
     0
1000
MTEXTEND
  0
MTEXT
  5
8DEF
330
18
100
AcDbEntity
  8
0
100
AcDbMText
 10
18.10281387110115
 20
253.6397598288464
 30
0.0
 40
5.757575757575764
 41
0.0
 71
     1
 72
     5
  1
\Ftxt.shx,bigfont.shx|c128;ロックピン 
  7
JL
 73
     1
 44
1.0
1001
ACAD
1000
MTEXTBEGIN
1070
    73
1070
     1
1070
    44
1040
1.0
1070
    74
1070
     0
1000
MTEXTEND
  0
LINE
  5
8DF0
330
18
100
AcDbEntity
  8
frame
100
AcDbLine
 10
14.3939393939392
 20
279.9999999999999
 30
0.0
 11
14.39393939393954
 21
247.3737373737374
 31
0.0
  0
MTEXT
  5
8DF1
330
18
100
AcDbEntity
  8
0
100
AcDbMText
 10
5.964166295980817
 20
253.844907968543
 30
0.0
 40
4.797979797979802
 41
0.0
 71
     1
 72
     5
  1
\Ftxt.shx,bigfont.shx|c128;3
  7
JL
 73
     1
 44
1.0
1001
ACAD
1000
MTEXTBEGIN
1070
    73
1070
     1
1070
    44
1040
1.0
1070
    74
1070
     0
1000
MTEXTEND
  0
MTEXT
  5
8DF2
330
18
100
AcDbEntity
  8
0
100
AcDbMText
 10
6.815009268013625
 20
269.0412711679933
 30
0.0
 40
4.797979797979802
 41
0.0
 71
     1
 72
     5
  1
\Ftxt.shx,bigfont.shx|c128;1
  7
JL
 73
     1
 44
1.0
1001
ACAD
1000
MTEXTBEGIN
1070
    73
1070
     1
1070
    44
1040
1.0
1070
    74
1070
     0
1000
MTEXTEND
  0
MTEXT
  5
8DF3
330
18
100
AcDbEntity
  8
0
100
AcDbMText
 10
5.964166295980817
 20
261.5216756453107
 30
0.0
 40
4.797979797979802
 41
0.0
 71
     1
 72
     5
  1
\Ftxt.shx,bigfont.shx|c128;2
  7
JL
 73
     1
 44
1.0
1001
ACAD
1000
MTEXTBEGIN
1070
    73
1070
     1
1070
    44
1040
1.0
1070
    74
1070
     0
1000
MTEXTEND
  0
MTEXT
  5
8DF4
330
18
100
AcDbEntity
  8
0
100
AcDbMText
 10
2.119828072980055
 20
277.2061607531167
 30
0.0
 40
4.797979797979802
 41
0.0
 71
     1
 72
     5
  1
\Ftxt.shx,bigfont.shx|c128;照   号
  7
JL
 73
     1
 44
1.0
1001
ACAD
1000
MTEXTBEGIN
1070
    73
1070
     1
1070
    44
1040
1.0
1070
    74
1070
     0
1000
MTEXTEND
  0
LINE
  5
8DF5
330
18
100
AcDbEntity
  8
frame
 62
     9
100
AcDbLine
 10
52.77777777777766
 20
279.9999999999999
 30
0.0
 11
52.77777777777766
 21
247.3737373737374
 31
0.0
  0
MTEXT
  5
8DF6
330
18
100
AcDbEntity
  8
0
100
AcDbMText
 10
140.4228361241527
 20
277.6781663894194
 30
0.0
 40
4.797979797979802
 41
0.0
 71
     1
 72
     5
  1
\Ftxt.shx,bigfont.shx|c128;備           考
  7
JL
 73
     1
 44
1.0
1001
ACAD
1000
MTEXTBEGIN
1070
    73
1070
     1
1070
    44
1040
1.0
1070
    74
1070
     0
1000
MTEXTEND
  0
LINE
  5
8DF7
330
18
100
AcDbEntity
  8
frame
 62
     9
100
AcDbLine
 10
91.16161616161605
 20
280.0
 30
0.0
 11
91.16161616161605
 21
247.3737373737374
 31
0.0
  0
MTEXT
  5
8DF8
330
18
100
AcDbEntity
  8
0
100
AcDbMText
 10
92.87341089179363
 20
253.482587674761
 30
0.0
 40
4.797979797979802
 41
0.0
 71
     1
 72
     5
  1
\Ftxt.shx,bigfont.shx|c128;C3604
  7
JL
 73
     1
 44
1.0
1001
ACAD
1000
MTEXTBEGIN
1070
    73
1070
     1
1070
    44
1040
1.0
1070
    74
1070
     0
1000
MTEXTEND
  0
MTEXT
  5
8DF9
330
18
100
AcDbEntity
  8
0
100
AcDbMText
 10
92.87341089179363
 20
268.8361230282965
 30
0.0
 40
4.797979797979802
 41
0.0
 71
     1
 72
     5
  1
\Ftxt.shx,bigfont.shx|c128;SCM-440
  7
JL
 73
     1
 44
1.0
1001
ACAD
1000
MTEXTBEGIN
1070
    73
1070
     1
1070
    44
1040
1.0
1070
    74
1070
     0
1000
MTEXTEND
  0
MTEXT
  5
8DFA
330
18
100
AcDbEntity
  8
0
100
AcDbMText
 10
92.87341089179363
 20
261.1593553515287
 30
0.0
 40
4.797979797979802
 41
0.0
 71
     1
 72
     5
  1
\Ftxt.shx,bigfont.shx|c128;SCM435
  7
JL
 73
     1
 44
1.0
1001
ACAD
1000
MTEXTBEGIN
1070
    73
1070
     1
1070
    44
1040
1.0
1070
    74
1070
     0
1000
MTEXTEND
  0
MTEXT
  5
8DFB
330
18
100
AcDbEntity
  8
0
100
AcDbMText
 10
95.76798863104192
 20
277.6781663894194
 30
0.0
 40
4.797979797979802
 41
0.0
 71
     1
 72
     5
  1
\Ftxt.shx,bigfont.shx|c128;材　質
  7
JL
 73
     1
 44
1.0
1001
ACAD
1000
MTEXTBEGIN
1070
    73
1070
     1
1070
    44
1040
1.0
1070
    74
1070
     0
1000
MTEXTEND
  0
LINE
  5
8DFC
330
18
100
AcDbEntity
  8
frame
 62
     9
100
AcDbLine
 10
110.3535353535352
 20
280.0
 30
0.0
 11
110.3535353535352
 21
247.3737373737374
 31
0.0
  0
LINE
  5
8DFD
330
18
100
AcDbEntity
  8
frame
100
AcDbLine
 10
124.7474747474747
 20
280.0
 30
0.0
 11
124.7474747474747
 21
247.3737373737374
 31
0.0
  0
MTEXT
  5
8DFE
330
18
100
AcDbEntity
  8
0
100
AcDbMText
 10
116.3177016495161
 20
253.844907968543
 30
0.0
 40
4.797979797979802
 41
0.0
 71
     1
 72
     5
  1
\Ftxt.shx,bigfont.shx|c128;3
  7
JL
 73
     1
 44
1.0
1001
ACAD
1000
MTEXTBEGIN
1070
    73
1070
     1
1070
    44
1040
1.0
1070
    74
1070
     0
1000
MTEXTEND
  0
MTEXT
  5
8DFF
330
18
100
AcDbEntity
  8
0
100
AcDbMText
 10
117.168544621549
 20
269.0412711679933
 30
0.0
 40
4.797979797979802
 41
0.0
 71
     1
 72
     5
  1
\Ftxt.shx,bigfont.shx|c128;1
  7
JL
 73
     1
 44
1.0
1001
ACAD
1000
MTEXTBEGIN
1070
    73
1070
     1
1070
    44
1040
1.0
1070
    74
1070
     0
1000
MTEXTEND
  0
MTEXT
  5
8E00
330
18
100
AcDbEntity
  8
0
100
AcDbMText
 10
116.3177016495161
 20
261.5216756453107
 30
0.0
 40
4.797979797979802
 41
0.0
 71
     1
 72
     5
  1
\Ftxt.shx,bigfont.shx|c128;3
  7
JL
 73
     1
 44
1.0
1001
ACAD
1000
MTEXTBEGIN
1070
    73
1070
     1
1070
    44
1040
1.0
1070
    74
1070
     0
1000
MTEXTEND
  0
MTEXT
  5
8E01
330
18
100
AcDbEntity
  8
0
100
AcDbMText
 10
111.7293467639609
 20
277.6781663894194
 30
0.0
 40
4.797979797979802
 41
0.0
 71
     1
 72
     5
  1
\Ftxt.shx,bigfont.shx|c128;数   量
  7
JL
 73
     1
 44
1.0
1001
ACAD
1000
MTEXTBEGIN
1070
    73
1070
     1
1070
    44
1040
1.0
1070
    74
1070
     0
1000
MTEXTEND
  0
ARC
  5
8E02
330
18
100
AcDbEntity
  8
contour
100
AcDbCircle
 10
91.16161616161605
 20
188.573538664829
 30
0.0
 40
22.5
100
AcDbArc
 50
186.3793702084431
 51
293.6206297915552
  0
ARC
  5
8E03
330
18
100
AcDbEntity
  8
contour
100
AcDbCircle
 10
91.16161616161605
 20
188.573538664829
 30
0.0
 40
22.5
100
AcDbArc
 50
306.3793702084431
 51
53.62062979155687
  0
ARC
  5
8E04
330
18
100
AcDbEntity
  8
contour
100
AcDbCircle
 10
91.16161616161605
 20
188.573538664829
 30
0.0
 40
22.5
100
AcDbArc
 50
66.3793702084411
 51
173.6206297915568
  0
LINE
  5
8E05
330
18
100
AcDbEntity
  8
center
 48
0.2
100
AcDbLine
 10
67.66161616161605
 20
188.573538664829
 30
0.0
 11
114.661616161616
 21
188.573538664829
 31
0.0
  0
LINE
  5
8E06
330
18
100
AcDbEntity
  8
contour
100
AcDbLine
 10
68.80093638661816
 20
186.073538664829
 30
0.0
 11
70.80093638661821
 21
186.073538664829
 31
0.0
  0
LINE
  5
8E07
330
18
100
AcDbEntity
  8
contour
100
AcDbLine
 10
68.80093638661816
 20
191.073538664829
 30
0.0
 11
70.80093638661821
 21
191.073538664829
 31
0.0
  0
LINE
  5
8E08
330
18
100
AcDbEntity
  8
center
 48
0.2
100
AcDbLine
 10
91.16161616161605
 20
212.073538664829
 30
0.0
 11
91.16161616161605
 21
165.073538664829
 31
0.0
  0
LINE
  5
8E09
330
18
100
AcDbEntity
  8
contour
100
AcDbLine
 10
70.80093638661816
 20
191.073538664829
 30
0.0
 11
70.80093638661816
 21
186.073538664829
 31
0.0
  0
LINE
  5
8E0A
330
18
100
AcDbEntity
  8
contour
100
AcDbLine
 10
104.5070195585761
 20
170.4586219337919
 30
0.0
 11
103.5070195585761
 21
172.1906727413608
 31
0.0
  0
LINE
  5
8E0B
330
18
100
AcDbEntity
  8
contour
100
AcDbLine
 10
100.1768925396539
 20
167.9586219337919
 30
0.0
 11
99.17689253965386
 21
169.6906727413608
 31
0.0
  0
LINE
  5
8E0C
330
18
100
AcDbEntity
  8
contour
100
AcDbLine
 10
99.17689253965386
 20
169.6906727413608
 30
0.0
 11
103.5070195585761
 21
172.1906727413608
 31
0.0
  0
LINE
  5
8E0D
330
18
100
AcDbEntity
  8
contour
100
AcDbLine
 10
100.1768925396538
 20
209.1884553958661
 30
0.0
 11
99.17689253965386
 21
207.4564045882972
 31
0.0
  0
LINE
  5
8E0E
330
18
100
AcDbEntity
  8
contour
100
AcDbLine
 10
104.507019558576
 20
206.6884553958661
 30
0.0
 11
103.5070195585761
 21
204.9564045882972
 31
0.0
  0
LINE
  5
8E0F
330
18
100
AcDbEntity
  8
contour
100
AcDbLine
 10
103.5070195585761
 20
204.9564045882972
 30
0.0
 11
99.17689253965386
 21
207.4564045882972
 31
0.0
  0
CIRCLE
  5
8E10
330
18
100
AcDbEntity
  8
contour
100
AcDbCircle
 10
91.16161616161605
 20
188.573538664829
 30
0.0
 40
20.0
  0
ARC
  5
8E11
330
18
100
AcDbEntity
  8
contour
 62
     4
100
AcDbCircle
 10
91.16161616161605
 20
188.573538664829
 30
0.0
 40
15.0
100
AcDbArc
 50
172.3377443392343
 51
97.66225566076565
  0
CIRCLE
  5
8E12
330
18
100
AcDbEntity
  8
contour
100
AcDbCircle
 10
91.16161616161605
 20
188.573538664829
 30
0.0
 40
14.188
  0
CIRCLE
  5
8E13
330
18
100
AcDbEntity
  8
contour
100
AcDbCircle
 10
91.16161616161605
 20
188.573538664829
 30
0.0
 40
15.5
  0
LINE
  5
8E14
330
18
100
AcDbEntity
  8
bowle
 48
0.2
100
AcDbLine
 10
105.0288200614654
 20
185.573538664829
 30
0.0
 11
113.4607192825938
 21
185.573538664829
 31
0.0
  0
LINE
  5
8E15
330
18
100
AcDbEntity
  8
bowle
 48
0.2
100
AcDbLine
 10
105.0288200614655
 20
191.573538664829
 30
0.0
 11
113.4607192825938
 21
191.573538664829
 31
0.0
  0
LINE
  5
8E16
330
18
100
AcDbEntity
  8
bowle
 48
0.2
100
AcDbLine
 10
105.134724047838
 20
191.0335386648291
 30
0.0
 11
113.5267318554818
 21
191.0335386648291
 31
0.0
  0
LINE
  5
8E17
330
18
100
AcDbEntity
  8
bowle
 48
0.2
100
AcDbLine
 10
105.134724047838
 20
186.1135386648289
 30
0.0
 11
113.5267318554818
 21
186.1135386648289
 31
0.0
  0
LINE
  5
8E18
330
18
100
AcDbEntity
  8
bowle
 48
0.2
100
AcDbLine
 10
86.82609042304466
 20
202.0828895215573
 30
0.0
 11
82.61014081248054
 21
209.3851284492047
 31
0.0
  0
LINE
  5
8E19
330
18
100
AcDbEntity
  8
bowle
 48
0.2
100
AcDbLine
 10
81.62993800033797
 20
199.0828895215572
 30
0.0
 11
77.41398838977386
 21
206.3851284492047
 31
0.0
  0
LINE
  5
8E1A
330
18
100
AcDbEntity
  8
bowle
 48
0.2
100
AcDbLine
 10
82.04463972519523
 20
199.4446050641179
 30
0.0
 11
77.84863582137337
 21
206.7122970142947
 31
0.0
  0
LINE
  5
8E1B
330
18
100
AcDbEntity
  8
bowle
 48
0.2
100
AcDbLine
 10
86.30548471181493
 20
201.9046050641181
 30
0.0
 11
82.10948080799306
 21
209.1722970142948
 31
0.0
  0
LINE
  5
8E1C
330
18
100
AcDbEntity
  8
bowle
 48
0.2
100
AcDbLine
 10
81.62993800033797
 20
178.0641878081008
 30
0.0
 11
77.41398838977381
 21
170.7619488804534
 31
0.0
  0
LINE
  5
8E1D
330
18
100
AcDbEntity
  8
bowle
 48
0.2
100
AcDbLine
 10
86.82609042304461
 20
175.0641878081007
 30
0.0
 11
82.61014081248044
 21
167.7619488804534
 31
0.0
  0
LINE
  5
8E1E
330
18
100
AcDbEntity
  8
bowle
 48
0.2
100
AcDbLine
 10
86.30548471181487
 20
175.24247226554
 30
0.0
 11
82.10948080799301
 21
167.9747803153632
 31
0.0
  0
LINE
  5
8E1F
330
18
100
AcDbEntity
  8
bowle
 48
0.2
100
AcDbLine
 10
82.04463972519517
 20
177.7024722655401
 30
0.0
 11
77.8486358213733
 21
170.4347803153633
 31
0.0
  0
HATCH
  5
8E20
330
18
100
AcDbEntity
  8
section
100
AcDbHatch
 10
0.0
 20
0.0
 30
0.0
210
0.0
220
0.0
230
1.0
  2
ANSI31
 70
     0
 71
     0
 91
       10
 92
        7
 72
     0
 73
     1
 93
        9
 10
76.16161616161611
 20
109.2285165109914
 10
75.66161616161605
 20
109.7285165109915
 10
75.66161616161605
 20
110.7285165109915
 10
71.16161616161605
 20
110.7285165109915
 10
71.16161616161605
 20
110.2285165109915
 10
70.80093638661821
 20
110.2285165109915
 10
70.80093638661816
 20
98.72851651099153
 10
75.47361616161606
 20
98.72851651099153
 10
76.16161616161605
 20
99.41651651099153
 97
        0
 92
        7
 72
     0
 73
     1
 93
        4
 10
76.97361616161606
 20
108.4165165109915
 10
76.16161616161616
 20
109.2285165109915
 10
76.16161616161605
 20
99.41651651099153
 10
76.97361616161606
 20
100.2285165109915
 97
        0
 92
        7
 72
     1
 73
     1
 93
        9
 10
113.6616161616161
 20
108.7285165109915
 42
0.4142135623730951
 10
112.1616161616161
 20
110.2285165109915
 42
0.0
 10
111.161616161616
 20
110.2285165109915
 42
0.0
 10
111.161616161616
 20
110.7285165109915
 42
0.0
 10
106.661616161616
 20
110.7285165109915
 42
0.0
 10
106.661616161616
 20
109.7285165109915
 42
0.0
 10
106.1616161616159
 20
109.2285165109915
 42
0.0
 10
106.1616161616159
 20
107.7285165109915
 42
0.0
 10
113.6616161616161
 20
107.7285165109915
 42
0.0
 97
        0
 92
        7
 72
     0
 73
     1
 93
        4
 10
106.161616161616
 20
109.2285165109915
 10
105.349616161616
 20
108.4165165109915
 10
105.349616161616
 20
107.7285165109915
 10
106.1616161616159
 20
107.7285165109915
 97
        0
 92
        7
 72
     0
 73
     1
 93
        6
 10
110.1616161616161
 20
107.7285165109915
 10
105.349616161616
 20
107.7285165109915
 10
105.349616161616
 20
107.3285165109915
 10
108.6616161616161
 20
107.3285165109915
 10
108.6616161616161
 20
107.1885165109917
 10
109.6216161616162
 20
107.1885165109917
 97
        0
 92
        7
 72
     0
 73
     1
 93
        6
 10
109.6216161616163
 20
102.2685165109914
 10
108.661616161616
 20
102.2685165109914
 10
108.6616161616161
 20
102.1285165109915
 10
105.349616161616
 20
102.1285165109916
 10
105.349616161616
 20
101.7285165109916
 10
110.1616161616161
 20
101.7285165109916
 97
        0
 92
        7
 72
     0
 73
     1
 93
        4
 10
106.1616161616159
 20
101.7285165109916
 10
105.349616161616
 20
101.7285165109916
 10
105.3496161616161
 20
100.2285165109915
 10
106.161616161616
 20
99.41651651099158
 97
        0
 92
        7
 72
     1
 73
     1
 93
        6
 10
113.661616161616
 20
100.2285165109915
 42
0.0
 10
113.6616161616161
 20
101.7285165109915
 42
0.0
 10
106.161616161616
 20
101.7285165109916
 42
0.0
 10
106.161616161616
 20
99.41651651099158
 42
0.0
 10
106.8496161616161
 20
98.72851651099153
 42
0.0
 10
112.161616161616
 20
98.72851651099153
 42
0.4142135623730951
 97
        0
 92
        7
 72
     0
 73
     1
 93
        3
 10
113.6616161616161
 20
102.2685165109914
 10
112.7263087255291
 20
101.7285165109915
 10
113.6616161616161
 20
101.7285165109915
 97
        0
 92
        7
 72
     0
 73
     1
 93
        3
 10
113.6616161616161
 20
107.7285165109915
 10
112.7263087255291
 20
107.7285165109915
 10
113.661616161616
 20
107.1885165109916
 97
        0
 75
     0
 76
     1
 52
0.0
 41
0.5
 77
     0
 78
     1
 53
45.0
 43
-147.2208445644556
 44
17.71466641112511
 45
-1.122532015133643
 46
1.122532015133644
 79
     0
 47
0.0240230326415467
 98
       10
 10
71.5725124050931
 20
107.0506571479325
 10
76.3492572440465
 20
104.6277420630383
 10
108.0446381431098
 20
108.5799472053281
 10
105.9949590758675
 20
108.287229316918
 10
107.947035193483
 20
107.555432810323
 10
109.5574974196796
 20
102.1401369949892
 10
105.8973546991509
 20
100.5789709555363
 10
108.33744984617
 20
100.0911070145994
 10
113.487113217412
 20
102.0045706264554
 10
113.5111439817996
 20
107.577915507803
1001
ACAD
1010
0.0
1020
0.0
1030
0.0
  0
LINE
  5
8E21
330
18
100
AcDbEntity
  8
contour
100
AcDbLine
 10
113.6616161616161
 20
108.7285165109915
 30
0.0
 11
113.661616161616
 21
100.2285165109915
 31
0.0
  0
ARC
  5
8E22
330
18
100
AcDbEntity
  8
contour
100
AcDbCircle
 10
112.161616161616
 20
100.2285165109915
 30
0.0
 40
1.5
100
AcDbArc
 50
270.0
 51
0.0
  0
LINE
  5
8E23
330
18
100
AcDbEntity
  8
contour
100
AcDbLine
 10
112.161616161616
 20
98.72851651099153
 30
0.0
 11
70.16161616161605
 21
98.72851651099153
 31
0.0
  0
LINE
  5
8E24
330
18
100
AcDbEntity
  8
contour
100
AcDbLine
 10
68.66161616161605
 20
100.2285165109915
 30
0.0
 11
68.66161616161605
 21
108.7285165109915
 31
0.0
  0
ARC
  5
8E25
330
18
100
AcDbEntity
  8
contour
100
AcDbCircle
 10
70.16161616161605
 20
108.7285165109915
 30
0.0
 40
1.5
100
AcDbArc
 50
90.0
 51
180.0
  0
ARC
  5
8E26
330
18
100
AcDbEntity
  8
contour
100
AcDbCircle
 10
70.16161616161605
 20
100.2285165109915
 30
0.0
 40
1.5
100
AcDbArc
 50
180.0
 51
270.0
  0
LINE
  5
8E27
330
18
100
AcDbEntity
  8
contour
100
AcDbLine
 10
71.16161616161605
 20
110.7285165109915
 30
0.0
 11
111.161616161616
 21
110.7285165109915
 31
0.0
  0
LINE
  5
8E28
330
18
100
AcDbEntity
  8
contour
100
AcDbLine
 10
71.16161616161605
 20
110.7285165109915
 30
0.0
 11
71.16161616161605
 21
110.2285165109915
 31
0.0
  0
LINE
  5
8E29
330
18
100
AcDbEntity
  8
contour
100
AcDbLine
 10
71.16161616161605
 20
110.2285165109915
 30
0.0
 11
70.16161616161605
 21
110.2285165109915
 31
0.0
  0
LINE
  5
8E2A
330
18
100
AcDbEntity
  8
contour
100
AcDbLine
 10
111.161616161616
 20
110.7285165109915
 30
0.0
 11
111.161616161616
 21
110.2285165109915
 31
0.0
  0
LINE
  5
8E2B
330
18
100
AcDbEntity
  8
contour
100
AcDbLine
 10
111.161616161616
 20
110.2285165109915
 30
0.0
 11
112.1616161616161
 21
110.2285165109915
 31
0.0
  0
ARC
  5
8E2C
330
18
100
AcDbEntity
  8
contour
100
AcDbCircle
 10
112.1616161616161
 20
108.7285165109915
 30
0.0
 40
1.5
100
AcDbArc
 50
0.0
 51
90.0
  0
LINE
  5
8E2D
330
18
100
AcDbEntity
  8
contour
100
AcDbLine
 10
76.97361616161606
 20
108.4165165109915
 30
0.0
 11
76.97361616161606
 21
100.2285165109915
 31
0.0
  0
LINE
  5
8E2E
330
18
100
AcDbEntity
  8
contour
100
AcDbLine
 10
75.47361616161606
 20
98.72851651099153
 30
0.0
 11
76.97361616161606
 21
100.2285165109915
 31
0.0
  0
LINE
  5
8E2F
330
18
100
AcDbEntity
  8
contour
 62
     4
100
AcDbLine
 10
76.16161616161611
 20
109.2285165109915
 30
0.0
 11
76.16161616161605
 21
99.41651651099153
 31
0.0
  0
LINE
  5
8E30
330
18
100
AcDbEntity
  8
contour
100
AcDbLine
 10
75.66161616161605
 20
110.7285165109915
 30
0.0
 11
75.66161616161605
 21
109.7285165109915
 31
0.0
  0
LINE
  5
8E31
330
18
100
AcDbEntity
  8
contour
100
AcDbLine
 10
75.66161616161605
 20
109.7285165109915
 30
0.0
 11
76.97361616161606
 21
108.4165165109915
 31
0.0
  0
LINE
  5
8E32
330
18
100
AcDbEntity
  8
contour
100
AcDbLine
 10
105.349616161616
 20
108.4165165109915
 30
0.0
 11
105.349616161616
 21
100.2285165109915
 31
0.0
  0
LINE
  5
8E33
330
18
100
AcDbEntity
  8
contour
100
AcDbLine
 10
106.849616161616
 20
98.72851651099153
 30
0.0
 11
105.349616161616
 21
100.2285165109915
 31
0.0
  0
LINE
  5
8E34
330
18
100
AcDbEntity
  8
contour
 62
     4
100
AcDbLine
 10
106.161616161616
 20
109.2285165109915
 30
0.0
 11
106.1616161616159
 21
107.7285165109915
 31
0.0
  0
LINE
  5
8E35
330
18
100
AcDbEntity
  8
contour
 62
     4
100
AcDbLine
 10
106.1616161616159
 20
101.7285165109916
 30
0.0
 11
106.161616161616
 21
99.41651651099153
 31
0.0
  0
LINE
  5
8E36
330
18
100
AcDbEntity
  8
contour
100
AcDbLine
 10
106.661616161616
 20
110.7285165109915
 30
0.0
 11
106.661616161616
 21
109.7285165109915
 31
0.0
  0
LINE
  5
8E37
330
18
100
AcDbEntity
  8
contour
100
AcDbLine
 10
106.661616161616
 20
109.7285165109915
 30
0.0
 11
105.349616161616
 21
108.4165165109915
 31
0.0
  0
LINE
  5
8E38
330
18
100
AcDbEntity
  8
contour
100
AcDbLine
 10
76.97361616161606
 20
108.4165165109915
 30
0.0
 11
105.349616161616
 21
108.4165165109915
 31
0.0
  0
LINE
  5
8E39
330
18
100
AcDbEntity
  8
contour
100
AcDbLine
 10
105.349616161616
 20
100.2285165109915
 30
0.0
 11
76.97361616161606
 21
100.2285165109916
 31
0.0
  0
LINE
  5
8E3A
330
18
100
AcDbEntity
  8
contour
100
AcDbLine
 10
75.66161616161605
 20
109.7285165109915
 30
0.0
 11
106.661616161616
 21
109.7285165109915
 31
0.0
  0
LINE
  5
8E3B
330
18
100
AcDbEntity
  8
contour
100
AcDbLine
 10
70.80093638661821
 20
110.2285165109915
 30
0.0
 11
70.80093638661821
 21
98.72851651099153
 31
0.0
  0
LINE
  5
8E3C
330
18
100
AcDbEntity
  8
center
 48
0.2
100
AcDbLine
 10
91.16161616161605
 20
111.7285165109915
 30
0.0
 11
91.16161616161605
 21
97.72851651099154
 31
0.0
  0
LINE
  5
8E3D
330
18
100
AcDbEntity
  8
center
 48
0.2
100
AcDbLine
 10
104.349616161616
 20
104.7285165109915
 30
0.0
 11
114.6616161616161
 21
104.7285165109915
 31
0.0
  0
LWPOLYLINE
  5
8E3E
330
18
100
AcDbEntity
  8
contour
100
AcDbPolyline
 90
        2
 70
     0
 43
0.0
 10
113.6616161616161
 20
102.2685165109914
 10
113.6616161616161
 20
107.1885165109917
  0
LWPOLYLINE
  5
8E3F
330
18
100
AcDbEntity
  8
contour
100
AcDbPolyline
 90
        6
 70
     0
 43
0.0
 10
110.1616161616161
 20
107.7285165109915
 10
110.1616161616161
 20
107.7285165109915
 10
108.6616161616161
 20
106.2285165109915
 10
108.6616161616161
 20
103.2285165109915
 10
110.1616161616161
 20
101.7285165109915
 10
110.1616161616161
 20
101.7285165109916
  0
LINE
  5
8E40
330
18
100
AcDbEntity
  8
contour
 62
     4
100
AcDbLine
 10
105.349616161616
 20
101.7285165109916
 30
0.0
 11
113.6616161616162
 21
101.7285165109915
 31
0.0
  0
LINE
  5
8E41
330
18
100
AcDbEntity
  8
contour
 62
     4
100
AcDbLine
 10
105.3496161616161
 20
107.7285165109915
 30
0.0
 11
113.6616161616161
 21
107.7285165109915
 31
0.0
  0
LINE
  5
8E42
330
18
100
AcDbEntity
  8
contour
100
AcDbLine
 10
108.6616161616161
 20
107.1885165109917
 30
0.0
 11
109.6216161616162
 21
107.1885165109917
 31
0.0
  0
LINE
  5
8E43
330
18
100
AcDbEntity
  8
contour
100
AcDbLine
 10
108.6616161616161
 20
102.2685165109914
 30
0.0
 11
109.6216161616162
 21
102.2685165109914
 31
0.0
  0
LINE
  5
8E44
330
18
100
AcDbEntity
  8
contour
100
AcDbLine
 10
110.1616161616161
 20
107.7285165109915
 30
0.0
 11
110.1616161616161
 21
101.7285165109915
 31
0.0
  0
LINE
  5
8E45
330
18
100
AcDbEntity
  8
contour
100
AcDbLine
 10
111.661616161616
 20
106.2285165109916
 30
0.0
 11
113.661616161616
 21
106.2285165109915
 31
0.0
  0
LINE
  5
8E46
330
18
100
AcDbEntity
  8
contour
100
AcDbLine
 10
111.661616161616
 20
103.2285165109915
 30
0.0
 11
113.661616161616
 21
103.2285165109915
 31
0.0
  0
LINE
  5
8E47
330
18
100
AcDbEntity
  8
contour
100
AcDbLine
 10
111.661616161616
 20
106.2285165109916
 30
0.0
 11
111.661616161616
 21
103.2285165109915
 31
0.0
  0
LINE
  5
8E48
330
18
100
AcDbEntity
  8
contour
100
AcDbLine
 10
111.661616161616
 20
106.2285165109915
 30
0.0
 11
111.160943995104
 21
104.7371471359717
 31
0.0
  0
LINE
  5
8E49
330
18
100
AcDbEntity
  8
contour
100
AcDbLine
 10
111.160943995104
 20
104.7371471359717
 30
0.0
 11
111.661616161616
 21
103.2285165109915
 31
0.0
  0
LINE
  5
8E4A
330
18
100
AcDbEntity
  8
contour
 62
     4
100
AcDbLine
 10
109.6216161616162
 20
107.1885165109917
 30
0.0
 11
113.6616161616161
 21
107.1885165109917
 31
0.0
  0
LINE
  5
8E4B
330
18
100
AcDbEntity
  8
contour
 62
     4
100
AcDbLine
 10
109.6216161616162
 20
102.2685165109914
 30
0.0
 11
113.6616161616162
 21
102.2685165109914
 31
0.0
  0
LINE
  5
8E4C
330
18
100
AcDbEntity
  8
contour
100
AcDbLine
 10
112.7263087255291
 20
107.7285165109915
 30
0.0
 11
113.6616161616161
 21
107.1885165109917
 31
0.0
  0
LINE
  5
8E4D
330
18
100
AcDbEntity
  8
contour
100
AcDbLine
 10
112.7263087255291
 20
101.7285165109915
 30
0.0
 11
113.6616161616161
 21
102.2685165109914
 31
0.0
  0
LINE
  5
8E4E
330
18
100
AcDbEntity
  8
contour
100
AcDbLine
 10
112.7263087255291
 20
107.7285165109915
 30
0.0
 11
112.7263087255291
 21
101.7285165109915
 31
0.0
  0
HATCH
  5
8E4F
330
18
100
AcDbEntity
  8
section
100
AcDbHatch
 10
0.0
 20
0.0
 30
0.0
210
0.0
220
0.0
230
1.0
  2
AR-SAND
 70
     0
 71
     1
 91
        1
 92
        7
 72
     0
 73
     1
 93
        4
 10
105.349616161616
 20
107.3285165109916
 10
105.349616161616
 20
102.1285165109916
 10
108.6616161616161
 20
102.1285165109915
 10
108.6616161616161
 20
107.3285165109916
 97
        1
330
8E50
 75
     0
 76
     1
 52
0.0
 41
0.02
 77
     0
 78
     4
 53
37.5
 43
-62.29111120784006
 44
-50.89262810178638
 45
-0.0320006259196809
 46
0.9788264746586847
 79
     6
 49
0.0
 49
-0.7721600000000001
 49
0.0
 49
-0.8636000000000001
 49
0.0
 49
-0.8255
 53
7.499999999999999
 43
-62.29111120784006
 44
-50.89262810178638
 45
0.8990465662760053
 46
1.433650201136708
 79
     6
 49
0.0
 49
-0.4165600000000001
 49
0.0
 49
-0.69596
 49
0.0
 49
-0.2667000000000001
 53
327.5
 43
-62.91595120784006
 44
-50.89262810178638
 45
1.581984740482915
 46
0.0028743693570914
 79
     6
 49
0.0
 49
-0.254
 49
0.0
 49
-0.9144
 49
0.0
 49
-1.193799999999999
 53
317.5
 43
-62.91595120784006
 44
-50.89262810178638
 45
1.527112904944594
 46
0.4458586465144325
 79
     6
 49
0.0
 49
-0.127
 49
0.0
 49
-0.59944
 49
0.0
 49
-0.6858
 47
0.0273978319239897
 98
        1
 10
106.8974580418573
 20
105.9023997446377
1001
ACAD
1010
0.0
1020
0.0
1030
0.0
  0
LWPOLYLINE
  5
8E50
102
{ACAD_REACTORS
330
8E4F
102
}
330
18
100
AcDbEntity
  8
contour
100
AcDbPolyline
 90
        4
 70
     1
 43
0.0
 10
105.349616161616
 20
107.3285165109915
 10
105.349616161616
 20
102.1285165109916
 10
108.6616161616161
 20
102.1285165109915
 10
108.6616161616161
 20
107.3285165109915
  0
DIMENSION
  5
8E51
330
18
100
AcDbEntity
  8
mark
100
AcDbDimension
  2
*D16
 10
59.53426971995146
 20
191.073538664829
 30
0.0
 11
57.48426971995143
 21
188.573538664829
 31
0.0
 70
    32
 71
     5
 42
5.0
  3
STANDARD
100
AcDbAlignedDimension
 13
68.80093638661816
 23
186.073538664829
 33
0.0
 14
68.80093638661811
 24
191.073538664829
 34
0.0
 50
90.0
100
AcDbRotatedDimension
  0
DIMENSION
  5
8E52
330
18
100
AcDbEntity
  8
mark
100
AcDbDimension
  2
*D17
 10
68.80093638661816
 20
166.073538664829
 30
0.0
 11
62.16760305328483
 21
168.123538664829
 31
0.0
 70
    32
 71
     5
 42
2.0
  3
STANDARD
100
AcDbAlignedDimension
 13
70.80093638661816
 23
186.073538664829
 33
0.0
 14
68.80093638661816
 24
186.073538664829
 34
0.0
100
AcDbRotatedDimension
  0
DIMENSION
  5
8E53
330
18
100
AcDbEntity
  8
mark
100
AcDbDimension
  2
*D18
 10
59.53426971995146
 20
110.7285165109915
 30
0.0
 11
57.48426971995144
 21
118.8201831776582
 31
0.0
 70
    32
 71
     5
 42
0.5
  3
STANDARD
100
AcDbAlignedDimension
 13
70.16161616161605
 23
110.2285165109915
 33
0.0
 14
71.16161616161605
 24
110.7285165109915
 34
0.0
 50
90.0
100
AcDbRotatedDimension
  0
DIMENSION
  5
8E54
330
18
100
AcDbEntity
  8
mark
100
AcDbDimension
  2
*D19
 10
106.661616161616
 20
119.7376705955416
 30
0.0
 11
91.16161616161605
 21
121.7876705955416
 31
0.0
 70
    32
  1
%%c31
 71
     5
 42
31.0
  3
STANDARD
100
AcDbAlignedDimension
 13
75.66161616161605
 23
110.7285165109915
 33
0.0
 14
106.661616161616
 24
110.7285165109915
 34
0.0
100
AcDbRotatedDimension
  0
DIMENSION
  5
8E55
330
18
100
AcDbEntity
  8
mark
100
AcDbDimension
  2
*D20
 10
111.161616161616
 20
124.9485032580589
 30
0.0
 11
91.16161616161605
 21
126.9985032580589
 31
0.0
 70
    32
  1
%%c40%%p0.5
 71
     5
 42
40.0
  3
STANDARD
100
AcDbAlignedDimension
 13
71.16161616161605
 23
110.7285165109915
 33
0.0
 14
111.161616161616
 24
110.7285165109915
 34
0.0
100
AcDbRotatedDimension
  0
DIMENSION
  5
8E56
330
18
100
AcDbEntity
  8
mark
100
AcDbDimension
  2
*D21
 10
113.6616161616161
 20
130.9914730857551
 30
0.0
 11
91.16161616161608
 21
133.0414730857552
 31
0.0
 70
    32
  1
%%c45
 71
     5
 42
45.00000000000006
  3
STANDARD
100
AcDbAlignedDimension
 13
68.66161616161605
 23
108.7285165109915
 33
0.0
 14
113.6616161616161
 24
108.7285165109915
 34
0.0
100
AcDbRotatedDimension
  0
MTEXT
  5
8E57
330
18
100
AcDbEntity
  8
mark
 62
     3
100
AcDbMText
 10
95.45288003098916
 20
134.7880046711285
 30
0.0
 40
1.25
 41
0.0
 71
     1
 72
     1
  1
+0\P-0.2
 73
     1
 44
1.0
1001
ACAD
1000
ACAD_MTEXT_DEFINED_HEIGHT_BEGIN
1070
    46
1040
0.0
1000
ACAD_MTEXT_DEFINED_HEIGHT_END
1000
MTEXTBEGIN
1070
    73
1070
     1
1070
    44
1040
1.0
1070
    74
1070
     0
1000
MTEXTEND
  0
DIMENSION
  5
8E58
330
18
100
AcDbEntity
  8
mark
100
AcDbDimension
  2
*D22
 10
121.5451241448776
 20
104.7285165109915
 30
0.0
 11
119.4951241448775
 21
107.7285165109915
 31
0.0
 70
    32
 71
     5
 42
6.0
  3
STANDARD
100
AcDbAlignedDimension
 13
111.161616161616
 23
110.7285165109915
 33
0.0
 14
114.6616161616161
 24
104.7285165109915
 34
0.0
 50
90.0
100
AcDbRotatedDimension
  0
DIMENSION
  5
8E59
330
18
100
AcDbEntity
  8
mark
100
AcDbDimension
  2
*D23
 10
129.2580034046781
 20
98.72851651099153
 30
0.0
 11
129.2580034046781
 21
104.7285165109915
 31
0.0
 70
   160
  1
12%%p0.2
 71
     5
 42
12.0
  3
STANDARD
100
AcDbAlignedDimension
 13
111.161616161616
 23
110.7285165109915
 33
0.0
 14
112.161616161616
 24
98.72851651099153
 34
0.0
 50
90.0
100
AcDbRotatedDimension
  0
DIMENSION
  5
8E5A
330
18
100
AcDbEntity
  8
mark
100
AcDbDimension
  2
*D24
 10
106.161616161616
 20
85.58011673350325
 30
0.0
 11
91.16161616161605
 21
85.58011673350325
 31
0.0
 70
   160
  1
M30X1.5P
 71
     5
 42
30.0
  3
STANDARD
100
AcDbAlignedDimension
 13
76.16161616161605
 23
99.41651651099153
 33
0.0
 14
106.161616161616
 24
99.41651651099267
 34
0.0
100
AcDbRotatedDimension
  0
LINE
  5
8E5B
330
18
100
AcDbEntity
  8
mark
100
AcDbLine
 10
76.16161616161605
 20
85.03392349705377
 30
0.0
 11
76.16161616161605
 21
76.28392349705376
 31
0.0
  0
INSERT
  5
8E5C
330
18
100
AcDbEntity
  8
mark
100
AcDbBlockReference
  2
A
 10
72.08234815746948
 20
80.67506859883634
 30
0.0
  0
TOLERANCE
  5
8E5D
330
18
100
AcDbEntity
  8
mark
100
AcDbFcf
  3
STANDARD
 10
134.2580034046781
 20
120.7285165109908
 30
0.0
  1
{\Fgdt;h}%%v0.005%%v%%vA%%v%%v
1001
ACAD
1000
DSTYLE
1002
{
1070
    41
1040
2.5
1070
    43
1040
6.0
1070
   141
1040
0.0
1070
   271
1070
     1
1070
   272
1070
     1
1002
}
  0
LWPOLYLINE
  5
8E5E
330
18
100
AcDbEntity
  8
mark
100
AcDbPolyline
 90
        3
 70
     0
 43
0.0
 10
129.2580034046781
 20
110.7285165109908
 10
129.2580034046781
 20
120.7285165109908
 10
134.2580034046781
 20
120.7285165109908
  0
DIMENSION
  5
8E5F
330
18
100
AcDbEntity
  8
mark
100
AcDbDimension
  2
*D25
 10
70.16161616161629
 20
100.2285165109916
 30
0.0
 11
59.42537820059984
 21
92.39141635284161
 31
0.0
 70
    36
  1
2-R1.5
 71
     5
 42
1.500000000000056
  3
STANDARD
100
AcDbRadialDimension
 15
69.10095598983635
 25
99.16785633921184
 35
0.0
 40
0.0
1001
ACAD
1000
DSTYLE
1002
{
1070
   288
1070
     1
1002
}
  0
LEADER
  5
8E61
330
18
100
AcDbEntity
  8
mark
100
AcDbLeader
  3
STANDARD
 76
     2
 10
106.099616161616
 20
99.47851651099155
 30
0.0
 10
97.2565601807819
 20
90.63546053015739
 30
0.0
  0
MTEXT
  5
8E62
330
18
100
AcDbEntity
  8
DIM
100
AcDbMText
 10
97.93079522447579
 20
94.58709859059116
 30
0.0
 40
2.5
 41
0.0
 71
     5
 72
     1
  1
C1.5
 11
0.7071067811865575
 21
0.7071067811865376
 31
0.0
 73
     1
 44
1.0
1001
ACAD
1000
ACAD_MTEXT_DEFINED_HEIGHT_BEGIN
1070
    46
1040
0.0
1000
ACAD_MTEXT_DEFINED_HEIGHT_END
1000
MTEXTBEGIN
1070
    73
1070
     1
1070
    44
1040
1.0
1070
    74
1070
     0
1000
MTEXTEND
  0
LWPOLYLINE
  5
8E63
330
18
100
AcDbEntity
  8
mark
100
AcDbPolyline
 90
        7
 70
     1
 43
0.0
 10
93.16684544045973
 20
113.2368278330024
 10
101.8270994783041
 20
113.2368278330024
 10
100.3837238053299
 20
110.7368278330023
 10
98.94034813235601
 20
113.2368278330024
 10
97.49697245938182
 20
110.7368278330023
 10
96.05359678640787
 20
113.2368278330024
 10
94.61022111343368
 20
110.7368278330023
  0
LEADER
  5
8E65
330
18
100
AcDbEntity
  8
mark
100
AcDbLeader
  3
STANDARD
 76
     2
 10
113.6616161616161
 20
104.7285165109915
 30
0.0
 10
126.2849084751655
 20
126.6268153465705
 30
0.0
211
0.5000000000000001
221
0.8660254037844385
231
0.0
  0
MTEXT
  5
8E66
330
18
100
AcDbEntity
  8
mark
 62
     3
100
AcDbMText
 10
128.5777951134559
 20
127.0235147674787
 30
0.0
 40
3.5
 41
0.0
 71
     5
 72
     1
  1
2
 73
     1
 44
1.0
1001
ACAD
1000
ACAD_MTEXT_DEFINED_HEIGHT_BEGIN
1070
    46
1040
0.0
1000
ACAD_MTEXT_DEFINED_HEIGHT_END
1000
MTEXTBEGIN
1070
    73
1070
     1
1070
    44
1040
1.0
1070
    74
1070
     0
1000
MTEXTEND
  0
MTEXT
  5
8E67
330
18
100
AcDbEntity
  8
mark
 62
     3
100
AcDbMText
 10
128.5777951134559
 20
91.61448193813544
 30
0.0
 40
3.5
 41
0.0
 71
     5
 72
     1
  1
3
 73
     1
 44
1.0
1001
ACAD
1000
ACAD_MTEXT_DEFINED_HEIGHT_BEGIN
1070
    46
1040
0.0
1000
ACAD_MTEXT_DEFINED_HEIGHT_END
1000
MTEXTBEGIN
1070
    73
1070
     1
1070
    44
1040
1.0
1070
    74
1070
     0
1000
MTEXTEND
  0
LEADER
  5
8E68
330
18
100
AcDbEntity
  8
mark
100
AcDbLeader
  3
STANDARD
 76
     2
 10
107.0056161616161
 20
102.1285165109915
 30
0.0
 10
127.3160908514725
 20
91.38539433738788
 30
0.0
  0
LEADER
  5
8E69
330
18
100
AcDbEntity
  8
mark
100
AcDbLeader
  3
STANDARD
 76
     2
 10
110.6471877467659
 20
199.823538664829
 30
0.0
 10
126.2849084751655
 20
208.8519809368827
 30
0.0
211
0.8660254037844387
221
0.5
231
0.0
1001
ACAD
1000
DSTYLE
1002
{
1070
   147
1040
0.8
1070
    77
1070
     0
1002
}
  0
MTEXT
  5
8E6A
330
18
100
AcDbEntity
  8
mark
 62
     3
100
AcDbMText
 10
128.5777951134559
 20
208.7534803858439
 30
0.0
 40
3.5
 41
0.0
 71
     5
 72
     1
  1
1
 73
     1
 44
1.0
1001
ACAD
1000
ACAD_MTEXT_DEFINED_HEIGHT_BEGIN
1070
    46
1040
0.0
1000
ACAD_MTEXT_DEFINED_HEIGHT_END
1000
MTEXTBEGIN
1070
    73
1070
     1
1070
    44
1040
1.0
1070
    74
1070
     0
1000
MTEXTEND
  0
LINE
  5
8E6B
330
18
100
AcDbEntity
  8
center
 48
0.2
100
AcDbLine
 10
79.41161616161605
 20
208.9251356537633
 30
0.0
 11
84.567616161616
 21
199.9946816899381
 31
0.0
  0
LINE
  5
8E6C
330
18
100
AcDbEntity
  8
center
 48
0.2
100
AcDbLine
 10
79.41161616161605
 20
168.2219416758947
 30
0.0
 11
84.567616161616
 21
177.1523956397199
 31
0.0
  0
MTEXT
  5
8E6D
330
18
100
AcDbEntity
  8
mark
 62
     3
100
AcDbMText
 10
55.00123225713458
 20
191.0096240871472
 30
0.0
 40
1.25
 41
0.0
 71
     1
 72
     1
  1
+0.15\P+0
 11
0.0000000000000001
 21
1.0
 31
0.0
 73
     1
 44
1.0
1001
ACAD
1000
ACAD_MTEXT_DEFINED_HEIGHT_BEGIN
1070
    46
1040
0.0
1000
ACAD_MTEXT_DEFINED_HEIGHT_END
1000
MTEXTBEGIN
1070
    73
1070
     1
1070
    44
1040
1.0
1070
    74
1070
     0
1000
MTEXTEND
  0
MTEXT
  5
8E6E
330
18
100
AcDbEntity
  8
mark
 62
     3
100
AcDbMText
 10
55.83456559046783
 20
196.270021084233
 30
0.0
 40
2.5
 41
0.0
 71
     1
 72
     1
  1
({\Ftxt,bigfont|c128;3等分\Ftxt,bigfont|c136;)}
 11
0.0000000000000001
 21
1.0
 31
0.0
 73
     1
 44
1.0
1001
ACAD
1000
ACAD_MTEXT_DEFINED_HEIGHT_BEGIN
1070
    46
1040
0.0
1000
ACAD_MTEXT_DEFINED_HEIGHT_END
1000
MTEXTBEGIN
1070
    73
1070
     1
1070
    44
1040
1.0
1070
    74
1070
     0
1000
MTEXTEND
  0
MTEXT
  5
8E6F
330
18
100
AcDbEntity
  8
mark
 62
     3
100
AcDbMText
 10
63.61635705327455
 20
169.8551095695563
 30
0.0
 40
1.25
 41
0.0
 71
     1
 72
     1
  1
+0.15\P+0
 73
     1
 44
1.0
1001
ACAD
1000
ACAD_MTEXT_DEFINED_HEIGHT_BEGIN
1070
    46
1040
0.0
1000
ACAD_MTEXT_DEFINED_HEIGHT_END
1000
MTEXTBEGIN
1070
    73
1070
     1
1070
    44
1040
1.0
1070
    74
1070
     0
1000
MTEXTEND
  0
DIMENSION
  5
8E70
330
18
100
AcDbEntity
  8
mark
100
AcDbDimension
  2
*D26
 10
84.4351684553102
 20
109.7285165109915
 30
0.0
 11
82.38516845531016
 21
103.5118498443249
 31
0.0
 70
    32
 71
     5
  3
STANDARD
100
AcDbAlignedDimension
 13
84.4351684553102
 23
110.7285165109915
 33
0.0
 14
84.4351684553102
 24
109.7285165109915
 34
0.0
 50
90.0
100
AcDbRotatedDimension
  0
MTEXT
  5
91E1
330
18
100
AcDbEntity
  8
0
100
AcDbMText
 10
47.80657439396247
 20
18.59121053131769
 30
0.0
 40
4.797979797979802
 41
0.0
 71
     1
 72
     5
  1
{\Ftxt,bigfont|c128;小\~柳}
  7
JL
 73
     1
 44
1.0
1001
ACAD
1000
ACAD_MTEXT_DEFINED_HEIGHT_BEGIN
1070
    46
1040
0.0
1000
ACAD_MTEXT_DEFINED_HEIGHT_END
1000
MTEXTBEGIN
1070
    73
1070
     1
1070
    44
1040
1.0
1070
    74
1070
     0
1000
MTEXTEND
  0
LWPOLYLINE
  5
9223
330
18
100
AcDbEntity
  8
mark
100
AcDbPolyline
 90
        3
 70
     1
 43
0.0
 10
8.502975160599881
 20
33.72420311363553
 10
5.616223814651766
 20
38.72420311363553
 10
2.729472468703626
 20
33.72420311363553
  0
MTEXT
  5
9224
330
18
100
AcDbEntity
  8
DIM
100
AcDbMText
 10
5.16830756411108
 20
37.00738278804758
 30
0.0
 40
2.5
 41
9.163114146879252
 71
     1
 72
     5
  1
1
 73
     1
 44
1.0
1001
ACAD
1000
ACAD_MTEXT_DEFINED_HEIGHT_BEGIN
1070
    46
1040
0.0
1000
ACAD_MTEXT_DEFINED_HEIGHT_END
1000
MTEXTBEGIN
1070
    73
1070
     1
1070
    44
1040
1.0
1070
    74
1070
     0
1000
MTEXTEND
  0
MTEXT
  5
9225
330
18
100
AcDbEntity
  8
DIM
100
AcDbMText
 10
10.26617367207154
 20
38.18476109608582
 30
0.0
 40
4.5
 41
0.0
 71
     1
 72
     5
  1
{\Ftxt,bigfont|c128;08.08.08 振れ精度の変更  林}
  7
JL
 73
     1
 44
1.0
1001
ACAD
1000
ACAD_MTEXT_DEFINED_HEIGHT_BEGIN
1070
    46
1040
0.0
1000
ACAD_MTEXT_DEFINED_HEIGHT_END
1000
MTEXTBEGIN
1070
    73
1070
     1
1070
    44
1040
1.0
1070
    74
1070
     0
1000
MTEXTEND
  0
CIRCLE
  5
9226
330
18
100
AcDbEntity
  8
DIM
100
AcDbCircle
 10
48.04047696609728
 20
35.87494247611903
 30
0.0
 40
2.762409708108862
  0
LWPOLYLINE
  5
9227
330
18
100
AcDbEntity
  8
mark
100
AcDbPolyline
 90
        3
 70
     1
 43
0.0
 10
182.240155001331
 20
2.593689480303169
 10
179.3534036553829
 20
7.593689480303169
 10
176.4666523094348
 20
2.593689480303169
  0
MTEXT
  5
9228
330
18
100
AcDbEntity
  8
DIM
100
AcDbMText
 10
178.9054874048422
 20
5.876869154715222
 30
0.0
 40
2.5
 41
9.163114146879252
 71
     1
 72
     5
  1
1
 73
     1
 44
1.0
1001
ACAD
1000
ACAD_MTEXT_DEFINED_HEIGHT_BEGIN
1070
    46
1040
0.0
1000
ACAD_MTEXT_DEFINED_HEIGHT_END
1000
MTEXTBEGIN
1070
    73
1070
     1
1070
    44
1040
1.0
1070
    74
1070
     0
1000
MTEXTEND
  0
LWPOLYLINE
  5
9229
330
18
100
AcDbEntity
  8
mark
100
AcDbPolyline
 90
        3
 70
     1
 43
0.0
 10
140.2511826653538
 20
124.7020790077446
 10
137.3644313194057
 20
129.7020790077446
 10
134.4776799734575
 20
124.7020790077446
  0
MTEXT
  5
922A
330
18
100
AcDbEntity
  8
DIM
100
AcDbMText
 10
136.916515068865
 20
127.9852586821566
 30
0.0
 40
2.5
 41
9.163114146879252
 71
     1
 72
     5
  1
1
 73
     1
 44
1.0
1001
ACAD
1000
ACAD_MTEXT_DEFINED_HEIGHT_BEGIN
1070
    46
1040
0.0
1000
ACAD_MTEXT_DEFINED_HEIGHT_END
1000
MTEXTBEGIN
1070
    73
1070
     1
1070
    44
1040
1.0
1070
    74
1070
     0
1000
MTEXTEND
  0
MTEXT
  5
922B
330
18
100
AcDbEntity
  8
DIM
100
AcDbMText
 10
141.8270286387076
 20
127.9852586821566
 30
0.0
 40
2.5
 41
9.163114146879252
 71
     1
 72
     5
  1
0.007
 73
     1
 44
1.0
1001
ACAD
1000
ACAD_MTEXT_DEFINED_HEIGHT_BEGIN
1070
    46
1040
0.0
1000
ACAD_MTEXT_DEFINED_HEIGHT_END
1000
MTEXTBEGIN
1070
    73
1070
     1
1070
    44
1040
1.0
1070
    74
1070
     0
1000
MTEXTEND
  0
LINE
  5
922C
330
18
100
AcDbEntity
  8
0
 62
     1
100
AcDbLine
 10
141.1591334912546
 20
121.0631004097751
 30
0.0
 11
151.0131860352144
 21
121.0631004097751
 31
0.0
  0
LINE
  5
922D
330
18
100
AcDbEntity
  8
0
 62
     1
100
AcDbLine
 10
141.1591334912546
 20
120.2629262741714
 30
0.0
 11
151.0131860352144
 21
120.2629262741714
 31
0.0
  0
ENDSEC
  0
SECTION
  2
OBJECTS
  0
DICTIONARY
  5
C
330
0
100
AcDbDictionary
281
     1
  3
ACAD_COLOR
350
82CC
  3
ACAD_GROUP
350
D
  3
ACAD_LAYOUT
350
5CF3
  3
ACAD_MATERIAL
350
82CB
  3
ACAD_MLINESTYLE
350
1B
  3
ACAD_PLOTSETTINGS
350
5CF4
  3
ACAD_PLOTSTYLENAME
350
5CF1
  3
ACAD_TABLESTYLE
350
82CD
  3
ACDBHEADERROUNDTRIPXREC
350
923C
  3
ACDBVARIABLEDICTIONARY
350
45D
  0
DICTIONARY
  5
82D9
330
2
100
AcDbDictionary
280
     1
281
     1
  3
ACAD_LAYERFILTERS
360
82DB
  3
ACLYDICTIONARY
360
82DA
  0
DICTIONARY
  5
45F
330
18
100
AcDbDictionary
280
     1
281
     1
  3
ACAD_LAYOUTSELFREF
360
5D8B
  3
ACAD_SORTENTS
360
460
  0
DICTIONARY
  5
5D89
330
15
100
AcDbDictionary
280
     1
281
     1
  3
ACAD_LAYOUTSELFREF
360
5D8A
  0
DICTIONARY
  5
82E3
330
82E2
100
AcDbDictionary
280
     1
281
     1
  3
AcDbBlockTableRecordData
360
82E4
  0
DICTIONARY
  5
8440
330
837C
100
AcDbDictionary
280
     1
281
     1
  3
ACAD_SORTENTS
360
8441
  0
DICTIONARY
  5
82CC
102
{ACAD_REACTORS
330
C
102
}
330
C
100
AcDbDictionary
281
     1
  0
DICTIONARY
  5
D
102
{ACAD_REACTORS
330
C
102
}
330
C
100
AcDbDictionary
281
     1
  0
DICTIONARY
  5
5CF3
102
{ACAD_REACTORS
330
C
102
}
330
C
100
AcDbDictionary
281
     1
  3
Model
350
5CF5
  3
配置1
350
5CF6
  0
DICTIONARY
  5
82CB
102
{ACAD_REACTORS
330
C
102
}
330
C
100
AcDbDictionary
281
     1
  0
DICTIONARY
  5
1B
102
{ACAD_REACTORS
330
C
102
}
330
C
100
AcDbDictionary
281
     1
  3
STANDARD
350
1C
  0
DICTIONARY
  5
5CF4
102
{ACAD_REACTORS
330
C
102
}
330
C
100
AcDbDictionary
281
     1
  0
ACDBDICTIONARYWDFLT
  5
5CF1
102
{ACAD_REACTORS
330
C
102
}
330
C
100
AcDbDictionary
281
     1
  3
Normal
350
5CF2
100
AcDbDictionaryWithDefault
340
5CF2
  0
DICTIONARY
  5
82CD
102
{ACAD_REACTORS
330
C
102
}
330
C
100
AcDbDictionary
281
     1
  3
Standard
350
82CE
  0
DICTIONARY
  5
923C
102
{ACAD_REACTORS
330
C
102
}
330
C
100
AcDbDictionary
281
     1
  0
DICTIONARY
  5
45D
102
{ACAD_REACTORS
330
C
102
}
330
C
100
AcDbDictionary
281
     1
  3
CTABLESTYLE
350
8FD7
  3
DIMASSOC
350
9239
  3
PROJECTNAME
350
923A
  3
SORTENTS
350
45E
  0
DICTIONARY
  5
82DB
102
{ACAD_REACTORS
330
82D9
102
}
330
82D9
100
AcDbDictionary
281
     1
  0
DICTIONARY
  5
82DA
102
{ACAD_REACTORS
330
82D9
102
}
330
82D9
100
AcDbDictionary
281
     1
1001
ACAD
1000
<All
  0
XRECORD
  5
5D8B
102
{ACAD_REACTORS
330
45F
102
}
330
45F
100
AcDbXrecord
280
     1
340
18
  0
SORTENTSTABLE
  5
460
102
{ACAD_REACTORS
330
45F
102
}
330
45F
100
AcDbSortentsTable
330
18
331
C0
  5
CB
  0
XRECORD
  5
5D8A
102
{ACAD_REACTORS
330
5D89
102
}
330
5D89
100
AcDbXrecord
280
     1
340
15
  0
DICTIONARY
  5
82E4
102
{ACAD_REACTORS
330
82E3
102
}
330
82E3
100
AcDbDictionary
280
     1
281
     1
  3
Edit
360
82E5
  0
SORTENTSTABLE
  5
8441
102
{ACAD_REACTORS
330
8440
102
}
330
8440
100
AcDbSortentsTable
330
837C
  0
LAYOUT
  5
5CF5
102
{ACAD_XDICTIONARY
360
923D
102
}
102
{ACAD_REACTORS
330
5CF3
102
}
330
5CF3
100
AcDbPlotSettings
  1

  2
hp LaserJet 1300 PCL 6
  4
A4
  6

 40
5.027083396911621
 41
5.069413185119628
 42
5.027084350585937
 43
5.027069091796875
 44
209.9733276367187
 45
296.9683227539062
 46
2.628062639917686
 47
0.0
 48
0.0
 49
0.0
140
190.0
141
280.0000000000001
142
1.0
143
0.9760456081518366
 70
 11956
 72
     1
 73
     0
 74
     4
  7
LIN.ctb
 75
     0
147
1.02454228741782
148
0.0
149
0.0
100
AcDbLayout
  1
Model
 70
     1
 71
     0
 10
0.0
 20
0.0
 11
12.0
 21
9.0
 12
0.0
 22
0.0
 32
0.0
 14
0.0
 24
0.0
 34
0.0
 15
0.0
 25
0.0
 35
0.0
146
0.0
 13
0.0
 23
0.0
 33
0.0
 16
1.0
 26
0.0
 36
0.0
 17
0.0
 27
1.0
 37
0.0
 76
     0
330
18
1001
ACAD_PSEXT
1000
hp LaserJet 1300 PCL 6
1000
hp LaserJet 1300 PCL 6
1000
HP 1300
1000

1070
     0
  0
LAYOUT
  5
5CF6
102
{ACAD_XDICTIONARY
360
923F
102
}
102
{ACAD_REACTORS
330
5CF3
102
}
330
5CF3
100
AcDbPlotSettings
  1

  2
EPSON STYLUS COLOR 440
  4

  6

 40
0.0
 41
0.0
 42
0.0
 43
0.0
 44
0.0
 45
0.0
 46
0.0
 47
0.0
 48
0.0
 49
0.0
140
0.0
141
0.0
142
1.0
143
1.0
 70
   688
 72
     0
 73
     0
 74
     5
  7
LIN.ctb
 75
    16
147
1.0
148
0.0
149
0.0
100
AcDbLayout
  1
ｰtｸm1
 70
     1
 71
     1
 10
0.0
 20
0.0
 11
420.0
 21
297.0
 12
0.0
 22
0.0
 32
0.0
 14
1.000000000000000E+20
 24
1.000000000000000E+20
 34
1.000000000000000E+20
 15
-1.000000000000000E+20
 25
-1.000000000000000E+20
 35
-1.000000000000000E+20
146
0.0
 13
0.0
 23
0.0
 33
0.0
 16
1.0
 26
0.0
 36
0.0
 17
0.0
 27
1.0
 37
0.0
 76
     0
330
15
  0
MLINESTYLE
  5
1C
102
{ACAD_REACTORS
330
1B
102
}
330
1B
100
AcDbMlineStyle
  2
STANDARD
 70
     0
  3

 62
   256
 51
90.0
 52
90.0
 71
     2
 49
0.5
 62
   256
  6
BYLAYER
 49
-0.5
 62
   256
  6
BYLAYER
  0
ACDBPLACEHOLDER
  5
5CF2
102
{ACAD_REACTORS
330
5CF1
102
}
330
5CF1
  0
TABLESTYLE
  5
82CE
102
{ACAD_REACTORS
330
82CD
102
}
330
82CD
100
AcDbTableStyle
  3
Standard
 70
     0
 71
     0
 40
1.5
 41
1.5
280
     0
281
     0
  7
STANDARD
140
4.5
170
     2
 62
     0
 63
     7
283
     0
274
    -2
284
     1
 64
     0
275
    -2
285
     1
 65
     0
276
    -2
286
     1
 66
     0
277
    -2
287
     1
 67
     0
278
    -2
288
     1
 68
     0
279
    -2
289
     1
 69
     0
  7
STANDARD
140
6.0
170
     5
 62
     0
 63
     7
283
     0
274
    -2
284
     1
 64
     0
275
    -2
285
     1
 65
     0
276
    -2
286
     1
 66
     0
277
    -2
287
     1
 67
     0
278
    -2
288
     1
 68
     0
279
    -2
289
     1
 69
     0
  7
STANDARD
140
4.5
170
     5
 62
     0
 63
     7
283
     0
274
    -2
284
     1
 64
     0
275
    -2
285
     1
 65
     0
276
    -2
286
     1
 66
     0
277
    -2
287
     1
 67
     0
278
    -2
288
     1
 68
     0
279
    -2
289
     1
 69
     0
  0
DICTIONARYVAR
  5
8FD7
102
{ACAD_REACTORS
330
45D
102
}
330
45D
100
DictionaryVariables
280
     0
  1
STANDARD
  0
DICTIONARYVAR
  5
9239
102
{ACAD_REACTORS
330
45D
102
}
330
45D
100
DictionaryVariables
280
     0
  1
1
  0
DICTIONARYVAR
  5
923A
102
{ACAD_REACTORS
330
45D
102
}
330
45D
100
DictionaryVariables
280
     0
  1

  0
DICTIONARYVAR
  5
45E
102
{ACAD_REACTORS
330
45D
102
}
330
45D
100
DictionaryVariables
280
     0
  1
127
  0
XRECORD
  5
82E5
102
{ACAD_REACTORS
330
82E4
102
}
330
82E4
100
AcDbXrecord
280
     1
1070
     0
1070
     1
1070
     1
  0
DICTIONARY
  5
923D
330
5CF5
100
AcDbDictionary
280
     1
281
     1
  3
ACAD_XREC_ROUNDTRIP
360
923E
  0
DICTIONARY
  5
923F
330
5CF6
100
AcDbDictionary
280
     1
281
     1
  3
ACAD_XREC_ROUNDTRIP
360
9240
  0
XRECORD
  5
923E
102
{ACAD_REACTORS
330
923D
102
}
330
923D
100
AcDbXrecord
280
     1
102
SHADEPLOT
 70
     0
102
SHADEPLOTRESLEVEL
 70
     2
102
SHADEPLOTCUSTOMDPI
 70
   300
  0
XRECORD
  5
9240
102
{ACAD_REACTORS
330
923F
102
}
330
923F
100
AcDbXrecord
280
     1
102
SHADEPLOT
 70
     0
102
SHADEPLOTRESLEVEL
 70
     2
102
SHADEPLOTCUSTOMDPI
 70
   300
  0
ENDSEC
  0
EOF
