  0
SECTION
  2
HEADER
  9
$ACADVER
  1
AC1018
  9
$ACADMAINTVER
 70
    76
  9
$DWGCODEPAGE
  3
ANSI_932
  9
$INSBASE
 10
0.0
 20
0.0
 30
0.0
  9
$EXTMIN
 10
-0.0000000000001137
 20
-0.0000000000000284
 30
0.0
  9
$EXTMAX
 10
98.99999999999989
 20
145.0
 30
2.0
  9
$LIMMIN
 10
0.0
 20
0.0
  9
$LIMMAX
 10
420.0
 20
297.0
  9
$ORTHOMODE
 70
     0
  9
$REGENMODE
 70
     1
  9
$FILLMODE
 70
     1
  9
$QTEXTMODE
 70
     0
  9
$MIRRTEXT
 70
     1
  9
$LTSCALE
 40
1.0
  9
$ATTMODE
 70
     1
  9
$TEXTSIZE
 40
2.5
  9
$TRACEWID
 40
1.0
  9
$TEXTSTYLE
  7
TXT
  9
$CLAYER
  8
DIM
  9
$CELTYPE
  6
BYLAYER
  9
$CECOLOR
 62
   256
  9
$CELTSCALE
 40
1.0
  9
$DISPSILH
 70
     0
  9
$DIMSCALE
 40
1.0
  9
$DIMASZ
 40
1.25
  9
$DIMEXO
 40
1.0
  9
$DIMDLI
 40
6.0
  9
$DIMRND
 40
0.0
  9
$DIMDLE
 40
0.0
  9
$DIMEXE
 40
1.0
  9
$DIMTP
 40
0.0
  9
$DIMTM
 40
0.0
  9
$DIMTXT
 40
1.75
  9
$DIMCEN
 40
0.0
  9
$DIMTSZ
 40
0.0
  9
$DIMTOL
 70
     0
  9
$DIMLIM
 70
     0
  9
$DIMTIH
 70
     0
  9
$DIMTOH
 70
     0
  9
$DIMSE1
 70
     0
  9
$DIMSE2
 70
     0
  9
$DIMTAD
 70
     3
  9
$DIMZIN
 70
     8
  9
$DIMBLK
  1

  9
$DIMASO
 70
     1
  9
$DIMSHO
 70
     1
  9
$DIMPOST
  1

  9
$DIMAPOST
  1

  9
$DIMALT
 70
     0
  9
$DIMALTD
 70
     2
  9
$DIMALTF
 40
25.4
  9
$DIMLFAC
 40
1.0
  9
$DIMTOFL
 70
     0
  9
$DIMTVP
 40
0.0
  9
$DIMTIX
 70
     0
  9
$DIMSOXD
 70
     0
  9
$DIMSAH
 70
     0
  9
$DIMBLK1
  1

  9
$DIMBLK2
  1

  9
$DIMSTYLE
  2
A
  9
$DIMCLRD
 70
     6
  9
$DIMCLRE
 70
     6
  9
$DIMCLRT
 70
     3
  9
$DIMTFAC
 40
1.0
  9
$DIMGAP
 40
1.0
  9
$DIMJUST
 70
     0
  9
$DIMSD1
 70
     0
  9
$DIMSD2
 70
     0
  9
$DIMTOLJ
 70
     1
  9
$DIMTZIN
 70
     0
  9
$DIMALTZ
 70
     0
  9
$DIMALTTZ
 70
     0
  9
$DIMUPT
 70
     0
  9
$DIMDEC
 70
     1
  9
$DIMTDEC
 70
     1
  9
$DIMALTU
 70
     2
  9
$DIMALTTD
 70
     2
  9
$DIMTXSTY
  7
TXT
  9
$DIMAUNIT
 70
     0
  9
$DIMADEC
 70
     0
  9
$DIMALTRND
 40
0.0
  9
$DIMAZIN
 70
     0
  9
$DIMDSEP
 70
    46
  9
$DIMATFIT
 70
     3
  9
$DIMFRAC
 70
     0
  9
$DIMLDRBLK
  1

  9
$DIMLUNIT
 70
     2
  9
$DIMLWD
 70
    -2
  9
$DIMLWE
 70
    -2
  9
$DIMTMOVE
 70
     1
  9
$LUNITS
 70
     2
  9
$LUPREC
 70
     2
  9
$SKETCHINC
 40
1.0
  9
$FILLETRAD
 40
1.5
  9
$AUNITS
 70
     0
  9
$AUPREC
 70
     2
  9
$MENU
  1
.
  9
$ELEVATION
 40
0.0
  9
$PELEVATION
 40
0.0
  9
$THICKNESS
 40
0.0
  9
$LIMCHECK
 70
     0
  9
$CHAMFERA
 40
1.75
  9
$CHAMFERB
 40
1.75
  9
$CHAMFERC
 40
1.75
  9
$CHAMFERD
 40
0.0174532925199433
  9
$SKPOLY
 70
     0
  9
$TDCREATE
 40
2451555.620234838
  9
$TDUCREATE
 40
2451555.245234838
  9
$TDUPDATE
 40
2455846.557429919
  9
$TDUUPDATE
 40
2455846.182429919
  9
$TDINDWG
 40
2.1890948843
  9
$TDUSRTIMER
 40
2.1890948843
  9
$USRTIMER
 70
     1
  9
$ANGBASE
 50
0.0
  9
$ANGDIR
 70
     0
  9
$PDMODE
 70
     0
  9
$PDSIZE
 40
0.0
  9
$PLINEWID
 40
0.0
  9
$SPLFRAME
 70
     0
  9
$SPLINETYPE
 70
     6
  9
$SPLINESEGS
 70
     8
  9
$HANDSEED
  5
6F65
  9
$SURFTAB1
 70
     6
  9
$SURFTAB2
 70
     6
  9
$SURFTYPE
 70
     6
  9
$SURFU
 70
     6
  9
$SURFV
 70
     6
  9
$UCSBASE
  2

  9
$UCSNAME
  2

  9
$UCSORG
 10
0.0
 20
0.0
 30
0.0
  9
$UCSXDIR
 10
1.0
 20
0.0
 30
0.0
  9
$UCSYDIR
 10
0.0
 20
1.0
 30
0.0
  9
$UCSORTHOREF
  2

  9
$UCSORTHOVIEW
 70
     0
  9
$UCSORGTOP
 10
0.0
 20
0.0
 30
0.0
  9
$UCSORGBOTTOM
 10
0.0
 20
0.0
 30
0.0
  9
$UCSORGLEFT
 10
0.0
 20
0.0
 30
0.0
  9
$UCSORGRIGHT
 10
0.0
 20
0.0
 30
0.0
  9
$UCSORGFRONT
 10
0.0
 20
0.0
 30
0.0
  9
$UCSORGBACK
 10
0.0
 20
0.0
 30
0.0
  9
$PUCSBASE
  2

  9
$PUCSNAME
  2

  9
$PUCSORG
 10
0.0
 20
0.0
 30
0.0
  9
$PUCSXDIR
 10
1.0
 20
0.0
 30
0.0
  9
$PUCSYDIR
 10
0.0
 20
1.0
 30
0.0
  9
$PUCSORTHOREF
  2

  9
$PUCSORTHOVIEW
 70
     0
  9
$PUCSORGTOP
 10
0.0
 20
0.0
 30
0.0
  9
$PUCSORGBOTTOM
 10
0.0
 20
0.0
 30
0.0
  9
$PUCSORGLEFT
 10
0.0
 20
0.0
 30
0.0
  9
$PUCSORGRIGHT
 10
0.0
 20
0.0
 30
0.0
  9
$PUCSORGFRONT
 10
0.0
 20
0.0
 30
0.0
  9
$PUCSORGBACK
 10
0.0
 20
0.0
 30
0.0
  9
$USERI1
 70
     0
  9
$USERI2
 70
     0
  9
$USERI3
 70
     0
  9
$USERI4
 70
     0
  9
$USERI5
 70
     0
  9
$USERR1
 40
0.0
  9
$USERR2
 40
0.0
  9
$USERR3
 40
0.0
  9
$USERR4
 40
0.0
  9
$USERR5
 40
0.0
  9
$WORLDVIEW
 70
     1
  9
$SHADEDGE
 70
     3
  9
$SHADEDIF
 70
    70
  9
$TILEMODE
 70
     1
  9
$MAXACTVP
 70
    48
  9
$PINSBASE
 10
0.0
 20
0.0
 30
0.0
  9
$PLIMCHECK
 70
     0
  9
$PEXTMIN
 10
1.000000000000000E+20
 20
1.000000000000000E+20
 30
1.000000000000000E+20
  9
$PEXTMAX
 10
-1.000000000000000E+20
 20
-1.000000000000000E+20
 30
-1.000000000000000E+20
  9
$PLIMMIN
 10
0.0
 20
0.0
  9
$PLIMMAX
 10
420.0
 20
297.0
  9
$UNITMODE
 70
     0
  9
$VISRETAIN
 70
     1
  9
$PLINEGEN
 70
     0
  9
$PSLTSCALE
 70
     1
  9
$TREEDEPTH
 70
  3020
  9
$CMLSTYLE
  2
STANDARD
  9
$CMLJUST
 70
     0
  9
$CMLSCALE
 40
20.0
  9
$PROXYGRAPHICS
 70
     1
  9
$MEASUREMENT
 70
     1
  9
$CELWEIGHT
370
    -1
  9
$ENDCAPS
280
     0
  9
$JOINSTYLE
280
     0
  9
$LWDISPLAY
290
     0
  9
$INSUNITS
 70
     0
  9
$HYPERLINKBASE
  1

  9
$STYLESHEET
  1

  9
$XEDIT
290
     1
  9
$CEPSNTYPE
380
     0
  9
$PSTYLEMODE
290
     1
  9
$FINGERPRINTGUID
  2
{1CF51E8A-A506-11D4-A7D9-AF69F5C20846}
  9
$VERSIONGUID
  2
{53F81671-ED8D-44F6-AD6E-386237DF6901}
  9
$EXTNAMES
290
     1
  9
$PSVPSCALE
 40
0.0
  9
$OLESTARTUP
290
     0
  9
$SORTENTS
280
   127
  9
$INDEXCTL
280
     0
  9
$HIDETEXT
280
     0
  9
$XCLIPFRAME
290
     0
  9
$HALOGAP
280
     0
  9
$OBSCOLOR
 70
   257
  9
$OBSLTYPE
280
     0
  9
$INTERSECTIONDISPLAY
280
     0
  9
$INTERSECTIONCOLOR
 70
   257
  9
$DIMASSOC
280
     1
  9
$PROJECTNAME
  1

  0
ENDSEC
  0
SECTION
  2
CLASSES
  0
CLASS
  1
DICTIONARYVAR
  2
AcDbDictionaryVar
  3
ObjectDBX Classes
 90
        0
 91
        2
280
     0
281
     0
  0
CLASS
  1
SORTENTSTABLE
  2
AcDbSortentsTable
  3
ObjectDBX Classes
 90
        0
 91
        2
280
     0
281
     0
  0
CLASS
  1
ACDBDICTIONARYWDFLT
  2
AcDbDictionaryWithDefault
  3
ObjectDBX Classes
 90
        0
 91
        1
280
     0
281
     0
  0
CLASS
  1
TABLESTYLE
  2
AcDbTableStyle
  3
ObjectDBX Classes
 90
     2047
 91
        1
280
     0
281
     0
  0
ENDSEC
  0
SECTION
  2
TABLES
  0
TABLE
  2
VPORT
  5
8
330
0
100
AcDbSymbolTable
 70
     2
  0
VPORT
  5
6F64
330
8
100
AcDbSymbolTableRecord
100
AcDbViewportTableRecord
  2
*Active
 70
     0
 10
0.0
 20
0.0
 11
1.0
 21
1.0
 12
101.9483423384009
 22
79.01398849707472
 13
0.0
 23
0.0
 14
10.0
 24
10.0
 15
10.0
 25
10.0
 16
0.0
 26
0.0
 36
1.0
 17
0.0
 27
0.0
 37
0.0
 40
171.9973763188221
 41
2.019305019305019
 42
50.0
 43
0.0
 44
0.0
 50
0.0
 51
0.0
 71
     0
 72
   100
 73
     1
 74
     1
 75
     0
 76
     0
 77
     0
 78
     0
281
     0
 65
     1
110
0.0
120
0.0
130
0.0
111
1.0
121
0.0
131
0.0
112
0.0
122
1.0
132
0.0
 79
     0
146
0.0
  0
ENDTAB
  0
TABLE
  2
LTYPE
  5
5
330
0
100
AcDbSymbolTable
 70
     8
  0
LTYPE
  5
12
330
5
100
AcDbSymbolTableRecord
100
AcDbLinetypeTableRecord
  2
BYBLOCK
 70
     0
  3

 72
    65
 73
     0
 40
0.0
  0
LTYPE
  5
13
330
5
100
AcDbSymbolTableRecord
100
AcDbLinetypeTableRecord
  2
BYLAYER
 70
     0
  3

 72
    65
 73
     0
 40
0.0
  0
LTYPE
  5
14
330
5
100
AcDbSymbolTableRecord
100
AcDbLinetypeTableRecord
  2
CONTINUOUS
 70
     0
  3
Solid line
 72
    65
 73
     0
 40
0.0
  0
LTYPE
  5
9D
330
5
100
AcDbSymbolTableRecord
100
AcDbLinetypeTableRecord
  2
CENTERX2
 70
     0
  3
Center (2x) ________  __  ________  __  _____
 72
    65
 73
     4
 40
101.6
 49
63.5
 74
     0
 49
-12.7
 74
     0
 49
12.7
 74
     0
 49
-12.7
 74
     0
  0
LTYPE
  5
A1
330
5
100
AcDbSymbolTableRecord
100
AcDbLinetypeTableRecord
  2
DASHED
 70
     0
  3
Dashed __ __ __ __ __ __ __ __ __ __ __ __ __ _
 72
    65
 73
     2
 40
19.05
 49
12.7
 74
     0
 49
-6.349999999999999
 74
     0
  0
LTYPE
  5
A2
330
5
100
AcDbSymbolTableRecord
100
AcDbLinetypeTableRecord
  2
DASHED2
 70
     0
  3
Dashed (.5x) _ _ _ _ _ _ _ _ _ _ _ _ _ _ _ _ _
 72
    65
 73
     2
 40
9.524999999999998
 49
6.349999999999999
 74
     0
 49
-3.174999999999999
 74
     0
  0
LTYPE
  5
A5
330
5
100
AcDbSymbolTableRecord
100
AcDbLinetypeTableRecord
  2
DIVIDE2
 70
     0
  3
Divide (.5x) __..__..__..__..__..__..__..__.._
 72
    65
 73
     6
 40
15.875
 49
6.349999999999999
 74
     0
 49
-3.174999999999999
 74
     0
 49
0.0
 74
     0
 49
-3.174999999999999
 74
     0
 49
0.0
 74
     0
 49
-3.174999999999999
 74
     0
  0
LTYPE
  5
650B
330
5
100
AcDbSymbolTableRecord
100
AcDbLinetypeTableRecord
  2
CENTER
 70
     0
  3
Center ____ _ ____ _ ____ _ ____ _ ____ _ ____
 72
    65
 73
     4
 40
50.8
 49
31.75
 74
     0
 49
-6.349999999999999
 74
     0
 49
6.349999999999999
 74
     0
 49
-6.349999999999999
 74
     0
  0
LTYPE
  5
650C
330
5
100
AcDbSymbolTableRecord
100
AcDbLinetypeTableRecord
  2
HIDDEN
 70
     0
  3
Hidden __ __ __ __ __ __ __ __ __ __ __ __ __ _
 72
    65
 73
     2
 40
9.524999999999998
 49
6.349999999999999
 74
     0
 49
-3.174999999999999
 74
     0
  0
LTYPE
  5
6685
330
5
100
AcDbSymbolTableRecord
100
AcDbLinetypeTableRecord
  2
ACAD_ISO03W100
 70
     0
  3
ISO dash space __    __    __    __    __    __
 72
    65
 73
     2
 40
30.0
 49
12.0
 74
     0
 49
-18.0
 74
     0
  0
ENDTAB
  0
TABLE
  2
LAYER
  5
2
330
0
100
AcDbSymbolTable
 70
    10
  0
LAYER
  5
E
330
2
100
AcDbSymbolTableRecord
100
AcDbLayerTableRecord
  2
0
 70
     0
 62
     7
  6
CONTINUOUS
370
    -3
390
5CF2
  0
LAYER
  5
B9
330
2
100
AcDbSymbolTableRecord
100
AcDbLayerTableRecord
  2
DIM
 70
     0
 62
     3
  6
CONTINUOUS
370
    -3
390
5CF2
  0
LAYER
  5
F2
330
2
100
AcDbSymbolTableRecord
100
AcDbLayerTableRecord
  2
DEFPOINTS
 70
     0
 62
     4
  6
CONTINUOUS
290
     0
370
    -3
390
5CF2
  0
LAYER
  5
5F8B
330
2
100
AcDbSymbolTableRecord
100
AcDbLayerTableRecord
  2
公差
 70
     0
 62
     6
  6
CONTINUOUS
370
    -3
390
5CF2
  0
LAYER
  5
644E
330
2
100
AcDbSymbolTableRecord
100
AcDbLayerTableRecord
  2
図框線
 70
     0
 62
     9
  6
CONTINUOUS
370
    -3
390
5CF2
  0
LAYER
  5
650D
330
2
100
AcDbSymbolTableRecord
100
AcDbLayerTableRecord
  2
中心線
 70
     0
 62
     1
  6
CENTER
370
    -3
390
5CF2
  0
LAYER
  5
650E
330
2
100
AcDbSymbolTableRecord
100
AcDbLayerTableRecord
  2
本体内線
 70
     0
 62
     4
  6
HIDDEN
370
    -3
390
5CF2
  0
LAYER
  5
650F
330
2
100
AcDbSymbolTableRecord
100
AcDbLayerTableRecord
  2
本体外線
 70
     0
 62
     2
  6
CONTINUOUS
370
    -3
390
5CF2
  0
LAYER
  5
6510
330
2
100
AcDbSymbolTableRecord
100
AcDbLayerTableRecord
  2
剖面線
 70
     0
 62
     5
  6
CONTINUOUS
370
    -3
390
5CF2
  0
LAYER
  5
6686
330
2
100
AcDbSymbolTableRecord
100
AcDbLayerTableRecord
  2
A
 70
     0
 62
     4
  6
ACAD_ISO03W100
370
    -3
390
5CF2
  0
ENDTAB
  0
TABLE
  2
STYLE
  5
3
330
0
100
AcDbSymbolTable
 70
     5
  0
STYLE
  5
F
330
3
100
AcDbSymbolTableRecord
100
AcDbTextStyleTableRecord
  2
STANDARD
 70
     0
 40
0.0
 41
1.0
 50
0.0
 71
     0
 42
2.5
  3
txt
  4

  0
STYLE
  5
BE
330
3
100
AcDbSymbolTableRecord
100
AcDbTextStyleTableRecord
  2
ISOCP3
 70
     0
 40
0.0
 41
1.0
 50
0.0
 71
     0
 42
2.5
  3
isocp3.shx
  4

  0
STYLE
  5
2A37
330
3
100
AcDbSymbolTableRecord
100
AcDbTextStyleTableRecord
  2
TXT
 70
     0
 40
0.0
 41
1.0
 50
0.0
 71
     0
 42
2.5
  3
txt.shx
  4
bigfont.shx
  0
STYLE
  5
5DCB
330
3
100
AcDbSymbolTableRecord
100
AcDbTextStyleTableRecord
  2
LKK
 70
     0
 40
50.0
 41
1.5
 50
0.0
 71
     0
 42
50.0
  3
MS PGothic.ttf
  4

1001
ACAD
1000
MS PGothic
1071
    32818
  0
STYLE
  5
5DCC
330
3
100
AcDbSymbolTableRecord
100
AcDbTextStyleTableRecord
  2
JL
 70
     0
 40
10.0
 41
0.5
 50
0.0
 71
     0
 42
5.0
  3
MS Mincho.ttf
  4

1001
ACAD
1000
MS Mincho
1071
    32785
  0
ENDTAB
  0
TABLE
  2
VIEW
  5
6
330
0
100
AcDbSymbolTable
 70
     0
  0
ENDTAB
  0
TABLE
  2
UCS
  5
7
330
0
100
AcDbSymbolTable
 70
     0
  0
ENDTAB
  0
TABLE
  2
APPID
  5
9
330
0
100
AcDbSymbolTable
 70
     1
  0
APPID
  5
10
330
9
100
AcDbSymbolTableRecord
100
AcDbRegAppTableRecord
  2
ACAD
 70
     0
  0
ENDTAB
  0
TABLE
  2
DIMSTYLE
  5
A
330
0
100
AcDbSymbolTable
 70
     3
100
AcDbDimStyleTable
 71
     0
  0
DIMSTYLE
105
1D
330
A
100
AcDbSymbolTableRecord
100
AcDbDimStyleTableRecord
  2
STANDARD
 70
     0
 41
3.0
 42
0.06
 77
     3
140
4.0
144
0.3333333333333333
172
     1
340
F
  0
DIMSTYLE
105
1A4
102
{ACAD_REACTORS
330
6956
330
6916
330
6921
330
6955
330
6C84
330
6D08
330
6DFE
330
6E39
102
}
330
A
100
AcDbSymbolTableRecord
100
AcDbDimStyleTableRecord
  2
A
 70
     0
 41
1.25
 42
1.0
 43
6.0
 44
1.0
 73
     0
 74
     0
 77
     3
 78
     8
140
1.75
141
0.0
147
1.0
176
     6
177
     6
178
     3
271
     1
272
     1
279
     1
340
2A37
  0
DIMSTYLE
105
6006
330
A
100
AcDbSymbolTableRecord
100
AcDbDimStyleTableRecord
  2
ISO-25
 70
     0
 40
0.0
 41
2.0
 42
0.3
 43
1.0
 44
0.3
 73
     0
 74
     0
 77
     1
 78
     8
140
3.0
147
1.0
172
     1
176
     6
177
     6
178
     3
271
     1
272
     2
284
     8
288
     1
289
     2
340
F
  0
ENDTAB
  0
TABLE
  2
BLOCK_RECORD
  5
1
330
0
100
AcDbSymbolTable
 70
    12
  0
BLOCK_RECORD
  5
18
102
{ACAD_XDICTIONARY
360
45F
102
}
330
1
100
AcDbSymbolTableRecord
100
AcDbBlockTableRecord
  2
*MODEL_SPACE
340
5CF5
  0
BLOCK_RECORD
  5
15
102
{ACAD_XDICTIONARY
360
5D89
102
}
330
1
100
AcDbSymbolTableRecord
100
AcDbBlockTableRecord
  2
*PAPER_SPACE
340
5CF6
  0
BLOCK_RECORD
  5
639D
330
1
100
AcDbSymbolTableRecord
100
AcDbBlockTableRecord
  2
A$C255C26A2
340
0
102
{BLKREFS
331
63A3
102
}
  0
BLOCK_RECORD
  5
6669
330
1
100
AcDbSymbolTableRecord
100
AcDbBlockTableRecord
  2
005A
340
0
102
{BLKREFS
331
6962
102
}
  0
BLOCK_RECORD
  5
666D
330
1
100
AcDbSymbolTableRecord
100
AcDbBlockTableRecord
  2
A
340
0
102
{BLKREFS
331
6963
102
}
  0
BLOCK_RECORD
  5
698E
330
1
100
AcDbSymbolTableRecord
100
AcDbBlockTableRecord
  2
*D3
340
0
  0
BLOCK_RECORD
  5
699E
330
1
100
AcDbSymbolTableRecord
100
AcDbBlockTableRecord
  2
*D4
340
0
  0
BLOCK_RECORD
  5
69AA
330
1
100
AcDbSymbolTableRecord
100
AcDbBlockTableRecord
  2
*D5
340
0
  0
BLOCK_RECORD
  5
69B6
330
1
100
AcDbSymbolTableRecord
100
AcDbBlockTableRecord
  2
*D6
340
0
  0
BLOCK_RECORD
  5
6C7C
330
1
100
AcDbSymbolTableRecord
100
AcDbBlockTableRecord
  2
*D7
340
0
  0
BLOCK_RECORD
  5
6CFC
330
1
100
AcDbSymbolTableRecord
100
AcDbBlockTableRecord
  2
*D8
340
0
  0
BLOCK_RECORD
  5
6DEE
330
1
100
AcDbSymbolTableRecord
100
AcDbBlockTableRecord
  2
*D9
340
0
  0
BLOCK_RECORD
  5
6E29
330
1
100
AcDbSymbolTableRecord
100
AcDbBlockTableRecord
  2
*D10
340
0
  0
BLOCK_RECORD
  5
6F0B
102
{ACAD_XDICTIONARY
360
6F11
102
}
330
1
100
AcDbSymbolTableRecord
100
AcDbBlockTableRecord
  2
A$C6A3E5E88
340
0
1001
ACAD
1000
DesignCenter Data
1002
{
1070
     1
1070
     0
1002
}
  0
ENDTAB
  0
ENDSEC
  0
SECTION
  2
BLOCKS
  0
BLOCK
  5
19
330
18
100
AcDbEntity
  8
0
100
AcDbBlockBegin
  2
*MODEL_SPACE
 70
     0
 10
0.0
 20
0.0
 30
0.0
  3
*MODEL_SPACE
  1

  0
ENDBLK
  5
1A
330
18
100
AcDbEntity
  8
0
100
AcDbBlockEnd
  0
BLOCK
  5
16
330
15
100
AcDbEntity
 67
     1
  8
0
100
AcDbBlockBegin
  2
*PAPER_SPACE
 70
     0
 10
0.0
 20
0.0
 30
0.0
  3
*PAPER_SPACE
  1

  0
ENDBLK
  5
17
330
15
100
AcDbEntity
 67
     1
  8
0
100
AcDbBlockEnd
  0
BLOCK
  5
63A1
330
639D
100
AcDbEntity
  8
0
100
AcDbBlockBegin
  2
A$C255C26A2
 70
     0
 10
0.0
 20
0.0
 30
0.0
  3
A$C255C26A2
  1

  0
LWPOLYLINE
  5
639E
330
639D
100
AcDbEntity
  8
0
100
AcDbPolyline
 90
        3
 70
     1
 43
0.0
 10
7.014806023851633
 20
0.0000006939811783
 10
5.611844869720698
 20
2.430000693981241
 10
8.417767177982568
 20
2.430000693981241
  0
LWPOLYLINE
  5
639F
330
639D
100
AcDbEntity
  8
0
100
AcDbPolyline
 90
        3
 70
     1
 43
0.0
 10
4.20888371558999
 20
0.0000006939811783
 10
2.805922561459283
 20
2.430000693981241
 10
5.611844869720698
 20
2.430000693981241
  0
LWPOLYLINE
  5
63A0
330
639D
100
AcDbEntity
  8
0
100
AcDbPolyline
 90
        3
 70
     1
 43
0.0
 10
1.402961407328348
 20
0.0000006939811783
 10
0.0000002531974133
 20
2.430000693981241
 10
2.805922561459283
 20
2.430000693981241
  0
ENDBLK
  5
63A2
330
639D
100
AcDbEntity
  8
0
100
AcDbBlockEnd
  0
BLOCK
  5
666B
330
6669
100
AcDbEntity
  8
0
100
AcDbBlockBegin
  2
005A
 70
     0
 10
0.0
 20
0.0
 30
0.0
  3
005A
  1

  0
TOLERANCE
  5
666A
330
6669
100
AcDbEntity
  8
DIM
  6
ByBlock
100
AcDbFcf
  3
A
 10
0.0
 20
0.0509384361309913
 30
0.0
  1
{\Fgdt;h}%%v0.005%%v%%vA%%v%%v
1001
ACAD
1000
DSTYLE
1002
{
1070
   140
1040
2.743999999999999
1070
   147
1040
0.6859999999999999
1002
}
  0
ENDBLK
  5
666C
330
6669
100
AcDbEntity
  8
0
100
AcDbBlockEnd
  0
BLOCK
  5
6676
330
666D
100
AcDbEntity
  8
0
100
AcDbBlockBegin
  2
A
 70
     0
 10
0.0
 20
0.0
 30
0.0
  3
A
  1

  0
LINE
  5
666E
330
666D
100
AcDbEntity
  8
DIM
100
AcDbLine
 10
0.0
 20
0.0
 30
0.0
 11
1.82491669645114
 21
-1.955748191450126
 31
0.0
  0
HATCH
  5
666F
330
666D
100
AcDbEntity
  8
DIM
  6
Continuous
100
AcDbHatch
 10
0.0
 20
0.0
 30
0.0
210
0.0
220
0.0
230
1.0
  2
SOLID
 70
     1
 71
     0
 91
        1
 92
        7
 72
     0
 73
     1
 93
        3
 10
-0.0022482289051879
 20
-3.967376789961022
 10
1.835215948294916
 20
-1.997761199473558
 10
-0.0022482289051879
 20
-0.0281456089861223
 97
        0
 75
     0
 76
     1
 47
0.2359147607200769
 98
        1
 10
0.5733837635564783
 20
-1.574809188090497
450
        0
451
        0
460
0.0
461
0.0
452
        0
462
0.0
453
        0
470

  0
LINE
  5
6670
330
666D
100
AcDbEntity
  8
DIM
100
AcDbLine
 10
11.31910230984331
 20
-5.583055799769155
 30
0.0
 11
11.31910230984331
 21
1.709541780273113
 31
0.0
  0
LINE
  5
6671
330
666D
100
AcDbEntity
  8
DIM
100
AcDbLine
 10
11.31910230984331
 20
1.709541780273113
 30
0.0
 11
18.93637280086469
 21
1.709541780273113
 31
0.0
  0
LINE
  5
6672
330
666D
100
AcDbEntity
  8
DIM
100
AcDbLine
 10
18.93637280086469
 20
-5.583055799769155
 30
0.0
 11
18.93637280086469
 21
1.709541780273113
 31
0.0
  0
LINE
  5
6673
330
666D
100
AcDbEntity
  8
DIM
100
AcDbLine
 10
11.31910230984331
 20
-5.583055799769155
 30
0.0
 11
18.93637280086469
 21
-5.583055799769155
 31
0.0
  0
LINE
  5
6674
330
666D
100
AcDbEntity
  8
DIM
100
AcDbLine
 10
11.31910230984331
 20
-1.936757009748021
 30
0.0
 11
1.797514638397117
 21
-1.936757009748021
 31
0.0
  0
MTEXT
  5
6675
330
666D
100
AcDbEntity
  8
A
100
AcDbMText
 10
18.44794387149781
 20
-0.2320701218487073
 30
0.0
 40
6.0
 41
4.709751971108957
 71
     1
 72
     5
  1
A
  7
ISOCP3
 11
-0.0000000000000002
 21
-1.0
 31
0.0
 73
     1
 44
1.0
  0
ENDBLK
  5
6677
330
666D
100
AcDbEntity
  8
0
100
AcDbBlockEnd
  0
BLOCK
  5
6EEC
330
698E
100
AcDbEntity
  8
0
100
AcDbBlockBegin
  2
*D3
 70
     1
 10
0.0
 20
0.0
 30
0.0
  3
*D3
  1

  0
LINE
  5
6F4B
330
698E
100
AcDbEntity
  8
0
 62
     6
370
    -2
100
AcDbLine
 10
36.69923583681629
 20
71.60558967495143
 30
0.0
 11
27.8895457537136
 21
71.60558967495145
 31
0.0
  0
LINE
  5
6F4C
330
698E
100
AcDbEntity
  8
0
 62
     6
370
    -2
100
AcDbLine
 10
38.44923583681629
 20
72.07558967495145
 30
0.0
 11
27.88954575371361
 21
72.07558967495147
 31
0.0
  0
LINE
  5
6F4D
330
698E
100
AcDbEntity
  8
0
 62
     6
370
    -2
100
AcDbLine
 10
28.8895457537136
 20
70.35558967495145
 30
0.0
 11
28.8895457537136
 21
69.10558967495145
 31
0.0
  0
LINE
  5
6F4E
330
698E
100
AcDbEntity
  8
0
 62
     6
370
    -2
100
AcDbLine
 10
28.88954575371361
 20
73.32558967495147
 30
0.0
 11
28.88954575371361
 21
74.57558967495147
 31
0.0
  0
LINE
  5
6F4F
330
698E
100
AcDbEntity
  8
0
 62
     6
370
    -2
100
AcDbLine
 10
28.88954575371361
 20
79.87261361213807
 30
0.0
 11
28.88954575371361
 21
72.07558967495147
 31
0.0
  0
MTEXT
  5
6F50
330
698E
100
AcDbEntity
  8
0
 62
     3
100
AcDbMText
 10
27.01454575371359
 20
77.26844694547139
 30
0.0
 40
1.75
 41
0.0
 71
     5
 72
     1
  1
\A1;0.5
  7
TXT
 11
0.0000000000000001
 21
1.0
 31
0.0
 73
     1
 44
1.0
  0
LINE
  5
6F51
330
698E
100
AcDbEntity
  8
0
 62
     6
370
    -2
100
AcDbLine
 10
28.8895457537136
 20
71.60558967495145
 30
0.0
 11
28.88954575371361
 21
72.07558967495147
 31
0.0
  0
SOLID
  5
6F52
330
698E
100
AcDbEntity
  8
0
 62
     6
100
AcDbTrace
 10
28.68121242038027
 20
70.35558967495145
 30
0.0
 11
29.09787908704693
 21
70.35558967495145
 31
0.0
 12
28.8895457537136
 22
71.60558967495145
 32
0.0
 13
28.8895457537136
 23
71.60558967495145
 33
0.0
  0
SOLID
  5
6F53
330
698E
100
AcDbEntity
  8
0
 62
     6
100
AcDbTrace
 10
28.68121242038027
 20
73.32558967495147
 30
0.0
 11
29.09787908704694
 21
73.32558967495147
 31
0.0
 12
28.88954575371361
 22
72.07558967495147
 32
0.0
 13
28.88954575371361
 23
72.07558967495147
 33
0.0
  0
POINT
  5
6F54
330
698E
100
AcDbEntity
  8
DEFPOINTS
 62
     0
100
AcDbPoint
 10
37.69923583681629
 20
71.60558967495143
 30
0.0
  0
POINT
  5
6F55
330
698E
100
AcDbEntity
  8
DEFPOINTS
 62
     0
100
AcDbPoint
 10
39.44923583681628
 20
72.07558967495145
 30
0.0
  0
POINT
  5
6F56
330
698E
100
AcDbEntity
  8
DEFPOINTS
 62
     0
100
AcDbPoint
 10
28.88954575371361
 20
72.07558967495147
 30
0.0
  0
ENDBLK
  5
6EF9
330
698E
100
AcDbEntity
  8
0
100
AcDbBlockEnd
  0
BLOCK
  5
6ED8
330
699E
100
AcDbEntity
  8
0
100
AcDbBlockBegin
  2
*D4
 70
     1
 10
0.0
 20
0.0
 30
0.0
  3
*D4
  1

  0
LINE
  5
6ED9
330
699E
100
AcDbEntity
  8
0
  6
ByBlock
 62
     6
100
AcDbLine
 10
50.44923583681634
 20
73.07558967495146
 30
0.0
 11
50.44923583681634
 21
80.54681414608905
 31
0.0
  0
LINE
  5
6EDA
330
699E
100
AcDbEntity
  8
0
  6
ByBlock
 62
     6
100
AcDbLine
 10
39.44923583681634
 20
73.07558967495146
 30
0.0
 11
39.44923583681634
 21
80.54681414608905
 31
0.0
  0
LINE
  5
6EDB
330
699E
100
AcDbEntity
  8
0
  6
ByBlock
 62
     6
100
AcDbLine
 10
49.19923583681634
 20
79.54681414608905
 30
0.0
 11
40.69923583681634
 21
79.54681414608905
 31
0.0
  0
MTEXT
  5
6EDC
330
699E
100
AcDbEntity
  8
0
  6
ByBlock
 62
     3
100
AcDbMText
 10
44.94923583681634
 20
81.42181414608904
 30
0.0
 40
1.75
 41
0.0
 71
     5
 72
     1
  1
\A1;\U+220511±0.5
  7
TXT
 73
     1
 44
1.0
  0
SOLID
  5
6EDD
330
699E
100
AcDbEntity
  8
0
  6
ByBlock
 62
     6
100
AcDbTrace
 10
49.19923583681634
 20
79.75514747942238
 30
0.0
 11
49.19923583681634
 21
79.33848081275572
 31
0.0
 12
50.44923583681634
 22
79.54681414608905
 32
0.0
 13
50.44923583681634
 23
79.54681414608905
 33
0.0
  0
SOLID
  5
6EDE
330
699E
100
AcDbEntity
  8
0
  6
ByBlock
 62
     6
100
AcDbTrace
 10
40.69923583681634
 20
79.75514747942238
 30
0.0
 11
40.69923583681634
 21
79.33848081275572
 31
0.0
 12
39.44923583681634
 22
79.54681414608905
 32
0.0
 13
39.44923583681634
 23
79.54681414608905
 33
0.0
  0
POINT
  5
6EDF
330
699E
100
AcDbEntity
  8
DEFPOINTS
  6
ByBlock
 62
     0
100
AcDbPoint
 10
50.44923583681634
 20
72.07558967495145
 30
0.0
  0
POINT
  5
6EE0
330
699E
100
AcDbEntity
  8
DEFPOINTS
  6
ByBlock
 62
     0
100
AcDbPoint
 10
39.44923583681634
 20
72.07558967495145
 30
0.0
  0
POINT
  5
6EE1
330
699E
100
AcDbEntity
  8
DEFPOINTS
  6
ByBlock
 62
     0
100
AcDbPoint
 10
39.44923583681634
 20
79.54681414608905
 30
0.0
  0
ENDBLK
  5
6EE2
330
699E
100
AcDbEntity
  8
0
100
AcDbBlockEnd
  0
BLOCK
  5
6E6B
330
69AA
100
AcDbEntity
  8
0
100
AcDbBlockBegin
  2
*D5
 70
     1
 10
0.0
 20
0.0
 30
0.0
  3
*D5
  1

  0
LINE
  5
6E6C
330
69AA
100
AcDbEntity
  8
0
  6
ByBlock
 62
     6
100
AcDbLine
 10
36.94923583681628
 20
71.85558967495143
 30
0.0
 11
36.94923583681628
 21
86.51861923782389
 31
0.0
  0
LINE
  5
6E6D
330
69AA
100
AcDbEntity
  8
0
  6
ByBlock
 62
     6
100
AcDbLine
 10
52.94923583681622
 20
71.85558967495143
 30
0.0
 11
52.94923583681622
 21
86.51861923782389
 31
0.0
  0
LINE
  5
6E6E
330
69AA
100
AcDbEntity
  8
0
  6
ByBlock
 62
     6
100
AcDbLine
 10
38.19923583681628
 20
85.51861923782388
 30
0.0
 11
51.69923583681622
 21
85.51861923782388
 31
0.0
  0
MTEXT
  5
6E6F
330
69AA
100
AcDbEntity
  8
0
  6
ByBlock
 62
     3
100
AcDbMText
 10
43.5684281791548
 20
87.39361923782388
 30
0.0
 40
1.75
 41
0.0
 71
     5
 72
     1
  1
\A1;\U+220516
  7
TXT
 73
     1
 44
1.0
  0
SOLID
  5
6E70
330
69AA
100
AcDbEntity
  8
0
  6
ByBlock
 62
     6
100
AcDbTrace
 10
38.19923583681628
 20
85.72695257115722
 30
0.0
 11
38.19923583681628
 21
85.31028590449055
 31
0.0
 12
36.94923583681628
 22
85.51861923782388
 32
0.0
 13
36.94923583681628
 23
85.51861923782388
 33
0.0
  0
SOLID
  5
6E71
330
69AA
100
AcDbEntity
  8
0
  6
ByBlock
 62
     6
100
AcDbTrace
 10
51.69923583681622
 20
85.72695257115722
 30
0.0
 11
51.69923583681622
 21
85.31028590449055
 31
0.0
 12
52.94923583681622
 22
85.51861923782388
 32
0.0
 13
52.94923583681622
 23
85.51861923782388
 33
0.0
  0
POINT
  5
6E72
330
69AA
100
AcDbEntity
  8
DEFPOINTS
  6
ByBlock
 62
     0
100
AcDbPoint
 10
36.94923583681628
 20
70.85558967495143
 30
0.0
  0
POINT
  5
6E73
330
69AA
100
AcDbEntity
  8
DEFPOINTS
  6
ByBlock
 62
     0
100
AcDbPoint
 10
52.94923583681622
 20
70.85558967495143
 30
0.0
  0
POINT
  5
6E74
330
69AA
100
AcDbEntity
  8
DEFPOINTS
  6
ByBlock
 62
     0
100
AcDbPoint
 10
52.94923583681622
 20
85.51861923782388
 30
0.0
  0
ENDBLK
  5
6E75
330
69AA
100
AcDbEntity
  8
0
100
AcDbBlockEnd
  0
BLOCK
  5
6E76
330
69B6
100
AcDbEntity
  8
0
100
AcDbBlockBegin
  2
*D6
 70
     1
 10
0.0
 20
0.0
 30
0.0
  3
*D6
  1

  0
LINE
  5
6E77
330
69B6
100
AcDbEntity
  8
0
  6
ByBlock
 62
     6
100
AcDbLine
 10
40.94923583681628
 20
63.73058967495143
 30
0.0
 11
40.94923583681628
 21
50.85270136358821
 31
0.0
  0
LINE
  5
6E78
330
69B6
100
AcDbEntity
  8
0
  6
ByBlock
 62
     6
100
AcDbLine
 10
48.94923583681628
 20
63.73058967495143
 30
0.0
 11
48.94923583681628
 21
50.85270136358821
 31
0.0
  0
LINE
  5
6E79
330
69B6
100
AcDbEntity
  8
0
  6
ByBlock
 62
     6
100
AcDbLine
 10
42.19923583681628
 20
51.85270136358821
 30
0.0
 11
47.69923583681628
 21
51.85270136358821
 31
0.0
  0
LINE
  5
6E7A
330
69B6
100
AcDbEntity
  8
0
  6
ByBlock
 62
     6
100
AcDbLine
 10
24.80638074662325
 20
51.85270136358821
 30
0.0
 11
40.94923583681628
 21
51.85270136358821
 31
0.0
  0
MTEXT
  5
6E7B
330
69B6
100
AcDbEntity
  8
0
  6
ByBlock
 62
     3
100
AcDbMText
 10
31.78554741328992
 20
53.72770136358821
 30
0.0
 40
1.75
 41
0.0
 71
     5
 72
     1
  1
\A1;M8X0.75P
  7
TXT
 73
     1
 44
1.0
  0
SOLID
  5
6E7C
330
69B6
100
AcDbEntity
  8
0
  6
ByBlock
 62
     6
100
AcDbTrace
 10
42.19923583681628
 20
52.06103469692155
 30
0.0
 11
42.19923583681628
 21
51.64436803025488
 31
0.0
 12
40.94923583681628
 22
51.85270136358821
 32
0.0
 13
40.94923583681628
 23
51.85270136358821
 33
0.0
  0
SOLID
  5
6E7D
330
69B6
100
AcDbEntity
  8
0
  6
ByBlock
 62
     6
100
AcDbTrace
 10
47.69923583681628
 20
52.06103469692155
 30
0.0
 11
47.69923583681628
 21
51.64436803025488
 31
0.0
 12
48.94923583681628
 22
51.85270136358821
 32
0.0
 13
48.94923583681628
 23
51.85270136358821
 33
0.0
  0
POINT
  5
6E7E
330
69B6
100
AcDbEntity
  8
DEFPOINTS
  6
ByBlock
 62
     0
100
AcDbPoint
 10
40.94923583681628
 20
64.73058967495143
 30
0.0
  0
POINT
  5
6E7F
330
69B6
100
AcDbEntity
  8
DEFPOINTS
  6
ByBlock
 62
     0
100
AcDbPoint
 10
48.94923583681628
 20
64.73058967495143
 30
0.0
  0
POINT
  5
6E80
330
69B6
100
AcDbEntity
  8
DEFPOINTS
  6
ByBlock
 62
     0
100
AcDbPoint
 10
48.94923583681628
 20
51.85270136358821
 30
0.0
  0
ENDBLK
  5
6E81
330
69B6
100
AcDbEntity
  8
0
100
AcDbBlockEnd
  0
BLOCK
  5
6E82
330
6C7C
100
AcDbEntity
  8
0
100
AcDbBlockBegin
  2
*D7
 70
     1
 10
0.0
 20
0.0
 30
0.0
  3
*D7
  1

  0
LINE
  5
6E83
330
6C7C
100
AcDbEntity
  8
0
  6
ByBlock
 62
     6
100
AcDbLine
 10
29.6017017430126
 20
56.68981098583175
 30
0.0
 11
37.17113578722046
 21
64.32303889087849
 31
0.0
  0
MTEXT
  5
6E84
330
6C7C
100
AcDbEntity
  8
0
  6
ByBlock
 62
     3
100
AcDbMText
 10
31.02818059738639
 20
60.79115964886957
 30
0.0
 40
1.75
 41
0.0
 71
     5
 72
     1
  1
\A1;2-R1
  7
TXT
 11
0.7041333994612044
 21
0.7100677120973805
 31
0.0
 73
     1
 44
1.0
  0
SOLID
  5
6E85
330
6C7C
100
AcDbEntity
  8
0
  6
ByBlock
 62
     6
100
AcDbTrace
 10
36.14303826454033
 20
63.58214870897786
 30
0.0
 11
36.43889981124758
 21
63.28875979253568
 31
0.0
 12
37.17113578722046
 22
64.32303889087849
 32
0.0
 13
37.17113578722046
 23
64.32303889087849
 33
0.0
  0
POINT
  5
6E86
330
6C7C
100
AcDbEntity
  8
DEFPOINTS
  6
ByBlock
 62
     0
100
AcDbPoint
 10
37.17113578722046
 20
64.32303889087849
 30
0.0
  0
POINT
  5
6E87
330
6C7C
100
AcDbEntity
  8
DEFPOINTS
  6
ByBlock
 62
     0
100
AcDbPoint
 10
37.69923583681634
 20
64.85558967495151
 30
0.0
  0
ENDBLK
  5
6E88
330
6C7C
100
AcDbEntity
  8
0
100
AcDbBlockEnd
  0
BLOCK
  5
6E89
330
6CFC
100
AcDbEntity
  8
0
100
AcDbBlockBegin
  2
*D8
 70
     1
 10
0.0
 20
0.0
 30
0.0
  3
*D8
  1

  0
LINE
  5
6E8A
330
6CFC
100
AcDbEntity
  8
0
  6
ByBlock
 62
     6
100
AcDbLine
 10
51.44923583681628
 20
72.10558967495146
 30
0.0
 11
71.94965336064399
 21
72.10558967495146
 31
0.0
  0
LINE
  5
6E8B
330
6CFC
100
AcDbEntity
  8
0
  6
ByBlock
 62
     6
100
AcDbLine
 10
53.37521623664423
 20
64.12652801852146
 30
0.0
 11
71.94965336064399
 21
64.12652801852146
 31
0.0
  0
LINE
  5
6E8C
330
6CFC
100
AcDbEntity
  8
0
  6
ByBlock
 62
     6
100
AcDbLine
 10
70.94965336064399
 20
70.85558967495146
 30
0.0
 11
70.94965336064399
 21
65.37652801852146
 31
0.0
  0
MTEXT
  5
6E8D
330
6CFC
100
AcDbEntity
  8
0
  6
ByBlock
 62
     3
100
AcDbMText
 10
69.07465336064399
 20
68.11605884673646
 30
0.0
 40
1.75
 41
0.0
 71
     5
 72
     1
  1
\A1;8±0.2
  7
TXT
 11
0.0000000000000001
 21
1.0
 31
0.0
 73
     1
 44
1.0
  0
SOLID
  5
6E8E
330
6CFC
100
AcDbEntity
  8
0
  6
ByBlock
 62
     6
100
AcDbTrace
 10
70.74132002731066
 20
70.85558967495146
 30
0.0
 11
71.15798669397732
 21
70.85558967495146
 31
0.0
 12
70.94965336064399
 22
72.10558967495146
 32
0.0
 13
70.94965336064399
 23
72.10558967495146
 33
0.0
  0
SOLID
  5
6E8F
330
6CFC
100
AcDbEntity
  8
0
  6
ByBlock
 62
     6
100
AcDbTrace
 10
70.74132002731066
 20
65.37652801852146
 30
0.0
 11
71.15798669397732
 21
65.37652801852146
 31
0.0
 12
70.94965336064399
 22
64.12652801852146
 32
0.0
 13
70.94965336064399
 23
64.12652801852146
 33
0.0
  0
POINT
  5
6E90
330
6CFC
100
AcDbEntity
  8
DEFPOINTS
  6
ByBlock
 62
     0
100
AcDbPoint
 10
50.44923583681629
 20
72.10558967495146
 30
0.0
  0
POINT
  5
6E91
330
6CFC
100
AcDbEntity
  8
DEFPOINTS
  6
ByBlock
 62
     0
100
AcDbPoint
 10
52.37521623664424
 20
64.12652801852146
 30
0.0
  0
POINT
  5
6E92
330
6CFC
100
AcDbEntity
  8
DEFPOINTS
  6
ByBlock
 62
     0
100
AcDbPoint
 10
70.94965336064399
 20
64.12652801852146
 30
0.0
  0
ENDBLK
  5
6E93
330
6CFC
100
AcDbEntity
  8
0
100
AcDbBlockEnd
  0
BLOCK
  5
6EBE
330
6DEE
100
AcDbEntity
  8
0
100
AcDbBlockBegin
  2
*D9
 70
     1
 10
0.0
 20
0.0
 30
0.0
  3
*D9
  1

  0
LINE
  5
6EBF
330
6DEE
100
AcDbEntity
  8
0
  6
ByBlock
 62
     6
100
AcDbLine
 10
36.09111901406549
 20
108.7017019644711
 30
0.0
 11
29.24518497707925
 21
108.7017019644711
 31
0.0
  0
LINE
  5
6EC0
330
6DEE
100
AcDbEntity
  8
0
  6
ByBlock
 62
     6
100
AcDbLine
 10
36.09111901406544
 20
105.7017019644711
 30
0.0
 11
29.24518497707925
 21
105.7017019644711
 31
0.0
  0
LINE
  5
6EC1
330
6DEE
100
AcDbEntity
  8
0
  6
ByBlock
 62
     6
100
AcDbLine
 10
30.24518497707925
 20
109.9517019644711
 30
0.0
 11
30.24518497707925
 21
111.2017019644711
 31
0.0
  0
LINE
  5
6EC2
330
6DEE
100
AcDbEntity
  8
0
  6
ByBlock
 62
     6
100
AcDbLine
 10
30.24518497707925
 20
104.4517019644711
 30
0.0
 11
30.24518497707925
 21
103.2017019644711
 31
0.0
  0
MTEXT
  5
6EC3
330
6DEE
100
AcDbEntity
  8
0
  6
ByBlock
 62
     3
100
AcDbMText
 10
28.16839811990383
 20
114.345782787646
 30
0.0
 40
1.75
 41
0.0
 71
     5
 72
     1
  1
\A1;3      (3等分)
  7
TXT
 11
0.0000000000000001
 21
1.0
 31
0.0
 73
     1
 44
1.0
  0
LINE
  5
6EC4
330
6DEE
100
AcDbEntity
  8
0
  6
ByBlock
 62
     6
100
AcDbLine
 10
30.24518497707925
 20
108.7017019644711
 30
0.0
 11
30.24518497707925
 21
105.7017019644711
 31
0.0
  0
SOLID
  5
6EC5
330
6DEE
100
AcDbEntity
  8
0
  6
ByBlock
 62
     6
100
AcDbTrace
 10
30.03685164374592
 20
109.9517019644711
 30
0.0
 11
30.45351831041258
 21
109.9517019644711
 31
0.0
 12
30.24518497707925
 22
108.7017019644711
 32
0.0
 13
30.24518497707925
 23
108.7017019644711
 33
0.0
  0
SOLID
  5
6EC6
330
6DEE
100
AcDbEntity
  8
0
  6
ByBlock
 62
     6
100
AcDbTrace
 10
30.03685164374592
 20
104.4517019644711
 30
0.0
 11
30.45351831041258
 21
104.4517019644711
 31
0.0
 12
30.24518497707925
 22
105.7017019644711
 32
0.0
 13
30.24518497707925
 23
105.7017019644711
 33
0.0
  0
POINT
  5
6EC7
330
6DEE
100
AcDbEntity
  8
DEFPOINTS
  6
ByBlock
 62
     0
100
AcDbPoint
 10
37.09111901406549
 20
108.7017019644711
 30
0.0
  0
POINT
  5
6EC8
330
6DEE
100
AcDbEntity
  8
DEFPOINTS
  6
ByBlock
 62
     0
100
AcDbPoint
 10
37.09111901406544
 20
105.7017019644711
 30
0.0
  0
POINT
  5
6EC9
330
6DEE
100
AcDbEntity
  8
DEFPOINTS
  6
ByBlock
 62
     0
100
AcDbPoint
 10
30.24518497707925
 20
105.7017019644711
 30
0.0
  0
ENDBLK
  5
6ECA
330
6DEE
100
AcDbEntity
  8
0
100
AcDbBlockEnd
  0
BLOCK
  5
6EA1
330
6E29
100
AcDbEntity
  8
0
100
AcDbBlockBegin
  2
*D10
 70
     1
 10
0.0
 20
0.0
 30
0.0
  3
*D10
  1

  0
LINE
  5
6EA2
330
6E29
100
AcDbEntity
  8
0
  6
ByBlock
 62
     6
100
AcDbLine
 10
39.08923583681622
 20
104.7017019644711
 30
0.0
 11
39.08923583681622
 21
92.47482910737279
 31
0.0
  0
LINE
  5
6EA3
330
6E29
100
AcDbEntity
  8
0
  6
ByBlock
 62
     6
100
AcDbLine
 10
37.09111901406544
 20
104.7017019644711
 30
0.0
 11
37.09111901406544
 21
92.47482910737279
 31
0.0
  0
LINE
  5
6EA4
330
6E29
100
AcDbEntity
  8
0
  6
ByBlock
 62
     6
100
AcDbLine
 10
40.33923583681621
 20
93.47482910737278
 30
0.0
 11
41.58923583681621
 21
93.47482910737278
 31
0.0
  0
LINE
  5
6EA5
330
6E29
100
AcDbEntity
  8
0
  6
ByBlock
 62
     6
100
AcDbLine
 10
35.84111901406544
 20
93.47482910737278
 30
0.0
 11
34.59111901406544
 21
93.47482910737278
 31
0.0
  0
MTEXT
  5
6EA6
330
6E29
100
AcDbEntity
  8
0
  6
ByBlock
 62
     3
100
AcDbMText
 10
38.09017742544083
 20
95.34982910737278
 30
0.0
 40
1.75
 41
0.0
 71
     5
 72
     1
  1
\A1;2
  7
TXT
 73
     1
 44
1.0
  0
LINE
  5
6EA7
330
6E29
100
AcDbEntity
  8
0
  6
ByBlock
 62
     6
100
AcDbLine
 10
39.08923583681622
 20
93.47482910737278
 30
0.0
 11
37.09111901406544
 21
93.47482910737278
 31
0.0
  0
SOLID
  5
6EA8
330
6E29
100
AcDbEntity
  8
0
  6
ByBlock
 62
     6
100
AcDbTrace
 10
40.33923583681621
 20
93.6831624407061
 30
0.0
 11
40.33923583681621
 21
93.26649577403946
 31
0.0
 12
39.08923583681622
 22
93.47482910737278
 32
0.0
 13
39.08923583681622
 23
93.47482910737278
 33
0.0
  0
SOLID
  5
6EA9
330
6E29
100
AcDbEntity
  8
0
  6
ByBlock
 62
     6
100
AcDbTrace
 10
35.84111901406544
 20
93.6831624407061
 30
0.0
 11
35.84111901406544
 21
93.26649577403946
 31
0.0
 12
37.09111901406544
 22
93.47482910737278
 32
0.0
 13
37.09111901406544
 23
93.47482910737278
 33
0.0
  0
POINT
  5
6EAA
330
6E29
100
AcDbEntity
  8
DEFPOINTS
  6
ByBlock
 62
     0
100
AcDbPoint
 10
39.08923583681622
 20
105.7017019644711
 30
0.0
  0
POINT
  5
6EAB
330
6E29
100
AcDbEntity
  8
DEFPOINTS
  6
ByBlock
 62
     0
100
AcDbPoint
 10
37.09111901406544
 20
105.7017019644711
 30
0.0
  0
POINT
  5
6EAC
330
6E29
100
AcDbEntity
  8
DEFPOINTS
  6
ByBlock
 62
     0
100
AcDbPoint
 10
37.09111901406544
 20
93.47482910737278
 30
0.0
  0
ENDBLK
  5
6EAD
330
6E29
100
AcDbEntity
  8
0
100
AcDbBlockEnd
  0
BLOCK
  5
6F13
330
6F0B
100
AcDbEntity
  8
0
100
AcDbBlockBegin
  2
A$C6A3E5E88
 70
     0
 10
0.0
 20
0.0
 30
0.0
  3
A$C6A3E5E88
  1

  0
MTEXT
  5
6F0C
330
6F0B
100
AcDbEntity
  8
DIM
100
AcDbMText
 10
6.136107901232207
 20
4.911820064880657
 30
0.0
 40
4.5
 41
0.0
 71
     1
 72
     5
  1
{\Ftxt,bigfont|c128;06.04.24外形寸法を変更する}
  7
JL
 73
     1
 44
1.0
1001
ACAD
1000
ACAD_MTEXT_DEFINED_HEIGHT_BEGIN
1070
    46
1040
0.0
1000
ACAD_MTEXT_DEFINED_HEIGHT_END
  0
LWPOLYLINE
  5
6F0D
330
6F0B
100
AcDbEntity
  8
DIM
100
AcDbPolyline
 90
        3
 70
     1
 43
0.0
 10
0.0000003675488642
 20
0.1974051568129198
 10
5.196152790255496
 20
0.1974051568129198
 10
2.59807657890218
 20
4.697405156812919
  0
MTEXT
  5
6F0E
330
6F0B
100
AcDbEntity
  8
DIM
100
AcDbMText
 10
2.276636645525968
 20
3.670663386581281
 30
0.0
 40
3.0
 41
0.0
 71
     1
 72
     5
  1
{\Ftxt,bigfont|c128;1}
  7
JL
 73
     1
 44
1.0
1001
ACAD
1000
ACAD_MTEXT_DEFINED_HEIGHT_BEGIN
1070
    46
1040
0.0
1000
ACAD_MTEXT_DEFINED_HEIGHT_END
  0
MTEXT
  5
6F0F
330
6F0B
100
AcDbEntity
  8
DIM
100
AcDbMText
 10
46.62612179795246
 20
4.911820064880657
 30
0.0
 40
4.5
 41
0.0
 71
     1
 72
     5
  1
{\Ftxt,bigfont|c128;謝}
  7
JL
 73
     1
 44
1.0
1001
ACAD
1000
ACAD_MTEXT_DEFINED_HEIGHT_BEGIN
1070
    46
1040
0.0
1000
ACAD_MTEXT_DEFINED_HEIGHT_END
  0
CIRCLE
  5
6F10
330
6F0B
100
AcDbEntity
  8
DIM
100
AcDbCircle
 10
47.71271787484465
 20
2.644200847696652
 30
0.0
 40
2.644201016044348
  0
ENDBLK
  5
6F14
330
6F0B
100
AcDbEntity
  8
0
100
AcDbBlockEnd
  0
ENDSEC
  0
SECTION
  2
ENTITIES
  0
MTEXT
  5
C0
330
18
100
AcDbEntity
  8
0
100
AcDbMText
 10
41.26970765600413
 20
233.6950877649332
 30
0.0
 40
2.5
 41
0.0
 71
     1
 72
     5
  1

  7
ISOCP3
 73
     1
 44
1.0
  0
MTEXT
  5
608E
330
18
100
AcDbEntity
  8
0
100
AcDbMText
 10
8.909741394748834
 20
9.686999171581305
 30
0.0
 40
2.5
 41
0.0
 71
     1
 72
     5
  1
\Ftxt.shx,bigfont.shx|c128;呉銘宏
  7
JL
 73
     1
 44
1.0
  0
MTEXT
  5
6095
330
18
100
AcDbEntity
  8
0
100
AcDbMText
 10
40.61758832598184
 20
14.61391152669455
 30
0.0
 40
2.25
 41
0.0
 71
     1
 72
     5
  1
\Ftxt.shx,bigfont.shx|c128;2 : 1
  7
JL
 73
     1
 44
1.0
  0
MTEXT
  5
6098
330
18
100
AcDbEntity
  8
0
 48
2.0
370
    25
100
AcDbMText
 10
73.06171344531572
 20
1.818484967414519
 30
0.0
 40
2.25
 41
0.0
 71
     5
 72
     1
  1
\Ftxt.shx,bigfont.shx|c128;N L 4 0 0 2 4
 73
     1
 44
1.0
  0
MTEXT
  5
609C
330
18
100
AcDbEntity
  8
0
 48
2.0
100
AcDbMText
 10
89.06503734988872
 20
11.08775135023921
 30
0.0
 40
2.25
 41
0.0
 71
     5
 72
     1
  1
\P\Ftxt.shx,bigfont.shx|c128;    MR8X0.75P
 73
     1
 44
1.0
  0
MTEXT
  5
635A
330
18
100
AcDbEntity
  8
0
100
AcDbMText
 10
8.011740545547695
 20
14.32296292755978
 30
0.0
 40
2.25
 41
0.0
 71
     1
 72
     5
  1
\Ftxt.shx,bigfont.shx|c128;05.02.16
  7
JL
 73
     1
 44
1.0
  0
INSERT
  5
63A3
330
18
100
AcDbEntity
  8
0
100
AcDbBlockReference
  2
A$C255C26A2
 10
60.66748650528677
 20
72.10558967495146
 30
0.0
 41
0.5
 42
0.5
 43
0.5
  0
MTEXT
  5
63A4
330
18
100
AcDbEntity
  8
0
 62
     7
 48
2.0
100
AcDbMText
 10
62.71438787971487
 20
74.55336515846076
 30
0.0
 40
1.5
 41
0.0
 71
     5
 72
     1
  1
G
 73
     1
 44
1.0
  0
LEADER
  5
63C9
330
18
100
AcDbEntity
  8
DIM
 62
     6
100
AcDbLeader
  3
A
 76
     2
 10
51.40364242243925
 20
110.4283448012295
 30
0.0
 10
61.97577481188716
 20
118.2490410255867
 30
0.0
  0
LEADER
  5
63CA
330
18
100
AcDbEntity
  8
DIM
 62
     6
100
AcDbLeader
  3
A
 76
     2
 10
49.45676180153504
 20
69.4127183431238
 30
0.0
 10
60.55273942953284
 20
80.49713795558375
 30
0.0
  0
LEADER
  5
63CB
330
18
100
AcDbEntity
  8
DIM
 62
     6
100
AcDbLeader
  3
A
 76
     2
 10
52.94923583681622
 20
68.10558967495143
 30
0.0
 10
59.54860537544425
 20
59.53279474026181
 30
0.0
  0
MTEXT
  5
63CC
330
18
100
AcDbEntity
  8
DIM
100
AcDbMText
 10
61.28366963195862
 20
82.83438640359618
 30
0.0
 40
2.5
 41
1.0
 71
     1
 72
     5
  1
\Ftxt.shx,bigfont.shx|c128;3
 73
     1
 44
1.0
  0
MTEXT
  5
63CD
330
18
100
AcDbEntity
  8
DIM
100
AcDbMText
 10
62.91261004404157
 20
121.1223477730802
 30
0.0
 40
2.5
 41
1.0
 71
     1
 72
     5
  1
\Ftxt.shx,bigfont.shx|c128;1
 73
     1
 44
1.0
  0
MTEXT
  5
63CE
330
18
100
AcDbEntity
  8
DIM
100
AcDbMText
 10
60.04982435461386
 20
59.98343832875639
 30
0.0
 40
2.5
 41
1.0
 71
     1
 72
     5
  1
\Ftxt.shx,bigfont.shx|c128;2
 73
     1
 44
1.0
  0
LINE
  5
64AF
330
18
100
AcDbEntity
  8
図框線
100
AcDbLine
 10
98.99999999999989
 20
144.9999999999999
 30
0.0
 11
98.99999999999989
 21
-0.0000000000000284
 31
0.0
  0
LINE
  5
64B0
330
18
100
AcDbEntity
  8
図框線
370
    30
100
AcDbLine
 10
-0.0000000000001137
 20
0.0
 30
0.0
 11
-0.0000000000001137
 21
145.0
 31
0.0
  0
LINE
  5
64B1
330
18
100
AcDbEntity
  8
0
 62
     7
 48
5.0
100
AcDbLine
 39
2.0
 10
24.97375257817157
 20
13.9476619891891
 30
0.0
 11
27.63965443602615
 21
14.61413745365274
 31
0.0
  0
MTEXT
  5
64B2
330
18
100
AcDbEntity
  8
0
100
AcDbMText
 10
7.989334885793709
 20
4.815670052394125
 30
0.0
 40
3.0
 41
0.0
 71
     1
 72
     5
  1
\Ftxt.shx,bigfont.shx|c128;日機株式会社
  7
LKK
 73
     1
 44
1.0
  0
LINE
  5
64B3
330
18
100
AcDbEntity
  8
図框線
100
AcDbLine
 10
0.0
 20
0.0
 30
0.0
 11
98.99999999999989
 21
0.0
 31
0.0
  0
LINE
  5
64B7
330
18
100
AcDbEntity
  8
図框線
100
AcDbLine
 10
0.0
 20
6.0
 30
0.0
 11
98.99999999999989
 21
6.000000000000028
 31
0.0
  0
LINE
  5
64B8
330
18
100
AcDbEntity
  8
図框線
100
AcDbLine
 10
0.0
 20
11.0
 30
0.0
 11
48.0
 21
11.0
 31
0.0
  0
LINE
  5
64B9
330
18
100
AcDbEntity
  8
図框線
100
AcDbLine
 10
0.0
 20
16.0
 30
0.0
 11
98.99999999999989
 21
16.0
 31
0.0
  0
LINE
  5
64BA
330
18
100
AcDbEntity
  8
図框線
100
AcDbLine
 10
6.0
 20
16.0
 30
0.0
 11
6.0
 21
6.0
 31
0.0
  0
LINE
  5
64BB
330
18
100
AcDbEntity
  8
図框線
100
AcDbLine
 10
16.0
 20
16.0
 30
0.0
 11
16.0
 21
6.0
 31
0.0
  0
MTEXT
  5
64BC
330
18
100
AcDbEntity
  8
0
100
AcDbMText
 10
1.474722124410391
 20
14.52357516675613
 30
0.0
 40
2.25
 41
0.0
 71
     1
 72
     5
  1
\Ftxt.shx,bigfont.shx|c128;日 付
  7
JL
 73
     1
 44
1.0
  0
MTEXT
  5
64BD
330
18
100
AcDbEntity
  8
0
100
AcDbMText
 10
1.547856182455007
 20
9.919169497354573
 30
0.0
 40
2.25
 41
0.0
 71
     1
 72
     5
  1
\Ftxt.shx,bigfont.shx|c128;製 図
  7
JL
 73
     1
 44
1.0
  0
LINE
  5
64C0
330
18
100
AcDbEntity
  8
0
 62
     7
370
    25
100
AcDbLine
 10
27.63965443602615
 20
11.94823559579816
 30
0.0
 11
27.63965443602615
 21
14.61413745365274
 31
0.0
  0
MTEXT
  5
64C1
330
18
100
AcDbEntity
  8
0
100
AcDbMText
 10
33.35127033666277
 20
14.71115935133923
 30
0.0
 40
2.25
 41
0.0
 71
     1
 72
     5
  1
\Ftxt.shx,bigfont.shx|c128;尺 度
  7
JL
 73
     1
 44
1.0
  0
LINE
  5
64C2
330
18
100
AcDbEntity
  8
図框線
100
AcDbLine
 10
32.0
 20
16.0
 30
0.0
 11
32.0
 21
6.0
 31
0.0
  0
LINE
  5
64C3
330
18
100
AcDbEntity
  8
0
 62
     7
370
    25
100
AcDbLine
 10
20.64166205915785
 20
11.61947435868057
 30
0.0
 11
20.64166205915785
 21
14.83733375002828
 31
0.0
  0
CIRCLE
  5
64C4
330
18
100
AcDbEntity
  8
0
 62
     7
100
AcDbCircle
 10
20.64166205915785
 20
13.2811865247254
 30
0.0
 40
1.33295092892732
  0
LINE
  5
64C6
330
18
100
AcDbEntity
  8
0
 62
     7
370
    25
100
AcDbLine
 10
24.59015140553038
 20
13.28118652472545
 30
0.0
 11
27.87898660951578
 21
13.28118652472545
 31
0.0
  0
LINE
  5
64C7
330
18
100
AcDbEntity
  8
0
 62
     7
100
AcDbLine
 10
24.97375257817157
 20
12.61471106026181
 30
0.0
 11
27.63965443602615
 21
11.94823559579816
 31
0.0
  0
LINE
  5
64C8
330
18
100
AcDbEntity
  8
図框線
100
AcDbLine
 10
22.0
 20
10.99999999999994
 30
0.0
 11
22.0
 21
6.0
 31
0.0
  0
LINE
  5
64C9
330
18
100
AcDbEntity
  8
0
 62
     7
370
    25
100
AcDbLine
 10
18.97586266421967
 20
13.2811865247254
 30
0.0
 11
22.40695797338458
 21
13.28118652472545
 31
0.0
  0
CIRCLE
  5
64CA
330
18
100
AcDbEntity
  8
0
 62
     7
100
AcDbCircle
 10
20.64166205915785
 20
13.2811865247254
 30
0.0
 40
0.6664754644636604
  0
MTEXT
  5
64CB
330
18
100
AcDbEntity
  8
0
100
AcDbMText
 10
17.56043259019884
 20
9.699911715840244
 30
0.0
 40
2.25
 41
0.0
 71
     1
 72
     5
  1
\Ftxt.shx,bigfont.shx|c128;検 図
  7
JL
 73
     1
 44
1.0
  0
LINE
  5
64CC
330
18
100
AcDbEntity
  8
0
 62
     7
370
    25
100
AcDbLine
 10
24.97375257817157
 20
12.61471106026181
 30
0.0
 11
24.97375257817157
 21
13.9476619891891
 31
0.0
  0
MTEXT
  5
64CD
330
18
100
AcDbEntity
  8
0
100
AcDbMText
 10
33.49753709168749
 20
9.814410260007321
 30
0.0
 40
2.25
 41
0.0
 71
     1
 72
     5
  1
\Ftxt.shx,bigfont.shx|c128;承 認
  7
JL
 73
     1
 44
1.0
  0
LINE
  5
64CE
330
18
100
AcDbEntity
  8
図框線
100
AcDbLine
 10
63.98101938659408
 20
23.58246652929995
 30
0.0
 11
93.98101938659408
 21
23.58246652929989
 31
0.0
  0
LINE
  5
64CF
330
18
100
AcDbEntity
  8
図框線
100
AcDbLine
 10
63.98101938659408
 20
27.18246652929997
 30
0.0
 11
93.98101938659408
 21
27.18246652929997
 31
0.0
  0
LINE
  5
64D0
330
18
100
AcDbEntity
  8
図框線
100
AcDbLine
 10
63.98101938659408
 20
30.78246652929994
 30
0.0
 11
93.98101938659408
 21
30.78246652929988
 31
0.0
  0
LINE
  5
64D1
330
18
100
AcDbEntity
  8
図框線
100
AcDbLine
 10
63.98101938659408
 20
34.38246652929996
 30
0.0
 11
93.98101938659408
 21
34.3824665292999
 31
0.0
  0
LINE
  5
64D2
330
18
100
AcDbEntity
  8
図框線
100
AcDbLine
 10
63.98101938659408
 20
19.98246652929992
 30
0.0
 11
93.98101938659408
 21
19.98246652929992
 31
0.0
  0
MTEXT
  5
64D3
330
18
100
AcDbEntity
  8
0
 62
     7
 48
2.0
100
AcDbMText
 10
78.92371936952975
 20
34.77905073459203
 30
0.0
 40
2.4
 41
0.0
 71
     5
 72
     1
  1
\P\Ftxt.shx,bigfont.shx|c128;諸　　　　元
 73
     1
 44
1.0
  0
LINE
  5
64D5
330
18
100
AcDbEntity
  8
図框線
100
AcDbLine
 10
63.98101938659408
 20
34.3824665292999
 30
0.0
 11
63.98101938659408
 21
19.98246652929992
 31
0.0
  0
MTEXT
  5
64D6
330
18
100
AcDbEntity
  8
0
100
AcDbMText
 10
65.74223729343419
 20
30.01921194573953
 30
0.0
 40
2.2
 41
81.95814342112454
 71
     1
 72
     5
  1
\Ftxt.shx,bigfont.shx|c128;熱　処　理
  7
JL
 73
     1
 44
1.0
  0
LINE
  5
64D7
330
18
100
AcDbEntity
  8
図框線
100
AcDbLine
 10
75.98101938659408
 20
30.78246652929988
 30
0.0
 11
75.98101938659408
 21
19.98246652929992
 31
0.0
  0
MTEXT
  5
64D8
330
18
100
AcDbEntity
  8
0
100
AcDbMText
 10
48.82851278131909
 20
5.576660723278678
 30
0.0
 40
2.5
 41
0.0
 71
     1
 72
     5
  1
\Ftxt.shx,bigfont.shx|c128;図  面  番  号
  7
JL
 73
     1
 44
1.0
  0
MTEXT
  5
64D9
330
18
100
AcDbEntity
  8
0
 62
     7
 48
2.0
100
AcDbMText
 10
60.91304253269311
 20
11.1457841272678
 30
0.0
 40
2.25
 41
0.0
 71
     5
 72
     1
  1
\P\Ftxt.shx,bigfont.shx|c128;    精密ロックナット
 73
     1
 44
1.0
  0
MTEXT
  5
64DA
330
18
100
AcDbEntity
  8
0
370
    25
100
AcDbMText
 10
49.4001461526799
 20
14.90344407701985
 30
0.0
 40
2.5
 41
0.0
 71
     1
 72
     5
  1
\Ftxt.shx,bigfont.shx|c128;品  名
  7
JL
 73
     1
 44
1.0
  0
LINE
  5
64DB
330
18
100
AcDbEntity
  8
図框線
100
AcDbLine
 10
48.0
 20
16.0
 30
0.0
 11
48.0
 21
0.09552080546257
 31
0.0
  0
LINE
  5
64DC
330
18
100
AcDbEntity
  8
図框線
100
AcDbLine
 10
38.0
 20
16.0
 30
0.0
 11
38.0
 21
6.0
 31
0.0
  0
LINE
  5
64DE
330
18
100
AcDbEntity
  8
図框線
100
AcDbLine
 10
76.61178009543414
 20
16.0
 30
0.0
 11
76.61178009543414
 21
6.0
 31
0.0
  0
MTEXT
  5
64DF
330
18
100
AcDbEntity
  8
0
100
AcDbMText
 10
65.60210010974458
 20
26.51809772210948
 30
0.0
 40
2.2
 41
81.80293144248363
 71
     1
 72
     5
  1
\Ftxt.shx,bigfont.shx|c128;表 面 処 理
  7
JL
 73
     1
 44
1.0
  0
MTEXT
  5
64E0
330
18
100
AcDbEntity
  8
0
100
AcDbMText
 10
65.74713303396208
 20
22.87386129530552
 30
0.0
 40
2.2
 41
83.0859
 71
     1
 72
     5
  1
\Ftxt.shx,bigfont.shx|c128;等     　級
  7
JL
 73
     1
 44
1.0
  0
LINE
  5
64E1
330
18
100
AcDbEntity
  8
図框線
100
AcDbLine
 10
93.98101938659408
 20
34.3824665292999
 30
0.0
 11
93.98101938659408
 21
19.98246652929998
 31
0.0
  0
MTEXT
  5
64E2
330
18
100
AcDbEntity
  8
0
100
AcDbMText
 10
78.35452104131537
 20
29.93173299203471
 30
0.0
 40
2.2
 41
145.9480028428943
 71
     1
 72
     5
  1
\Ftxt.shx,bigfont.shx|c128;調質　HRC30%%d%%p２%%d
  7
JL
 73
     1
 44
1.0
  0
MTEXT
  5
64E4
330
18
100
AcDbEntity
  8
0
370
    25
100
AcDbMText
 10
78.62473676437116
 20
14.79284882046784
 30
0.0
 40
2.5
 41
0.0
 71
     1
 72
     5
  1
\Ftxt.shx,bigfont.shx|c128;型  番
  7
JL
 73
     1
 44
1.0
  0
MTEXT
  5
64E5
330
18
100
AcDbEntity
  8
0
100
AcDbMText
 10
86.39363256116951
 20
5.618501016957111
 30
0.0
 40
2.5
 41
0.0
 71
     1
 72
     5
  1
\Ftxt.shx,bigfont.shx|c128;変更
  7
JL
 73
     1
 44
1.0
  0
LINE
  5
64E6
330
18
100
AcDbEntity
  8
図框線
100
AcDbLine
 10
85.5
 20
6.004535139213658
 30
0.0
 11
85.5
 21
0.0
 31
0.0
  0
MTEXT
  5
64E7
330
18
100
AcDbEntity
  8
0
100
AcDbMText
 10
78.48484054203357
 20
22.87416658103109
 30
0.0
 40
2.2
 41
145.3916823984455
 71
     1
 72
     5
  1
\Ftxt.shx,bigfont.shx|c128;ＩＳＯ - ４Ｈ
  7
JL
 73
     1
 44
1.0
  0
MTEXT
  5
64E8
330
18
100
AcDbEntity
  8
0
100
AcDbMText
 10
78.57207114109872
 20
26.34165125363205
 30
0.0
 40
2.2
 41
145.7274
 71
     1
 72
     5
  1
\Ftxt.shx,bigfont.shx|c128;黒  　    染
  7
JL
 73
     1
 44
1.0
  0
MTEXT
  5
64EA
330
18
100
AcDbEntity
  8
0
100
AcDbMText
 10
30.03159300379503
 20
135.0479251287725
 30
0.0
 40
2.5
 41
0.0
 71
     1
 72
     5
  1
\Ftxt.shx,bigfont.shx|c128;M4X0.7P-3L
  7
JL
 73
     1
 44
1.0
  0
MTEXT
  5
64EB
330
18
100
AcDbEntity
  8
0
100
AcDbMText
 10
30.03159300379503
 20
131.0479251287725
 30
0.0
 40
2.5
 41
0.0
 71
     1
 72
     5
  1
\Ftxt.shx,bigfont.shx|c128;%%c3.5X2L
  7
JL
 73
     1
 44
1.0
  0
LINE
  5
64EC
330
18
100
AcDbEntity
  8
図框線
100
AcDbLine
 10
-0.0000000000001137
 20
131.9999999999999
 30
0.0
 11
98.99999999999989
 21
131.9999999999999
 31
0.0
  0
LINE
  5
64ED
330
18
100
AcDbEntity
  8
図框線
100
AcDbLine
 10
-0.0000000000001137
 20
135.9999999999999
 30
0.0
 11
98.99999999999989
 21
135.9999999999999
 31
0.0
  0
LINE
  5
64EE
330
18
100
AcDbEntity
  8
図框線
 62
     9
100
AcDbLine
 10
-0.0000000000001137
 20
139.9999999999999
 30
0.0
 11
98.99999999999989
 21
139.9999999999999
 31
0.0
  0
LINE
  5
64EF
330
18
100
AcDbEntity
  8
図框線
100
AcDbLine
 10
-0.0000000000001137
 20
145.0
 30
0.0
 11
98.99999999999989
 21
145.0
 31
0.0
  0
MTEXT
  5
64F0
330
18
100
AcDbEntity
  8
0
100
AcDbMText
 10
29.70815129840867
 20
143.6577976025552
 30
0.0
 40
2.5
 41
0.0
 71
     1
 72
     5
  1
\Ftxt.shx,bigfont.shx|c128;図    番 / 規　　格
  7
JL
 73
     1
 44
1.0
  0
LINE
  5
64F1
330
18
100
AcDbEntity
  8
図框線
100
AcDbLine
 10
-0.0000000000001137
 20
131.9999999999999
 30
0.0
 11
98.99999999999989
 21
131.9999999999999
 31
0.0
  0
LINE
  5
64F2
330
18
100
AcDbEntity
  8
図框線
100
AcDbLine
 10
-0.0000000000001137
 20
127.9999999999999
 30
0.0
 11
98.99999999999989
 21
127.9999999999999
 31
0.0
  0
MTEXT
  5
64F3
330
18
100
AcDbEntity
  8
0
100
AcDbMText
 10
11.00717457070618
 20
143.3944012909913
 30
0.0
 40
2.5
 41
0.0
 71
     1
 72
     5
  1
\Ftxt.shx,bigfont.shx|c128;品　          名
  7
JL
 73
     1
 44
1.0
  0
MTEXT
  5
64F4
330
18
100
AcDbEntity
  8
0
100
AcDbMText
 10
9.432518806521102
 20
135.2649274897673
 30
0.0
 40
3.0
 41
0.0
 71
     1
 72
     5
  1
\Ftxt.shx,bigfont.shx|c128;セットスクリュ-
  7
JL
 73
     1
 44
1.0
  0
MTEXT
  5
64F5
330
18
100
AcDbEntity
  8
0
100
AcDbMText
 10
9.33470729502369
 20
139.1830325252701
 30
0.0
 40
3.0
 41
0.0
 71
     1
 72
     5
  1
\Ftxt.shx,bigfont.shx|c128;ロックナット　  
  7
JL
 73
     1
 44
1.0
  0
MTEXT
  5
64F6
330
18
100
AcDbEntity
  8
0
100
AcDbMText
 10
9.432518806521102
 20
131.2649274897673
 30
0.0
 40
3.0
 41
0.0
 71
     1
 72
     5
  1
\Ftxt.shx,bigfont.shx|c128;ロックピン 
  7
JL
 73
     1
 44
1.0
  0
LINE
  5
64F7
330
18
100
AcDbEntity
  8
図框線
100
AcDbLine
 10
7.499999999999886
 20
144.9999999999999
 30
0.0
 11
7.500000000000056
 21
127.9999999999999
 31
0.0
  0
LINE
  5
64F8
330
18
100
AcDbEntity
  8
0
100
AcDbLine
 10
7.499999999999886
 20
144.9999999999999
 30
0.0
 11
7.499999999999886
 21
131.9999999999999
 31
0.0
  0
MTEXT
  5
64F9
330
18
100
AcDbEntity
  8
0
100
AcDbMText
 10
3.107644543695244
 20
131.3718204678197
 30
0.0
 40
2.5
 41
0.0
 71
     1
 72
     5
  1
\Ftxt.shx,bigfont.shx|c128;3
  7
JL
 73
     1
 44
1.0
  0
MTEXT
  5
64FA
330
18
100
AcDbEntity
  8
0
100
AcDbMText
 10
3.550978513333404
 20
139.2899255033227
 30
0.0
 40
2.5
 41
0.0
 71
     1
 72
     5
  1
\Ftxt.shx,bigfont.shx|c128;1
  7
JL
 73
     1
 44
1.0
  0
MTEXT
  5
64FB
330
18
100
AcDbEntity
  8
0
100
AcDbMText
 10
3.107644543695244
 20
135.3718204678197
 30
0.0
 40
2.5
 41
0.0
 71
     1
 72
     5
  1
\Ftxt.shx,bigfont.shx|c128;2
  7
JL
 73
     1
 44
1.0
  0
MTEXT
  5
64FC
330
18
100
AcDbEntity
  8
0
100
AcDbMText
 10
1.104541995921181
 20
143.5442627082028
 30
0.0
 40
2.5
 41
0.0
 71
     1
 72
     5
  1
\Ftxt.shx,bigfont.shx|c128;照   号
  7
JL
 73
     1
 44
1.0
  0
LINE
  5
64FD
330
18
100
AcDbEntity
  8
図框線
 62
     9
100
AcDbLine
 10
27.49999999999989
 20
144.9999999999999
 30
0.0
 11
27.49999999999989
 21
128.0
 31
0.0
  0
MTEXT
  5
64FE
330
18
100
AcDbEntity
  8
0
100
AcDbMText
 10
73.16768829626892
 20
143.7902024871184
 30
0.0
 40
2.5
 41
0.0
 71
     1
 72
     5
  1
\Ftxt.shx,bigfont.shx|c128;備           考
  7
JL
 73
     1
 44
1.0
  0
LINE
  5
64FF
330
18
100
AcDbEntity
  8
図框線
 62
     9
100
AcDbLine
 10
47.49999999999988
 20
144.9999999999999
 30
0.0
 11
47.49999999999988
 21
127.9999999999999
 31
0.0
  0
MTEXT
  5
6500
330
18
100
AcDbEntity
  8
0
100
AcDbMText
 10
48.39193514888188
 20
131.1830325252701
 30
0.0
 40
2.5
 41
0.0
 71
     1
 72
     5
  1
\Ftxt.shx,bigfont.shx|c128;C3604
  7
JL
 73
     1
 44
1.0
  0
MTEXT
  5
6501
330
18
100
AcDbEntity
  8
0
100
AcDbMText
 10
48.39193514888188
 20
139.1830325252701
 30
0.0
 40
2.5
 41
0.0
 71
     1
 72
     5
  1
\Ftxt.shx,bigfont.shx|c128;SCM-440
  7
JL
 73
     1
 44
1.0
  0
MTEXT
  5
6502
330
18
100
AcDbEntity
  8
0
100
AcDbMText
 10
48.39193514888188
 20
135.1830325252701
 30
0.0
 40
2.5
 41
0.0
 71
     1
 72
     5
  1
\Ftxt.shx,bigfont.shx|c128;SCM435
  7
JL
 73
     1
 44
1.0
  0
MTEXT
  5
6503
330
18
100
AcDbEntity
  8
0
100
AcDbMText
 10
49.90016249722703
 20
143.7902024871184
 30
0.0
 40
2.5
 41
0.0
 71
     1
 72
     5
  1
\Ftxt.shx,bigfont.shx|c128;材　質
  7
JL
 73
     1
 44
1.0
  0
LINE
  5
6504
330
18
100
AcDbEntity
  8
図框線
 62
     9
100
AcDbLine
 10
57.49999999999989
 20
144.9999999999999
 30
0.0
 11
57.49999999999989
 21
127.9999999999999
 31
0.0
  0
LINE
  5
6505
330
18
100
AcDbEntity
  8
図框線
100
AcDbLine
 10
64.99999999999989
 20
144.9999999999999
 30
0.0
 11
64.99999999999989
 21
127.9999999999999
 31
0.0
  0
MTEXT
  5
6506
330
18
100
AcDbEntity
  8
0
100
AcDbMText
 10
60.60764454369518
 20
131.3718204678197
 30
0.0
 40
2.5
 41
0.0
 71
     1
 72
     5
  1
\Ftxt.shx,bigfont.shx|c128;3
  7
JL
 73
     1
 44
1.0
  0
MTEXT
  5
6507
330
18
100
AcDbEntity
  8
0
100
AcDbMText
 10
61.05097851333335
 20
139.2899255033227
 30
0.0
 40
2.5
 41
0.0
 71
     1
 72
     5
  1
\Ftxt.shx,bigfont.shx|c128;1
  7
JL
 73
     1
 44
1.0
  0
MTEXT
  5
6508
330
18
100
AcDbEntity
  8
0
100
AcDbMText
 10
60.60764454369518
 20
135.3718204678197
 30
0.0
 40
2.5
 41
0.0
 71
     1
 72
     5
  1
\Ftxt.shx,bigfont.shx|c128;3
  7
JL
 73
     1
 44
1.0
  0
MTEXT
  5
6509
330
18
100
AcDbEntity
  8
0
100
AcDbMText
 10
58.21687015595853
 20
143.7902024871184
 30
0.0
 40
2.5
 41
0.0
 71
     1
 72
     5
  1
\Ftxt.shx,bigfont.shx|c128;数   量
  7
JL
 73
     1
 44
1.0
  0
MTEXT
  5
68F6
330
18
100
AcDbEntity
  8
公差
100
AcDbMText
 10
39.84065568649902
 20
97.30710006919174
 30
0.0
 40
1.25
 41
4.777537262987237
 71
     1
 72
     5
  1
+0.15\P+0
  7
TXT
 73
     1
 44
1.0
  0
MTEXT
  5
68F7
330
18
100
AcDbEntity
  8
公差
100
AcDbMText
 10
26.48949932475569
 20
109.3563253534149
 30
0.0
 40
1.25
 41
4.424728173837195
 71
     1
 72
     5
  1
+0.15\P+0
  7
TXT
 11
0.0000000000000001
 21
1.0
 31
0.0
 73
     1
 44
1.0
  0
LINE
  5
68FA
330
18
100
AcDbEntity
  8
中心線
  6
CENTER
 48
0.1
100
AcDbLine
 10
44.94923583681634
 20
116.5210060286985
 30
0.0
 11
44.94923583681628
 21
97.24356353402335
 31
0.0
  0
ARC
  5
68FB
330
18
100
AcDbEntity
  8
本体外線
100
AcDbCircle
 10
44.94923583681634
 20
107.2017019644711
 30
0.0
 40
8.0
100
AcDbArc
 50
70.8069228748603
 51
169.1930771251394
  0
CIRCLE
  5
68FC
330
18
100
AcDbEntity
  8
本体外線
100
AcDbCircle
 10
44.94923583681634
 20
107.2017019644711
 30
0.0
 40
5.5
  0
LINE
  5
68FD
330
18
100
AcDbEntity
  8
本体外線
100
AcDbLine
 10
50.17733235386845
 20
113.2570307588791
 30
0.0
 11
49.17827394249304
 21
111.5266108306478
 31
0.0
  0
LINE
  5
68FE
330
18
100
AcDbEntity
  8
本体外線
100
AcDbLine
 10
47.57925614251507
 20
114.7570307588791
 30
0.0
 11
46.58019773113972
 21
113.0266108306479
 31
0.0
  0
LINE
  5
68FF
330
18
100
AcDbEntity
  8
本体外線
100
AcDbLine
 10
46.58019773113972
 20
113.0266108306479
 30
0.0
 11
49.17827394249304
 21
111.5266108306478
 31
0.0
  0
LINE
  5
6900
330
18
100
AcDbEntity
  8
中心線
  6
CENTER
 48
0.1
100
AcDbLine
 10
35.13944918757272
 20
107.2017019644711
 30
0.0
 11
44.94923583681628
 21
107.201701964471
 31
0.0
  0
LINE
  5
6901
330
18
100
AcDbEntity
  8
本体外線
100
AcDbLine
 10
37.09111901406544
 20
108.7017019644711
 30
0.0
 11
39.08923583681622
 21
108.7017019644711
 31
0.0
  0
LINE
  5
6902
330
18
100
AcDbEntity
  8
本体外線
100
AcDbLine
 10
37.09111901406544
 20
105.7017019644711
 30
0.0
 11
39.08923583681622
 21
105.7017019644711
 31
0.0
  0
LINE
  5
6903
330
18
100
AcDbEntity
  8
本体外線
100
AcDbLine
 10
39.08923583681627
 20
105.7017019644711
 30
0.0
 11
39.08923583681622
 21
108.7017019644711
 31
0.0
  0
LINE
  5
6904
330
18
100
AcDbEntity
  8
中心線
  6
CENTER
 48
0.1
100
AcDbLine
 10
40.04434251219447
 20
98.70617752052062
 30
0.0
 11
43.13673583681634
 21
104.0623598757524
 31
0.0
  0
LINE
  5
6905
330
18
100
AcDbEntity
  8
本体外線
100
AcDbLine
 10
47.57925614251502
 20
99.64637317006292
 30
0.0
 11
46.5801977311396
 21
101.3767930982941
 31
0.0
  0
LINE
  5
6906
330
18
100
AcDbEntity
  8
本体外線
100
AcDbLine
 10
50.17733235386834
 20
101.1463731700629
 30
0.0
 11
49.17827394249292
 21
102.8767930982942
 31
0.0
  0
LINE
  5
6907
330
18
100
AcDbEntity
  8
本体外線
100
AcDbLine
 10
49.17827394249298
 20
102.8767930982942
 30
0.0
 11
46.5801977311396
 21
101.3767930982941
 31
0.0
  0
LINE
  5
6908
330
18
100
AcDbEntity
  8
本体内線
  6
HIDDEN
 48
0.2
100
AcDbLine
 10
45.16961331657921
 20
103.5834069562644
 30
0.0
 11
42.80830329817774
 21
99.49349803197168
 31
0.0
  0
LINE
  5
6909
330
18
100
AcDbEntity
  8
本体内線
  6
HIDDEN
 48
0.2
100
AcDbLine
 10
41.70551170144148
 20
105.5834069562644
 30
0.0
 11
39.34420168303996
 21
101.4934980319717
 31
0.0
  0
LINE
  5
690A
330
18
100
AcDbEntity
  8
本体内線
  6
HIDDEN
 48
0.2
100
AcDbLine
 10
42.00015038333413
 20
105.0937361231776
 30
0.0
 11
39.72113931976423
 21
101.146373170063
 31
0.0
  0
LINE
  5
690B
330
18
100
AcDbEntity
  8
本体内線
  6
HIDDEN
 48
0.2
100
AcDbLine
 10
44.59822659468744
 20
103.5937361231777
 30
0.0
 11
42.31921553111749
 21
99.64637317006296
 31
0.0
  0
ARC
  5
690C
330
18
100
AcDbEntity
  8
本体外線
100
AcDbCircle
 10
44.94923583681634
 20
107.2017019644711
 30
0.0
 40
8.0
100
AcDbArc
 50
190.8069228748603
 51
289.1930771251389
  0
ARC
  5
690D
330
18
100
AcDbEntity
  8
本体外線
100
AcDbCircle
 10
44.94923583681634
 20
107.2017019644711
 30
0.0
 40
8.0
100
AcDbArc
 50
310.80692287486
 51
49.19307712513941
  0
LINE
  5
690E
330
18
100
AcDbEntity
  8
本体内線
  6
HIDDEN
 48
0.2
100
AcDbLine
 10
47.97258249242827
 20
109.201701964471
 30
0.0
 11
52.69520252923115
 21
109.201701964471
 31
0.0
  0
LINE
  5
690F
330
18
100
AcDbEntity
  8
本体内線
  6
HIDDEN
 48
0.2
100
AcDbLine
 10
47.97258249242827
 20
105.2017019644711
 30
0.0
 11
52.69520252923115
 21
105.2017019644711
 31
0.0
  0
LINE
  5
6910
330
18
100
AcDbEntity
  8
本体内線
  6
HIDDEN
 48
0.2
100
AcDbLine
 10
48.24933053242739
 20
108.701701964471
 30
0.0
 11
52.80735265956718
 21
108.701701964471
 31
0.0
  0
LINE
  5
6911
330
18
100
AcDbEntity
  8
本体内線
  6
HIDDEN
 48
0.2
100
AcDbLine
 10
41.70551170144148
 20
108.8199969726777
 30
0.0
 11
39.34420168304007
 21
112.9099058969705
 31
0.0
  0
LINE
  5
6912
330
18
100
AcDbEntity
  8
本体内線
  6
HIDDEN
 48
0.2
100
AcDbLine
 10
45.16961331657921
 20
110.8199969726777
 30
0.0
 11
42.80830329817774
 21
114.9099058969704
 31
0.0
  0
LINE
  5
6913
330
18
100
AcDbEntity
  8
本体内線
  6
HIDDEN
 48
0.2
100
AcDbLine
 10
44.5982265946875
 20
110.8096678057645
 30
0.0
 11
42.3192155311176
 21
114.7570307588791
 31
0.0
  0
LINE
  5
6914
330
18
100
AcDbEntity
  8
中心線
  6
CENTER
 48
0.1
100
AcDbLine
 10
43.13673583681634
 20
110.3410440531897
 30
0.0
 11
40.04434251219453
 21
115.6972264084215
 31
0.0
  0
LINE
  5
6915
330
18
100
AcDbEntity
  8
中心線
  6
CENTER
 48
0.1
100
AcDbLine
 10
44.94923583681628
 20
107.201701964471
 30
0.0
 11
54.90878235728712
 21
107.201701964471
 31
0.0
  0
DIMENSION
  5
6916
330
18
100
AcDbEntity
  8
0
100
AcDbDimension
  2
*D3
 10
28.88954575371361
 20
72.07558967495147
 30
0.0
 11
30.24518497707925
 21
77.26844694547139
 31
0.0
 70
   160
 71
     5
 42
0.4700000000000273
  3
A
100
AcDbAlignedDimension
 13
37.69923583681629
 23
71.60558967495143
 33
0.0
 14
39.44923583681628
 24
72.07558967495145
 34
0.0
 50
90.0
100
AcDbRotatedDimension
  0
POINT
  5
6917
330
18
100
AcDbEntity
  8
本体外線
100
AcDbPoint
 10
50.44923583681634
 20
72.07558967495145
 30
0.0
  0
LINE
  5
691A
330
18
100
AcDbEntity
  8
DIM
100
AcDbLine
 10
40.93682237693201
 20
42.81672233598913
 30
0.0
 11
40.94923583681628
 21
51.8527013635882
 31
0.0
  0
LINE
  5
691B
330
18
100
AcDbEntity
  8
DIM
100
AcDbLine
 10
70.94965336064399
 20
72.10558967495146
 30
0.0
 11
70.94965336064399
 21
77.30633650682221
 31
0.0
  0
LINE
  5
691C
330
18
100
AcDbEntity
  8
DIM
100
AcDbLine
 10
70.94965336064399
 20
77.30633650682221
 30
0.0
 11
80.62568693256924
 21
77.30633650682221
 31
0.0
  0
ARC
  5
691D
330
18
100
AcDbEntity
  8
0
100
AcDbCircle
 10
44.94923583681634
 20
107.2017019644711
 30
0.0
 40
4.0
100
AcDbArc
 50
165.9364365535442
 51
109.6989665058981
  0
CIRCLE
  5
691E
330
18
100
AcDbEntity
  8
本体外線
100
AcDbCircle
 10
44.94923583681634
 20
107.2017019644711
 30
0.0
 40
3.625
  0
LINE
  5
691F
330
18
100
AcDbEntity
  8
本体内線
  6
HIDDEN
 48
0.2
100
AcDbLine
 10
42.00015038333413
 20
109.3096678057645
 30
0.0
 11
39.72113931976423
 21
113.2570307588792
 31
0.0
  0
LINE
  5
6920
330
18
100
AcDbEntity
  8
本体内線
  6
HIDDEN
 48
0.2
100
AcDbLine
 10
48.24933053242734
 20
105.701701964471
 30
0.0
 11
52.80735265956718
 21
105.701701964471
 31
0.0
  0
DIMENSION
  5
6921
330
18
100
AcDbEntity
  8
0
  6
ACAD_ISO03W100
100
AcDbDimension
  2
*D4
 10
39.44923583681634
 20
79.54681414608905
 30
0.0
 11
44.94923583681634
 21
79.54681414608905
 31
0.0
 70
   160
  1
%%c<>%%p0.5
 71
     5
 42
-1.0
  3
A
100
AcDbAlignedDimension
 13
50.44923583681634
 23
72.07558967495145
 33
0.0
 14
39.44923583681634
 24
72.07558967495145
 34
0.0
100
AcDbRotatedDimension
  0
MTEXT
  5
6922
330
18
100
AcDbEntity
  8
公差
100
AcDbMText
 10
46.42029152747091
 20
89.67466388529965
 30
0.0
 40
1.25
 41
5.798873997305009
 71
     1
 72
     5
  1
+0\P-0.12
  7
TXT
 73
     1
 44
1.0
  0
LINE
  5
6927
330
18
100
AcDbEntity
  8
本体外線
100
AcDbLine
 10
39.44923583681628
 20
72.10558967495143
 30
0.0
 11
50.44923583681629
 21
72.10558967495143
 31
0.0
  0
LINE
  5
6928
102
{ACAD_REACTORS
330
6952
102
}
330
18
100
AcDbEntity
  8
中心線
  6
CENTER
 48
0.15
100
AcDbLine
 10
46.70837009796912
 20
68.10558967495143
 30
0.0
 11
54.43511311285369
 21
68.10558967495143
 31
0.0
  0
LINE
  5
6929
330
18
100
AcDbEntity
  8
本体外線
100
AcDbLine
 10
37.69923583681629
 20
64.10558967495148
 30
0.0
 11
52.19923583681628
 21
64.10558967495143
 31
0.0
  0
LINE
  5
692A
330
18
100
AcDbEntity
  8
本体外線
100
AcDbLine
 10
36.94923583681628
 20
70.85558967495143
 30
0.0
 11
36.94923583681628
 21
64.85558967495149
 31
0.0
  0
LINE
  5
692B
330
18
100
AcDbEntity
  8
本体外線
100
AcDbLine
 10
52.94923583681622
 20
70.85558967495143
 30
0.0
 11
52.94923583681629
 21
64.85558967495143
 31
0.0
  0
LINE
  5
692C
330
18
100
AcDbEntity
  8
中心線
  6
CENTER
 48
0.15
100
AcDbLine
 10
44.94923583681634
 20
73.73635109979819
 30
0.0
 11
44.94923583681628
 21
61.53800547271581
 31
0.0
  0
LINE
  5
692D
330
18
100
AcDbEntity
  8
本体外線
100
AcDbLine
 10
50.44923583681629
 20
72.10558967495143
 30
0.0
 11
50.44923583681629
 21
71.60558967495143
 31
0.0
  0
LINE
  5
692E
330
18
100
AcDbEntity
  8
本体外線
100
AcDbLine
 10
39.44923583681628
 20
72.10558967495143
 30
0.0
 11
39.44923583681628
 21
71.60558967495143
 31
0.0
  0
LINE
  5
692F
330
18
100
AcDbEntity
  8
0
100
AcDbLine
 10
48.94923583681628
 20
71.48058967495143
 30
0.0
 11
48.94923583681628
 21
69.85558967495143
 31
0.0
  0
LINE
  5
6930
330
18
100
AcDbEntity
  8
0
100
AcDbLine
 10
40.94923583681628
 20
71.48058967495143
 30
0.0
 11
40.94923583681628
 21
64.73058967495143
 31
0.0
  0
LINE
  5
6931
102
{ACAD_REACTORS
330
6952
102
}
330
18
100
AcDbEntity
  8
本体外線
100
AcDbLine
 10
48.57423583681629
 20
71.10558967495143
 30
0.0
 11
48.57423583681629
 21
65.10558967495143
 31
0.0
  0
LINE
  5
6932
330
18
100
AcDbEntity
  8
本体外線
100
AcDbLine
 10
41.32423583681628
 20
71.10558967495143
 30
0.0
 11
41.32423583681634
 21
65.10558967495149
 31
0.0
  0
LINE
  5
6933
330
18
100
AcDbEntity
  8
本体外線
100
AcDbLine
 10
37.69923583681629
 20
71.60558967495143
 30
0.0
 11
39.44923583681628
 21
71.60558967495143
 31
0.0
  0
LINE
  5
6934
330
18
100
AcDbEntity
  8
本体外線
100
AcDbLine
 10
50.44923583681629
 20
71.60558967495143
 30
0.0
 11
52.19923583681623
 21
71.60558967495143
 31
0.0
  0
ARC
  5
6935
330
18
100
AcDbEntity
  8
本体外線
100
AcDbCircle
 10
37.69923583681629
 20
70.85558967495143
 30
0.0
 40
0.75
100
AcDbArc
 50
90.0
 51
180.0
  0
ARC
  5
6936
330
18
100
AcDbEntity
  8
本体外線
100
AcDbCircle
 10
37.69923583681629
 20
64.85558967495149
 30
0.0
 40
0.75
100
AcDbArc
 50
180.0
 51
270.0
  0
ARC
  5
6937
330
18
100
AcDbEntity
  8
本体外線
100
AcDbCircle
 10
52.19923583681628
 20
64.85558967495143
 30
0.0
 40
0.75
100
AcDbArc
 50
269.9999999999999
 51
0.0
  0
ARC
  5
6938
330
18
100
AcDbEntity
  8
本体外線
100
AcDbCircle
 10
52.19923583681623
 20
70.85558967495143
 30
0.0
 40
0.75
100
AcDbArc
 50
0.0
 51
90.0
  0
LINE
  5
6939
102
{ACAD_REACTORS
330
6952
102
}
330
18
100
AcDbEntity
  8
0
100
AcDbLine
 10
49.94923583681629
 20
69.85558967495143
 30
0.0
 11
49.94923583681629
 21
66.35558967495143
 31
0.0
  0
LINE
  5
693A
330
18
100
AcDbEntity
  8
0
100
AcDbLine
 10
48.94923583681628
 20
70.10558967495143
 30
0.0
 11
52.94923583681629
 21
70.10558967495143
 31
0.0
  0
LINE
  5
693B
330
18
100
AcDbEntity
  8
0
100
AcDbLine
 10
48.94923583681628
 20
66.10558967495143
 30
0.0
 11
52.94923583681629
 21
66.10558967495143
 31
0.0
  0
LINE
  5
693C
102
{ACAD_REACTORS
330
6952
102
}
330
18
100
AcDbEntity
  8
0
100
AcDbLine
 10
48.57423583681629
 20
69.85558967495143
 30
0.0
 11
49.94923583681629
 21
69.85558967495143
 31
0.0
  0
LINE
  5
693D
102
{ACAD_REACTORS
330
6952
102
}
330
18
100
AcDbEntity
  8
0
100
AcDbLine
 10
48.57423583681629
 20
66.35558967495143
 30
0.0
 11
49.94923583681629
 21
66.35558967495143
 31
0.0
  0
LINE
  5
693E
330
18
100
AcDbEntity
  8
0
100
AcDbLine
 10
48.94923583681628
 20
66.35558967495143
 30
0.0
 11
48.94923583681628
 21
64.73058967495143
 31
0.0
  0
LINE
  5
693F
330
18
100
AcDbEntity
  8
0
100
AcDbLine
 10
51.44923583681617
 20
69.10558967495143
 30
0.0
 11
52.94923583681629
 21
69.10558967495143
 31
0.0
  0
LINE
  5
6940
330
18
100
AcDbEntity
  8
0
100
AcDbLine
 10
51.44923583681617
 20
67.10558967495143
 30
0.0
 11
52.94923583681629
 21
67.10558967495143
 31
0.0
  0
LINE
  5
6941
330
18
100
AcDbEntity
  8
0
100
AcDbLine
 10
51.44923583681617
 20
69.10558967495143
 30
0.0
 11
51.44923583681617
 21
67.10558967495143
 31
0.0
  0
LINE
  5
6942
330
18
100
AcDbEntity
  8
0
100
AcDbLine
 10
52.64923583681627
 20
70.10558967495143
 30
0.0
 11
52.64923583681627
 21
66.10558967495143
 31
0.0
  0
LINE
  5
6943
330
18
100
AcDbEntity
  8
0
100
AcDbLine
 10
49.94923583681629
 20
69.10558967495143
 30
0.0
 11
50.94923583681628
 21
70.10558967495143
 31
0.0
  0
LINE
  5
6944
330
18
100
AcDbEntity
  8
0
100
AcDbLine
 10
50.94923583681628
 20
69.85558967495143
 30
0.0
 11
52.94923583681629
 21
69.85558967495143
 31
0.0
  0
LINE
  5
6945
330
18
100
AcDbEntity
  8
0
100
AcDbLine
 10
49.94923583681629
 20
67.10558967495138
 30
0.0
 11
50.94923583681623
 21
66.10558967495143
 31
0.0
  0
LINE
  5
6946
330
18
100
AcDbEntity
  8
0
100
AcDbLine
 10
50.94923583681628
 20
66.35558967495143
 30
0.0
 11
52.94923583681629
 21
66.35558967495143
 31
0.0
  0
LINE
  5
6947
330
18
100
AcDbEntity
  8
0
100
AcDbLine
 10
50.94923583681628
 20
70.10558967495143
 30
0.0
 11
50.94923583681628
 21
66.10558967495143
 31
0.0
  0
LINE
  5
6948
330
18
100
AcDbEntity
  8
0
100
AcDbLine
 10
51.44923583681617
 20
69.10558967495143
 30
0.0
 11
51.29374963422532
 21
68.09405439921312
 31
0.0
  0
LINE
  5
6949
330
18
100
AcDbEntity
  8
0
100
AcDbLine
 10
51.29374963422532
 20
68.09405439921312
 30
0.0
 11
51.44923583681617
 21
67.10558967495143
 31
0.0
  0
LINE
  5
694A
330
18
100
AcDbEntity
  8
0
100
AcDbLine
 10
52.64923583681627
 20
70.10558967495143
 30
0.0
 11
52.94923583681622
 21
69.93238459419456
 31
0.0
  0
LINE
  5
694B
330
18
100
AcDbEntity
  8
0
100
AcDbLine
 10
52.64923583681627
 20
66.10558967495143
 30
0.0
 11
52.94923583681622
 21
66.2787947557083
 31
0.0
  0
LINE
  5
694C
330
18
100
AcDbEntity
  8
本体外線
100
AcDbLine
 10
41.32423583681628
 20
71.10558967495143
 30
0.0
 11
40.32423583681628
 21
72.10558967495143
 31
0.0
  0
LINE
  5
694D
330
18
100
AcDbEntity
  8
本体外線
100
AcDbLine
 10
41.32423583681628
 20
65.10558967495149
 30
0.0
 11
40.32423583681628
 21
64.10558967495143
 31
0.0
  0
LINE
  5
694E
330
18
100
AcDbEntity
  8
本体外線
100
AcDbLine
 10
48.57423583681629
 20
65.10558967495143
 30
0.0
 11
49.57423583681628
 21
64.10558967495143
 31
0.0
  0
LINE
  5
694F
330
18
100
AcDbEntity
  8
本体外線
100
AcDbLine
 10
48.57423583681629
 20
71.10558967495143
 30
0.0
 11
49.57423583681628
 21
72.10558967495143
 31
0.0
  0
LINE
  5
6950
330
18
100
AcDbEntity
  8
本体外線
100
AcDbLine
 10
41.32423583681623
 20
71.10558967495143
 30
0.0
 11
48.57423583681629
 21
71.10558967495143
 31
0.0
  0
LINE
  5
6951
330
18
100
AcDbEntity
  8
本体外線
100
AcDbLine
 10
41.32423583681628
 20
65.10558967495143
 30
0.0
 11
48.57423583681629
 21
65.10558967495143
 31
0.0
  0
HATCH
  5
6952
330
18
100
AcDbEntity
  8
0
  6
Continuous
100
AcDbHatch
 10
0.0
 20
0.0
 30
0.0
210
0.0
220
0.0
230
1.0
  2
AR-SAND
 70
     0
 71
     1
 91
        2
 92
        7
 72
     0
 73
     1
 93
        4
 10
49.94923583681629
 20
68.10558967495143
 10
48.57423583681629
 20
68.10558967495143
 10
48.57423583681629
 20
66.35558967495143
 10
49.94923583681629
 20
66.35558967495143
 97
        4
330
6928
330
6931
330
693D
330
6939
 92
        7
 72
     0
 73
     1
 93
        4
 10
49.94923583681628
 20
69.85558967495143
 10
48.57423583681629
 20
69.85558967495143
 10
48.57423583681628
 20
68.10558967495143
 10
49.94923583681629
 20
68.10558967495143
 97
        4
330
693C
330
6931
330
6928
330
6939
 75
     0
 76
     1
 52
0.0
 41
0.05
 77
     0
 78
     4
 53
37.5
 43
-211.3218421006207
 44
-67.89375931780675
 45
-0.0800015647992023
 46
2.447066186646711
 79
     6
 49
0.0
 49
-1.9304
 49
0.0
 49
-2.159
 49
0.0
 49
-2.06375
 53
7.499999999999999
 43
-211.3218421006207
 44
-67.89375931780675
 45
2.247616415690013
 46
3.584125502841771
 79
     6
 49
0.0
 49
-1.0414
 49
0.0
 49
-1.7399
 49
0.0
 49
-0.6667500000000001
 53
327.5
 43
-212.8839421006207
 44
-67.89375931780675
 45
3.95496185120729
 46
0.0071859233927285
 79
     6
 49
0.0
 49
-0.635
 49
0.0
 49
-2.286
 49
0.0
 49
-2.9845
 53
317.5
 43
-212.8839421006207
 44
-67.89375931780675
 45
3.817782262361486
 46
1.114646616286081
 79
     6
 49
0.0
 49
-0.3175
 49
0.0
 49
-1.498599999999999
 49
0.0
 49
-1.7145
 47
0.0844132836620238
 98
        2
 10
49.8919702191983
 20
67.17481058858999
 10
49.80747607989105
 20
68.77866345443846
  0
LINE
  5
6953
330
18
100
AcDbEntity
  8
本体外線
100
AcDbLine
 10
39.44923583681634
 20
72.10558967495143
 30
0.0
 11
50.44923583681634
 21
72.10558967495143
 31
0.0
  0
DIMENSION
  5
6955
330
18
100
AcDbEntity
  8
0
100
AcDbDimension
  2
*D5
 10
52.94923583681622
 20
85.51861923782388
 30
0.0
 11
43.5684281791548
 21
85.51861923782388
 31
0.0
 70
   160
  1
%%C16
 71
     5
 42
-1.0
  3
A
100
AcDbAlignedDimension
 13
36.94923583681628
 23
70.85558967495143
 33
0.0
 14
52.94923583681622
 24
70.85558967495143
 34
0.0
100
AcDbRotatedDimension
  0
DIMENSION
  5
6956
330
18
100
AcDbEntity
  8
0
100
AcDbDimension
  2
*D6
 10
48.94923583681628
 20
51.85270136358821
 30
0.0
 11
31.78554741328992
 21
51.85270136358821
 31
0.0
 70
   160
  1
M8X0.75P
 71
     5
 42
-1.0
  3
A
100
AcDbAlignedDimension
 13
40.94923583681628
 23
64.73058967495143
 33
0.0
 14
48.94923583681628
 24
64.73058967495143
 34
0.0
100
AcDbRotatedDimension
  0
POINT
  5
695F
330
18
100
AcDbEntity
  8
0
  6
ByBlock
 62
     0
100
AcDbPoint
 10
49.91096452657109
 20
72.10558967495146
 30
0.0
  0
POINT
  5
6960
330
18
100
AcDbEntity
  8
0
  6
ByBlock
 62
     0
100
AcDbPoint
 10
49.91096452657109
 20
64.10558967495146
 30
0.0
  0
INSERT
  5
6962
330
18
100
AcDbEntity
  8
DIM
100
AcDbBlockReference
  2
005A
 10
80.62568693256924
 20
77.30633650682221
 30
0.0
 41
0.5
 42
0.5
 43
0.5
  0
INSERT
  5
6963
330
18
100
AcDbEntity
  8
DIM
100
AcDbBlockReference
  2
A
 10
40.93682237693201
 20
44.75319244407077
 30
0.0
 41
0.5
 42
0.5
 43
0.5
  0
LINE
  5
6964
330
18
100
AcDbEntity
  8
本体外線
100
AcDbLine
 10
39.08923583681622
 20
71.60558967495146
 30
0.0
 11
39.08923583681622
 21
64.10558967495148
 31
0.0
  0
LINE
  5
6965
330
18
100
AcDbEntity
  8
剖面線
100
AcDbLine
 10
39.08923583681622
 20
70.26411710626575
 30
0.0
 11
40.62747212115914
 21
71.80235339060866
 31
0.0
  0
LINE
  5
6966
330
18
100
AcDbEntity
  8
剖面線
100
AcDbLine
 10
39.08923583681622
 20
68.01905307599844
 30
0.0
 11
40.94923583681628
 21
69.87905307599851
 31
0.0
  0
LINE
  5
6967
330
18
100
AcDbEntity
  8
剖面線
100
AcDbLine
 10
40.94923583681628
 20
69.87905307599851
 30
0.0
 11
41.32423583681623
 21
70.25405307599846
 31
0.0
  0
LINE
  5
6968
330
18
100
AcDbEntity
  8
剖面線
100
AcDbLine
 10
39.08923583681622
 20
65.77398904573119
 30
0.0
 11
40.94923583681622
 21
67.63398904573119
 31
0.0
  0
LINE
  5
6969
330
18
100
AcDbEntity
  8
剖面線
100
AcDbLine
 10
40.94923583681622
 20
67.63398904573119
 30
0.0
 11
41.32423583681623
 21
68.0089890457312
 31
0.0
  0
LINE
  5
696A
330
18
100
AcDbEntity
  8
剖面線
100
AcDbLine
 10
39.66590049630383
 20
64.10558967495146
 30
0.0
 11
40.94923583681628
 21
65.38892501546391
 31
0.0
  0
LINE
  5
696B
330
18
100
AcDbEntity
  8
剖面線
100
AcDbLine
 10
40.94923583681628
 20
65.38892501546391
 30
0.0
 11
41.32423583681628
 21
65.76392501546391
 31
0.0
  0
LINE
  5
696C
330
18
100
AcDbEntity
  8
剖面線
100
AcDbLine
 10
48.57423583681629
 20
70.76886098519669
 30
0.0
 11
49.91096452657109
 21
72.10558967495146
 31
0.0
  0
LINE
  5
696D
330
18
100
AcDbEntity
  8
剖面線
100
AcDbLine
 10
50.15602855683841
 20
70.10558967495143
 30
0.0
 11
51.6560285568384
 21
71.60558967495146
 31
0.0
  0
LINE
  5
696E
330
18
100
AcDbEntity
  8
剖面線
100
AcDbLine
 10
52.40109258710567
 20
70.10558967495143
 30
0.0
 11
52.94923583681622
 21
70.65373292466199
 31
0.0
  0
LINE
  5
696F
330
18
100
AcDbEntity
  8
剖面線
100
AcDbLine
 10
49.11019622709466
 20
64.56962928467311
 30
0.0
 11
50.64615661737298
 21
66.10558967495143
 31
0.0
  0
LINE
  5
6970
330
18
100
AcDbEntity
  8
剖面線
100
AcDbLine
 10
50.89122064764024
 20
64.10558967495148
 30
0.0
 11
52.89122064764029
 21
66.10558967495149
 31
0.0
  0
DIMENSION
  5
6C84
330
18
100
AcDbEntity
  8
DIM
100
AcDbDimension
  2
*D7
 10
37.69923583681634
 20
64.85558967495151
 30
0.0
 11
32.35955755756898
 21
59.47090952487982
 31
0.0
 70
   164
  1
2-R1
 71
     5
 42
-1.0
  3
A
100
AcDbRadialDimension
 15
37.17113578722046
 25
64.32303889087849
 35
0.0
 40
0.0
1001
ACAD
1000
DSTYLE
1002
{
1070
   288
1070
     1
1002
}
  0
DIMENSION
  5
6D08
330
18
100
AcDbEntity
  8
DIM
100
AcDbDimension
  2
*D8
 10
70.94965336064399
 20
64.12652801852146
 30
0.0
 11
70.94965336064399
 21
68.11605884673646
 31
0.0
 70
   160
  1
<>%%p0.2
 71
     5
 42
-1.0
  3
A
100
AcDbAlignedDimension
 13
50.44923583681629
 23
72.10558967495146
 33
0.0
 14
52.37521623664424
 24
64.12652801852146
 34
0.0
 50
90.0
100
AcDbRotatedDimension
  0
DIMENSION
  5
6DFE
330
18
100
AcDbEntity
  8
DIM
100
AcDbDimension
  2
*D9
 10
30.24518497707925
 20
105.7017019644711
 30
0.0
 11
30.04339811990383
 21
114.345782787646
 31
0.0
 70
   160
  1
<>      (3等分)
 71
     5
 42
-1.0
  3
A
100
AcDbAlignedDimension
 13
37.09111901406549
 23
108.7017019644711
 33
0.0
 14
37.09111901406544
 24
105.7017019644711
 34
0.0
 50
90.0
100
AcDbRotatedDimension
  0
LINE
  5
6E28
330
18
100
AcDbEntity
  8
DIM
 62
     6
100
AcDbLine
 10
30.24518497707925
 20
111.2017019644711
 30
0.0
 11
30.24518497707925
 21
124.4490075965407
 31
0.0
  0
DIMENSION
  5
6E39
330
18
100
AcDbEntity
  8
DIM
100
AcDbDimension
  2
*D10
 10
37.09111901406544
 20
93.47482910737278
 30
0.0
 11
38.09017742544083
 21
93.47482910737278
 31
0.0
 70
   160
 71
     5
 42
-1.0
  3
A
100
AcDbAlignedDimension
 13
39.08923583681622
 23
105.7017019644711
 33
0.0
 14
37.09111901406544
 24
105.7017019644711
 34
0.0
100
AcDbRotatedDimension
  0
LEADER
  5
6EBB
330
18
100
AcDbEntity
  8
DIM
 62
     6
100
AcDbLeader
  3
A
 73
     0
 74
     0
 75
     1
 40
1.75
 41
5.833333333333333
 76
     3
 10
40.94923583681628
 20
71.48058967495143
 30
0.0
 10
41.83845050843979
 20
74.87201471403898
 30
0.0
 10
43.08845050843979
 20
74.87201471403898
 30
0.0
340
6EBC
  0
MTEXT
  5
6EBC
102
{ACAD_REACTORS
330
6EBB
102
}
330
18
100
AcDbEntity
  8
DIM
 62
     3
100
AcDbMText
 10
44.08845050843979
 20
76.74701471403898
 30
0.0
 40
1.75
 41
0.0
 71
     4
 72
     1
  1
\A1;2-C1
  7
TXT
 73
     1
 44
1.0
  0
LINE
  5
6EBD
330
18
100
AcDbEntity
  8
DIM
 62
     6
100
AcDbLine
 10
41.58923583681621
 20
93.47482910737278
 30
0.0
 11
45.01521425206454
 21
93.47482910737278
 31
0.0
  0
MTEXT
  5
6F21
330
18
100
AcDbEntity
  8
DIM
100
AcDbMText
 10
30.07249152880877
 20
77.60315292403811
 30
0.0
 40
1.75
 41
0.0
 71
     1
 72
     5
  1
{\Ftxt,bigfont|c128;1}
  7
JL
 73
     1
 44
1.0
1001
ACAD
1000
ACAD_MTEXT_DEFINED_HEIGHT_BEGIN
1070
    46
1040
0.0
1000
ACAD_MTEXT_DEFINED_HEIGHT_END
  0
MTEXT
  5
6F22
330
18
100
AcDbEntity
  8
DIM
 62
     3
100
AcDbMText
 10
37.032742556546
 20
76.73290205215415
 30
0.0
 40
1.75
 41
0.0
 71
     5
 72
     1
  1
2-C0.75
  7
TXT
 73
     1
 44
1.0
1001
ACAD
1000
ACAD_MTEXT_DEFINED_HEIGHT_BEGIN
1070
    46
1040
0.0
1000
ACAD_MTEXT_DEFINED_HEIGHT_END
  0
LINE
  5
6F23
330
18
100
AcDbEntity
  8
0
 62
     1
100
AcDbLine
 10
43.51717465983677
 20
77.39083128640641
 30
0.0
 11
50.36141726819232
 21
77.39083128640641
 31
0.0
  0
LINE
  5
6F24
330
18
100
AcDbEntity
  8
0
 62
     1
100
AcDbLine
 10
43.51717465983677
 20
76.11737430982635
 30
0.0
 11
50.36141726819232
 21
76.11737430982635
 31
0.0
  0
REGION
  5
6F25
330
18
100
AcDbEntity
  8
DIM
100
AcDbModelerGeometry
 70
     1
  1
mogoo mm m o          
  1
ni ^ *+0;:,4 ^ *+0\^ [ nh ^ LR iqoqjqhook QK mk K*: P<+ nn nlemmekm monn 
  1
n fqfffffffffffffffj:rooh n:rono 
  1
>,27:>;:- {rn rn _nm mogqoqjqhook |
  1
=0;& {rn rn {rn {m {rn {rn |
  1
3*2/ {rn rn {rn {rn {l {n |
  1
,7:33 {rn rn {rn {rn {rn {k {rn {m |
  1
9><: {rn rn {rn {rn {j {l {rn {i 90-(>-; ;0*=3: 0*+ |
  1
300/ {rn rn {rn {rn {h {k |
  1
/3>1:r,*-9><: {rn rn {rn loqnffkhikkmigomfl hiqkoloikflignigng o o o n n o o 90-(>-;@) V V V V |
  1
<0:;8: {rn rn {rn {g {f {rn {no 90-(>-; {j {rn |
  1
<0:;8: {rn rn {rn {f {h {rn {nn 90-(>-; {j {rn |
  1
<0:;8: {rn rn {rn {h {g {rn {nm -:):-,:; {j {rn |
  1
:;8: {rn rn {rn {nl o {nk mqjfgohimnnljlljjn {h {nj 90-(>-; _h *1410(1 |
  1
:;8: {rn rn {rn {nk o {ni mqjfgohimnnljllhmf {g {nh 90-(>-; _h *1410(1 |
  1
:;8: {rn rn {rn {nl o {ni mqjfgohimnnljlljjn {f {ng 90-(>-; _h *1410(1 |
  1
):-+:' {rn rn {rn {no {nf |
  1
):-+:' {rn rn {rn {no {mo |
  1
,+->687+r<*-): {rn rn {rn loqnffkhikkmigomfl hhqfoloikflignigll o roqjoooooooooooooljj roqgiiomjkolhgkklihn o V V |
  1
):-+:' {rn rn {rn {nn {mn |
  1
,+->687+r<*-): {rn rn {rn mgqfooklgllhoolioh hjqijloikflignigok o n o o V V |
  1
,+->687+r<*-): {rn rn {rn loqnffkhikkmigomfl hhqfoloikflignigll o oqjoooooooooooooljj roqgiiomjkolhgkklihn o V V |
  1
/061+ {rn rn {rn loqnffkhikkmigomfl hhqfoloikflignigll o |
  1
/061+ {rn rn {rn mgqfooklgllhoolioh hjqijloikflignigok o |
  1
/061+ {rn rn {rn lnqkfgjnkjkgljifg hjqijloikflignigok o |
  0
MTEXT
  5
6F38
330
18
100
AcDbEntity
  8
DIM
100
AcDbMText
 10
5.445027907996745
 20
21.02213678846988
 30
0.0
 40
2.25
 41
0.0
 71
     1
 72
     5
  1
{\Ftxt,bigfont|c128;06.04.25外形寸法を変更する}
  7
JL
 73
     1
 44
1.0
1001
ACAD
1000
ACAD_MTEXT_DEFINED_HEIGHT_BEGIN
1070
    46
1040
0.0
1000
ACAD_MTEXT_DEFINED_HEIGHT_END
  0
MTEXT
  5
6F39
330
18
100
AcDbEntity
  8
DIM
100
AcDbMText
 10
25.74636127118947
 20
20.96523602918245
 30
0.0
 40
2.25
 41
0.0
 71
     1
 72
     5
  1
{\Ftxt,bigfont|c128;謝}
  7
JL
 73
     1
 44
1.0
1001
ACAD
1000
ACAD_MTEXT_DEFINED_HEIGHT_BEGIN
1070
    46
1040
0.0
1000
ACAD_MTEXT_DEFINED_HEIGHT_END
  0
CIRCLE
  5
6F3A
330
18
100
AcDbEntity
  8
DIM
100
AcDbCircle
 10
26.23490182789078
 20
19.79091189681657
 30
0.0
 40
1.42601098075263
  0
MTEXT
  5
6F3B
330
18
100
AcDbEntity
  8
DIM
100
AcDbMText
 10
3.372086711859083
 20
20.76790211675734
 30
0.0
 40
1.75
 41
0.0
 71
     1
 72
     5
  1
{\Ftxt,bigfont|c128;1}
  7
JL
 73
     1
 44
1.0
1001
ACAD
1000
ACAD_MTEXT_DEFINED_HEIGHT_BEGIN
1070
    46
1040
0.0
1000
ACAD_MTEXT_DEFINED_HEIGHT_END
  0
REGION
  5
6F3C
330
18
100
AcDbEntity
  8
DIM
100
AcDbModelerGeometry
 70
     1
  1
mogoo mm m o          
  1
ni ^ *+0;:,4 ^ *+0\^ [ nh ^ LR iqoqjqhook QK mk K*: P<+ nn nlemmekm monn 
  1
n fqfffffffffffffffj:rooh n:rono 
  1
>,27:>;:- {rn rn _nm mogqoqjqhook |
  1
=0;& {rn rn {rn {m {rn {rn |
  1
3*2/ {rn rn {rn {rn {l {n |
  1
,7:33 {rn rn {rn {rn {rn {k {rn {m |
  1
9><: {rn rn {rn {rn {j {l {rn {i 90-(>-; ;0*=3: 0*+ |
  1
300/ {rn rn {rn {rn {h {k |
  1
/3>1:r,*-9><: {rn rn {rn lqkffohnimjhloiohi nfqjihgnknmfjlioki o o o n n o o 90-(>-;@) V V V V |
  1
<0:;8: {rn rn {rn {g {f {rn {no 90-(>-; {j {rn |
  1
<0:;8: {rn rn {rn {f {h {rn {nn 90-(>-; {j {rn |
  1
<0:;8: {rn rn {rn {h {g {rn {nm -:):-,:; {j {rn |
  1
:;8: {rn rn {rn {nl o {nk mqjfgohimnnljlljjn {h {nj 90-(>-; _h *1410(1 |
  1
:;8: {rn rn {rn {nk o {ni mqjfgohimnnljllhmf {g {nh 90-(>-; _h *1410(1 |
  1
:;8: {rn rn {rn {nl o {ni mqjfgohimnnljlljjn {f {ng 90-(>-; _h *1410(1 |
  1
):-+:' {rn rn {rn {no {nf |
  1
):-+:' {rn rn {rn {no {mo |
  1
,+->687+r<*-): {rn rn {rn lqkffohnimjhloiohi mnqoihgnknmfjlioi o roqjoooooooooooooljj roqgiiomjkolhgkklihn o V V |
  1
):-+:' {rn rn {rn {nn {mn |
  1
,+->687+r<*-): {rn rn {rn mqmooolljmoojlfmnm ngqgnhgnknmfjliolm o n o o V V |
  1
,+->687+r<*-): {rn rn {rn lqkffohnimjhloiohi mnqoihgnknmfjlioi o oqjoooooooooooooljj roqgiiomjkolhgkklihn o V V |
  1
/061+ {rn rn {rn lqkffohnimjhloiohi mnqoihgnknmfjlioi o |
  1
/061+ {rn rn {rn mqmooolljmoojlfmnm ngqgnhgnknmfjliolm o |
  1
/061+ {rn rn {rn kqhfgnofhlnkohmfk ngqgnhgnknmfjliolm o |
  0
MTEXT
  5
6F57
330
18
100
AcDbEntity
  8
DIM
100
AcDbMText
 10
93.18056159111018
 20
2.78331503393116
 30
0.0
 40
1.75
 41
0.0
 71
     1
 72
     5
  1
{\Ftxt,bigfont|c128;1}
  7
JL
 73
     1
 44
1.0
1001
ACAD
1000
ACAD_MTEXT_DEFINED_HEIGHT_BEGIN
1070
    46
1040
0.0
1000
ACAD_MTEXT_DEFINED_HEIGHT_END
  0
REGION
  5
6F58
330
18
100
AcDbEntity
  8
DIM
100
AcDbModelerGeometry
 70
     1
  1
mogoo mm m o          
  1
ni ^ *+0;:,4 ^ *+0\^ [ nh ^ LR iqoqjqhook QK mk K*: P<+ nn nlemmekm monn 
  1
n fqfffffffffffffffj:rooh n:rono 
  1
>,27:>;:- {rn rn _nm mogqoqjqhook |
  1
=0;& {rn rn {rn {m {rn {rn |
  1
3*2/ {rn rn {rn {rn {l {n |
  1
,7:33 {rn rn {rn {rn {rn {k {rn {m |
  1
9><: {rn rn {rn {rn {j {l {rn {i 90-(>-; ;0*=3: 0*+ |
  1
300/ {rn rn {rn {rn {h {k |
  1
/3>1:r,*-9><: {rn rn {rn flqlohjkijokfgnhon nqjglmmhokihofgijm o o o n n o o 90-(>-;@) V V V V |
  1
<0:;8: {rn rn {rn {g {f {rn {no 90-(>-; {j {rn |
  1
<0:;8: {rn rn {rn {f {h {rn {nn 90-(>-; {j {rn |
  1
<0:;8: {rn rn {rn {h {g {rn {nm -:):-,:; {j {rn |
  1
:;8: {rn rn {rn {nl o {nk mqjfgohimnnljlljjn {h {nj 90-(>-; _h *1410(1 |
  1
:;8: {rn rn {rn {nk o {ni mqjfgohimnnljllhmf {g {nh 90-(>-; _h *1410(1 |
  1
:;8: {rn rn {rn {nl o {ni mqjfgohimnnljlljjn {f {ng 90-(>-; _h *1410(1 |
  1
):-+:' {rn rn {rn {no {nf |
  1
):-+:' {rn rn {rn {no {mo |
  1
,+->687+r<*-): {rn rn {rn flqlohjkijokfgnhon lqoglmmhokihofghfj o roqjoooooooooooooljj roqgiiomjkolhgkklihn o V V |
  1
):-+:' {rn rn {rn {nn {mn |
  1
,+->687+r<*-): {rn rn {rn fmqoogjoglfflojonj oqgllmmhokihofgjnok o n o o V V |
  1
,+->687+r<*-): {rn rn {rn flqlohjkijokfgnhon lqoglmmhokihofghfj o oqjoooooooooooooljj roqgiiomjkolhgkklihn o V V |
  1
/061+ {rn rn {rn flqlohjkijokfgnhon lqoglmmhokihofghfj o |
  1
/061+ {rn rn {rn fmqoogjoglfflojonj oqgllmmhokihofgjnok o |
  1
/061+ {rn rn {rn fkqioijgkinoijglgg oqgllmmhokihofgjnok o |
  0
MTEXT
  5
6F59
330
18
100
AcDbEntity
  8
0
100
AcDbMText
 10
24.90974139474884
 20
9.686999171581305
 30
0.0
 40
2.5
 41
0.0
 71
     1
 72
     5
  1
{\Ftxt,bigfont|c128;小\~柳}
  7
JL
 73
     1
 44
1.0
1001
ACAD
1000
ACAD_MTEXT_DEFINED_HEIGHT_BEGIN
1070
    46
1040
0.0
1000
ACAD_MTEXT_DEFINED_HEIGHT_END
  0
ENDSEC
  0
SECTION
  2
OBJECTS
  0
DICTIONARY
  5
C
330
0
100
AcDbDictionary
281
     1
  3
ACAD_COLOR
350
6EFD
  3
ACAD_GROUP
350
D
  3
ACAD_LAYOUT
350
5CF3
  3
ACAD_MATERIAL
350
6EFC
  3
ACAD_MLINESTYLE
350
1B
  3
ACAD_PLOTSETTINGS
350
5CF4
  3
ACAD_PLOTSTYLENAME
350
5CF1
  3
ACAD_TABLESTYLE
350
6EFE
  3
ACDBVARIABLEDICTIONARY
350
45D
  0
DICTIONARY
  5
45F
330
18
100
AcDbDictionary
280
     1
281
     1
  3
ACAD_LAYOUTSELFREF
360
5D8B
  3
ACAD_SORTENTS
360
460
  0
DICTIONARY
  5
5D89
330
15
100
AcDbDictionary
280
     1
281
     1
  3
ACAD_LAYOUTSELFREF
360
5D8A
  0
DICTIONARY
  5
6F11
330
6F0B
100
AcDbDictionary
280
     1
281
     1
  3
ACAD_SORTENTS
360
6F12
  0
DICTIONARY
  5
6EFD
102
{ACAD_REACTORS
330
C
102
}
330
C
100
AcDbDictionary
281
     1
  0
DICTIONARY
  5
D
102
{ACAD_REACTORS
330
C
102
}
330
C
100
AcDbDictionary
281
     1
  0
DICTIONARY
  5
5CF3
102
{ACAD_REACTORS
330
C
102
}
330
C
100
AcDbDictionary
281
     1
  3
Model
350
5CF5
  3
配置1
350
5CF6
  0
DICTIONARY
  5
6EFC
102
{ACAD_REACTORS
330
C
102
}
330
C
100
AcDbDictionary
281
     1
  0
DICTIONARY
  5
1B
102
{ACAD_REACTORS
330
C
102
}
330
C
100
AcDbDictionary
281
     1
  3
STANDARD
350
1C
  0
DICTIONARY
  5
5CF4
102
{ACAD_REACTORS
330
C
102
}
330
C
100
AcDbDictionary
281
     1
  0
ACDBDICTIONARYWDFLT
  5
5CF1
102
{ACAD_REACTORS
330
C
102
}
330
C
100
AcDbDictionary
281
     1
  3
Normal
350
5CF2
100
AcDbDictionaryWithDefault
340
5CF2
  0
DICTIONARY
  5
6EFE
102
{ACAD_REACTORS
330
C
102
}
330
C
100
AcDbDictionary
281
     1
  3
Standard
350
6EFF
  0
DICTIONARY
  5
45D
102
{ACAD_REACTORS
330
C
102
}
330
C
100
AcDbDictionary
281
     1
  3
CTABLESTYLE
350
6F41
  3
SORTENTS
350
45E
  0
XRECORD
  5
5D8B
102
{ACAD_REACTORS
330
45F
102
}
330
45F
100
AcDbXrecord
280
     1
340
18
  0
SORTENTSTABLE
  5
460
102
{ACAD_REACTORS
330
45F
102
}
330
45F
100
AcDbSortentsTable
330
18
331
C0
  5
CB
  0
XRECORD
  5
5D8A
102
{ACAD_REACTORS
330
5D89
102
}
330
5D89
100
AcDbXrecord
280
     1
340
15
  0
SORTENTSTABLE
  5
6F12
102
{ACAD_REACTORS
330
6F11
102
}
330
6F11
100
AcDbSortentsTable
330
6F0B
  0
LAYOUT
  5
5CF5
102
{ACAD_REACTORS
330
5CF3
102
}
330
5CF3
100
AcDbPlotSettings
  1

  2
EPSON STYLUS COLOR 440
  4

  6

 40
0.0
 41
0.0
 42
0.0
 43
0.0
 44
0.0
 45
0.0
 46
0.0
 47
0.0
 48
0.0
 49
0.0
140
0.0
141
0.0
142
1.0
143
1.0
 70
  1712
 72
     0
 73
     0
 74
     0
  7
a.ctb
 75
     0
147
1.0
 76
     0
 77
     2
 78
   300
148
0.0
149
0.0
100
AcDbLayout
  1
Model
 70
     1
 71
     0
 10
0.0
 20
0.0
 11
12.0
 21
9.0
 12
0.0
 22
0.0
 32
0.0
 14
0.0
 24
0.0
 34
0.0
 15
0.0
 25
0.0
 35
0.0
146
0.0
 13
0.0
 23
0.0
 33
0.0
 16
1.0
 26
0.0
 36
0.0
 17
0.0
 27
1.0
 37
0.0
 76
     0
330
18
  0
LAYOUT
  5
5CF6
102
{ACAD_REACTORS
330
5CF3
102
}
330
5CF3
100
AcDbPlotSettings
  1

  2
EPSON STYLUS COLOR 440
  4

  6

 40
0.0
 41
0.0
 42
0.0
 43
0.0
 44
0.0
 45
0.0
 46
0.0
 47
0.0
 48
0.0
 49
0.0
140
0.0
141
0.0
142
1.0
143
1.0
 70
   688
 72
     0
 73
     0
 74
     5
  7
a.ctb
 75
    16
147
1.0
 76
     0
 77
     2
 78
   300
148
0.0
149
0.0
100
AcDbLayout
  1
ｰtｸm1
 70
     1
 71
     1
 10
0.0
 20
0.0
 11
420.0
 21
297.0
 12
0.0
 22
0.0
 32
0.0
 14
1.000000000000000E+20
 24
1.000000000000000E+20
 34
1.000000000000000E+20
 15
-1.000000000000000E+20
 25
-1.000000000000000E+20
 35
-1.000000000000000E+20
146
0.0
 13
0.0
 23
0.0
 33
0.0
 16
1.0
 26
0.0
 36
0.0
 17
0.0
 27
1.0
 37
0.0
 76
     0
330
15
  0
MLINESTYLE
  5
1C
102
{ACAD_REACTORS
330
1B
102
}
330
1B
100
AcDbMlineStyle
  2
STANDARD
 70
     0
  3

 62
   256
 51
90.0
 52
90.0
 71
     2
 49
0.5
 62
   256
  6
BYLAYER
 49
-0.5
 62
   256
  6
BYLAYER
  0
ACDBPLACEHOLDER
  5
5CF2
102
{ACAD_REACTORS
330
5CF1
102
}
330
5CF1
  0
TABLESTYLE
  5
6EFF
102
{ACAD_REACTORS
330
6EFE
102
}
330
6EFE
100
AcDbTableStyle
  3
Standard
 70
     0
 71
     8
 40
1.5
 41
1.5
280
     0
281
     0
  7
STANDARD
140
4.5
170
     2
 62
     0
 63
     7
283
     0
274
    -2
284
     1
 64
     0
275
    -2
285
     1
 65
     0
276
    -2
286
     1
 66
     0
277
    -2
287
     1
 67
     0
278
    -2
288
     1
 68
     0
279
    -2
289
     1
 69
     0
  7
STANDARD
140
6.0
170
     5
 62
     0
 63
     7
283
     0
274
    -2
284
     1
 64
     0
275
    -2
285
     1
 65
     0
276
    -2
286
     1
 66
     0
277
    -2
287
     1
 67
     0
278
    -2
288
     1
 68
     0
279
    -2
289
     1
 69
     0
  7
STANDARD
140
4.5
170
     5
 62
     0
 63
     7
283
     0
274
    -2
284
     1
 64
     0
275
    -2
285
     1
 65
     0
276
    -2
286
     1
 66
     0
277
    -2
287
     1
 67
     0
278
    -2
288
     1
 68
     0
279
    -2
289
     1
 69
     0
  0
DICTIONARYVAR
  5
6F41
102
{ACAD_REACTORS
330
45D
102
}
330
45D
100
DictionaryVariables
280
     0
  1
STANDARD
  0
DICTIONARYVAR
  5
45E
102
{ACAD_REACTORS
330
45D
102
}
330
45D
100
DictionaryVariables
280
     0
  1
127
  0
ENDSEC
  0
EOF
