  0
SECTION
  2
HEADER
  9
$ACADVER
  1
AC1018
  9
$ACADMAINTVER
 70
    76
  9
$DWGCODEPAGE
  3
ANSI_932
  9
$INSBASE
 10
0.0
 20
0.0
 30
0.0
  9
$EXTMIN
 10
0.0
 20
0.0
 30
0.0
  9
$EXTMAX
 10
190.0
 20
280.0
 30
3.838383838383842
  9
$LIMMIN
 10
0.0
 20
0.0
  9
$LIMMAX
 10
420.0
 20
297.0
  9
$ORTHOMODE
 70
     1
  9
$REGENMODE
 70
     1
  9
$FILLMODE
 70
     1
  9
$QTEXTMODE
 70
     0
  9
$MIRRTEXT
 70
     1
  9
$LTSCALE
 40
1.0
  9
$ATTMODE
 70
     1
  9
$TEXTSIZE
 40
2.5
  9
$TRACEWID
 40
1.0
  9
$TEXTSTYLE
  7
TXT
  9
$CLAYER
  8
0
  9
$CELTYPE
  6
BYLAYER
  9
$CECOLOR
 62
   256
  9
$CELTSCALE
 40
1.0
  9
$DISPSILH
 70
     0
  9
$DIMSCALE
 40
1.0
  9
$DIMASZ
 40
2.5
  9
$DIMEXO
 40
0.8
  9
$DIMDLI
 40
0.38
  9
$DIMRND
 40
0.0
  9
$DIMDLE
 40
0.0
  9
$DIMEXE
 40
0.8
  9
$DIMTP
 40
0.0
  9
$DIMTM
 40
0.0
  9
$DIMTXT
 40
2.5
  9
$DIMCEN
 40
0.09
  9
$DIMTSZ
 40
0.0
  9
$DIMTOL
 70
     0
  9
$DIMLIM
 70
     0
  9
$DIMTIH
 70
     0
  9
$DIMTOH
 70
     0
  9
$DIMSE1
 70
     0
  9
$DIMSE2
 70
     0
  9
$DIMTAD
 70
     3
  9
$DIMZIN
 70
     8
  9
$DIMBLK
  1
Open30
  9
$DIMASO
 70
     1
  9
$DIMSHO
 70
     1
  9
$DIMPOST
  1

  9
$DIMAPOST
  1

  9
$DIMALT
 70
     0
  9
$DIMALTD
 70
     2
  9
$DIMALTF
 40
25.4
  9
$DIMLFAC
 40
1.0
  9
$DIMTOFL
 70
     1
  9
$DIMTVP
 40
0.0
  9
$DIMTIX
 70
     0
  9
$DIMSOXD
 70
     0
  9
$DIMSAH
 70
     0
  9
$DIMBLK1
  1

  9
$DIMBLK2
  1

  9
$DIMSTYLE
  2
STANDARD
  9
$DIMCLRD
 70
   256
  9
$DIMCLRE
 70
   256
  9
$DIMCLRT
 70
     3
  9
$DIMTFAC
 40
1.0
  9
$DIMGAP
 40
0.8
  9
$DIMJUST
 70
     0
  9
$DIMSD1
 70
     0
  9
$DIMSD2
 70
     0
  9
$DIMTOLJ
 70
     1
  9
$DIMTZIN
 70
     0
  9
$DIMALTZ
 70
     0
  9
$DIMALTTZ
 70
     0
  9
$DIMUPT
 70
     0
  9
$DIMDEC
 70
     2
  9
$DIMTDEC
 70
     2
  9
$DIMALTU
 70
     2
  9
$DIMALTTD
 70
     2
  9
$DIMTXSTY
  7
STANDARD
  9
$DIMAUNIT
 70
     0
  9
$DIMADEC
 70
     2
  9
$DIMALTRND
 40
0.0
  9
$DIMAZIN
 70
     2
  9
$DIMDSEP
 70
    46
  9
$DIMATFIT
 70
     3
  9
$DIMFRAC
 70
     0
  9
$DIMLDRBLK
  1
Open30
  9
$DIMLUNIT
 70
     2
  9
$DIMLWD
 70
    -2
  9
$DIMLWE
 70
    -2
  9
$DIMTMOVE
 70
     0
  9
$LUNITS
 70
     2
  9
$LUPREC
 70
     2
  9
$SKETCHINC
 40
1.0
  9
$FILLETRAD
 40
1.5
  9
$AUNITS
 70
     0
  9
$AUPREC
 70
     2
  9
$MENU
  1
.
  9
$ELEVATION
 40
0.0
  9
$PELEVATION
 40
0.0
  9
$THICKNESS
 40
0.0
  9
$LIMCHECK
 70
     0
  9
$CHAMFERA
 40
1.5
  9
$CHAMFERB
 40
1.5
  9
$CHAMFERC
 40
1.75
  9
$CHAMFERD
 40
0.0174532925199433
  9
$SKPOLY
 70
     0
  9
$TDCREATE
 40
2451555.620234838
  9
$TDUCREATE
 40
2451555.245234838
  9
$TDUPDATE
 40
2455846.568820984
  9
$TDUUPDATE
 40
2455846.193820984
  9
$TDINDWG
 40
2.2724236227
  9
$TDUSRTIMER
 40
2.2724236227
  9
$USRTIMER
 70
     1
  9
$ANGBASE
 50
0.0
  9
$ANGDIR
 70
     0
  9
$PDMODE
 70
     0
  9
$PDSIZE
 40
0.0
  9
$PLINEWID
 40
0.0
  9
$SPLFRAME
 70
     0
  9
$SPLINETYPE
 70
     6
  9
$SPLINESEGS
 70
     8
  9
$HANDSEED
  5
9476
  9
$SURFTAB1
 70
     6
  9
$SURFTAB2
 70
     6
  9
$SURFTYPE
 70
     6
  9
$SURFU
 70
     6
  9
$SURFV
 70
     6
  9
$UCSBASE
  2

  9
$UCSNAME
  2

  9
$UCSORG
 10
0.0
 20
0.0
 30
0.0
  9
$UCSXDIR
 10
1.0
 20
0.0
 30
0.0
  9
$UCSYDIR
 10
0.0
 20
1.0
 30
0.0
  9
$UCSORTHOREF
  2

  9
$UCSORTHOVIEW
 70
     0
  9
$UCSORGTOP
 10
0.0
 20
0.0
 30
0.0
  9
$UCSORGBOTTOM
 10
0.0
 20
0.0
 30
0.0
  9
$UCSORGLEFT
 10
0.0
 20
0.0
 30
0.0
  9
$UCSORGRIGHT
 10
0.0
 20
0.0
 30
0.0
  9
$UCSORGFRONT
 10
0.0
 20
0.0
 30
0.0
  9
$UCSORGBACK
 10
0.0
 20
0.0
 30
0.0
  9
$PUCSBASE
  2

  9
$PUCSNAME
  2

  9
$PUCSORG
 10
0.0
 20
0.0
 30
0.0
  9
$PUCSXDIR
 10
1.0
 20
0.0
 30
0.0
  9
$PUCSYDIR
 10
0.0
 20
1.0
 30
0.0
  9
$PUCSORTHOREF
  2

  9
$PUCSORTHOVIEW
 70
     0
  9
$PUCSORGTOP
 10
0.0
 20
0.0
 30
0.0
  9
$PUCSORGBOTTOM
 10
0.0
 20
0.0
 30
0.0
  9
$PUCSORGLEFT
 10
0.0
 20
0.0
 30
0.0
  9
$PUCSORGRIGHT
 10
0.0
 20
0.0
 30
0.0
  9
$PUCSORGFRONT
 10
0.0
 20
0.0
 30
0.0
  9
$PUCSORGBACK
 10
0.0
 20
0.0
 30
0.0
  9
$USERI1
 70
     0
  9
$USERI2
 70
     0
  9
$USERI3
 70
     0
  9
$USERI4
 70
     0
  9
$USERI5
 70
     0
  9
$USERR1
 40
0.0
  9
$USERR2
 40
0.0
  9
$USERR3
 40
0.0
  9
$USERR4
 40
0.0
  9
$USERR5
 40
0.0
  9
$WORLDVIEW
 70
     1
  9
$SHADEDGE
 70
     3
  9
$SHADEDIF
 70
    70
  9
$TILEMODE
 70
     1
  9
$MAXACTVP
 70
    48
  9
$PINSBASE
 10
0.0
 20
0.0
 30
0.0
  9
$PLIMCHECK
 70
     0
  9
$PEXTMIN
 10
1.000000000000000E+20
 20
1.000000000000000E+20
 30
1.000000000000000E+20
  9
$PEXTMAX
 10
-1.000000000000000E+20
 20
-1.000000000000000E+20
 30
-1.000000000000000E+20
  9
$PLIMMIN
 10
0.0
 20
0.0
  9
$PLIMMAX
 10
420.0
 20
297.0
  9
$UNITMODE
 70
     0
  9
$VISRETAIN
 70
     1
  9
$PLINEGEN
 70
     0
  9
$PSLTSCALE
 70
     1
  9
$TREEDEPTH
 70
  3020
  9
$CMLSTYLE
  2
STANDARD
  9
$CMLJUST
 70
     0
  9
$CMLSCALE
 40
20.0
  9
$PROXYGRAPHICS
 70
     1
  9
$MEASUREMENT
 70
     1
  9
$CELWEIGHT
370
    -1
  9
$ENDCAPS
280
     0
  9
$JOINSTYLE
280
     0
  9
$LWDISPLAY
290
     0
  9
$INSUNITS
 70
     0
  9
$HYPERLINKBASE
  1

  9
$STYLESHEET
  1
monochrome.ctb
  9
$XEDIT
290
     1
  9
$CEPSNTYPE
380
     0
  9
$PSTYLEMODE
290
     1
  9
$FINGERPRINTGUID
  2
{1CF51E8A-A506-11D4-A7D9-AF69F5C20846}
  9
$VERSIONGUID
  2
{00626B59-F035-40CE-9020-745836F03693}
  9
$EXTNAMES
290
     1
  9
$PSVPSCALE
 40
0.0
  9
$OLESTARTUP
290
     0
  9
$SORTENTS
280
   127
  9
$INDEXCTL
280
     0
  9
$HIDETEXT
280
     0
  9
$XCLIPFRAME
290
     0
  9
$HALOGAP
280
     0
  9
$OBSCOLOR
 70
   257
  9
$OBSLTYPE
280
     0
  9
$INTERSECTIONDISPLAY
280
     0
  9
$INTERSECTIONCOLOR
 70
   257
  9
$DIMASSOC
280
     1
  9
$PROJECTNAME
  1

  0
ENDSEC
  0
SECTION
  2
CLASSES
  0
CLASS
  1
DICTIONARYVAR
  2
AcDbDictionaryVar
  3
ObjectDBX Classes
 90
        0
 91
        2
280
     0
281
     0
  0
CLASS
  1
SORTENTSTABLE
  2
AcDbSortentsTable
  3
ObjectDBX Classes
 90
        0
 91
        1
280
     0
281
     0
  0
CLASS
  1
ACDBDICTIONARYWDFLT
  2
AcDbDictionaryWithDefault
  3
ObjectDBX Classes
 90
        0
 91
        1
280
     0
281
     0
  0
CLASS
  1
TABLESTYLE
  2
AcDbTableStyle
  3
ObjectDBX Classes
 90
     2047
 91
        1
280
     0
281
     0
  0
ENDSEC
  0
SECTION
  2
TABLES
  0
TABLE
  2
VPORT
  5
8
330
0
100
AcDbSymbolTable
 70
     2
  0
VPORT
  5
9475
330
8
100
AcDbSymbolTableRecord
100
AcDbViewportTableRecord
  2
*Active
 70
     0
 10
0.0
 20
0.0
 11
1.0
 21
1.0
 12
233.4327211288169
 22
141.8350418709973
 13
0.0
 23
0.0
 14
10.0
 24
10.0
 15
10.0
 25
10.0
 16
0.0
 26
0.0
 36
1.0
 17
0.0
 27
0.0
 37
0.0
 40
315.7948332006956
 41
2.47104247104247
 42
50.0
 43
0.0
 44
0.0
 50
0.0
 51
0.0
 71
     0
 72
 20000
 73
     1
 74
     1
 75
     0
 76
     0
 77
     0
 78
     0
281
     0
 65
     1
110
0.0
120
0.0
130
0.0
111
1.0
121
0.0
131
0.0
112
0.0
122
1.0
132
0.0
 79
     0
146
0.0
  0
ENDTAB
  0
TABLE
  2
LTYPE
  5
5
330
0
100
AcDbSymbolTable
 70
     7
  0
LTYPE
  5
12
330
5
100
AcDbSymbolTableRecord
100
AcDbLinetypeTableRecord
  2
BYBLOCK
 70
     0
  3

 72
    65
 73
     0
 40
0.0
  0
LTYPE
  5
13
330
5
100
AcDbSymbolTableRecord
100
AcDbLinetypeTableRecord
  2
BYLAYER
 70
     0
  3

 72
    65
 73
     0
 40
0.0
  0
LTYPE
  5
14
330
5
100
AcDbSymbolTableRecord
100
AcDbLinetypeTableRecord
  2
CONTINUOUS
 70
     0
  3
Solid line
 72
    65
 73
     0
 40
0.0
  0
LTYPE
  5
9D
330
5
100
AcDbSymbolTableRecord
100
AcDbLinetypeTableRecord
  2
CENTERX2
 70
     0
  3
Center (2x) ________  __  ________  __  _____
 72
    65
 73
     4
 40
101.6
 49
63.5
 74
     0
 49
-12.7
 74
     0
 49
12.7
 74
     0
 49
-12.7
 74
     0
  0
LTYPE
  5
A1
330
5
100
AcDbSymbolTableRecord
100
AcDbLinetypeTableRecord
  2
DASHED
 70
     0
  3
Dashed __ __ __ __ __ __ __ __ __ __ __ __ __ _
 72
    65
 73
     2
 40
19.05
 49
12.7
 74
     0
 49
-6.349999999999999
 74
     0
  0
LTYPE
  5
A2
330
5
100
AcDbSymbolTableRecord
100
AcDbLinetypeTableRecord
  2
DASHED2
 70
     0
  3
Dashed (.5x) _ _ _ _ _ _ _ _ _ _ _ _ _ _ _ _ _
 72
    65
 73
     2
 40
9.524999999999998
 49
6.349999999999999
 74
     0
 49
-3.174999999999999
 74
     0
  0
LTYPE
  5
A5
330
5
100
AcDbSymbolTableRecord
100
AcDbLinetypeTableRecord
  2
DIVIDE2
 70
     0
  3
Divide (.5x) __..__..__..__..__..__..__..__.._
 72
    65
 73
     6
 40
15.875
 49
6.349999999999999
 74
     0
 49
-3.174999999999999
 74
     0
 49
0.0
 74
     0
 49
-3.174999999999999
 74
     0
 49
0.0
 74
     0
 49
-3.174999999999999
 74
     0
  0
LTYPE
  5
650B
330
5
100
AcDbSymbolTableRecord
100
AcDbLinetypeTableRecord
  2
CENTER
 70
     0
  3
Center ____ _ ____ _ ____ _ ____ _ ____ _ ____
 72
    65
 73
     4
 40
50.8
 49
31.75
 74
     0
 49
-6.349999999999999
 74
     0
 49
6.349999999999999
 74
     0
 49
-6.349999999999999
 74
     0
  0
LTYPE
  5
650C
330
5
100
AcDbSymbolTableRecord
100
AcDbLinetypeTableRecord
  2
HIDDEN
 70
     0
  3
Hidden __ __ __ __ __ __ __ __ __ __ __ __ __ _
 72
    65
 73
     2
 40
9.524999999999998
 49
6.349999999999999
 74
     0
 49
-3.174999999999999
 74
     0
  0
ENDTAB
  0
TABLE
  2
LAYER
  5
2
102
{ACAD_XDICTIONARY
360
759A
102
}
330
0
100
AcDbSymbolTable
 70
     9
  0
LAYER
  5
E
330
2
100
AcDbSymbolTableRecord
100
AcDbLayerTableRecord
  2
0
 70
     0
 62
     7
  6
CONTINUOUS
370
    -3
390
5CF2
  0
LAYER
  5
B9
330
2
100
AcDbSymbolTableRecord
100
AcDbLayerTableRecord
  2
dim
 70
     0
 62
     3
  6
CONTINUOUS
370
    -3
390
5CF2
  0
LAYER
  5
F2
330
2
100
AcDbSymbolTableRecord
100
AcDbLayerTableRecord
  2
DEFPOINTS
 70
     0
 62
     4
  6
CONTINUOUS
290
     0
370
    -3
390
5CF2
  0
LAYER
  5
5F8B
330
2
100
AcDbSymbolTableRecord
100
AcDbLayerTableRecord
  2
mark
 70
     0
 62
     6
  6
CONTINUOUS
370
    -3
390
5CF2
  0
LAYER
  5
644E
330
2
100
AcDbSymbolTableRecord
100
AcDbLayerTableRecord
  2
frame
 70
     0
 62
     9
  6
CONTINUOUS
370
    -3
390
5CF2
  0
LAYER
  5
650D
330
2
100
AcDbSymbolTableRecord
100
AcDbLayerTableRecord
  2
center
 70
     0
 62
     1
  6
CENTER
370
    -3
390
5CF2
  0
LAYER
  5
650E
330
2
100
AcDbSymbolTableRecord
100
AcDbLayerTableRecord
  2
bowle
 70
     0
 62
     4
  6
HIDDEN
370
    -3
390
5CF2
  0
LAYER
  5
650F
330
2
100
AcDbSymbolTableRecord
100
AcDbLayerTableRecord
  2
contour
 70
     0
 62
     2
  6
CONTINUOUS
370
    -3
390
5CF2
  0
LAYER
  5
6510
330
2
100
AcDbSymbolTableRecord
100
AcDbLayerTableRecord
  2
section
 70
     0
 62
     5
  6
CONTINUOUS
370
    -3
390
5CF2
  0
ENDTAB
  0
TABLE
  2
STYLE
  5
3
330
0
100
AcDbSymbolTable
 70
     5
  0
STYLE
  5
F
330
3
100
AcDbSymbolTableRecord
100
AcDbTextStyleTableRecord
  2
STANDARD
 70
     0
 40
0.0
 41
1.0
 50
0.0
 71
     0
 42
2.5
  3
txt
  4

  0
STYLE
  5
BE
330
3
100
AcDbSymbolTableRecord
100
AcDbTextStyleTableRecord
  2
ISOCP3
 70
     0
 40
0.0
 41
1.0
 50
0.0
 71
     0
 42
2.5
  3
isocp3.shx
  4

  0
STYLE
  5
2A37
330
3
100
AcDbSymbolTableRecord
100
AcDbTextStyleTableRecord
  2
TXT
 70
     0
 40
0.0
 41
1.0
 50
0.0
 71
     0
 42
2.5
  3
txt.shx
  4
bigfont.shx
  0
STYLE
  5
5DCB
330
3
100
AcDbSymbolTableRecord
100
AcDbTextStyleTableRecord
  2
LKK
 70
     0
 40
50.0
 41
1.5
 50
0.0
 71
     0
 42
50.0
  3
MS PGothic.ttf
  4

1001
ACAD
1000
MS PGothic
1071
    32818
  0
STYLE
  5
5DCC
330
3
100
AcDbSymbolTableRecord
100
AcDbTextStyleTableRecord
  2
JL
 70
     0
 40
10.0
 41
0.5
 50
0.0
 71
     0
 42
5.0
  3
MS Mincho.ttf
  4

1001
ACAD
1000
MS Mincho
1071
    32785
  0
ENDTAB
  0
TABLE
  2
VIEW
  5
6
330
0
100
AcDbSymbolTable
 70
     0
  0
ENDTAB
  0
TABLE
  2
UCS
  5
7
330
0
100
AcDbSymbolTable
 70
     0
  0
ENDTAB
  0
TABLE
  2
APPID
  5
9
330
0
100
AcDbSymbolTable
 70
    11
  0
APPID
  5
10
330
9
100
AcDbSymbolTableRecord
100
AcDbRegAppTableRecord
  2
ACAD
 70
     0
  0
APPID
  5
7773
330
9
100
AcDbSymbolTableRecord
100
AcDbRegAppTableRecord
  2
ACAD_DSTYLE_DIMEXT_LENGTH
 70
     0
  0
APPID
  5
7774
330
9
100
AcDbSymbolTableRecord
100
AcDbRegAppTableRecord
  2
ACAD_DSTYLE_DIMEXT_ENABLED
 70
     0
  0
APPID
  5
7775
330
9
100
AcDbSymbolTableRecord
100
AcDbRegAppTableRecord
  2
ACAD_DSTYLE_DIMJOGGED_JOGANGLE_SYMBOL
 70
     0
  0
APPID
  5
7776
330
9
100
AcDbSymbolTableRecord
100
AcDbRegAppTableRecord
  2
ACAD_DSTYLE_DIMARC_LENGTH_SYMBOL
 70
     0
  0
APPID
  5
7A26
330
9
100
AcDbSymbolTableRecord
100
AcDbRegAppTableRecord
  2
ACAD_EXEMPT_FROM_CAD_STANDARDS
 70
     0
  0
APPID
  5
7A4C
330
9
100
AcDbSymbolTableRecord
100
AcDbRegAppTableRecord
  2
ACAD_DSTYLE_DIMTEXT_FILL
 70
     0
  0
APPID
  5
7A4F
330
9
100
AcDbSymbolTableRecord
100
AcDbRegAppTableRecord
  2
ACAD_DSTYLE_DIM_LINETYPE
 70
     0
  0
APPID
  5
7A50
330
9
100
AcDbSymbolTableRecord
100
AcDbRegAppTableRecord
  2
ACAD_DSTYLE_DIM_EXT1_LINETYPE
 70
     0
  0
APPID
  5
7A51
330
9
100
AcDbSymbolTableRecord
100
AcDbRegAppTableRecord
  2
ACAD_DSTYLE_DIM_EXT2_LINETYPE
 70
     0
  0
APPID
  5
9462
330
9
100
AcDbSymbolTableRecord
100
AcDbRegAppTableRecord
  2
ACAD_PSEXT
 70
     0
  0
ENDTAB
  0
TABLE
  2
DIMSTYLE
  5
A
330
0
100
AcDbSymbolTable
 70
     1
100
AcDbDimStyleTable
 71
     1
340
1D
  0
DIMSTYLE
105
1D
102
{ACAD_REACTORS
330
903A
330
904B
330
905C
330
9069
330
9076
330
909F
330
90AE
330
90BB
330
9102
330
9111
330
942D
102
}
330
A
100
AcDbSymbolTableRecord
100
AcDbDimStyleTableRecord
  2
STANDARD
 70
     0
 41
2.5
 42
0.8
 44
0.8
 73
     0
 74
     0
 77
     3
 78
     8
 79
     2
140
2.5
147
0.8
172
     1
176
   256
177
   256
178
     3
179
     2
271
     2
272
     2
340
F
341
76D8
342
76D8
1001
ACAD_DSTYLE_DIMEXT_LENGTH
1070
   378
1040
0.18
1001
ACAD_DSTYLE_DIMEXT_ENABLED
1070
   383
1070
     0
1001
ACAD_DSTYLE_DIMARC_LENGTH_SYMBOL
1070
   379
1070
     0
1001
ACAD_DSTYLE_DIMJOGGED_JOGANGLE_SYMBOL
1070
   384
1040
1.570796326794896
  0
ENDTAB
  0
TABLE
  2
BLOCK_RECORD
  5
1
330
0
100
AcDbSymbolTable
 70
    14
  0
BLOCK_RECORD
  5
18
102
{ACAD_XDICTIONARY
360
45F
102
}
330
1
100
AcDbSymbolTableRecord
100
AcDbBlockTableRecord
  2
*MODEL_SPACE
340
5CF5
  0
BLOCK_RECORD
  5
15
102
{ACAD_XDICTIONARY
360
5D89
102
}
330
1
100
AcDbSymbolTableRecord
100
AcDbBlockTableRecord
  2
*PAPER_SPACE
340
5CF6
  0
BLOCK_RECORD
  5
639D
330
1
100
AcDbSymbolTableRecord
100
AcDbBlockTableRecord
  2
A$C255C26A2
340
0
  0
BLOCK_RECORD
  5
76D8
330
1
100
AcDbSymbolTableRecord
100
AcDbBlockTableRecord
  2
_Open30
340
0
102
{BLKREFS
331
9299
331
929A
331
92A4
331
92A5
331
92AD
331
92AE
331
92B6
331
92B7
331
92BF
331
92C0
331
92C8
331
92C9
331
92D1
331
92D2
331
92DA
331
92DB
331
92E5
331
92E6
331
92EE
331
9446
331
9447
102
}
  0
BLOCK_RECORD
  5
76DE
102
{ACAD_XDICTIONARY
360
76DF
102
}
330
1
100
AcDbSymbolTableRecord
100
AcDbBlockTableRecord
  2
A
340
0
310
2800000020000000200000000100080000000000000400000000000000000000000000000000000000000000000080000080000000808000800000008000800080800000C0C0C000C0DCC000F0CAA6000020400000206000002080000020A0000020C0000020E00000400000004020000040400000406000004080000040A0
310
000040C0000040E00000600000006020000060400000606000006080000060A0000060C0000060E00000800000008020000080400000806000008080000080A0000080C0000080E00000A0000000A0200000A0400000A0600000A0800000A0A00000A0C00000A0E00000C0000000C0200000C0400000C0600000C0800000C0
310
A00000C0C00000C0E00000E0000000E0200000E0400000E0600000E0800000E0A00000E0C00000E0E00040000000400020004000400040006000400080004000A0004000C0004000E00040200000402020004020400040206000402080004020A0004020C0004020E000404000004040200040404000404060004040800040
310
40A0004040C0004040E00040600000406020004060400040606000406080004060A0004060C0004060E00040800000408020004080400040806000408080004080A0004080C0004080E00040A0000040A0200040A0400040A0600040A0800040A0A00040A0C00040A0E00040C0000040C0200040C0400040C0600040C08000
310
40C0A00040C0C00040C0E00040E0000040E0200040E0400040E0600040E0800040E0A00040E0C00040E0E00080000000800020008000400080006000800080008000A0008000C0008000E00080200000802020008020400080206000802080008020A0008020C0008020E00080400000804020008040400080406000804080
310
008040A0008040C0008040E00080600000806020008060400080606000806080008060A0008060C0008060E00080800000808020008080400080806000808080008080A0008080C0008080E00080A0000080A0200080A0400080A0600080A0800080A0A00080A0C00080A0E00080C0000080C0200080C0400080C0600080C0
310
800080C0A00080C0C00080C0E00080E0000080E0200080E0400080E0600080E0800080E0A00080E0C00080E0E000C0000000C0002000C0004000C0006000C0008000C000A000C000C000C000E000C0200000C0202000C0204000C0206000C0208000C020A000C020C000C020E000C0400000C0402000C0404000C0406000C0
310
408000C040A000C040C000C040E000C0600000C0602000C0604000C0606000C0608000C060A000C060C000C060E000C0800000C0802000C0804000C0806000C0808000C080A000C080C000C080E000C0A00000C0A02000C0A04000C0A06000C0A08000C0A0A000C0A0C000C0A0E000C0C00000C0C02000C0C04000C0C06000
310
C0C08000C0C0A000F0FBFF00A4A0A000808080000000FF0000FF000000FFFF00FF000000FF00FF00FFFF0000FFFFFF0000000000000000000000000000000000000000000000000000000000000000000000000000000000000000000000000000000000000000000000000000000000000000000000000000000000000000
310
00000000000000000000000000000000000000000000000000000000000000000000000000000000000000000000000000000000000000000000000000000000000000000000000000000000000000000000000000000000000000000000000000000000000000000000000000000000000000000000000000000000000000
310
00000000000000000000000000000000000000000000000000000000000000000000000000000000000000000000000000000000000000000000000000000000000000000000000000000000000000000000000000000000000000000000000000000000000000000000000000000000000000000000000000000000000000
310
000000000000FDFDFDFDFDFDFDFDFDFDFDFD0000FD0000000000000000000000000000000000FD0000FA0000000000FA00FD0000FDFD00000000000000000000000000000000FD0000FA0000000000FA00FD0000FDFDFD000000000000000000000000000000FD0000FA0000000000FA00FD0000FDFDFDFD00000000000000
310
00000000000000FD0000FAFAFAFAFAFAFA00FD0000FDFDFDFDFD00000000000000000000000000FD000000FA00000000FA00FD0000FDFDFDFDFDFDFDFDFDFDFDFDFDFDFDFDFDFDFD000000FA000000FA0000FD0000FDFDFDFDFD00000000000000000000000000FD00000000FA0000FA0000FD0000FDFDFDFD000000000000
310
0000000000000000FD00000000FA00FA000000FD0000FDFD00000000000000000000000000000000FD0000000000FAFA000000FD0000FD0000000000000000000000000000000000FD0000000000FA00000000FD0000000000000000000000000000000000000000FDFDFDFDFDFDFDFDFDFDFDFD0000000000000000000000
310
00000000000000000000000000000000000000000000000000000000000000000000000000000000000000000000000000000000000000000000000000000000000000000000000000000000000000000000000000000000000000000000000000000000000000000000000000000000000000000000000000000000000000
310
00000000000000000000000000000000000000000000000000000000000000000000000000000000000000000000000000000000000000000000000000000000000000000000000000000000000000000000000000000000000000000000000000000000000000000000000000000000000000000000000000000000000000
310
0000000000000000000000000000000000000000000000000000000000000000000000000000000000000000000000000000000000000000
102
{BLKREFS
331
90AD
102
}
  0
BLOCK_RECORD
  5
903B
330
1
100
AcDbSymbolTableRecord
100
AcDbBlockTableRecord
  2
*D3
340
0
  0
BLOCK_RECORD
  5
904C
330
1
100
AcDbSymbolTableRecord
100
AcDbBlockTableRecord
  2
*D4
340
0
  0
BLOCK_RECORD
  5
905D
330
1
100
AcDbSymbolTableRecord
100
AcDbBlockTableRecord
  2
*D5
340
0
  0
BLOCK_RECORD
  5
906A
330
1
100
AcDbSymbolTableRecord
100
AcDbBlockTableRecord
  2
*D6
340
0
  0
BLOCK_RECORD
  5
9077
330
1
100
AcDbSymbolTableRecord
100
AcDbBlockTableRecord
  2
*D7
340
0
  0
BLOCK_RECORD
  5
90A0
330
1
100
AcDbSymbolTableRecord
100
AcDbBlockTableRecord
  2
*D8
340
0
  0
BLOCK_RECORD
  5
90AF
330
1
100
AcDbSymbolTableRecord
100
AcDbBlockTableRecord
  2
*D9
340
0
  0
BLOCK_RECORD
  5
90BC
330
1
100
AcDbSymbolTableRecord
100
AcDbBlockTableRecord
  2
*D10
340
0
  0
BLOCK_RECORD
  5
9103
330
1
100
AcDbSymbolTableRecord
100
AcDbBlockTableRecord
  2
*D11
340
0
  0
BLOCK_RECORD
  5
9112
330
1
100
AcDbSymbolTableRecord
100
AcDbBlockTableRecord
  2
*D12
340
0
  0
BLOCK_RECORD
  5
942E
330
1
100
AcDbSymbolTableRecord
100
AcDbBlockTableRecord
  2
*D13
340
0
  0
ENDTAB
  0
ENDSEC
  0
SECTION
  2
BLOCKS
  0
BLOCK
  5
19
330
18
100
AcDbEntity
  8
0
100
AcDbBlockBegin
  2
*MODEL_SPACE
 70
     0
 10
0.0
 20
0.0
 30
0.0
  3
*MODEL_SPACE
  1

  0
ENDBLK
  5
1A
330
18
100
AcDbEntity
  8
0
100
AcDbBlockEnd
  0
BLOCK
  5
16
330
15
100
AcDbEntity
 67
     1
  8
0
100
AcDbBlockBegin
  2
*PAPER_SPACE
 70
     0
 10
0.0
 20
0.0
 30
0.0
  3
*PAPER_SPACE
  1

  0
ENDBLK
  5
17
330
15
100
AcDbEntity
 67
     1
  8
0
100
AcDbBlockEnd
  0
BLOCK
  5
63A1
330
639D
100
AcDbEntity
  8
0
100
AcDbBlockBegin
  2
A$C255C26A2
 70
     0
 10
0.0
 20
0.0
 30
0.0
  3
A$C255C26A2
  1

  0
LWPOLYLINE
  5
639E
330
639D
100
AcDbEntity
  8
0
100
AcDbPolyline
 90
        3
 70
     1
 43
0.0
 10
7.014806023851633
 20
0.0000006939811783
 10
5.611844869720698
 20
2.430000693981241
 10
8.417767177982568
 20
2.430000693981241
  0
LWPOLYLINE
  5
639F
330
639D
100
AcDbEntity
  8
0
100
AcDbPolyline
 90
        3
 70
     1
 43
0.0
 10
4.20888371558999
 20
0.0000006939811783
 10
2.805922561459283
 20
2.430000693981241
 10
5.611844869720698
 20
2.430000693981241
  0
LWPOLYLINE
  5
63A0
330
639D
100
AcDbEntity
  8
0
100
AcDbPolyline
 90
        3
 70
     1
 43
0.0
 10
1.402961407328348
 20
0.0000006939811783
 10
0.0000002531974133
 20
2.430000693981241
 10
2.805922561459283
 20
2.430000693981241
  0
ENDBLK
  5
63A2
330
639D
100
AcDbEntity
  8
0
100
AcDbBlockEnd
  0
BLOCK
  5
76D9
330
76D8
100
AcDbEntity
  8
0
100
AcDbBlockBegin
  2
_Open30
 70
     0
 10
0.0
 20
0.0
 30
0.0
  3
_Open30
  1

  0
LINE
  5
76DA
330
76D8
100
AcDbEntity
  8
0
  6
ByBlock
 62
     0
370
    -2
100
AcDbLine
 10
-1.0
 20
0.26794919
 30
0.0
 11
0.0
 21
0.0
 31
0.0
  0
LINE
  5
76DB
330
76D8
100
AcDbEntity
  8
0
  6
ByBlock
 62
     0
370
    -2
100
AcDbLine
 10
0.0
 20
0.0
 30
0.0
 11
-1.0
 21
-0.26794919
 31
0.0
  0
LINE
  5
76DC
330
76D8
100
AcDbEntity
  8
0
  6
ByBlock
 62
     0
370
    -2
100
AcDbLine
 10
0.0
 20
0.0
 30
0.0
 11
-1.0
 21
0.0
 31
0.0
  0
ENDBLK
  5
76DD
330
76D8
100
AcDbEntity
  8
0
100
AcDbBlockEnd
  0
BLOCK
  5
76E2
330
76DE
100
AcDbEntity
  8
0
100
AcDbBlockBegin
  2
A
 70
     0
 10
0.0
 20
0.0
 30
0.0
  3
A
  1

  0
MTEXT
  5
76E3
330
76DE
100
AcDbEntity
  8
mark
 62
     3
100
AcDbMText
 10
10.65641897020822
 20
-5.596245361730467
 30
0.0
 40
2.5
 41
0.0
 71
     5
 72
     1
  1
A
 73
     1
 44
1.0
1001
ACAD
1000
ACAD_MTEXT_DEFINED_HEIGHT_BEGIN
1070
    46
1040
0.0
1000
ACAD_MTEXT_DEFINED_HEIGHT_END
  0
LWPOLYLINE
  5
76E4
330
76DE
100
AcDbEntity
  8
mark
100
AcDbPolyline
 90
        4
 70
     1
 43
0.0
 10
9.07926800414657
 20
-7.141145101782569
 10
12.07926800414657
 20
-7.141145101782569
 10
12.07926800414657
 20
-4.141145101782569
 10
9.07926800414657
 20
-4.141145101782569
  0
HATCH
  5
76E5
330
76DE
100
AcDbEntity
  8
mark
100
AcDbHatch
 10
0.0
 20
0.0
 30
0.0
210
0.0
220
0.0
230
1.0
  2
SOLID
 70
     1
 71
     0
 91
        1
 92
        7
 72
     0
 73
     1
 93
        3
 10
5.32926800414657
 20
-5.641145101782569
 10
4.07926800414657
 20
-4.391145101782541
 10
4.07926800414657
 20
-6.891145101782541
 97
        0
 75
     0
 76
     1
 47
0.0398277943677868
 98
        1
 10
4.589689734415287
 20
-5.732163331855076
450
        0
451
        0
460
0.0
461
0.0
452
        1
462
1.0
453
        2
463
0.0
 63
     5
421
      255
463
1.0
 63
     7
421
 16777215
470
LINEAR
1001
ACAD
1010
0.0
1020
0.0
1030
0.0
  0
LINE
  5
76E6
330
76DE
100
AcDbEntity
  8
mark
100
AcDbLine
 10
5.32926800414657
 20
-5.641145101782569
 30
0.0
 11
9.07926800414657
 21
-5.641145101782569
 31
0.0
  0
LINE
  5
76E7
330
76DE
100
AcDbEntity
  8
mark
100
AcDbLine
 10
5.32926800414657
 20
-5.641145101782569
 30
0.0
 11
4.07926800414657
 21
-4.391145101782569
 31
0.0
  0
LINE
  5
76E8
330
76DE
100
AcDbEntity
  8
mark
100
AcDbLine
 10
5.32926800414657
 20
-5.641145101782569
 30
0.0
 11
4.07926800414657
 21
-6.891145101782569
 31
0.0
  0
ENDBLK
  5
76E9
330
76DE
100
AcDbEntity
  8
0
100
AcDbBlockEnd
  0
BLOCK
  5
9047
330
903B
100
AcDbEntity
  8
0
100
AcDbBlockBegin
  2
*D3
 70
     1
 10
0.0
 20
0.0
 30
0.0
  3
*D3
  1

  0
LINE
  5
9294
330
903B
100
AcDbEntity
  8
mark
370
    -2
100
AcDbLine
 10
65.35558979628816
 20
204.242208749677
 30
0.0
 11
57.99187522147765
 21
204.2422087496771
 31
0.0
  0
LINE
  5
9295
330
903B
100
AcDbEntity
  8
mark
370
    -2
100
AcDbLine
 10
65.35558979628816
 20
198.242208749677
 30
0.0
 11
57.99187522147765
 21
198.2422087496771
 31
0.0
  0
LINE
  5
9296
330
903B
100
AcDbEntity
  8
mark
370
    -2
100
AcDbLine
 10
58.79187522147765
 20
206.7422087496771
 30
0.0
 11
58.79187522147766
 21
209.2422087496771
 31
0.0
  0
LINE
  5
9297
330
903B
100
AcDbEntity
  8
mark
370
    -2
100
AcDbLine
 10
58.79187522147765
 20
195.742208749677
 30
0.0
 11
58.79187522147765
 21
193.2422087496771
 31
0.0
  0
LINE
  5
9298
330
903B
100
AcDbEntity
  8
mark
370
    -2
100
AcDbLine
 10
58.79187522147765
 20
204.2422087496771
 30
0.0
 11
58.79187522147765
 21
198.2422087496771
 31
0.0
  0
INSERT
  5
9299
330
903B
100
AcDbEntity
  8
mark
370
    -2
100
AcDbBlockReference
  2
_Open30
 10
58.79187522147765
 20
204.2422087496771
 30
0.0
 41
2.5
 42
2.5
 43
2.5
 50
270.0
  0
INSERT
  5
929A
330
903B
100
AcDbEntity
  8
mark
370
    -2
100
AcDbBlockReference
  2
_Open30
 10
58.79187522147765
 20
198.2422087496771
 30
0.0
 41
2.5
 42
2.5
 43
2.5
 50
90.0
  0
MTEXT
  5
929B
330
903B
100
AcDbEntity
  8
mark
 62
     3
100
AcDbMText
 10
56.74187522147763
 20
201.2422087496771
 30
0.0
 40
2.5
 41
0.0
 71
     5
 72
     1
  1
\A1;6
 11
0.0000000000000001
 21
1.0
 31
0.0
 73
     1
 44
1.0
  0
POINT
  5
929C
330
903B
100
AcDbEntity
  8
DEFPOINTS
 62
     0
100
AcDbPoint
 10
66.15558979628815
 20
204.242208749677
 30
0.0
  0
POINT
  5
929D
330
903B
100
AcDbEntity
  8
DEFPOINTS
 62
     0
100
AcDbPoint
 10
66.15558979628815
 20
198.242208749677
 30
0.0
  0
POINT
  5
929E
330
903B
100
AcDbEntity
  8
DEFPOINTS
 62
     0
100
AcDbPoint
 10
58.79187522147765
 20
198.2422087496771
 30
0.0
  0
ENDBLK
  5
9048
330
903B
100
AcDbEntity
  8
0
100
AcDbBlockEnd
  0
BLOCK
  5
9058
330
904C
100
AcDbEntity
  8
0
100
AcDbBlockBegin
  2
*D4
 70
     1
 10
0.0
 20
0.0
 30
0.0
  3
*D4
  1

  0
LINE
  5
929F
330
904C
100
AcDbEntity
  8
mark
370
    -2
100
AcDbLine
 10
68.65558979628815
 20
197.442208749677
 30
0.0
 11
68.65558979628815
 21
166.7627359567166
 31
0.0
  0
LINE
  5
92A0
330
904C
100
AcDbEntity
  8
mark
370
    -2
100
AcDbLine
 10
66.15558979628815
 20
197.442208749677
 30
0.0
 11
66.15558979628815
 21
166.7627359567166
 31
0.0
  0
LINE
  5
92A1
330
904C
100
AcDbEntity
  8
mark
370
    -2
100
AcDbLine
 10
71.15558979628815
 20
167.5627359567166
 30
0.0
 11
73.65558979628815
 21
167.5627359567166
 31
0.0
  0
LINE
  5
92A2
330
904C
100
AcDbEntity
  8
mark
370
    -2
100
AcDbLine
 10
63.65558979628815
 20
167.5627359567166
 30
0.0
 11
54.55558979628815
 21
167.5627359567166
 31
0.0
  0
LINE
  5
92A3
330
904C
100
AcDbEntity
  8
mark
370
    -2
100
AcDbLine
 10
68.65558979628815
 20
167.5627359567166
 30
0.0
 11
66.15558979628815
 21
167.5627359567166
 31
0.0
  0
INSERT
  5
92A4
330
904C
100
AcDbEntity
  8
mark
370
    -2
100
AcDbBlockReference
  2
_Open30
 10
68.65558979628815
 20
167.5627359567166
 30
0.0
 41
2.5
 42
2.5
 43
2.5
 50
180.0
  0
INSERT
  5
92A5
330
904C
100
AcDbEntity
  8
mark
370
    -2
100
AcDbBlockReference
  2
_Open30
 10
66.15558979628815
 20
167.5627359567166
 30
0.0
 41
2.5
 42
2.5
 43
2.5
  0
MTEXT
  5
92A6
330
904C
100
AcDbEntity
  8
mark
 62
     3
100
AcDbMText
 10
57.85558979628816
 20
169.6127359567167
 30
0.0
 40
2.5
 41
0.0
 71
     5
 72
     1
  1
\A1;2.5
 73
     1
 44
1.0
  0
POINT
  5
92A7
330
904C
100
AcDbEntity
  8
DEFPOINTS
 62
     0
100
AcDbPoint
 10
68.65558979628815
 20
198.242208749677
 30
0.0
  0
POINT
  5
92A8
330
904C
100
AcDbEntity
  8
DEFPOINTS
 62
     0
100
AcDbPoint
 10
66.15558979628815
 20
198.242208749677
 30
0.0
  0
POINT
  5
92A9
330
904C
100
AcDbEntity
  8
DEFPOINTS
 62
     0
100
AcDbPoint
 10
66.15558979628815
 20
167.5627359567166
 30
0.0
  0
ENDBLK
  5
9059
330
904C
100
AcDbEntity
  8
0
100
AcDbBlockEnd
  0
BLOCK
  5
9067
330
905D
100
AcDbEntity
  8
0
100
AcDbBlockBegin
  2
*D5
 70
     1
 10
0.0
 20
0.0
 30
0.0
  3
*D5
  1

  0
LINE
  5
92AA
330
905D
100
AcDbEntity
  8
mark
370
    -2
100
AcDbLine
 10
74.50000000000011
 20
121.3480208560632
 30
0.0
 11
74.50000000000011
 21
129.3584776591581
 31
0.0
  0
LINE
  5
92AB
330
905D
100
AcDbEntity
  8
mark
370
    -2
100
AcDbLine
 10
115.5000000000001
 20
121.3480208560632
 30
0.0
 11
115.5000000000001
 21
129.3584776591581
 31
0.0
  0
LINE
  5
92AC
330
905D
100
AcDbEntity
  8
mark
370
    -2
100
AcDbLine
 10
77.00000000000011
 20
128.5584776591581
 30
0.0
 11
113.0000000000001
 21
128.5584776591581
 31
0.0
  0
INSERT
  5
92AD
330
905D
100
AcDbEntity
  8
mark
370
    -2
100
AcDbBlockReference
  2
_Open30
 10
74.50000000000011
 20
128.5584776591581
 30
0.0
 41
2.5
 42
2.5
 43
2.5
 50
180.0
  0
INSERT
  5
92AE
330
905D
100
AcDbEntity
  8
mark
370
    -2
100
AcDbBlockReference
  2
_Open30
 10
115.5000000000001
 20
128.5584776591581
 30
0.0
 41
2.5
 42
2.5
 43
2.5
  0
MTEXT
  5
92AF
330
905D
100
AcDbEntity
  8
mark
 62
     3
100
AcDbMText
 10
95.00000000000012
 20
130.6084776591581
 30
0.0
 40
2.5
 41
0.0
 71
     5
 72
     1
  1
\A1;%%c41
 73
     1
 44
1.0
  0
POINT
  5
92B0
330
905D
100
AcDbEntity
  8
DEFPOINTS
 62
     0
100
AcDbPoint
 10
74.50000000000011
 20
120.5480208560632
 30
0.0
  0
POINT
  5
92B1
330
905D
100
AcDbEntity
  8
DEFPOINTS
 62
     0
100
AcDbPoint
 10
115.5000000000001
 20
120.5480208560632
 30
0.0
  0
POINT
  5
92B2
330
905D
100
AcDbEntity
  8
DEFPOINTS
 62
     0
100
AcDbPoint
 10
115.5000000000001
 20
128.5584776591581
 30
0.0
  0
ENDBLK
  5
9068
330
905D
100
AcDbEntity
  8
0
100
AcDbBlockEnd
  0
BLOCK
  5
9074
330
906A
100
AcDbEntity
  8
0
100
AcDbBlockBegin
  2
*D6
 70
     1
 10
0.0
 20
0.0
 30
0.0
  3
*D6
  1

  0
LINE
  5
92B3
330
906A
100
AcDbEntity
  8
mark
370
    -2
100
AcDbLine
 10
69.00000000000011
 20
121.3480208560632
 30
0.0
 11
69.00000000000011
 21
134.567935025199
 31
0.0
  0
LINE
  5
92B4
330
906A
100
AcDbEntity
  8
mark
370
    -2
100
AcDbLine
 10
121.0000000000001
 20
121.3480208560632
 30
0.0
 11
121.0000000000001
 21
134.567935025199
 31
0.0
  0
LINE
  5
92B5
330
906A
100
AcDbEntity
  8
mark
370
    -2
100
AcDbLine
 10
71.50000000000011
 20
133.767935025199
 30
0.0
 11
118.5000000000001
 21
133.767935025199
 31
0.0
  0
INSERT
  5
92B6
330
906A
100
AcDbEntity
  8
mark
370
    -2
100
AcDbBlockReference
  2
_Open30
 10
69.00000000000011
 20
133.767935025199
 30
0.0
 41
2.5
 42
2.5
 43
2.5
 50
180.0
  0
INSERT
  5
92B7
330
906A
100
AcDbEntity
  8
mark
370
    -2
100
AcDbBlockReference
  2
_Open30
 10
121.0000000000001
 20
133.767935025199
 30
0.0
 41
2.5
 42
2.5
 43
2.5
  0
MTEXT
  5
92B8
330
906A
100
AcDbEntity
  8
mark
 62
     3
100
AcDbMText
 10
95.00000000000012
 20
135.817935025199
 30
0.0
 40
2.5
 41
0.0
 71
     5
 72
     1
  1
\A1;%%c52%%p0.5
 73
     1
 44
1.0
  0
POINT
  5
92B9
330
906A
100
AcDbEntity
  8
DEFPOINTS
 62
     0
100
AcDbPoint
 10
69.00000000000011
 20
120.5480208560632
 30
0.0
  0
POINT
  5
92BA
330
906A
100
AcDbEntity
  8
DEFPOINTS
 62
     0
100
AcDbPoint
 10
121.0000000000001
 20
120.5480208560632
 30
0.0
  0
POINT
  5
92BB
330
906A
100
AcDbEntity
  8
DEFPOINTS
 62
     0
100
AcDbPoint
 10
121.0000000000001
 20
133.767935025199
 30
0.0
  0
ENDBLK
  5
9075
330
906A
100
AcDbEntity
  8
0
100
AcDbBlockEnd
  0
BLOCK
  5
9081
330
9077
100
AcDbEntity
  8
0
100
AcDbBlockBegin
  2
*D7
 70
     1
 10
0.0
 20
0.0
 30
0.0
  3
*D7
  1

  0
LINE
  5
92BC
330
9077
100
AcDbEntity
  8
mark
370
    -2
100
AcDbLine
 10
66.00000000000012
 20
119.3480208560632
 30
0.0
 11
66.00000000000012
 21
139.7466954937666
 31
0.0
  0
LINE
  5
92BD
330
9077
100
AcDbEntity
  8
mark
370
    -2
100
AcDbLine
 10
123.9999999999999
 20
119.3480208560632
 30
0.0
 11
123.9999999999999
 21
139.7466954937666
 31
0.0
  0
LINE
  5
92BE
330
9077
100
AcDbEntity
  8
mark
370
    -2
100
AcDbLine
 10
68.50000000000012
 20
138.9466954937666
 30
0.0
 11
121.4999999999999
 21
138.9466954937666
 31
0.0
  0
INSERT
  5
92BF
330
9077
100
AcDbEntity
  8
mark
370
    -2
100
AcDbBlockReference
  2
_Open30
 10
66.00000000000012
 20
138.9466954937666
 30
0.0
 41
2.5
 42
2.5
 43
2.5
 50
180.0
  0
INSERT
  5
92C0
330
9077
100
AcDbEntity
  8
mark
370
    -2
100
AcDbBlockReference
  2
_Open30
 10
123.9999999999999
 20
138.9466954937666
 30
0.0
 41
2.5
 42
2.5
 43
2.5
  0
MTEXT
  5
92C1
330
9077
100
AcDbEntity
  8
mark
 62
     3
100
AcDbMText
 10
95.0
 20
140.9966954937666
 30
0.0
 40
2.5
 41
0.0
 71
     5
 72
     1
  1
\A1;%%c58
 73
     1
 44
1.0
  0
POINT
  5
92C2
330
9077
100
AcDbEntity
  8
DEFPOINTS
 62
     0
100
AcDbPoint
 10
66.00000000000012
 20
118.5480208560632
 30
0.0
  0
POINT
  5
92C3
330
9077
100
AcDbEntity
  8
DEFPOINTS
 62
     0
100
AcDbPoint
 10
123.9999999999999
 20
118.5480208560632
 30
0.0
  0
POINT
  5
92C4
330
9077
100
AcDbEntity
  8
DEFPOINTS
 62
     0
100
AcDbPoint
 10
123.9999999999999
 20
138.9466954937666
 30
0.0
  0
ENDBLK
  5
9082
330
9077
100
AcDbEntity
  8
0
100
AcDbBlockEnd
  0
BLOCK
  5
90AA
330
90A0
100
AcDbEntity
  8
0
100
AcDbBlockBegin
  2
*D8
 70
     1
 10
0.0
 20
0.0
 30
0.0
  3
*D8
  1

  0
LINE
  5
92C5
330
90A0
100
AcDbEntity
  8
mark
370
    -2
100
AcDbLine
 10
115.0000000000001
 20
106.4980208560632
 30
0.0
 11
115.0000000000001
 21
91.92239655165982
 31
0.0
  0
LINE
  5
92C6
330
90A0
100
AcDbEntity
  8
mark
370
    -2
100
AcDbLine
 10
75.00000000000011
 20
106.4980208560634
 30
0.0
 11
75.00000000000011
 21
91.92239655165982
 31
0.0
  0
LINE
  5
92C7
330
90A0
100
AcDbEntity
  8
mark
370
    -2
100
AcDbLine
 10
112.5000000000001
 20
92.7223965516598
 30
0.0
 11
77.50000000000011
 21
92.7223965516598
 31
0.0
  0
INSERT
  5
92C8
330
90A0
100
AcDbEntity
  8
mark
370
    -2
100
AcDbBlockReference
  2
_Open30
 10
115.0000000000001
 20
92.7223965516598
 30
0.0
 41
2.5
 42
2.5
 43
2.5
  0
INSERT
  5
92C9
330
90A0
100
AcDbEntity
  8
mark
370
    -2
100
AcDbBlockReference
  2
_Open30
 10
75.00000000000011
 20
92.7223965516598
 30
0.0
 41
2.5
 42
2.5
 43
2.5
 50
180.0
  0
MTEXT
  5
92CA
330
90A0
100
AcDbEntity
  8
mark
 62
     3
100
AcDbMText
 10
95.00000000000012
 20
94.7723965516598
 30
0.0
 40
2.5
 41
0.0
 71
     5
 72
     1
  1
\A1;M40X1.5P
 73
     1
 44
1.0
  0
POINT
  5
92CB
330
90A0
100
AcDbEntity
  8
DEFPOINTS
 62
     0
100
AcDbPoint
 10
115.0000000000001
 20
107.2980208560632
 30
0.0
  0
POINT
  5
92CC
330
90A0
100
AcDbEntity
  8
DEFPOINTS
 62
     0
100
AcDbPoint
 10
75.00000000000011
 20
107.2980208560634
 30
0.0
  0
POINT
  5
92CD
330
90A0
100
AcDbEntity
  8
DEFPOINTS
 62
     0
100
AcDbPoint
 10
75.00000000000011
 20
92.7223965516598
 30
0.0
  0
ENDBLK
  5
90AB
330
90A0
100
AcDbEntity
  8
0
100
AcDbBlockEnd
  0
BLOCK
  5
90B9
330
90AF
100
AcDbEntity
  8
0
100
AcDbBlockBegin
  2
*D9
 70
     1
 10
0.0
 20
0.0
 30
0.0
  3
*D9
  1

  0
LINE
  5
92CE
330
90AF
100
AcDbEntity
  8
mark
370
    -2
100
AcDbLine
 10
121.8000000000001
 20
120.5480208560632
 30
0.0
 11
135.6342380100772
 21
120.5480208560632
 31
0.0
  0
LINE
  5
92CF
330
90AF
100
AcDbEntity
  8
mark
370
    -2
100
AcDbLine
 10
125.7999999999999
 20
113.5480208560632
 30
0.0
 11
135.6342380100772
 21
113.5480208560632
 31
0.0
  0
LINE
  5
92D0
330
90AF
100
AcDbEntity
  8
mark
370
    -2
100
AcDbLine
 10
134.8342380100772
 20
118.0480208560632
 30
0.0
 11
134.8342380100772
 21
116.0480208560632
 31
0.0
  0
INSERT
  5
92D1
330
90AF
100
AcDbEntity
  8
mark
370
    -2
100
AcDbBlockReference
  2
_Open30
 10
134.8342380100772
 20
120.5480208560632
 30
0.0
 41
2.5
 42
2.5
 43
2.5
 50
90.0
  0
INSERT
  5
92D2
330
90AF
100
AcDbEntity
  8
mark
370
    -2
100
AcDbBlockReference
  2
_Open30
 10
134.8342380100772
 20
113.5480208560632
 30
0.0
 41
2.5
 42
2.5
 43
2.5
 50
270.0
  0
MTEXT
  5
92D3
330
90AF
100
AcDbEntity
  8
mark
 62
     3
100
AcDbMText
 10
132.7842380100772
 20
117.0480208560632
 30
0.0
 40
2.5
 41
0.0
 71
     5
 72
     1
  1
\A1;7
 11
0.0000000000000001
 21
1.0
 31
0.0
 73
     1
 44
1.0
  0
POINT
  5
92D4
330
90AF
100
AcDbEntity
  8
DEFPOINTS
 62
     0
100
AcDbPoint
 10
121.0000000000001
 20
120.5480208560632
 30
0.0
  0
POINT
  5
92D5
330
90AF
100
AcDbEntity
  8
DEFPOINTS
 62
     0
100
AcDbPoint
 10
124.9999999999999
 20
113.5480208560632
 30
0.0
  0
POINT
  5
92D6
330
90AF
100
AcDbEntity
  8
DEFPOINTS
 62
     0
100
AcDbPoint
 10
134.8342380100772
 20
113.5480208560632
 30
0.0
  0
ENDBLK
  5
90BA
330
90AF
100
AcDbEntity
  8
0
100
AcDbBlockEnd
  0
BLOCK
  5
90C6
330
90BC
100
AcDbEntity
  8
0
100
AcDbBlockBegin
  2
*D10
 70
     1
 10
0.0
 20
0.0
 30
0.0
  3
*D10
  1

  0
LINE
  5
92D7
330
90BC
100
AcDbEntity
  8
mark
370
    -2
100
AcDbLine
 10
121.8000000000001
 20
120.5480208560632
 30
0.0
 11
144.1053101821505
 21
120.5480208560632
 31
0.0
  0
LINE
  5
92D8
330
90BC
100
AcDbEntity
  8
mark
370
    -2
100
AcDbLine
 10
123.3
 20
106.5480208560632
 30
0.0
 11
144.1053101821505
 21
106.5480208560632
 31
0.0
  0
LINE
  5
92D9
330
90BC
100
AcDbEntity
  8
mark
370
    -2
100
AcDbLine
 10
143.3053101821505
 20
118.0480208560632
 30
0.0
 11
143.3053101821505
 21
109.0480208560632
 31
0.0
  0
INSERT
  5
92DA
330
90BC
100
AcDbEntity
  8
mark
370
    -2
100
AcDbBlockReference
  2
_Open30
 10
143.3053101821505
 20
120.5480208560632
 30
0.0
 41
2.5
 42
2.5
 43
2.5
 50
90.0
  0
INSERT
  5
92DB
330
90BC
100
AcDbEntity
  8
mark
370
    -2
100
AcDbBlockReference
  2
_Open30
 10
143.3053101821505
 20
106.5480208560632
 30
0.0
 41
2.5
 42
2.5
 43
2.5
 50
270.0
  0
MTEXT
  5
92DC
330
90BC
100
AcDbEntity
  8
mark
 62
     3
100
AcDbMText
 10
141.2553101821504
 20
113.5480208560632
 30
0.0
 40
2.5
 41
0.0
 71
     5
 72
     1
  1
\A1;14%%P0.2
 11
0.0000000000000001
 21
1.0
 31
0.0
 73
     1
 44
1.0
  0
POINT
  5
92DD
330
90BC
100
AcDbEntity
  8
DEFPOINTS
 62
     0
100
AcDbPoint
 10
121.0000000000001
 20
120.5480208560632
 30
0.0
  0
POINT
  5
92DE
330
90BC
100
AcDbEntity
  8
DEFPOINTS
 62
     0
100
AcDbPoint
 10
122.5
 20
106.5480208560632
 30
0.0
  0
POINT
  5
92DF
330
90BC
100
AcDbEntity
  8
DEFPOINTS
 62
     0
100
AcDbPoint
 10
143.3053101821505
 20
106.5480208560632
 30
0.0
  0
ENDBLK
  5
90C7
330
90BC
100
AcDbEntity
  8
0
100
AcDbBlockEnd
  0
BLOCK
  5
910F
330
9103
100
AcDbEntity
  8
0
100
AcDbBlockBegin
  2
*D11
 70
     1
 10
0.0
 20
0.0
 30
0.0
  3
*D11
  1

  0
LINE
  5
92E0
330
9103
100
AcDbEntity
  8
mark
370
    -2
100
AcDbLine
 10
66.70000000000012
 20
120.0480208560632
 30
0.0
 11
57.99187522147765
 21
120.0480208560632
 31
0.0
  0
LINE
  5
92E1
330
9103
100
AcDbEntity
  8
mark
370
    -2
100
AcDbLine
 10
68.20000000000011
 20
120.5480208560632
 30
0.0
 11
57.99187522147765
 21
120.5480208560632
 31
0.0
  0
LINE
  5
92E2
330
9103
100
AcDbEntity
  8
mark
370
    -2
100
AcDbLine
 10
58.79187522147765
 20
117.5480208560632
 30
0.0
 11
58.79187522147765
 21
115.0480208560632
 31
0.0
  0
LINE
  5
92E3
330
9103
100
AcDbEntity
  8
mark
370
    -2
100
AcDbLine
 10
58.79187522147765
 20
123.0480208560632
 30
0.0
 11
58.79187522147765
 21
131.7313541893965
 31
0.0
  0
LINE
  5
92E4
330
9103
100
AcDbEntity
  8
mark
370
    -2
100
AcDbLine
 10
58.79187522147765
 20
120.0480208560632
 30
0.0
 11
58.79187522147765
 21
120.5480208560632
 31
0.0
  0
INSERT
  5
92E5
330
9103
100
AcDbEntity
  8
mark
370
    -2
100
AcDbBlockReference
  2
_Open30
 10
58.79187522147765
 20
120.0480208560632
 30
0.0
 41
2.5
 42
2.5
 43
2.5
 50
90.0
  0
INSERT
  5
92E6
330
9103
100
AcDbEntity
  8
mark
370
    -2
100
AcDbBlockReference
  2
_Open30
 10
58.79187522147765
 20
120.5480208560632
 30
0.0
 41
2.5
 42
2.5
 43
2.5
 50
270.0
  0
MTEXT
  5
92E7
330
9103
100
AcDbEntity
  8
mark
 62
     3
100
AcDbMText
 10
56.74187522147764
 20
128.6396875227298
 30
0.0
 40
2.5
 41
0.0
 71
     5
 72
     1
  1
\A1;0.5
 11
0.0000000000000001
 21
1.0
 31
0.0
 73
     1
 44
1.0
  0
POINT
  5
92E8
330
9103
100
AcDbEntity
  8
DEFPOINTS
 62
     0
100
AcDbPoint
 10
67.50000000000011
 20
120.0480208560632
 30
0.0
  0
POINT
  5
92E9
330
9103
100
AcDbEntity
  8
DEFPOINTS
 62
     0
100
AcDbPoint
 10
69.00000000000011
 20
120.5480208560632
 30
0.0
  0
POINT
  5
92EA
330
9103
100
AcDbEntity
  8
DEFPOINTS
 62
     0
100
AcDbPoint
 10
58.79187522147765
 20
120.5480208560632
 30
0.0
  0
ENDBLK
  5
9110
330
9103
100
AcDbEntity
  8
0
100
AcDbBlockEnd
  0
BLOCK
  5
9119
330
9112
100
AcDbEntity
  8
0
100
AcDbBlockBegin
  2
*D12
 70
     1
 10
0.0
 20
0.0
 30
0.0
  3
*D12
  1

  0
LINE
  5
92EB
330
9112
100
AcDbEntity
  8
mark
370
    -2
100
AcDbLine
 10
53.52285595853961
 20
94.0708768146159
 30
0.0
 11
64.67157287525319
 21
105.2195937313181
 31
0.0
  0
MTEXT
  5
92EC
330
9112
100
AcDbEntity
  8
mark
 62
     3
100
AcDbMText
 10
56.76376203898107
 20
100.2109206979174
 30
0.0
 40
2.5
 41
0.0
 71
     5
 72
     1
  1
\A1;2-R1.5
 11
0.7071067811869077
 21
0.7071067811861874
 31
0.0
 73
     1
 44
1.0
  0
LINE
  5
92ED
330
9112
100
AcDbEntity
  8
mark
370
    -2
100
AcDbLine
 10
67.50000000000113
 20
108.0480208560632
 30
0.0
 11
66.43933982822045
 21
106.9873606842836
 31
0.0
  0
INSERT
  5
92EE
330
9112
100
AcDbEntity
  8
mark
370
    -2
100
AcDbBlockReference
  2
_Open30
 10
66.43933982822045
 20
106.9873606842836
 30
0.0
 41
2.5
 42
2.5
 43
2.5
 50
44.99999999997082
  0
POINT
  5
92EF
330
9112
100
AcDbEntity
  8
DEFPOINTS
 62
     0
100
AcDbPoint
 10
66.43933982822045
 20
106.9873606842836
 30
0.0
  0
POINT
  5
92F0
330
9112
100
AcDbEntity
  8
DEFPOINTS
 62
     0
100
AcDbPoint
 10
67.50000000000113
 20
108.0480208560632
 30
0.0
  0
ENDBLK
  5
911A
330
9112
100
AcDbEntity
  8
0
100
AcDbBlockEnd
  0
BLOCK
  5
9438
330
942E
100
AcDbEntity
  8
0
100
AcDbBlockBegin
  2
*D13
 70
     1
 10
0.0
 20
0.0
 30
0.0
  3
*D13
  1

  0
LINE
  5
9443
330
942E
100
AcDbEntity
  8
mark
370
    -2
100
AcDbLine
 10
86.33112825850947
 20
123.0480208560632
 30
0.0
 11
86.33112825850947
 21
125.5480208560632
 31
0.0
  0
LINE
  5
9444
330
942E
100
AcDbEntity
  8
mark
370
    -2
100
AcDbLine
 10
86.33112825850947
 20
117.0480208560632
 30
0.0
 11
86.33112825850947
 21
112.1146875227298
 31
0.0
  0
LINE
  5
9445
330
942E
100
AcDbEntity
  8
mark
370
    -2
100
AcDbLine
 10
86.33112825850947
 20
120.5480208560632
 30
0.0
 11
86.33112825850947
 21
119.5480208560632
 31
0.0
  0
INSERT
  5
9446
330
942E
100
AcDbEntity
  8
mark
370
    -2
100
AcDbBlockReference
  2
_Open30
 10
86.33112825850947
 20
120.5480208560632
 30
0.0
 41
2.5
 42
2.5
 43
2.5
 50
270.0
  0
INSERT
  5
9447
330
942E
100
AcDbEntity
  8
mark
370
    -2
100
AcDbBlockReference
  2
_Open30
 10
86.33112825850947
 20
119.5480208560632
 30
0.0
 41
2.5
 42
2.5
 43
2.5
 50
90.0
  0
MTEXT
  5
9448
330
942E
100
AcDbEntity
  8
mark
 62
     3
100
AcDbMText
 10
84.28112825850943
 20
113.3313541893965
 30
0.0
 40
2.5
 41
0.0
 71
     5
 72
     1
  1
\A1;1
 11
0.0000000000000001
 21
1.0
 31
0.0
 73
     1
 44
1.0
  0
POINT
  5
9449
330
942E
100
AcDbEntity
  8
DEFPOINTS
 62
     0
100
AcDbPoint
 10
86.33112825850947
 20
120.5480208560632
 30
0.0
  0
POINT
  5
944A
330
942E
100
AcDbEntity
  8
DEFPOINTS
 62
     0
100
AcDbPoint
 10
86.33112825850947
 20
119.5480208560632
 30
0.0
  0
POINT
  5
944B
330
942E
100
AcDbEntity
  8
DEFPOINTS
 62
     0
100
AcDbPoint
 10
86.33112825850947
 20
119.5480208560632
 30
0.0
  0
ENDBLK
  5
9439
330
942E
100
AcDbEntity
  8
0
100
AcDbBlockEnd
  0
ENDSEC
  0
SECTION
  2
ENTITIES
  0
MTEXT
  5
C0
330
18
100
AcDbEntity
  8
0
100
AcDbMText
 10
41.26970765600413
 20
233.6950877649332
 30
0.0
 40
2.5
 41
0.0
 71
     1
 72
     5
  1

  7
ISOCP3
 73
     1
 44
1.0
  0
ARC
  5
76C2
330
18
100
AcDbEntity
  8
contour
100
AcDbCircle
 10
95.00000000000012
 20
201.2422087496771
 30
0.0
 40
29.0
100
AcDbArc
 50
185.9377724516069
 51
294.062227548393
  0
CIRCLE
  5
76C3
330
18
100
AcDbEntity
  8
contour
100
AcDbCircle
 10
95.00000000000012
 20
201.2422087496771
 30
0.0
 40
26.0
  0
ARC
  5
76C4
330
18
100
AcDbEntity
  8
contour
 62
     4
100
AcDbCircle
 10
95.00000000000012
 20
201.2422087496771
 30
0.0
 40
20.0
100
AcDbArc
 50
174.2608295227318
 51
95.73917047726819
  0
CIRCLE
  5
76C5
330
18
100
AcDbEntity
  8
contour
100
AcDbCircle
 10
95.00000000000012
 20
201.2422087496771
 30
0.0
 40
19.188
  0
LINE
  5
76C6
330
18
100
AcDbEntity
  8
center
  6
CENTER
 48
0.3
100
AcDbLine
 10
95.00000000000012
 20
231.242208749677
 30
0.0
 11
95.00000000000012
 21
171.242208749677
 31
0.0
  0
LINE
  5
76C7
330
18
100
AcDbEntity
  8
center
  6
CENTER
 48
0.3
100
AcDbLine
 10
65.00000000000011
 20
201.2422087496771
 30
0.0
 11
125.0000000000001
 21
201.2422087496771
 31
0.0
  0
LINE
  5
76C8
330
18
100
AcDbEntity
  8
contour
100
AcDbLine
 10
66.15558979628815
 20
204.242208749677
 30
0.0
 11
68.65558979628826
 21
204.242208749677
 31
0.0
  0
LINE
  5
76C9
330
18
100
AcDbEntity
  8
contour
100
AcDbLine
 10
66.15558979628815
 20
198.242208749677
 30
0.0
 11
68.65558979628826
 21
198.242208749677
 31
0.0
  0
LINE
  5
76CA
330
18
100
AcDbEntity
  8
contour
100
AcDbLine
 10
68.65558979628815
 20
204.242208749677
 30
0.0
 11
68.65558979628815
 21
198.242208749677
 31
0.0
  0
LINE
  5
76CB
330
18
100
AcDbEntity
  8
contour
100
AcDbLine
 10
112.0202813132094
 20
177.7622167560834
 30
0.0
 11
110.7702813132094
 21
179.9272802655446
 31
0.0
  0
LINE
  5
76CC
330
18
100
AcDbEntity
  8
contour
100
AcDbLine
 10
106.8241288905028
 20
174.7622167560834
 30
0.0
 11
105.5741288905027
 21
176.9272802655445
 31
0.0
  0
LINE
  5
76CD
330
18
100
AcDbEntity
  8
contour
100
AcDbLine
 10
105.5741288905028
 20
176.9272802655445
 30
0.0
 11
110.7702813132094
 21
179.9272802655445
 31
0.0
  0
LINE
  5
76CE
330
18
100
AcDbEntity
  8
contour
100
AcDbLine
 10
106.8241288905028
 20
227.7222007432707
 30
0.0
 11
105.5741288905028
 21
225.5571372338096
 31
0.0
  0
LINE
  5
76CF
330
18
100
AcDbEntity
  8
contour
100
AcDbLine
 10
112.0202813132094
 20
224.7222007432707
 30
0.0
 11
110.7702813132094
 21
222.5571372338095
 31
0.0
  0
LINE
  5
76D0
330
18
100
AcDbEntity
  8
contour
100
AcDbLine
 10
110.7702813132094
 20
222.5571372338096
 30
0.0
 11
105.5741288905028
 21
225.5571372338096
 31
0.0
  0
ARC
  5
76D1
330
18
100
AcDbEntity
  8
contour
100
AcDbCircle
 10
95.00000000000012
 20
201.2422087496771
 30
0.0
 40
29.0
100
AcDbArc
 50
65.93777245160703
 51
174.0622275483931
  0
ARC
  5
76D2
330
18
100
AcDbEntity
  8
contour
100
AcDbCircle
 10
95.00000000000012
 20
201.2422087496771
 30
0.0
 40
29.0
100
AcDbArc
 50
305.9377724516056
 51
54.0622275483945
  0
LWPOLYLINE
  5
783E
330
18
100
AcDbEntity
  8
frame
100
AcDbPolyline
 90
        4
 70
     1
 43
0.0
 10
190.0
 20
280.0
 10
0.0
 20
280.0
 10
0.0
 20
0.0
 10
190.0
 20
0.0
  0
MTEXT
  5
783F
330
18
100
AcDbEntity
  8
0
100
AcDbMText
 10
17.09950368689175
 20
19.07605901616614
 30
0.0
 40
4.5
 41
0.0
 71
     1
 72
     5
  1
{\Ftxt,bigfont|c128;林彦旭}
  7
JL
 73
     1
 44
1.0
1001
ACAD
1000
ACAD_MTEXT_DEFINED_HEIGHT_BEGIN
1070
    46
1040
0.0
1000
ACAD_MTEXT_DEFINED_HEIGHT_END
  0
MTEXT
  5
7840
330
18
100
AcDbEntity
  8
0
100
AcDbMText
 10
77.95294729228851
 20
28.93578979870677
 30
0.0
 40
4.5
 41
0.0
 71
     1
 72
     5
  1
\Ftxt.shx,bigfont.shx|c128;1 : 1
  7
JL
 73
     1
 44
1.0
  0
MTEXT
  5
7841
330
18
100
AcDbEntity
  8
0
 48
2.0
370
    25
100
AcDbMText
 10
140.2194500465656
 20
3.490021654633892
 30
0.0
 40
4.5
 41
0.0
 71
     5
 72
     1
  1
{\Ftxt,bigfont|c128;N L 4 0 0 3 3}
 73
     1
 44
1.0
1001
ACAD
1000
ACAD_MTEXT_DEFINED_HEIGHT_BEGIN
1070
    46
1040
0.0
1000
ACAD_MTEXT_DEFINED_HEIGHT_END
  0
MTEXT
  5
7842
330
18
100
AcDbEntity
  8
0
 48
2.0
100
AcDbMText
 10
170.9328999644331
 20
21.76437127823692
 30
0.0
 40
4.318181818181822
 41
0.0
 71
     5
 72
     1
  1
\P{\Ftxt,bigfont|c128;MR40X1.5P}
 73
     1
 44
1.0
1001
ACAD
1000
ACAD_MTEXT_DEFINED_HEIGHT_BEGIN
1070
    46
1040
0.0
1000
ACAD_MTEXT_DEFINED_HEIGHT_END
  0
MTEXT
  5
7843
330
18
100
AcDbEntity
  8
0
100
AcDbMText
 10
15.3760677136774
 20
28.37740359834709
 30
0.0
 40
4.5
 41
0.0
 71
     1
 72
     5
  1
{\Ftxt,bigfont|c128;06.06.14}
  7
JL
 73
     1
 44
1.0
1001
ACAD
1000
ACAD_MTEXT_DEFINED_HEIGHT_BEGIN
1070
    46
1040
0.0
1000
ACAD_MTEXT_DEFINED_HEIGHT_END
  0
LINE
  5
7844
330
18
100
AcDbEntity
  8
0
 62
     7
 48
5.0
100
AcDbLine
 39
3.838383838383842
 10
47.92942413992534
 20
27.65712907016086
 30
0.0
 11
53.04580144287854
 21
28.93622339589922
 31
0.0
  0
MTEXT
  5
7845
330
18
100
AcDbEntity
  8
0
100
AcDbMText
 10
14.91235548326415
 20
9.242195050049303
 30
0.0
 40
6.0
 41
0.0
 71
     1
 72
     5
  1
\Ftxt.shx,bigfont.shx|c128;日機株式会社
  7
LKK
 73
     1
 44
1.0
  0
LINE
  5
7846
330
18
100
AcDbEntity
  8
frame
100
AcDbLine
 10
0.0
 20
12.0
 30
0.0
 11
190.0
 21
12.00000000000005
 31
0.0
  0
LINE
  5
7847
330
18
100
AcDbEntity
  8
frame
100
AcDbLine
 10
0.0
 20
22.0
 30
0.0
 11
92.12121212121223
 21
22.0
 31
0.0
  0
LINE
  5
7848
330
18
100
AcDbEntity
  8
frame
100
AcDbLine
 10
0.0
 20
32.0
 30
0.0
 11
190.0
 21
32.0
 31
0.0
  0
LINE
  5
7849
330
18
100
AcDbEntity
  8
frame
100
AcDbLine
 10
12.19077332493799
 20
32.0
 30
0.0
 11
12.19077332493799
 21
12.0
 31
0.0
  0
LINE
  5
784A
330
18
100
AcDbEntity
  8
frame
100
AcDbLine
 10
30.70707070707067
 20
32.0
 30
0.0
 11
30.70707070707078
 21
12.0
 31
0.0
  0
MTEXT
  5
784B
330
18
100
AcDbEntity
  8
0
100
AcDbMText
 10
2.830274784221955
 20
29.08190089582831
 30
0.0
 40
4.5
 41
0.0
 71
     1
 72
     5
  1
\Ftxt.shx,bigfont.shx|c128;日 付
  7
JL
 73
     1
 44
1.0
  0
MTEXT
  5
784C
330
18
100
AcDbEntity
  8
0
100
AcDbMText
 10
2.97063307743889
 20
19.52163842926637
 30
0.0
 40
4.5
 41
0.0
 71
     1
 72
     5
  1
\Ftxt.shx,bigfont.shx|c128;製 図
  7
JL
 73
     1
 44
1.0
  0
LINE
  5
784D
330
18
100
AcDbEntity
  8
0
 62
     7
370
    25
100
AcDbLine
 10
53.04580144287854
 20
23.81984609294597
 30
0.0
 11
53.04580144287854
 21
28.93622339589922
 31
0.0
  0
MTEXT
  5
784E
330
18
100
AcDbEntity
  8
0
100
AcDbMText
 10
64.00748852490835
 20
29.12242703792379
 30
0.0
 40
4.5
 41
0.0
 71
     1
 72
     5
  1
\Ftxt.shx,bigfont.shx|c128;尺 度
  7
JL
 73
     1
 44
1.0
  0
LINE
  5
784F
330
18
100
AcDbEntity
  8
frame
100
AcDbLine
 10
61.41414141414145
 20
32.0
 30
0.0
 11
61.41414141414145
 21
12.0
 31
0.0
  0
LINE
  5
7850
330
18
100
AcDbEntity
  8
0
 62
     7
370
    25
100
AcDbLine
 10
39.6153110226262
 20
23.18889018332635
 30
0.0
 11
39.6153110226262
 21
29.36457992429672
 31
0.0
  0
CIRCLE
  5
7851
330
18
100
AcDbEntity
  8
0
 62
     7
100
AcDbCircle
 10
39.6153110226262
 20
26.37803474442251
 30
0.0
 40
2.558188651476678
  0
LINE
  5
7852
330
18
100
AcDbEntity
  8
0
 62
     7
370
    25
100
AcDbLine
 10
47.19321986919976
 20
26.37803474442262
 30
0.0
 11
53.50512581624241
 21
26.37803474442262
 31
0.0
  0
LINE
  5
7853
330
18
100
AcDbEntity
  8
0
 62
     7
100
AcDbLine
 10
47.92942413992534
 20
25.09894041868427
 30
0.0
 11
53.04580144287854
 21
23.81984609294597
 31
0.0
  0
LINE
  5
7854
330
18
100
AcDbEntity
  8
frame
100
AcDbLine
 10
42.742241959951
 20
22.0
 30
0.0
 11
42.742241959951
 21
12.0
 31
0.0
  0
LINE
  5
7855
330
18
100
AcDbEntity
  8
0
 62
     7
370
    25
100
AcDbLine
 10
36.41832228486612
 20
26.37803474442251
 30
0.0
 11
43.00325267619268
 21
26.37803474442262
 31
0.0
  0
CIRCLE
  5
7856
330
18
100
AcDbEntity
  8
0
 62
     7
100
AcDbCircle
 10
39.6153110226262
 20
26.37803474442251
 30
0.0
 40
1.279094325738339
  0
MTEXT
  5
7857
330
18
100
AcDbEntity
  8
0
100
AcDbMText
 10
33.70184032462407
 20
19.41013815785266
 30
0.0
 40
4.5
 41
0.0
 71
     1
 72
     5
  1
\Ftxt.shx,bigfont.shx|c128;検 図
  7
JL
 73
     1
 44
1.0
  0
LINE
  5
7858
330
18
100
AcDbEntity
  8
0
 62
     7
370
    25
100
AcDbLine
 10
47.92942413992534
 20
25.09894041868427
 30
0.0
 11
47.92942413992534
 21
27.65712907016086
 31
0.0
  0
MTEXT
  5
7859
330
18
100
AcDbEntity
  8
0
100
AcDbMText
 10
64.28820249919829
 20
19.32058534748881
 30
0.0
 40
4.5
 41
0.0
 71
     1
 72
     5
  1
\Ftxt.shx,bigfont.shx|c128;承 認
  7
JL
 73
     1
 44
1.0
  0
MTEXT
  5
785A
330
18
100
AcDbEntity
  8
0
100
AcDbMText
 10
93.71128715606699
 20
10.7026821961914
 30
0.0
 40
4.5
 41
0.0
 71
     1
 72
     5
  1
\Ftxt.shx,bigfont.shx|c128;図  面  番  号
  7
JL
 73
     1
 44
1.0
  0
MTEXT
  5
785B
330
18
100
AcDbEntity
  8
0
 48
2.0
100
AcDbMText
 10
116.9038190021384
 20
21.8757473149584
 30
0.0
 40
4.5
 41
0.0
 71
     5
 72
     1
  1
\P\Ftxt.shx,bigfont.shx|c128;    精密ロックナット
 73
     1
 44
1.0
  0
MTEXT
  5
785C
330
18
100
AcDbEntity
  8
0
100
AcDbMText
 10
94.8083613031232
 20
29.03862457973275
 30
0.0
 40
4.5
 41
0.0
 71
     1
 72
     5
  1
\Ftxt.shx,bigfont.shx|c128;品  名
  7
JL
 73
     1
 44
1.0
  0
LINE
  5
785D
330
18
100
AcDbEntity
  8
frame
100
AcDbLine
 10
92.12121212121223
 20
32.0
 30
0.0
 11
92.12121212121223
 21
0.1833227579584786
 31
0.0
  0
LINE
  5
785E
330
18
100
AcDbEntity
  8
frame
100
AcDbLine
 10
73.41414141414145
 20
32.0
 30
0.0
 11
73.41414141414145
 21
12.0
 31
0.0
  0
LINE
  5
785F
330
18
100
AcDbEntity
  8
frame
100
AcDbLine
 10
147.0327092740656
 20
32.0
 30
0.0
 11
147.0327092740657
 21
12.0
 31
0.0
  0
MTEXT
  5
7860
330
18
100
AcDbEntity
  8
0
100
AcDbMText
 10
150.895959446773
 20
29.04517782830391
 30
0.0
 40
4.5
 41
0.0
 71
     1
 72
     5
  1
\Ftxt.shx,bigfont.shx|c128;型  番
  7
JL
 73
     1
 44
1.0
  0
MTEXT
  5
7861
330
18
100
AcDbEntity
  8
0
100
AcDbMText
 10
165.8059614810325
 20
10.78298174971564
 30
0.0
 40
4.5
 41
0.0
 71
     1
 72
     5
  1
\Ftxt.shx,bigfont.shx|c128;変更
  7
JL
 73
     1
 44
1.0
  0
LINE
  5
7862
330
18
100
AcDbEntity
  8
frame
100
AcDbLine
 10
164.0909090909092
 20
12.00000000000005
 30
0.0
 11
164.0909090909093
 21
0.0
 31
0.0
  0
LINE
  5
7863
330
18
100
AcDbEntity
  8
frame
100
AcDbLine
 10
124.6157900786393
 20
43.13491348924492
 30
0.0
 11
184.6157900786393
 21
43.13491348924481
 31
0.0
  0
LINE
  5
7864
330
18
100
AcDbEntity
  8
frame
100
AcDbLine
 10
124.6157900786393
 20
50.33491348924497
 30
0.0
 11
184.6157900786393
 21
50.33491348924497
 31
0.0
  0
LINE
  5
7865
330
18
100
AcDbEntity
  8
frame
100
AcDbLine
 10
124.6157900786393
 20
57.5349134892449
 30
0.0
 11
184.6157900786393
 21
57.53491348924478
 31
0.0
  0
LINE
  5
7866
330
18
100
AcDbEntity
  8
frame
100
AcDbLine
 10
124.6157900786393
 20
64.73491348924494
 30
0.0
 11
184.6157900786393
 21
64.73491348924483
 31
0.0
  0
LINE
  5
7867
330
18
100
AcDbEntity
  8
frame
100
AcDbLine
 10
124.6157900786393
 20
35.93491348924488
 30
0.0
 11
184.6157900786393
 21
35.93491348924488
 31
0.0
  0
MTEXT
  5
7868
330
18
100
AcDbEntity
  8
0
 62
     7
 48
2.0
100
AcDbMText
 10
154.5011900445106
 20
65.52808189982909
 30
0.0
 40
4.8
 41
0.0
 71
     5
 72
     1
  1
\P\Ftxt.shx,bigfont.shx|c128;諸　　　　元
 73
     1
 44
1.0
  0
LINE
  5
7869
330
18
100
AcDbEntity
  8
frame
100
AcDbLine
 10
124.6157900786393
 20
64.73491348924483
 30
0.0
 11
124.6157900786393
 21
35.93491348924488
 31
0.0
  0
MTEXT
  5
786A
330
18
100
AcDbEntity
  8
0
100
AcDbMText
 10
128.1382258923195
 20
56.00840432212407
 30
0.0
 40
4.4
 41
163.916286842249
 71
     1
 72
     5
  1
\Ftxt.shx,bigfont.shx|c128;熱　処　理
  7
JL
 73
     1
 44
1.0
  0
LINE
  5
786B
330
18
100
AcDbEntity
  8
frame
100
AcDbLine
 10
148.6157900786393
 20
57.53491348924478
 30
0.0
 11
148.6157900786393
 21
35.93491348924488
 31
0.0
  0
MTEXT
  5
786C
330
18
100
AcDbEntity
  8
0
100
AcDbMText
 10
127.8579515249403
 20
49.00617587486397
 30
0.0
 40
4.4
 41
163.6058628849672
 71
     1
 72
     5
  1
\Ftxt.shx,bigfont.shx|c128;表 面 処 理
  7
JL
 73
     1
 44
1.0
  0
MTEXT
  5
786D
330
18
100
AcDbEntity
  8
0
100
AcDbMText
 10
128.1480173733753
 20
41.71770302125605
 30
0.0
 40
4.4
 41
166.1718
 71
     1
 72
     5
  1
\Ftxt.shx,bigfont.shx|c128;等     　級
  7
JL
 73
     1
 44
1.0
  0
LINE
  5
786E
330
18
100
AcDbEntity
  8
frame
100
AcDbLine
 10
184.6157900786393
 20
64.73491348924483
 30
0.0
 11
184.6157900786393
 21
35.93491348924499
 31
0.0
  0
MTEXT
  5
786F
330
18
100
AcDbEntity
  8
0
100
AcDbMText
 10
153.3627933880818
 20
55.83344641471445
 30
0.0
 40
4.4
 41
291.8960056857887
 71
     1
 72
     5
  1
\Ftxt.shx,bigfont.shx|c128;調質　HRC30%%d%%p２%%d
  7
JL
 73
     1
 44
1.0
  0
MTEXT
  5
7870
330
18
100
AcDbEntity
  8
0
100
AcDbMText
 10
153.6234323895182
 20
41.7183135927072
 30
0.0
 40
4.4
 41
290.783364796891
 71
     1
 72
     5
  1
\Ftxt.shx,bigfont.shx|c128;ＩＳＯ - ４Ｈ
  7
JL
 73
     1
 44
1.0
  0
MTEXT
  5
7871
330
18
100
AcDbEntity
  8
0
100
AcDbMText
 10
153.7978935876485
 20
48.65328293790913
 30
0.0
 40
4.4
 41
291.4548
 71
     1
 72
     5
  1
\Ftxt.shx,bigfont.shx|c128;黒  　    染
  7
JL
 73
     1
 44
1.0
  0
MTEXT
  5
7872
330
18
100
AcDbEntity
  8
0
100
AcDbMText
 10
57.63639061334425
 20
260.9000583279474
 30
0.0
 40
5.0
 41
0.0
 71
     1
 72
     5
  1
\Ftxt.shx,bigfont.shx|c128;M6X1.0P-6L
  7
JL
 73
     1
 44
1.0
  0
MTEXT
  5
7873
330
18
100
AcDbEntity
  8
0
100
AcDbMText
 10
57.63639061334425
 20
252.5660350862716
 30
0.0
 40
5.0
 41
0.0
 71
     1
 72
     5
  1
\Ftxt.shx,bigfont.shx|c128;%%c5.2X4L
  7
JL
 73
     1
 44
1.0
  0
LINE
  5
7874
330
18
100
AcDbEntity
  8
frame
100
AcDbLine
 10
0.0
 20
254.0
 30
0.0
 11
190.0
 21
254.0
 31
0.0
  0
LINE
  5
7875
330
18
100
AcDbEntity
  8
frame
100
AcDbLine
 10
0.0
 20
262.0
 30
0.0
 11
190.0
 21
262.0
 31
0.0
  0
LINE
  5
7876
330
18
100
AcDbEntity
  8
frame
 62
     9
100
AcDbLine
 10
0.0
 20
270.0
 30
0.0
 11
190.0
 21
270.0
 31
0.0
  0
MTEXT
  5
7877
330
18
100
AcDbEntity
  8
0
100
AcDbMText
 10
57.0156439060371
 20
277.4240560049041
 30
0.0
 40
5.0
 41
0.0
 71
     1
 72
     5
  1
\Ftxt.shx,bigfont.shx|c128;図    番 / 規　　格
  7
JL
 73
     1
 44
1.0
  0
LINE
  5
7878
330
18
100
AcDbEntity
  8
frame
100
AcDbLine
 10
0.0
 20
254.0
 30
0.0
 11
190.0
 21
254.0
 31
0.0
  0
LINE
  5
7879
330
18
100
AcDbEntity
  8
frame
100
AcDbLine
 10
0.0
 20
245.8933909875332
 30
0.0
 11
190.0
 21
245.8933909875332
 31
0.0
  0
MTEXT
  5
787A
330
18
100
AcDbEntity
  8
0
100
AcDbMText
 10
21.12488048923433
 20
277.4637981386743
 30
0.0
 40
5.0
 41
0.0
 71
     1
 72
     5
  1
\Ftxt.shx,bigfont.shx|c128;品　          名
  7
JL
 73
     1
 44
1.0
  0
MTEXT
  5
787B
330
18
100
AcDbEntity
  8
0
100
AcDbMText
 10
18.10281387110132
 20
260.7907237289111
 30
0.0
 40
5.0
 41
0.0
 71
     1
 72
     5
  1
\Ftxt.shx,bigfont.shx|c128;セットスクリュ-
  7
JL
 73
     1
 44
1.0
  0
MTEXT
  5
787C
330
18
100
AcDbEntity
  8
0
100
AcDbMText
 10
17.91509480863158
 20
268.8361230282964
 30
0.0
 40
5.0
 41
0.0
 71
     1
 72
     5
  1
\Ftxt.shx,bigfont.shx|c128;ロックナット　  
  7
JL
 73
     1
 44
1.0
  0
MTEXT
  5
787D
330
18
100
AcDbEntity
  8
0
100
AcDbMText
 10
18.10281387110132
 20
252.8510545014035
 30
0.0
 40
5.0
 41
0.0
 71
     1
 72
     5
  1
\Ftxt.shx,bigfont.shx|c128;ロックピン 
  7
JL
 73
     1
 44
1.0
  0
LINE
  5
787E
330
18
100
AcDbEntity
  8
frame
 62
     9
100
AcDbLine
 10
14.39393939393937
 20
279.9999999999999
 30
0.0
 11
14.39393939393972
 21
245.8933909875332
 31
0.0
  0
LINE
  5
787F
330
18
100
AcDbEntity
  8
frame
 62
     9
100
AcDbLine
 10
14.39393939393937
 20
279.9999999999999
 30
0.0
 11
14.39393939393937
 21
255.0505050505051
 31
0.0
  0
MTEXT
  5
7880
330
18
100
AcDbEntity
  8
0
100
AcDbMText
 10
6.815009268013795
 20
268.7281674434121
 30
0.0
 40
5.0
 41
0.0
 71
     1
 72
     5
  1
\Ftxt.shx,bigfont.shx|c128;1
  7
JL
 73
     1
 44
1.0
  0
MTEXT
  5
7881
330
18
100
AcDbEntity
  8
0
100
AcDbMText
 10
2.119828072980226
 20
277.4734782639491
 30
0.0
 40
5.0
 41
0.0
 71
     1
 72
     5
  1
\Ftxt.shx,bigfont.shx|c128;照   号
  7
JL
 73
     1
 44
1.0
  0
LINE
  5
7882
330
18
100
AcDbEntity
  8
frame
 62
     9
100
AcDbLine
 10
52.77777777777783
 20
279.9999999999999
 30
0.0
 11
52.77777777777783
 21
245.8933909875332
 31
0.0
  0
MTEXT
  5
7883
330
18
100
AcDbEntity
  8
0
100
AcDbMText
 10
145.5736374372851
 20
277.6781663894194
 30
0.0
 40
5.0
 41
0.0
 71
     1
 72
     5
  1
\Ftxt.shx,bigfont.shx|c128;備           考
  7
JL
 73
     1
 44
1.0
  0
LINE
  5
7884
330
18
100
AcDbEntity
  8
frame
 62
     9
100
AcDbLine
 10
91.16161616161617
 20
280.0
 30
0.0
 11
91.16161616161617
 21
245.8933909875332
 31
0.0
  0
MTEXT
  5
7885
330
18
100
AcDbEntity
  8
0
100
AcDbMText
 10
92.87341089179369
 20
252.4309794461317
 30
0.0
 40
5.0
 41
0.0
 71
     1
 72
     5
  1
\Ftxt.shx,bigfont.shx|c128;C3604
  7
JL
 73
     1
 44
1.0
  0
MTEXT
  5
7886
330
18
100
AcDbEntity
  8
0
100
AcDbMText
 10
92.87341089179369
 20
268.8361230282964
 30
0.0
 40
5.0
 41
0.0
 71
     1
 72
     5
  1
\Ftxt.shx,bigfont.shx|c128;SCM-440
  7
JL
 73
     1
 44
1.0
  0
MTEXT
  5
7887
330
18
100
AcDbEntity
  8
0
100
AcDbMText
 10
92.87341089179369
 20
260.765002012584
 30
0.0
 40
5.0
 41
0.0
 71
     1
 72
     5
  1
\Ftxt.shx,bigfont.shx|c128;SCM435
  7
JL
 73
     1
 44
1.0
  0
MTEXT
  5
7888
330
18
100
AcDbEntity
  8
0
100
AcDbMText
 10
95.76798863104192
 20
277.5645499482919
 30
0.0
 40
5.0
 41
0.0
 71
     1
 72
     5
  1
\Ftxt.shx,bigfont.shx|c128;材　質
  7
JL
 73
     1
 44
1.0
  0
LINE
  5
7889
330
18
100
AcDbEntity
  8
frame
 62
     9
100
AcDbLine
 10
110.3535353535354
 20
280.0
 30
0.0
 11
110.3535353535354
 21
245.8933909875332
 31
0.0
  0
LINE
  5
788A
330
18
100
AcDbEntity
  8
frame
100
AcDbLine
 10
124.7474747474747
 20
280.0
 30
0.0
 11
124.7474747474748
 21
245.8933909875332
 31
0.0
  0
MTEXT
  5
788B
330
18
100
AcDbEntity
  8
0
100
AcDbMText
 10
116.5939070266884
 20
252.4642985589993
 30
0.0
 40
5.0
 41
0.0
 71
     1
 72
     5
  1
\Ftxt.shx,bigfont.shx|c128;3
  7
JL
 73
     1
 44
1.0
  0
MTEXT
  5
788C
330
18
100
AcDbEntity
  8
0
100
AcDbMText
 10
117.1685446215491
 20
269.0412711679932
 30
0.0
 40
5.0
 41
0.0
 71
     1
 72
     5
  1
\Ftxt.shx,bigfont.shx|c128;1
  7
JL
 73
     1
 44
1.0
  0
MTEXT
  5
788D
330
18
100
AcDbEntity
  8
0
100
AcDbMText
 10
116.5939070266884
 20
260.5092290150679
 30
0.0
 40
5.0
 41
0.0
 71
     1
 72
     5
  1
\Ftxt.shx,bigfont.shx|c128;3
  7
JL
 73
     1
 44
1.0
  0
MTEXT
  5
788E
330
18
100
AcDbEntity
  8
0
100
AcDbMText
 10
112.4223895919262
 20
277.5645499482919
 30
0.0
 40
5.0
 41
0.0
 71
     1
 72
     5
  1
\Ftxt.shx,bigfont.shx|c128;数   量
  7
JL
 73
     1
 44
1.0
  0
MTEXT
  5
788F
330
18
100
AcDbEntity
  8
0
100
AcDbMText
 10
6.404019699055993
 20
260.7281674434121
 30
0.0
 40
5.0
 41
0.0
 71
     1
 72
     5
  1
{\Ftxt,bigfont|c128;2}
  7
JL
 73
     1
 44
1.0
1001
ACAD
1000
ACAD_MTEXT_DEFINED_HEIGHT_BEGIN
1070
    46
1040
0.0
1000
ACAD_MTEXT_DEFINED_HEIGHT_END
  0
MTEXT
  5
7890
330
18
100
AcDbEntity
  8
0
100
AcDbMText
 10
6.404019699055993
 20
252.6215584309452
 30
0.0
 40
5.0
 41
0.0
 71
     1
 72
     5
  1
{\Ftxt,bigfont|c128;3}
  7
JL
 73
     1
 44
1.0
1001
ACAD
1000
ACAD_MTEXT_DEFINED_HEIGHT_BEGIN
1070
    46
1040
0.0
1000
ACAD_MTEXT_DEFINED_HEIGHT_END
  0
LINE
  5
79FA
330
18
100
AcDbEntity
  8
bowle
 48
0.2
100
AcDbLine
 10
113.9520274377177
 20
198.2422087496769
 30
0.0
 11
123.8444102037121
 21
198.2422087496769
 31
0.0
  0
LINE
  5
79FB
330
18
100
AcDbEntity
  8
bowle
 48
0.2
100
AcDbLine
 10
113.9520274377177
 20
204.242208749677
 30
0.0
 11
123.8444102037121
 21
204.242208749677
 31
0.0
  0
LINE
  5
79FC
330
18
100
AcDbEntity
  8
bowle
 48
0.2
100
AcDbLine
 10
114.0296543321208
 20
203.7022087496771
 30
0.0
 11
123.8954736939889
 21
203.7022087496771
 31
0.0
  0
LINE
  5
79FD
330
18
100
AcDbEntity
  8
bowle
 48
0.2
100
AcDbLine
 10
114.0296543321208
 20
198.7822087496768
 30
0.0
 11
123.8954736939889
 21
198.7822087496768
 31
0.0
  0
LINE
  5
79FE
330
18
100
AcDbEntity
  8
bowle
 48
0.2
100
AcDbLine
 10
88.12206249249483
 20
219.1551459639602
 30
0.0
 11
83.17587110949762
 21
227.7222007432706
 31
0.0
  0
LINE
  5
79FF
330
18
100
AcDbEntity
  8
bowle
 48
0.2
100
AcDbLine
 10
82.92591006978819
 20
216.1551459639603
 30
0.0
 11
77.97971868679098
 21
224.7222007432707
 31
0.0
  0
LINE
  5
7A00
330
18
100
AcDbEntity
  8
bowle
 48
0.2
100
AcDbLine
 10
83.35475034063017
 20
216.4923728265301
 30
0.0
 11
78.42184065969604
 21
225.0364230230563
 31
0.0
  0
LINE
  5
7A01
330
18
100
AcDbEntity
  8
bowle
 48
0.2
100
AcDbLine
 10
87.61559532724982
 20
218.9523728265303
 30
0.0
 11
82.68268564631569
 21
227.4964230230564
 31
0.0
  0
LINE
  5
7A02
330
18
100
AcDbEntity
  8
bowle
 48
0.2
100
AcDbLine
 10
82.92591006978796
 20
186.3292715353941
 30
0.0
 11
77.97971868679076
 21
177.7622167560836
 31
0.0
  0
LINE
  5
7A03
330
18
100
AcDbEntity
  8
bowle
 48
0.2
100
AcDbLine
 10
88.12206249249459
 20
183.329271535394
 30
0.0
 11
83.1758711094975
 21
174.7622167560836
 31
0.0
  0
LINE
  5
7A04
330
18
100
AcDbEntity
  8
bowle
 48
0.2
100
AcDbLine
 10
87.61559532724959
 20
183.5320446728239
 30
0.0
 11
82.68268564631545
 21
174.9879944762978
 31
0.0
  0
LINE
  5
7A05
330
18
100
AcDbEntity
  8
bowle
 48
0.2
100
AcDbLine
 10
83.35475034062994
 20
185.9920446728241
 30
0.0
 11
78.42184065969582
 21
177.447994476298
 31
0.0
  0
LINE
  5
7A09
330
18
100
AcDbEntity
  8
center
  6
CENTER
 48
0.15
100
AcDbLine
 10
80.00000000000033
 20
227.2229708632103
 30
0.0
 11
85.90600000000028
 21
216.9934787937085
 31
0.0
  0
LINE
  5
7A0C
330
18
100
AcDbEntity
  8
center
  6
CENTER
 48
0.15
100
AcDbLine
 10
80.00000000000033
 20
175.2614466361437
 30
0.0
 11
85.90600000000028
 21
185.4909387056456
 31
0.0
  0
CIRCLE
  5
7A0D
330
18
100
AcDbEntity
  8
contour
100
AcDbCircle
 10
95.00000000000012
 20
201.2422087496771
 30
0.0
 40
20.5
  0
LINE
  5
7A0E
330
18
100
AcDbEntity
  8
contour
100
AcDbLine
 10
123.9999999999999
 20
118.5480208560632
 30
0.0
 11
124.0
 21
108.0480208560632
 31
0.0
  0
LINE
  5
7A0F
330
18
100
AcDbEntity
  8
contour
100
AcDbLine
 10
122.5
 20
106.5480208560632
 30
0.0
 11
67.50000000000011
 21
106.5480208560632
 31
0.0
  0
LINE
  5
7A10
330
18
100
AcDbEntity
  8
contour
100
AcDbLine
 10
66.00000000000012
 20
108.0480208560632
 30
0.0
 11
66.00000000000012
 21
118.5480208560632
 31
0.0
  0
LINE
  5
7A11
330
18
100
AcDbEntity
  8
contour
100
AcDbLine
 10
69.00000000000011
 20
120.5480208560632
 30
0.0
 11
121.0000000000001
 21
120.5480208560632
 31
0.0
  0
LINE
  5
7A13
330
18
100
AcDbEntity
  8
contour
100
AcDbLine
 10
69.00000000000011
 20
120.5480208560632
 30
0.0
 11
69.00000000000011
 21
120.0480208560632
 31
0.0
  0
LINE
  5
7A14
330
18
100
AcDbEntity
  8
contour
100
AcDbLine
 10
69.00000000000011
 20
120.0480208560632
 30
0.0
 11
67.50000000000011
 21
120.0480208560632
 31
0.0
  0
LINE
  5
7A15
330
18
100
AcDbEntity
  8
contour
100
AcDbLine
 10
121.0000000000001
 20
120.5480208560632
 30
0.0
 11
121.0000000000001
 21
120.0480208560632
 31
0.0
  0
LINE
  5
7A16
330
18
100
AcDbEntity
  8
contour
100
AcDbLine
 10
121.0000000000001
 20
120.0480208560632
 30
0.0
 11
122.4999999999999
 21
120.0480208560632
 31
0.0
  0
ARC
  5
7A17
330
18
100
AcDbEntity
  8
contour
100
AcDbCircle
 10
67.50000000000011
 20
118.5480208560632
 30
0.0
 40
1.5
100
AcDbArc
 50
90.0
 51
180.0
  0
ARC
  5
7A18
330
18
100
AcDbEntity
  8
contour
100
AcDbCircle
 10
67.50000000000011
 20
108.0480208560632
 30
0.0
 40
1.5
100
AcDbArc
 50
180.0
 51
270.0
  0
ARC
  5
7A19
330
18
100
AcDbEntity
  8
contour
100
AcDbCircle
 10
122.5
 20
108.0480208560632
 30
0.0
 40
1.5
100
AcDbArc
 50
270.0
 51
0.0
  0
ARC
  5
7A1A
330
18
100
AcDbEntity
  8
contour
100
AcDbCircle
 10
122.4999999999999
 20
118.5480208560632
 30
0.0
 40
1.5
100
AcDbArc
 50
0.0
 51
90.0
  0
LINE
  5
7A1B
330
18
100
AcDbEntity
  8
contour
100
AcDbLine
 10
68.65558979628815
 20
120.0480208560632
 30
0.0
 11
68.65558979628815
 21
106.5480208560632
 31
0.0
  0
LINE
  5
7A1C
330
18
100
AcDbEntity
  8
contour
100
AcDbLine
 10
75.81200000000013
 20
118.2360208560632
 30
0.0
 11
75.81200000000013
 21
108.0480208560632
 31
0.0
  0
LINE
  5
7A1D
330
18
100
AcDbEntity
  8
contour
100
AcDbLine
 10
114.1880000000001
 20
118.2360208560631
 30
0.0
 11
114.188
 21
108.0480208560632
 31
0.0
  0
LINE
  5
7A1E
330
18
100
AcDbEntity
  8
contour
 62
     4
100
AcDbLine
 10
75.00000000000011
 20
119.0480208560631
 30
0.0
 11
75.00000000000011
 21
107.2360208560632
 31
0.0
  0
LINE
  5
7A1F
330
18
100
AcDbEntity
  8
contour
 62
     4
100
AcDbLine
 10
115.0000000000001
 20
119.0480208560632
 30
0.0
 11
115.0000000000001
 21
116.5480208560632
 31
0.0
  0
LINE
  5
7A21
330
18
100
AcDbEntity
  8
contour
100
AcDbLine
 10
74.50000000000011
 20
120.5480208560632
 30
0.0
 11
74.50000000000011
 21
119.5480208560632
 31
0.0
  0
LINE
  5
7A22
330
18
100
AcDbEntity
  8
contour
100
AcDbLine
 10
74.50000000000011
 20
119.5480208560632
 30
0.0
 11
115.5000000000001
 21
119.5480208560632
 31
0.0
  0
LINE
  5
7A23
330
18
100
AcDbEntity
  8
contour
100
AcDbLine
 10
115.5000000000001
 20
119.5480208560632
 30
0.0
 11
115.5000000000001
 21
120.5480208560632
 31
0.0
  0
LINE
  5
7A24
330
18
100
AcDbEntity
  8
contour
100
AcDbLine
 10
74.31200000000012
 20
106.5480208560632
 30
0.0
 11
75.81200000000013
 21
108.0480208560632
 31
0.0
  0
LINE
  5
7A2C
330
18
100
AcDbEntity
  8
contour
100
AcDbLine
 10
115.688
 20
106.5480208560632
 30
0.0
 11
114.188
 21
108.0480208560632
 31
0.0
  0
LINE
  5
7A2D
330
18
100
AcDbEntity
  8
contour
100
AcDbLine
 10
74.50000000000011
 20
119.5480208560632
 30
0.0
 11
75.81200000000001
 21
118.2360208560632
 31
0.0
  0
LINE
  5
7A2E
330
18
100
AcDbEntity
  8
contour
100
AcDbLine
 10
115.5000000000001
 20
119.5480208560632
 30
0.0
 11
114.1880000000002
 21
118.2360208560632
 31
0.0
  0
LINE
  5
7A2F
330
18
100
AcDbEntity
  8
contour
100
AcDbLine
 10
75.81200000000013
 20
118.2360208560632
 30
0.0
 11
114.1880000000001
 21
118.2360208560627
 31
0.0
  0
LINE
  5
7A30
330
18
100
AcDbEntity
  8
contour
100
AcDbLine
 10
114.188
 20
108.0480208560632
 30
0.0
 11
75.81200000000013
 21
108.0480208560632
 31
0.0
  0
LINE
  5
7A31
330
18
100
AcDbEntity
  8
center
  6
CENTER
 48
0.3
100
AcDbLine
 10
95.00000000000012
 20
121.5480208560632
 30
0.0
 11
95.00000000000012
 21
105.5480208560632
 31
0.0
  0
HATCH
  5
7A33
330
18
100
AcDbEntity
  8
section
100
AcDbHatch
 10
0.0
 20
0.0
 30
0.0
210
0.0
220
0.0
230
1.0
  2
AR-SAND
 70
     0
 71
     0
 91
        2
 92
        7
 72
     0
 73
     1
 93
        4
 10
114.1879999999998
 20
116.1480208560632
 10
114.1879999999998
 20
113.5480208560632
 10
117.9999999999999
 20
113.5480208560632
 10
117.9999999999999
 20
116.1480208560632
 97
        0
 92
        7
 72
     0
 73
     1
 93
        4
 10
117.9999999999999
 20
110.9480208560632
 10
117.9999999999999
 20
113.5480208560632
 10
114.1879999999998
 20
113.5480208560632
 10
114.1879999999998
 20
110.9480208560633
 97
        0
 75
     0
 76
     1
 52
0.0
 41
0.02
 77
     0
 78
     4
 53
37.5
 43
-237.0294318513933
 44
171.3936486941058
 45
-0.0320006259196809
 46
0.9788264746586847
 79
     6
 49
0.0
 49
-0.7721600000000001
 49
0.0
 49
-0.8636000000000001
 49
0.0
 49
-0.8255
 53
7.499999999999999
 43
-237.0294318513933
 44
171.3936486941058
 45
0.8990465662760053
 46
1.433650201136708
 79
     6
 49
0.0
 49
-0.4165600000000001
 49
0.0
 49
-0.69596
 49
0.0
 49
-0.2667000000000001
 53
327.5
 43
-237.6542718513933
 44
171.3936486941058
 45
1.581984740482915
 46
0.0028743693570914
 79
     6
 49
0.0
 49
-0.254
 49
0.0
 49
-0.9144
 49
0.0
 49
-1.193799999999999
 53
317.5
 43
-237.6542718513933
 44
171.3936486941058
 45
1.527112904944594
 46
0.4458586465144325
 79
     6
 49
0.0
 49
-0.127
 49
0.0
 49
-0.59944
 49
0.0
 49
-0.6858
 47
0.0233374670605618
 98
        2
 10
116.6516023910709
 20
115.0503783500019
 10
116.4181572817071
 20
112.0865192578904
1001
ACAD
1010
0.0
1020
0.0
1030
0.0
  0
LWPOLYLINE
  5
7A34
330
18
100
AcDbEntity
  8
contour
100
AcDbPolyline
 90
        2
 70
     0
 43
0.0
 10
123.9999999999999
 20
111.088020856063
 10
123.9999999999999
 20
116.0080208560633
  0
LWPOLYLINE
  5
7A35
330
18
100
AcDbEntity
  8
contour
100
AcDbPolyline
 90
        6
 70
     0
 43
0.0
 10
119.4999999999999
 20
116.5480208560632
 10
119.4999999999999
 20
116.5480208560632
 10
117.9999999999999
 20
115.0480208560632
 10
117.9999999999999
 20
112.0480208560632
 10
119.4999999999999
 20
110.5480208560632
 10
119.4999999999999
 20
110.5480208560632
  0
LINE
  5
7A36
330
18
100
AcDbEntity
  8
contour
 62
     4
100
AcDbLine
 10
114.1879999999997
 20
110.5480208560633
 30
0.0
 11
124.0000000000001
 21
110.5480208560632
 31
0.0
  0
LINE
  5
7A37
330
18
100
AcDbEntity
  8
contour
 62
     4
100
AcDbLine
 10
114.1879999999997
 20
116.5480208560632
 30
0.0
 11
123.9999999999999
 21
116.5480208560632
 31
0.0
  0
LINE
  5
7A38
330
18
100
AcDbEntity
  8
contour
100
AcDbLine
 10
117.9999999999999
 20
116.0080208560633
 30
0.0
 11
118.96
 21
116.0080208560633
 31
0.0
  0
LINE
  5
7A39
330
18
100
AcDbEntity
  8
contour
100
AcDbLine
 10
117.9999999999999
 20
111.088020856063
 30
0.0
 11
118.96
 21
111.088020856063
 31
0.0
  0
LINE
  5
7A3A
330
18
100
AcDbEntity
  8
contour
100
AcDbLine
 10
119.4999999999999
 20
116.5480208560632
 30
0.0
 11
119.4999999999999
 21
110.5480208560632
 31
0.0
  0
LINE
  5
7A3B
330
18
100
AcDbEntity
  8
contour
100
AcDbLine
 10
121.9999999999999
 20
115.0480208560632
 30
0.0
 11
123.9999999999999
 21
115.0480208560632
 31
0.0
  0
LINE
  5
7A3C
330
18
100
AcDbEntity
  8
contour
100
AcDbLine
 10
121.9999999999999
 20
112.0480208560632
 30
0.0
 11
123.9999999999999
 21
112.0480208560632
 31
0.0
  0
LINE
  5
7A3D
330
18
100
AcDbEntity
  8
contour
100
AcDbLine
 10
121.9999999999999
 20
115.0480208560632
 30
0.0
 11
121.9999999999999
 21
112.0480208560632
 31
0.0
  0
LINE
  5
7A3E
330
18
100
AcDbEntity
  8
contour
100
AcDbLine
 10
121.9999999999999
 20
115.0480208560632
 30
0.0
 11
121.4993278334879
 21
113.5566514810434
 31
0.0
  0
LINE
  5
7A3F
330
18
100
AcDbEntity
  8
contour
100
AcDbLine
 10
121.4993278334879
 20
113.5566514810434
 30
0.0
 11
121.9999999999999
 21
112.0480208560632
 31
0.0
  0
LINE
  5
7A40
330
18
100
AcDbEntity
  8
contour
 62
     4
100
AcDbLine
 10
118.96
 20
116.0080208560633
 30
0.0
 11
123.9999999999999
 21
116.0080208560633
 31
0.0
  0
LINE
  5
7A41
330
18
100
AcDbEntity
  8
contour
 62
     4
100
AcDbLine
 10
118.96
 20
111.088020856063
 30
0.0
 11
124.0
 21
111.088020856063
 31
0.0
  0
LINE
  5
7A42
330
18
100
AcDbEntity
  8
contour
100
AcDbLine
 10
123.0646925639129
 20
116.5480208560632
 30
0.0
 11
123.9999999999999
 21
116.0080208560633
 31
0.0
  0
LINE
  5
7A43
330
18
100
AcDbEntity
  8
contour
100
AcDbLine
 10
123.0646925639129
 20
110.5480208560632
 30
0.0
 11
123.9999999999999
 21
111.088020856063
 31
0.0
  0
LINE
  5
7A44
330
18
100
AcDbEntity
  8
contour
100
AcDbLine
 10
123.0646925639129
 20
116.5480208560632
 30
0.0
 11
123.0646925639129
 21
110.5480208560632
 31
0.0
  0
LWPOLYLINE
  5
7A45
330
18
100
AcDbEntity
  8
contour
100
AcDbPolyline
 90
        4
 70
     1
 43
0.0
 10
114.1879999999998
 20
116.1480208560632
 10
114.1879999999998
 20
110.9480208560633
 10
117.9999999999999
 20
110.9480208560632
 10
117.9999999999999
 20
116.1480208560632
  0
LINE
  5
7A47
330
18
100
AcDbEntity
  8
center
  6
CENTER
 48
0.15
100
AcDbLine
 10
113.1879999999998
 20
113.5480208560632
 30
0.0
 11
124.9999999999999
 21
113.5480208560632
 31
0.0
  0
LINE
  5
7A48
330
18
100
AcDbEntity
  8
contour
 62
     4
100
AcDbLine
 10
115.0000000000001
 20
110.5480208560633
 30
0.0
 11
115.0000000000001
 21
107.236020856063
 31
0.0
  0
DIMENSION
  5
903A
330
18
100
AcDbEntity
  8
mark
100
AcDbDimension
  2
*D3
 10
58.79187522147765
 20
198.2422087496771
 30
0.0
 11
56.74187522147763
 21
201.2422087496771
 31
0.0
 70
    32
 71
     5
 42
6.0
  3
STANDARD
100
AcDbAlignedDimension
 13
66.15558979628815
 23
204.242208749677
 33
0.0
 14
66.15558979628815
 24
198.242208749677
 34
0.0
 50
90.0
100
AcDbRotatedDimension
  0
MTEXT
  5
9049
330
18
100
AcDbEntity
  8
mark
 62
     3
100
AcDbMText
 10
54.38274614871978
 20
202.7179024228713
 30
0.0
 40
1.25
 41
0.0
 71
     1
 72
     1
  1
+0.15\P+0
 11
0.0000000000000001
 21
1.0
 31
0.0
 73
     1
 44
1.0
1001
ACAD
1000
ACAD_MTEXT_DEFINED_HEIGHT_BEGIN
1070
    46
1040
0.0
1000
ACAD_MTEXT_DEFINED_HEIGHT_END
  0
MTEXT
  5
904A
330
18
100
AcDbEntity
  8
mark
 62
     3
100
AcDbMText
 10
55.21607948205303
 20
207.9782994199571
 30
0.0
 40
2.5
 41
0.0
 71
     1
 72
     1
  1
(3{\Ftxt,bigfont|c128;等分\Ftxt,bigfont|c136;)}
 11
0.0000000000000001
 21
1.0
 31
0.0
 73
     1
 44
1.0
1001
ACAD
1000
ACAD_MTEXT_DEFINED_HEIGHT_BEGIN
1070
    46
1040
0.0
1000
ACAD_MTEXT_DEFINED_HEIGHT_END
  0
DIMENSION
  5
904B
330
18
100
AcDbEntity
  8
mark
100
AcDbDimension
  2
*D4
 10
66.15558979628815
 20
167.5627359567166
 30
0.0
 11
57.85558979628816
 21
169.6127359567167
 31
0.0
 70
    32
 71
     5
 42
2.5
  3
STANDARD
100
AcDbAlignedDimension
 13
68.65558979628815
 23
198.242208749677
 33
0.0
 14
66.15558979628815
 24
198.242208749677
 34
0.0
100
AcDbRotatedDimension
  0
MTEXT
  5
905A
330
18
100
AcDbEntity
  8
mark
 62
     3
100
AcDbMText
 10
61.1931453812
 20
171.4068778670351
 30
0.0
 40
1.25
 41
0.0
 71
     1
 72
     1
  1
+0.15\P+0
 73
     1
 44
1.0
1001
ACAD
1000
ACAD_MTEXT_DEFINED_HEIGHT_BEGIN
1070
    46
1040
0.0
1000
ACAD_MTEXT_DEFINED_HEIGHT_END
  0
DIMENSION
  5
905C
330
18
100
AcDbEntity
  8
mark
100
AcDbDimension
  2
*D5
 10
115.5000000000001
 20
128.5584776591581
 30
0.0
 11
95.00000000000012
 21
130.6084776591581
 31
0.0
 70
    32
  1
%%c41
 71
     5
 42
41.0
  3
STANDARD
100
AcDbAlignedDimension
 13
74.50000000000011
 23
120.5480208560632
 33
0.0
 14
115.5000000000001
 24
120.5480208560632
 34
0.0
100
AcDbRotatedDimension
  0
DIMENSION
  5
9069
330
18
100
AcDbEntity
  8
mark
100
AcDbDimension
  2
*D6
 10
121.0000000000001
 20
133.767935025199
 30
0.0
 11
95.00000000000012
 21
135.817935025199
 31
0.0
 70
    32
  1
%%c52%%p0.5
 71
     5
 42
52.0
  3
STANDARD
100
AcDbAlignedDimension
 13
69.00000000000011
 23
120.5480208560632
 33
0.0
 14
121.0000000000001
 24
120.5480208560632
 34
0.0
100
AcDbRotatedDimension
  0
DIMENSION
  5
9076
330
18
100
AcDbEntity
  8
mark
100
AcDbDimension
  2
*D7
 10
123.9999999999999
 20
138.9466954937666
 30
0.0
 11
95.0
 21
140.9966954937666
 31
0.0
 70
    32
  1
%%c58
 71
     5
 42
57.99999999999977
  3
STANDARD
100
AcDbAlignedDimension
 13
66.00000000000012
 23
118.5480208560632
 33
0.0
 14
123.9999999999999
 24
118.5480208560632
 34
0.0
100
AcDbRotatedDimension
  0
MTEXT
  5
9083
330
18
100
AcDbEntity
  8
mark
 62
     3
100
AcDbMText
 10
99.18306243751636
 20
142.8636467035562
 30
0.0
 40
1.25
 41
0.0
 71
     1
 72
     1
  1
+0\P-0.2
 73
     1
 44
1.0
1001
ACAD
1000
ACAD_MTEXT_DEFINED_HEIGHT_BEGIN
1070
    46
1040
0.0
1000
ACAD_MTEXT_DEFINED_HEIGHT_END
  0
DIMENSION
  5
909F
330
18
100
AcDbEntity
  8
mark
100
AcDbDimension
  2
*D8
 10
75.00000000000011
 20
92.7223965516598
 30
0.0
 11
95.00000000000012
 21
94.7723965516598
 31
0.0
 70
    32
  1
M40X1.5P
 71
     5
 42
40.0
  3
STANDARD
100
AcDbAlignedDimension
 13
115.0000000000001
 23
107.2980208560632
 33
0.0
 14
75.00000000000011
 24
107.2980208560634
 34
0.0
100
AcDbRotatedDimension
  0
LINE
  5
90AC
330
18
100
AcDbEntity
  8
mark
100
AcDbLine
 10
75.00000000000011
 20
91.9223965516598
 30
0.0
 11
75.00000000000011
 21
83.1723965516598
 31
0.0
  0
INSERT
  5
90AD
330
18
100
AcDbEntity
  8
mark
100
AcDbBlockReference
  2
A
 10
70.92073199585354
 20
87.56354165344237
 30
0.0
  0
DIMENSION
  5
90AE
330
18
100
AcDbEntity
  8
mark
100
AcDbDimension
  2
*D9
 10
134.8342380100772
 20
113.5480208560632
 30
0.0
 11
132.7842380100772
 21
117.0480208560632
 31
0.0
 70
    32
 71
     5
 42
7.0
  3
STANDARD
100
AcDbAlignedDimension
 13
121.0000000000001
 23
120.5480208560632
 33
0.0
 14
124.9999999999999
 24
113.5480208560632
 34
0.0
 50
90.0
100
AcDbRotatedDimension
  0
DIMENSION
  5
90BB
330
18
100
AcDbEntity
  8
mark
100
AcDbDimension
  2
*D10
 10
143.3053101821505
 20
106.5480208560632
 30
0.0
 11
141.2553101821504
 21
113.5480208560632
 31
0.0
 70
    32
  1
14%%P0.2
 71
     5
 42
14.0
  3
STANDARD
100
AcDbAlignedDimension
 13
121.0000000000001
 23
120.5480208560632
 33
0.0
 14
122.5
 24
106.5480208560632
 34
0.0
 50
90.0
100
AcDbRotatedDimension
  0
TOLERANCE
  5
90C8
330
18
100
AcDbEntity
  8
mark
100
AcDbFcf
  3
STANDARD
 10
148.3053101821505
 20
130.5480208560632
 30
0.0
  1
{\Fgdt;h}%%v0.005%%v%%vA%%v%%v
1001
ACAD
1000
DSTYLE
1002
{
1070
    41
1040
2.5
1070
    42
1040
0.8
1070
    43
1040
6.0
1070
    44
1040
0.8
1070
    73
1070
     0
1070
    74
1070
     0
1070
    78
1070
     8
1070
    79
1070
     2
1070
   140
1040
2.5
1070
   141
1040
0.0
1070
   144
1040
1.0
1070
   147
1040
0.8
1070
   176
1070
   256
1070
   177
1070
   256
1070
   178
1070
     3
1070
   271
1070
     1
1070
   272
1070
     1
1070
   341
1005
76D8
1070
   342
1005
76D8
1002
}
  0
LWPOLYLINE
  5
90C9
330
18
100
AcDbEntity
  8
mark
100
AcDbPolyline
 90
        3
 70
     0
 43
0.0
 10
143.3053101821505
 20
120.5480208560632
 10
143.3053101821505
 20
130.5480208560632
 10
148.3053101821505
 20
130.5480208560632
  0
LWPOLYLINE
  5
90CA
330
18
100
AcDbEntity
  8
dim
100
AcDbPolyline
 90
        7
 70
     1
 43
0.0
 10
101.253575817576
 20
123.0480208560633
 10
109.9138298554204
 20
123.0480208560633
 10
108.4704541824463
 20
120.5480208560632
 10
107.0270785094723
 20
123.0480208560633
 10
105.5837028364982
 20
120.5480208560632
 10
104.1403271635241
 20
123.0480208560633
 10
102.69695149055
 20
120.5480208560632
  0
MTEXT
  5
90CB
330
18
100
AcDbEntity
  8
mark
 62
     3
100
AcDbMText
 10
105.6043797545021
 20
125.1036972448161
 30
0.0
 40
2.5
 41
0.0
 71
     5
 72
     1
  1
G
 73
     1
 44
1.0
1001
ACAD
1000
ACAD_MTEXT_DEFINED_HEIGHT_BEGIN
1070
    46
1040
0.0
1000
ACAD_MTEXT_DEFINED_HEIGHT_END
  0
DIMENSION
  5
9102
330
18
100
AcDbEntity
  8
mark
100
AcDbDimension
  2
*D11
 10
58.79187522147765
 20
120.5480208560632
 30
0.0
 11
56.74187522147764
 21
128.6396875227298
 31
0.0
 70
    32
 71
     5
 42
0.5
  3
STANDARD
100
AcDbAlignedDimension
 13
67.50000000000011
 23
120.0480208560632
 33
0.0
 14
69.00000000000011
 24
120.5480208560632
 34
0.0
 50
90.0
100
AcDbRotatedDimension
  0
DIMENSION
  5
9111
330
18
100
AcDbEntity
  8
mark
100
AcDbDimension
  2
*D12
 10
67.50000000000113
 20
108.0480208560632
 30
0.0
 11
56.76376203898107
 21
100.2109206979174
 31
0.0
 70
    36
  1
2-R1.5
 71
     5
 42
1.500000000000468
  3
STANDARD
100
AcDbRadialDimension
 15
66.43933982822045
 25
106.9873606842836
 35
0.0
 40
0.0
1001
ACAD
1000
DSTYLE
1002
{
1070
   288
1070
     1
1002
}
  0
LEADER
  5
9121
330
18
100
AcDbEntity
  8
mark
100
AcDbLeader
  3
STANDARD
 76
     2
 10
114.938
 20
107.2980208560632
 30
0.0
 10
106.2693305161865
 20
98.6293513722485
 30
0.0
211
0.0000000000000001
221
-1.0
231
0.0
1001
ACAD
1000
DSTYLE
1002
{
1070
   147
1040
0.8
1070
    77
1070
     0
1002
}
  0
MTEXT
  5
9122
330
18
100
AcDbEntity
  8
mark
 62
     3
100
AcDbMText
 10
107.1591189250629
 20
102.4536081712812
 30
0.0
 40
2.5
 41
0.0
 71
     5
 72
     1
  1
C1.5
 11
0.7071067811862683
 21
0.7071067811868267
 31
0.0
 73
     1
 44
1.0
1001
ACAD
1000
ACAD_MTEXT_DEFINED_HEIGHT_BEGIN
1070
    46
1040
0.0
1000
ACAD_MTEXT_DEFINED_HEIGHT_END
  0
MTEXT
  5
9123
330
18
100
AcDbEntity
  8
mark
 62
     3
100
AcDbMText
 10
131.7591764100092
 20
133.3986204020526
 30
0.0
 40
3.5
 41
0.0
 71
     5
 72
     1
  1
2
 73
     1
 44
1.0
1001
ACAD
1000
ACAD_MTEXT_DEFINED_HEIGHT_BEGIN
1070
    46
1040
0.0
1000
ACAD_MTEXT_DEFINED_HEIGHT_END
  0
LEADER
  5
9124
330
18
100
AcDbEntity
  8
mark
100
AcDbLeader
  3
STANDARD
 76
     2
 10
123.9999999999999
 20
113.5480208560633
 30
0.0
 10
129.7646019370667
 20
131.5987455033735
 30
0.0
1001
ACAD
1000
DSTYLE
1002
{
1070
   147
1040
0.8
1070
    77
1070
     0
1002
}
  0
MTEXT
  5
9125
330
18
100
AcDbEntity
  8
mark
 62
     3
100
AcDbMText
 10
131.5341764100092
 20
97.34084757966076
 30
0.0
 40
3.5
 41
0.0
 71
     5
 72
     1
  1
3
 73
     1
 44
1.0
1001
ACAD
1000
ACAD_MTEXT_DEFINED_HEIGHT_BEGIN
1070
    46
1040
0.0
1000
ACAD_MTEXT_DEFINED_HEIGHT_END
  0
LEADER
  5
9126
330
18
100
AcDbEntity
  8
mark
100
AcDbLeader
  3
STANDARD
 76
     2
 10
116.0939999999999
 20
110.9480208560632
 30
0.0
 10
129.4632046898583
 20
97.57881616620483
 30
0.0
211
0.7071067811865476
221
0.7071067811865475
231
0.0
1001
ACAD
1000
DSTYLE
1002
{
1070
   147
1040
0.8
1070
    77
1070
     0
1002
}
  0
LEADER
  5
9127
330
18
100
AcDbEntity
  8
mark
100
AcDbLeader
  3
STANDARD
 76
     2
 10
115.5060966544099
 20
221.748305404087
 30
0.0
 10
129.7646019370667
 20
236.0068106867436
 30
0.0
211
0.8660254037844385
221
0.5000000000000005
231
0.0
1001
ACAD
1000
DSTYLE
1002
{
1070
   147
1040
0.8
1070
    77
1070
     0
1002
}
  0
MTEXT
  5
9128
330
18
100
AcDbEntity
  8
mark
 62
     3
100
AcDbMText
 10
131.1823694272318
 20
236.9083022447768
 30
0.0
 40
3.5
 41
0.0
 71
     5
 72
     1
  1
1
 73
     1
 44
1.0
1001
ACAD
1000
ACAD_MTEXT_DEFINED_HEIGHT_BEGIN
1070
    46
1040
0.0
1000
ACAD_MTEXT_DEFINED_HEIGHT_END
  0
HATCH
  5
926D
330
18
100
AcDbEntity
  8
section
100
AcDbHatch
 10
0.0
 20
0.0
 30
0.0
210
0.0
220
0.0
230
1.0
  2
ANSI31
 70
     0
 71
     0
 91
       10
 92
        7
 72
     0
 73
     1
 93
        9
 10
75.00000000000011
 20
119.0480208560629
 10
74.50000000000011
 20
119.5480208560632
 10
74.50000000000011
 20
120.5480208560632
 10
69.00000000000011
 20
120.5480208560632
 10
69.00000000000023
 20
120.0480208560632
 10
68.65558979628815
 20
120.0480208560632
 10
68.65558979628826
 20
106.5480208560632
 10
74.31200000000012
 20
106.5480208560631
 10
75.00000000000011
 20
107.2360208560632
 97
        0
 92
        7
 72
     0
 73
     1
 93
        4
 10
75.81200000000013
 20
118.2360208560629
 10
75.0
 20
119.0480208560631
 10
75.0
 20
107.2360208560631
 10
75.81200000000001
 20
108.0480208560632
 97
        0
 92
        7
 72
     1
 73
     1
 93
        9
 10
122.4999999999999
 20
120.0480208560632
 42
0.0
 10
121.0000000000002
 20
120.0480208560632
 42
0.0
 10
121.0000000000002
 20
120.5480208560632
 42
0.0
 10
115.5000000000001
 20
120.5480208560632
 42
0.0
 10
115.5000000000001
 20
119.5480208560632
 42
0.0
 10
115.0000000000001
 20
119.0480208560632
 42
0.0
 10
115.0
 20
116.5480208560632
 42
0.0
 10
123.9999999999999
 20
116.5480208560631
 42
0.0
 10
123.9999999999999
 20
118.5480208560632
 42
0.4142135623730951
 97
        0
 92
        7
 72
     1
 73
     1
 93
        6
 10
124.0
 20
110.5480208560631
 42
0.0
 10
115.0000000000001
 20
110.5480208560632
 42
0.0
 10
115.0000000000002
 20
107.2360208560631
 42
0.0
 10
115.688
 20
106.5480208560632
 42
0.0
 10
122.5
 20
106.5480208560632
 42
0.4142135623730951
 10
124.0
 20
108.0480208560632
 42
0.0
 97
        0
 92
        7
 72
     0
 73
     1
 93
        4
 10
115.0000000000001
 20
119.0480208560632
 10
114.1880000000001
 20
118.2360208560631
 10
114.188
 20
116.5480208560632
 10
115.0000000000001
 20
116.5480208560632
 97
        0
 92
        7
 72
     0
 73
     1
 93
        4
 10
115.0000000000001
 20
110.5480208560633
 10
114.188
 20
110.5480208560633
 10
114.188
 20
108.0480208560631
 10
115.0000000000001
 20
107.2360208560632
 97
        0
 92
        7
 72
     0
 73
     1
 93
        6
 10
119.5
 20
116.5480208560632
 10
114.1880000000001
 20
116.5480208560632
 10
114.1880000000001
 20
116.1480208560633
 10
117.9999999999997
 20
116.1480208560632
 10
117.9999999999997
 20
116.0080208560633
 10
118.96
 20
116.0080208560634
 97
        0
 92
        7
 72
     0
 73
     1
 93
        6
 10
118.9600000000001
 20
111.088020856063
 10
117.9999999999999
 20
111.0880208560631
 10
117.9999999999999
 20
110.9480208560632
 10
114.1880000000001
 20
110.9480208560633
 10
114.188
 20
110.5480208560632
 10
119.4999999999998
 20
110.5480208560632
 97
        0
 92
        7
 72
     0
 73
     1
 93
        3
 10
124.0
 20
111.0880208560631
 10
123.0646925639129
 20
110.5480208560632
 10
124.0
 20
110.5480208560632
 97
        0
 92
        7
 72
     0
 73
     1
 93
        3
 10
123.9999999999999
 20
116.5480208560632
 10
123.0646925639125
 20
116.5480208560632
 10
124.0
 20
116.0080208560632
 97
        0
 75
     0
 76
     1
 52
0.0
 41
0.5
 77
     0
 78
     1
 53
45.0
 43
-482.6393020859126
 44
-264.7216058887943
 45
-1.122532015133643
 46
1.122532015133644
 79
     0
 47
0.1694093844770815
 98
       10
 10
70.95134780146702
 20
116.2990057922812
 10
75.48158718465185
 20
114.7893823776513
 10
118.7247831003054
 20
119.8672072536623
 10
123.1177425397533
 20
108.339171442395
 10
114.6848271049906
 20
117.1851778393483
 10
114.5434506588952
 20
109.6474006454624
 10
118.1815948227184
 20
116.2469781292853
 10
118.4785652065985
 20
110.7711835765425
 10
123.8240271569922
 20
110.639237046296
 10
123.7250378556065
 20
116.3789246595319
1001
ACAD
1010
0.0
1020
0.0
1030
0.0
  0
DIMENSION
  5
942D
330
18
100
AcDbEntity
  8
mark
100
AcDbDimension
  2
*D13
 10
86.33112825850947
 20
119.5480208560632
 30
0.0
 11
84.28112825850943
 21
113.3313541893965
 31
0.0
 70
    32
 71
     5
  3
STANDARD
100
AcDbAlignedDimension
 13
86.33112825850947
 23
120.5480208560632
 33
0.0
 14
86.33112825850947
 24
119.5480208560632
 34
0.0
 50
90.0
100
AcDbRotatedDimension
  0
MTEXT
  5
9457
330
18
100
AcDbEntity
  8
0
100
AcDbMText
 10
47.65097232190476
 20
19.07605901616614
 30
0.0
 40
4.5
 41
0.0
 71
     1
 72
     5
  1
{\Ftxt,bigfont|c128;小\~柳}
  7
JL
 73
     1
 44
1.0
1001
ACAD
1000
ACAD_MTEXT_DEFINED_HEIGHT_BEGIN
1070
    46
1040
0.0
1000
ACAD_MTEXT_DEFINED_HEIGHT_END
  0
ENDSEC
  0
SECTION
  2
OBJECTS
  0
DICTIONARY
  5
C
330
0
100
AcDbDictionary
281
     1
  3
ACAD_COLOR
350
755C
  3
ACAD_GROUP
350
D
  3
ACAD_LAYOUT
350
5CF3
  3
ACAD_MATERIAL
350
755B
  3
ACAD_MLINESTYLE
350
1B
  3
ACAD_PLOTSETTINGS
350
5CF4
  3
ACAD_PLOTSTYLENAME
350
5CF1
  3
ACAD_TABLESTYLE
350
755D
  3
ACDBVARIABLEDICTIONARY
350
45D
  0
DICTIONARY
  5
759A
330
2
100
AcDbDictionary
280
     1
281
     1
  3
ACAD_LAYERFILTERS
360
759C
  3
ACLYDICTIONARY
360
759B
  0
DICTIONARY
  5
45F
330
18
100
AcDbDictionary
280
     1
281
     1
  3
ACAD_LAYOUTSELFREF
360
5D8B
  3
ACAD_SORTENTS
360
460
  0
DICTIONARY
  5
5D89
330
15
100
AcDbDictionary
280
     1
281
     1
  3
ACAD_LAYOUTSELFREF
360
5D8A
  0
DICTIONARY
  5
76DF
330
76DE
100
AcDbDictionary
280
     1
281
     1
  3
AcDbBlockTableRecordData
360
76E0
  0
DICTIONARY
  5
755C
102
{ACAD_REACTORS
330
C
102
}
330
C
100
AcDbDictionary
281
     1
  0
DICTIONARY
  5
D
102
{ACAD_REACTORS
330
C
102
}
330
C
100
AcDbDictionary
281
     1
  0
DICTIONARY
  5
5CF3
102
{ACAD_REACTORS
330
C
102
}
330
C
100
AcDbDictionary
281
     1
  3
Model
350
5CF5
  3
配置1
350
5CF6
  0
DICTIONARY
  5
755B
102
{ACAD_REACTORS
330
C
102
}
330
C
100
AcDbDictionary
281
     1
  0
DICTIONARY
  5
1B
102
{ACAD_REACTORS
330
C
102
}
330
C
100
AcDbDictionary
281
     1
  3
STANDARD
350
1C
  0
DICTIONARY
  5
5CF4
102
{ACAD_REACTORS
330
C
102
}
330
C
100
AcDbDictionary
281
     1
  0
ACDBDICTIONARYWDFLT
  5
5CF1
102
{ACAD_REACTORS
330
C
102
}
330
C
100
AcDbDictionary
281
     1
  3
Normal
350
5CF2
100
AcDbDictionaryWithDefault
340
5CF2
  0
DICTIONARY
  5
755D
102
{ACAD_REACTORS
330
C
102
}
330
C
100
AcDbDictionary
281
     1
  3
Standard
350
755E
  0
DICTIONARY
  5
45D
102
{ACAD_REACTORS
330
C
102
}
330
C
100
AcDbDictionary
281
     1
  3
CTABLESTYLE
350
7569
  3
SORTENTS
350
45E
  0
DICTIONARY
  5
759C
102
{ACAD_REACTORS
330
759A
102
}
330
759A
100
AcDbDictionary
281
     1
  0
DICTIONARY
  5
759B
102
{ACAD_REACTORS
330
759A
102
}
330
759A
100
AcDbDictionary
281
     1
1001
ACAD
1000
<All
  0
XRECORD
  5
5D8B
102
{ACAD_REACTORS
330
45F
102
}
330
45F
100
AcDbXrecord
280
     1
340
18
  0
SORTENTSTABLE
  5
460
102
{ACAD_REACTORS
330
45F
102
}
330
45F
100
AcDbSortentsTable
330
18
331
7854
  5
7858
331
9049
  5
904B
331
79FB
  5
79FF
331
785C
  5
7860
331
C0
  5
CB
331
7A3A
  5
7A40
331
7864
  5
7868
331
7A03
  5
7A0A
331
9127
  5
91E4
331
7A42
  5
7A48
331
786C
  5
7870
331
90C8
  5
90CA
331
7874
  5
7878
331
9069
  5
9083
331
787C
  5
7880
331
76C6
  5
76CA
331
7A13
  5
7A1B
331
903A
  5
904A
331
7884
  5
7888
331
7845
  5
7849
331
76CE
  5
783F
331
7A1B
  5
7A20
331
784D
  5
7851
331
788C
  5
7890
331
7A23
  5
7A33
331
7855
  5
7859
331
904A
  5
905A
331
905A
  5
9069
331
785D
  5
7861
331
79FC
  5
7A00
331
7A33
  5
7A39
331
7A3B
  5
7A41
331
7865
  5
7869
331
7A04
  5
7A0B
331
9128
  5
9229
331
7A43
  5
7A49
331
786D
  5
7871
331
90C9
  5
90CB
331
7875
  5
7879
331
7A0C
  5
7A0E
331
787D
  5
7881
331
783E
  5
7842
331
76C7
  5
76D0
331
7A14
  5
7A1C
331
7846
  5
784A
331
76CF
  5
7840
331
7885
  5
7889
331
7A1C
  5
7A21
331
9111
  5
9122
331
788D
  5
7891
331
784E
  5
7852
331
7A24
  5
7A23
331
7856
  5
785A
331
904B
  5
905C
331
9121
  5
9123
331
7A34
  5
7A3A
331
785E
  5
7862
331
79FD
  5
7A01
331
7A3C
  5
7A42
331
7866
  5
786A
331
7A05
  5
7A0C
331
7A44
  5
7A4A
331
786E
  5
7872
331
90CA
  5
9102
331
7A0D
  5
7A0F
331
7876
  5
787A
331
9102
  5
9121
331
7A15
  5
7A1D
331
787E
  5
7882
331
76C8
  5
76D4
331
783F
  5
7843
331
9083
  5
90AC
331
7A1D
  5
7A24
331
7886
  5
788A
331
7847
  5
784B
331
76D0
  5
7841
331
784F
  5
7853
331
788E
  5
7892
331
7A2D
  5
7A34
331
7857
  5
785B
331
9122
  5
9124
331
905C
  5
9076
331
7A35
  5
7A3B
331
79FE
  5
7A02
331
785F
  5
7863
331
90BB
  5
90C9
331
7A3D
  5
7A43
331
7867
  5
786B
331
7A45
  5
903A
331
786F
  5
7873
331
90CB
  5
9111
331
7A0E
  5
7A14
331
7877
  5
787B
331
7A16
  5
7A1E
331
76C9
  5
76D2
331
7840
  5
7844
331
787F
  5
7883
331
7A1E
  5
7A2D
331
7887
  5
788B
331
76D1
  5
76C4
331
7848
  5
784C
331
788F
  5
7893
331
7850
  5
7854
331
7A2E
  5
7A35
331
7858
  5
785C
331
90AC
  5
90AE
331
7A36
  5
7A3C
331
79FF
  5
7A03
331
7860
  5
7864
331
9123
  5
9125
331
7868
  5
786C
331
7A3E
  5
7A44
331
7870
  5
7874
331
7A0F
  5
7A16
331
76C2
  5
76C2
331
7878
  5
787C
331
7A17
  5
7A19
331
7880
  5
7884
331
76CA
  5
76D5
331
7841
  5
7845
331
7A1F
  5
7A2E
331
7888
  5
788C
331
76D2
  5
76C3
331
7849
  5
784D
331
7851
  5
7855
331
7890
  5
7894
331
7A2F
  5
7A36
331
7859
  5
785D
331
9124
  5
9126
331
90AD
  5
90BB
331
7A37
  5
7A3D
331
7861
  5
7865
331
7A00
  5
7A04
331
7A3F
  5
7A45
331
7869
  5
786D
331
7A47
  5
9049
331
7871
  5
7875
331
7A10
  5
7A18
331
76C3
  5
76C6
331
7879
  5
787D
331
9076
  5
909F
331
7A18
  5
7A17
331
76CB
  5
76D6
331
7842
  5
7846
331
7881
  5
7885
331
7889
  5
788D
331
784A
  5
784E
331
7852
  5
7856
331
7A30
  5
7A37
331
785A
  5
785E
331
9125
  5
9127
331
90AE
  5
90C8
331
7A38
  5
7A3E
331
7862
  5
7866
331
7A01
  5
7A05
331
7A40
  5
7A46
331
786A
  5
786E
331
7A48
  5
7A2F
331
7A09
  5
7A0D
331
7872
  5
7876
331
7A11
  5
7A1A
331
787A
  5
787E
331
76C4
  5
76C7
331
926D
  5
7A13
331
7A19
  5
7A15
331
7882
  5
7886
331
7843
  5
7847
331
76CC
  5
76D7
331
7A21
  5
7A30
331
788A
  5
788E
331
784B
  5
784F
331
909F
  5
90AD
331
7853
  5
7857
331
79FA
  5
79FE
331
785B
  5
785F
331
7A31
  5
7A38
331
7A39
  5
7A3F
331
7863
  5
7867
331
7A02
  5
7A09
331
9126
  5
9128
331
7A41
  5
7A47
331
786B
  5
786F
331
7873
  5
7877
331
787B
  5
787F
331
76C5
  5
76C8
331
7A1A
  5
7A1F
331
7844
  5
7848
331
76CD
  5
783E
331
7883
  5
7887
331
7A22
  5
7A31
331
788B
  5
788F
331
784C
  5
7850
  0
XRECORD
  5
5D8A
102
{ACAD_REACTORS
330
5D89
102
}
330
5D89
100
AcDbXrecord
280
     1
340
15
  0
DICTIONARY
  5
76E0
102
{ACAD_REACTORS
330
76DF
102
}
330
76DF
100
AcDbDictionary
280
     1
281
     1
  3
Edit
360
76E1
  0
LAYOUT
  5
5CF5
102
{ACAD_REACTORS
330
5CF3
102
}
330
5CF3
100
AcDbPlotSettings
  1

  2
none_device
  4
ISO_A4_(210.00_x_297.00_MM)
  6

 40
7.5
 41
20.0
 42
7.5
 43
20.0
 44
210.0
 45
297.0
 46
0.0
 47
0.0
 48
0.0
 49
0.0
140
0.0
141
0.0
142
1.0
143
2.279832139870603
 70
 11952
 72
     1
 73
     1
 74
     0
  7
a.ctb
 75
     0
147
0.4386287843353051
 76
     0
 77
     2
 78
   300
148
156.738501358529
149
16.06237472935049
100
AcDbLayout
  1
Model
 70
     1
 71
     0
 10
0.0
 20
0.0
 11
12.0
 21
9.0
 12
0.0
 22
0.0
 32
0.0
 14
0.0
 24
0.0
 34
0.0
 15
0.0
 25
0.0
 35
0.0
146
0.0
 13
0.0
 23
0.0
 33
0.0
 16
1.0
 26
0.0
 36
0.0
 17
0.0
 27
1.0
 37
0.0
 76
     0
330
18
1001
ACAD_PSEXT
1000
なし
1000
なし
1000
適切ではありません
1000
新しいプロッタ環境設定名を選択しない限り、レイアウトは印刷されません。
1070
     0
  0
LAYOUT
  5
5CF6
102
{ACAD_REACTORS
330
5CF3
102
}
330
5CF3
100
AcDbPlotSettings
  1

  2
EPSON STYLUS COLOR 440
  4

  6

 40
0.0
 41
0.0
 42
0.0
 43
0.0
 44
0.0
 45
0.0
 46
0.0
 47
0.0
 48
0.0
 49
0.0
140
0.0
141
0.0
142
1.0
143
1.0
 70
   688
 72
     0
 73
     0
 74
     5
  7
a.ctb
 75
    16
147
1.0
 76
     0
 77
     2
 78
   300
148
0.0
149
0.0
100
AcDbLayout
  1
ｰtｸm1
 70
     1
 71
     1
 10
0.0
 20
0.0
 11
420.0
 21
297.0
 12
0.0
 22
0.0
 32
0.0
 14
1.000000000000000E+20
 24
1.000000000000000E+20
 34
1.000000000000000E+20
 15
-1.000000000000000E+20
 25
-1.000000000000000E+20
 35
-1.000000000000000E+20
146
0.0
 13
0.0
 23
0.0
 33
0.0
 16
1.0
 26
0.0
 36
0.0
 17
0.0
 27
1.0
 37
0.0
 76
     0
330
15
  0
MLINESTYLE
  5
1C
102
{ACAD_REACTORS
330
1B
102
}
330
1B
100
AcDbMlineStyle
  2
STANDARD
 70
     0
  3

 62
   256
 51
90.0
 52
90.0
 71
     2
 49
0.5
 62
   256
  6
BYLAYER
 49
-0.5
 62
   256
  6
BYLAYER
  0
ACDBPLACEHOLDER
  5
5CF2
102
{ACAD_REACTORS
330
5CF1
102
}
330
5CF1
  0
TABLESTYLE
  5
755E
102
{ACAD_REACTORS
330
755D
102
}
330
755D
100
AcDbTableStyle
  3
Standard
 70
     0
 71
     8
 40
1.5
 41
1.5
280
     0
281
     0
  7
STANDARD
140
4.5
170
     2
 62
     0
 63
     7
283
     0
274
    -2
284
     1
 64
     0
275
    -2
285
     1
 65
     0
276
    -2
286
     1
 66
     0
277
    -2
287
     1
 67
     0
278
    -2
288
     1
 68
     0
279
    -2
289
     1
 69
     0
  7
STANDARD
140
6.0
170
     5
 62
     0
 63
     7
283
     0
274
    -2
284
     1
 64
     0
275
    -2
285
     1
 65
     0
276
    -2
286
     1
 66
     0
277
    -2
287
     1
 67
     0
278
    -2
288
     1
 68
     0
279
    -2
289
     1
 69
     0
  7
STANDARD
140
4.5
170
     5
 62
     0
 63
     7
283
     0
274
    -2
284
     1
 64
     0
275
    -2
285
     1
 65
     0
276
    -2
286
     1
 66
     0
277
    -2
287
     1
 67
     0
278
    -2
288
     1
 68
     0
279
    -2
289
     1
 69
     0
  0
DICTIONARYVAR
  5
7569
102
{ACAD_REACTORS
330
45D
102
}
330
45D
100
DictionaryVariables
280
     0
  1
STANDARD
  0
DICTIONARYVAR
  5
45E
102
{ACAD_REACTORS
330
45D
102
}
330
45D
100
DictionaryVariables
280
     0
  1
127
  0
XRECORD
  5
76E1
102
{ACAD_REACTORS
330
76E0
102
}
330
76E0
100
AcDbXrecord
280
     1
1070
     0
1070
     1
1070
     1
  0
ENDSEC
  0
EOF
