  0
SECTION
  2
HEADER
  9
$ACADVER
  1
AC1018
  9
$ACADMAINTVER
 70
    76
  9
$DWGCODEPAGE
  3
ANSI_932
  9
$INSBASE
 10
0.0
 20
0.0
 30
0.0
  9
$EXTMIN
 10
0.0
 20
0.0
 30
0.0
  9
$EXTMAX
 10
190.0
 20
280.0
 30
3.838383838383842
  9
$LIMMIN
 10
0.0
 20
0.0
  9
$LIMMAX
 10
420.0
 20
297.0
  9
$ORTHOMODE
 70
     1
  9
$REGENMODE
 70
     1
  9
$FILLMODE
 70
     1
  9
$QTEXTMODE
 70
     0
  9
$MIRRTEXT
 70
     1
  9
$LTSCALE
 40
1.0
  9
$ATTMODE
 70
     1
  9
$TEXTSIZE
 40
2.5
  9
$TRACEWID
 40
1.0
  9
$TEXTSTYLE
  7
TXT
  9
$CLAYER
  8
0
  9
$CELTYPE
  6
BYLAYER
  9
$CECOLOR
 62
   256
  9
$CELTSCALE
 40
1.0
  9
$DISPSILH
 70
     0
  9
$DIMSCALE
 40
1.0
  9
$DIMASZ
 40
2.5
  9
$DIMEXO
 40
0.8
  9
$DIMDLI
 40
6.0
  9
$DIMRND
 40
0.0
  9
$DIMDLE
 40
0.0
  9
$DIMEXE
 40
0.8
  9
$DIMTP
 40
0.0
  9
$DIMTM
 40
0.0
  9
$DIMTXT
 40
2.5
  9
$DIMCEN
 40
0.0
  9
$DIMTSZ
 40
0.0
  9
$DIMTOL
 70
     0
  9
$DIMLIM
 70
     0
  9
$DIMTIH
 70
     0
  9
$DIMTOH
 70
     0
  9
$DIMSE1
 70
     0
  9
$DIMSE2
 70
     0
  9
$DIMTAD
 70
     3
  9
$DIMZIN
 70
     8
  9
$DIMBLK
  1
Open30
  9
$DIMASO
 70
     1
  9
$DIMSHO
 70
     1
  9
$DIMPOST
  1

  9
$DIMAPOST
  1

  9
$DIMALT
 70
     0
  9
$DIMALTD
 70
     2
  9
$DIMALTF
 40
25.4
  9
$DIMLFAC
 40
1.0
  9
$DIMTOFL
 70
     1
  9
$DIMTVP
 40
0.0
  9
$DIMTIX
 70
     0
  9
$DIMSOXD
 70
     0
  9
$DIMSAH
 70
     0
  9
$DIMBLK1
  1

  9
$DIMBLK2
  1

  9
$DIMSTYLE
  2
STANDARD
  9
$DIMCLRD
 70
   256
  9
$DIMCLRE
 70
   256
  9
$DIMCLRT
 70
     3
  9
$DIMTFAC
 40
1.0
  9
$DIMGAP
 40
0.8
  9
$DIMJUST
 70
     0
  9
$DIMSD1
 70
     0
  9
$DIMSD2
 70
     0
  9
$DIMTOLJ
 70
     1
  9
$DIMTZIN
 70
     0
  9
$DIMALTZ
 70
     0
  9
$DIMALTTZ
 70
     0
  9
$DIMUPT
 70
     0
  9
$DIMDEC
 70
     1
  9
$DIMTDEC
 70
     1
  9
$DIMALTU
 70
     2
  9
$DIMALTTD
 70
     2
  9
$DIMTXSTY
  7
STANDARD
  9
$DIMAUNIT
 70
     0
  9
$DIMADEC
 70
     0
  9
$DIMALTRND
 40
0.0
  9
$DIMAZIN
 70
     2
  9
$DIMDSEP
 70
    46
  9
$DIMATFIT
 70
     3
  9
$DIMFRAC
 70
     0
  9
$DIMLDRBLK
  1
Open30
  9
$DIMLUNIT
 70
     2
  9
$DIMLWD
 70
    -2
  9
$DIMLWE
 70
    -2
  9
$DIMTMOVE
 70
     0
  9
$LUNITS
 70
     2
  9
$LUPREC
 70
     2
  9
$SKETCHINC
 40
1.0
  9
$FILLETRAD
 40
1.5
  9
$AUNITS
 70
     0
  9
$AUPREC
 70
     2
  9
$MENU
  1
.
  9
$ELEVATION
 40
0.0
  9
$PELEVATION
 40
0.0
  9
$THICKNESS
 40
0.0
  9
$LIMCHECK
 70
     0
  9
$CHAMFERA
 40
1.5
  9
$CHAMFERB
 40
1.5
  9
$CHAMFERC
 40
1.75
  9
$CHAMFERD
 40
0.0174532925199433
  9
$SKPOLY
 70
     0
  9
$TDCREATE
 40
2451555.620234838
  9
$TDUCREATE
 40
2451555.245234838
  9
$TDUPDATE
 40
2455846.564568774
  9
$TDUUPDATE
 40
2455846.189568773
  9
$TDINDWG
 40
2.3915846991
  9
$TDUSRTIMER
 40
2.3915846991
  9
$USRTIMER
 70
     1
  9
$ANGBASE
 50
0.0
  9
$ANGDIR
 70
     0
  9
$PDMODE
 70
     0
  9
$PDSIZE
 40
0.0
  9
$PLINEWID
 40
0.0
  9
$SPLFRAME
 70
     0
  9
$SPLINETYPE
 70
     6
  9
$SPLINESEGS
 70
     8
  9
$HANDSEED
  5
90D2
  9
$SURFTAB1
 70
     6
  9
$SURFTAB2
 70
     6
  9
$SURFTYPE
 70
     6
  9
$SURFU
 70
     6
  9
$SURFV
 70
     6
  9
$UCSBASE
  2

  9
$UCSNAME
  2

  9
$UCSORG
 10
0.0
 20
0.0
 30
0.0
  9
$UCSXDIR
 10
1.0
 20
0.0
 30
0.0
  9
$UCSYDIR
 10
0.0
 20
1.0
 30
0.0
  9
$UCSORTHOREF
  2

  9
$UCSORTHOVIEW
 70
     1
  9
$UCSORGTOP
 10
0.0
 20
0.0
 30
0.0
  9
$UCSORGBOTTOM
 10
0.0
 20
0.0
 30
0.0
  9
$UCSORGLEFT
 10
0.0
 20
0.0
 30
0.0
  9
$UCSORGRIGHT
 10
0.0
 20
0.0
 30
0.0
  9
$UCSORGFRONT
 10
0.0
 20
0.0
 30
0.0
  9
$UCSORGBACK
 10
0.0
 20
0.0
 30
0.0
  9
$PUCSBASE
  2

  9
$PUCSNAME
  2

  9
$PUCSORG
 10
0.0
 20
0.0
 30
0.0
  9
$PUCSXDIR
 10
1.0
 20
0.0
 30
0.0
  9
$PUCSYDIR
 10
0.0
 20
1.0
 30
0.0
  9
$PUCSORTHOREF
  2

  9
$PUCSORTHOVIEW
 70
     0
  9
$PUCSORGTOP
 10
0.0
 20
0.0
 30
0.0
  9
$PUCSORGBOTTOM
 10
0.0
 20
0.0
 30
0.0
  9
$PUCSORGLEFT
 10
0.0
 20
0.0
 30
0.0
  9
$PUCSORGRIGHT
 10
0.0
 20
0.0
 30
0.0
  9
$PUCSORGFRONT
 10
0.0
 20
0.0
 30
0.0
  9
$PUCSORGBACK
 10
0.0
 20
0.0
 30
0.0
  9
$USERI1
 70
     0
  9
$USERI2
 70
     0
  9
$USERI3
 70
     0
  9
$USERI4
 70
     0
  9
$USERI5
 70
     0
  9
$USERR1
 40
0.0
  9
$USERR2
 40
0.0
  9
$USERR3
 40
0.0
  9
$USERR4
 40
0.0
  9
$USERR5
 40
0.0
  9
$WORLDVIEW
 70
     1
  9
$SHADEDGE
 70
     3
  9
$SHADEDIF
 70
    70
  9
$TILEMODE
 70
     1
  9
$MAXACTVP
 70
    48
  9
$PINSBASE
 10
0.0
 20
0.0
 30
0.0
  9
$PLIMCHECK
 70
     0
  9
$PEXTMIN
 10
1.000000000000000E+20
 20
1.000000000000000E+20
 30
1.000000000000000E+20
  9
$PEXTMAX
 10
-1.000000000000000E+20
 20
-1.000000000000000E+20
 30
-1.000000000000000E+20
  9
$PLIMMIN
 10
0.0
 20
0.0
  9
$PLIMMAX
 10
420.0
 20
297.0
  9
$UNITMODE
 70
     0
  9
$VISRETAIN
 70
     1
  9
$PLINEGEN
 70
     0
  9
$PSLTSCALE
 70
     1
  9
$TREEDEPTH
 70
  3020
  9
$CMLSTYLE
  2
STANDARD
  9
$CMLJUST
 70
     0
  9
$CMLSCALE
 40
20.0
  9
$PROXYGRAPHICS
 70
     1
  9
$MEASUREMENT
 70
     1
  9
$CELWEIGHT
370
    -1
  9
$ENDCAPS
280
     0
  9
$JOINSTYLE
280
     0
  9
$LWDISPLAY
290
     0
  9
$INSUNITS
 70
     0
  9
$HYPERLINKBASE
  1

  9
$STYLESHEET
  1
monochrome.ctb
  9
$XEDIT
290
     1
  9
$CEPSNTYPE
380
     0
  9
$PSTYLEMODE
290
     1
  9
$FINGERPRINTGUID
  2
{1CF51E8A-A506-11D4-A7D9-AF69F5C20846}
  9
$VERSIONGUID
  2
{7381F1DF-BFB6-4CBC-9088-21E03A3E6F50}
  9
$EXTNAMES
290
     1
  9
$PSVPSCALE
 40
0.0
  9
$OLESTARTUP
290
     0
  9
$SORTENTS
280
   127
  9
$INDEXCTL
280
     0
  9
$HIDETEXT
280
     0
  9
$XCLIPFRAME
290
     0
  9
$HALOGAP
280
     0
  9
$OBSCOLOR
 70
   257
  9
$OBSLTYPE
280
     0
  9
$INTERSECTIONDISPLAY
280
     0
  9
$INTERSECTIONCOLOR
 70
   257
  9
$DIMASSOC
280
     1
  9
$PROJECTNAME
  1

  0
ENDSEC
  0
SECTION
  2
CLASSES
  0
CLASS
  1
DICTIONARYVAR
  2
AcDbDictionaryVar
  3
ObjectDBX Classes
 90
        0
 91
        2
280
     0
281
     0
  0
CLASS
  1
SORTENTSTABLE
  2
AcDbSortentsTable
  3
ObjectDBX Classes
 90
        0
 91
        1
280
     0
281
     0
  0
CLASS
  1
ACDBDICTIONARYWDFLT
  2
AcDbDictionaryWithDefault
  3
ObjectDBX Classes
 90
        0
 91
        1
280
     0
281
     0
  0
CLASS
  1
TABLESTYLE
  2
AcDbTableStyle
  3
ObjectDBX Classes
 90
     2047
 91
        1
280
     0
281
     0
  0
ENDSEC
  0
SECTION
  2
TABLES
  0
TABLE
  2
VPORT
  5
8
330
0
100
AcDbSymbolTable
 70
     2
  0
VPORT
  5
90D1
330
8
100
AcDbSymbolTableRecord
100
AcDbViewportTableRecord
  2
*Active
 70
     0
 10
0.0
 20
0.0
 11
1.0
 21
1.0
 12
104.2015331437893
 22
143.8158407677966
 13
0.0
 23
0.0
 14
10.0
 24
10.0
 15
10.0
 25
10.0
 16
0.0
 26
0.0
 36
1.0
 17
0.0
 27
0.0
 37
0.0
 40
343.3398609024227
 41
2.47104247104247
 42
50.0
 43
0.0
 44
0.0
 50
0.0
 51
0.0
 71
     0
 72
 20000
 73
     1
 74
     1
 75
     0
 76
     0
 77
     0
 78
     0
281
     0
 65
     1
110
0.0
120
0.0
130
0.0
111
1.0
121
0.0
131
0.0
112
0.0
122
1.0
132
0.0
 79
     1
146
0.0
  0
ENDTAB
  0
TABLE
  2
LTYPE
  5
5
330
0
100
AcDbSymbolTable
 70
     7
  0
LTYPE
  5
12
330
5
100
AcDbSymbolTableRecord
100
AcDbLinetypeTableRecord
  2
BYBLOCK
 70
     0
  3

 72
    65
 73
     0
 40
0.0
  0
LTYPE
  5
13
330
5
100
AcDbSymbolTableRecord
100
AcDbLinetypeTableRecord
  2
BYLAYER
 70
     0
  3

 72
    65
 73
     0
 40
0.0
  0
LTYPE
  5
14
330
5
100
AcDbSymbolTableRecord
100
AcDbLinetypeTableRecord
  2
CONTINUOUS
 70
     0
  3
Solid line
 72
    65
 73
     0
 40
0.0
  0
LTYPE
  5
9D
330
5
100
AcDbSymbolTableRecord
100
AcDbLinetypeTableRecord
  2
CENTERX2
 70
     0
  3
Center (2x) ________  __  ________  __  _____
 72
    65
 73
     4
 40
101.6
 49
63.5
 74
     0
 49
-12.7
 74
     0
 49
12.7
 74
     0
 49
-12.7
 74
     0
  0
LTYPE
  5
A1
330
5
100
AcDbSymbolTableRecord
100
AcDbLinetypeTableRecord
  2
DASHED
 70
     0
  3
Dashed __ __ __ __ __ __ __ __ __ __ __ __ __ _
 72
    65
 73
     2
 40
19.05
 49
12.7
 74
     0
 49
-6.349999999999999
 74
     0
  0
LTYPE
  5
A2
330
5
100
AcDbSymbolTableRecord
100
AcDbLinetypeTableRecord
  2
DASHED2
 70
     0
  3
Dashed (.5x) _ _ _ _ _ _ _ _ _ _ _ _ _ _ _ _ _
 72
    65
 73
     2
 40
9.524999999999998
 49
6.349999999999999
 74
     0
 49
-3.174999999999999
 74
     0
  0
LTYPE
  5
A5
330
5
100
AcDbSymbolTableRecord
100
AcDbLinetypeTableRecord
  2
DIVIDE2
 70
     0
  3
Divide (.5x) __..__..__..__..__..__..__..__.._
 72
    65
 73
     6
 40
15.875
 49
6.349999999999999
 74
     0
 49
-3.174999999999999
 74
     0
 49
0.0
 74
     0
 49
-3.174999999999999
 74
     0
 49
0.0
 74
     0
 49
-3.174999999999999
 74
     0
  0
LTYPE
  5
650B
330
5
100
AcDbSymbolTableRecord
100
AcDbLinetypeTableRecord
  2
CENTER
 70
     0
  3
Center ____ _ ____ _ ____ _ ____ _ ____ _ ____
 72
    65
 73
     4
 40
50.8
 49
31.75
 74
     0
 49
-6.349999999999999
 74
     0
 49
6.349999999999999
 74
     0
 49
-6.349999999999999
 74
     0
  0
LTYPE
  5
650C
330
5
100
AcDbSymbolTableRecord
100
AcDbLinetypeTableRecord
  2
HIDDEN
 70
     0
  3
Hidden __ __ __ __ __ __ __ __ __ __ __ __ __ _
 72
    65
 73
     2
 40
9.524999999999998
 49
6.349999999999999
 74
     0
 49
-3.174999999999999
 74
     0
  0
ENDTAB
  0
TABLE
  2
LAYER
  5
2
102
{ACAD_XDICTIONARY
360
7467
102
}
330
0
100
AcDbSymbolTable
 70
     9
  0
LAYER
  5
E
330
2
100
AcDbSymbolTableRecord
100
AcDbLayerTableRecord
  2
0
 70
     0
 62
     7
  6
CONTINUOUS
370
    -3
390
5CF2
  0
LAYER
  5
B9
330
2
100
AcDbSymbolTableRecord
100
AcDbLayerTableRecord
  2
dim
 70
     0
 62
     3
  6
CONTINUOUS
370
    -3
390
5CF2
  0
LAYER
  5
F2
330
2
100
AcDbSymbolTableRecord
100
AcDbLayerTableRecord
  2
DEFPOINTS
 70
     0
 62
     7
  6
CONTINUOUS
290
     0
370
    -3
390
5CF2
  0
LAYER
  5
5F8B
330
2
100
AcDbSymbolTableRecord
100
AcDbLayerTableRecord
  2
mark
 70
     0
 62
     6
  6
CONTINUOUS
370
    -3
390
5CF2
  0
LAYER
  5
644E
330
2
100
AcDbSymbolTableRecord
100
AcDbLayerTableRecord
  2
frame
 70
     0
 62
     9
  6
CONTINUOUS
370
    -3
390
5CF2
  0
LAYER
  5
650D
330
2
100
AcDbSymbolTableRecord
100
AcDbLayerTableRecord
  2
center
 70
     0
 62
     1
  6
CENTER
370
    -3
390
5CF2
  0
LAYER
  5
650E
330
2
100
AcDbSymbolTableRecord
100
AcDbLayerTableRecord
  2
bowle
 70
     0
 62
     4
  6
HIDDEN
370
    -3
390
5CF2
  0
LAYER
  5
650F
330
2
100
AcDbSymbolTableRecord
100
AcDbLayerTableRecord
  2
contour
 70
     0
 62
     2
  6
CONTINUOUS
370
    -3
390
5CF2
  0
LAYER
  5
6510
330
2
100
AcDbSymbolTableRecord
100
AcDbLayerTableRecord
  2
section
 70
     0
 62
     5
  6
CONTINUOUS
370
    -3
390
5CF2
  0
ENDTAB
  0
TABLE
  2
STYLE
  5
3
330
0
100
AcDbSymbolTable
 70
     5
  0
STYLE
  5
F
330
3
100
AcDbSymbolTableRecord
100
AcDbTextStyleTableRecord
  2
STANDARD
 70
     0
 40
0.0
 41
1.0
 50
0.0
 71
     0
 42
2.5
  3
txt
  4

  0
STYLE
  5
BE
330
3
100
AcDbSymbolTableRecord
100
AcDbTextStyleTableRecord
  2
ISOCP3
 70
     0
 40
0.0
 41
1.0
 50
0.0
 71
     0
 42
2.5
  3
isocp3.shx
  4

  0
STYLE
  5
2A37
330
3
100
AcDbSymbolTableRecord
100
AcDbTextStyleTableRecord
  2
TXT
 70
     0
 40
0.0
 41
1.0
 50
0.0
 71
     0
 42
2.5
  3
txt.shx
  4
bigfont.shx
  0
STYLE
  5
5DCB
330
3
100
AcDbSymbolTableRecord
100
AcDbTextStyleTableRecord
  2
LKK
 70
     0
 40
50.0
 41
1.5
 50
0.0
 71
     0
 42
50.0
  3
MS PGothic.ttf
  4

1001
ACAD
1000
MS PGothic
1071
    32818
  0
STYLE
  5
5DCC
330
3
100
AcDbSymbolTableRecord
100
AcDbTextStyleTableRecord
  2
JL
 70
     0
 40
10.0
 41
0.5
 50
0.0
 71
     0
 42
5.0
  3
MS Mincho.ttf
  4

1001
ACAD
1000
MS Mincho
1071
    32785
  0
ENDTAB
  0
TABLE
  2
VIEW
  5
6
330
0
100
AcDbSymbolTable
 70
     0
  0
ENDTAB
  0
TABLE
  2
UCS
  5
7
330
0
100
AcDbSymbolTable
 70
     0
  0
ENDTAB
  0
TABLE
  2
APPID
  5
9
330
0
100
AcDbSymbolTable
 70
    11
  0
APPID
  5
10
330
9
100
AcDbSymbolTableRecord
100
AcDbRegAppTableRecord
  2
ACAD
 70
     0
  0
APPID
  5
7188
330
9
100
AcDbSymbolTableRecord
100
AcDbRegAppTableRecord
  2
ACAD_EXEMPT_FROM_CAD_STANDARDS
 70
     0
  0
APPID
  5
7321
330
9
100
AcDbSymbolTableRecord
100
AcDbRegAppTableRecord
  2
ACAD_DSTYLE_DIMTEXT_FILL
 70
     0
  0
APPID
  5
7322
330
9
100
AcDbSymbolTableRecord
100
AcDbRegAppTableRecord
  2
ACAD_DSTYLE_DIMEXT_LENGTH
 70
     0
  0
APPID
  5
7323
330
9
100
AcDbSymbolTableRecord
100
AcDbRegAppTableRecord
  2
ACAD_DSTYLE_DIMEXT_ENABLED
 70
     0
  0
APPID
  5
7324
330
9
100
AcDbSymbolTableRecord
100
AcDbRegAppTableRecord
  2
ACAD_DSTYLE_DIM_LINETYPE
 70
     0
  0
APPID
  5
7325
330
9
100
AcDbSymbolTableRecord
100
AcDbRegAppTableRecord
  2
ACAD_DSTYLE_DIM_EXT1_LINETYPE
 70
     0
  0
APPID
  5
7326
330
9
100
AcDbSymbolTableRecord
100
AcDbRegAppTableRecord
  2
ACAD_DSTYLE_DIM_EXT2_LINETYPE
 70
     0
  0
APPID
  5
7626
330
9
100
AcDbSymbolTableRecord
100
AcDbRegAppTableRecord
  2
ACAD_DSTYLE_DIMJOGGED_JOGANGLE_SYMBOL
 70
     0
  0
APPID
  5
7FBC
330
9
100
AcDbSymbolTableRecord
100
AcDbRegAppTableRecord
  2
ACAD_DSTYLE_DIMARC_LENGTH_SYMBOL
 70
     0
  0
APPID
  5
8E59
330
9
100
AcDbSymbolTableRecord
100
AcDbRegAppTableRecord
  2
ACAD_PSEXT
 70
     0
  0
ENDTAB
  0
TABLE
  2
DIMSTYLE
  5
A
330
0
100
AcDbSymbolTable
 70
     1
100
AcDbDimStyleTable
 71
     1
340
1A4
  0
DIMSTYLE
105
1A4
102
{ACAD_REACTORS
330
89DF
330
8A10
330
8A24
330
8A31
330
8A78
330
8A87
330
8A96
330
8AAD
330
8D80
330
8E63
330
8E72
102
}
330
A
100
AcDbSymbolTableRecord
100
AcDbDimStyleTableRecord
  2
STANDARD
 70
     0
 41
2.5
 42
0.8
 43
6.0
 44
0.8
 73
     0
 74
     0
 77
     3
 78
     8
 79
     2
140
2.5
141
0.0
147
0.8
172
     1
176
   256
177
   256
178
     3
271
     1
272
     1
340
F
341
8600
342
8600
1001
ACAD_DSTYLE_DIMEXT_LENGTH
1070
   378
1040
1.0
1001
ACAD_DSTYLE_DIMEXT_ENABLED
1070
   383
1070
     0
1001
ACAD_DSTYLE_DIMARC_LENGTH_SYMBOL
1070
   379
1070
     0
1001
ACAD_DSTYLE_DIMJOGGED_JOGANGLE_SYMBOL
1070
   384
1040
1.570796326794896
  0
ENDTAB
  0
TABLE
  2
BLOCK_RECORD
  5
1
330
0
100
AcDbSymbolTable
 70
    14
  0
BLOCK_RECORD
  5
18
102
{ACAD_XDICTIONARY
360
45F
102
}
330
1
100
AcDbSymbolTableRecord
100
AcDbBlockTableRecord
  2
*MODEL_SPACE
340
5CF5
  0
BLOCK_RECORD
  5
15
102
{ACAD_XDICTIONARY
360
5D89
102
}
330
1
100
AcDbSymbolTableRecord
100
AcDbBlockTableRecord
  2
*PAPER_SPACE
340
5CF6
  0
BLOCK_RECORD
  5
639D
330
1
100
AcDbSymbolTableRecord
100
AcDbBlockTableRecord
  2
A$C255C26A2
340
0
  0
BLOCK_RECORD
  5
8600
330
1
100
AcDbSymbolTableRecord
100
AcDbBlockTableRecord
  2
_Open30
340
0
102
{BLKREFS
331
8DD1
331
8DD2
331
8DDA
331
8DDB
331
8DE3
331
8DE4
331
8DEC
331
8DED
331
8E00
331
8E01
331
8E12
331
8E6A
331
8E6B
331
8E82
331
8E83
331
8E8C
331
8E8D
331
9083
331
9084
331
908F
331
9090
102
}
  0
BLOCK_RECORD
  5
89E0
330
1
100
AcDbSymbolTableRecord
100
AcDbBlockTableRecord
  2
*D2
340
0
  0
BLOCK_RECORD
  5
8A11
330
1
100
AcDbSymbolTableRecord
100
AcDbBlockTableRecord
  2
*D3
340
0
  0
BLOCK_RECORD
  5
8A25
330
1
100
AcDbSymbolTableRecord
100
AcDbBlockTableRecord
  2
*D4
340
0
  0
BLOCK_RECORD
  5
8A32
330
1
100
AcDbSymbolTableRecord
100
AcDbBlockTableRecord
  2
*D5
340
0
  0
BLOCK_RECORD
  5
8A79
330
1
100
AcDbSymbolTableRecord
100
AcDbBlockTableRecord
  2
*D6
340
0
  0
BLOCK_RECORD
  5
8A88
330
1
100
AcDbSymbolTableRecord
100
AcDbBlockTableRecord
  2
*D7
340
0
  0
BLOCK_RECORD
  5
8A97
330
1
100
AcDbSymbolTableRecord
100
AcDbBlockTableRecord
  2
*D8
340
0
  0
BLOCK_RECORD
  5
8AAE
330
1
100
AcDbSymbolTableRecord
100
AcDbBlockTableRecord
  2
*D9
340
0
  0
BLOCK_RECORD
  5
8B02
102
{ACAD_XDICTIONARY
360
8B03
102
}
330
1
100
AcDbSymbolTableRecord
100
AcDbBlockTableRecord
  2
A
340
0
310
2800000020000000200000000100080000000000000400000000000000000000000000000000000000000000000080000080000000808000800000008000800080800000C0C0C000C0DCC000F0CAA6000020400000206000002080000020A0000020C0000020E00000400000004020000040400000406000004080000040A0
310
000040C0000040E00000600000006020000060400000606000006080000060A0000060C0000060E00000800000008020000080400000806000008080000080A0000080C0000080E00000A0000000A0200000A0400000A0600000A0800000A0A00000A0C00000A0E00000C0000000C0200000C0400000C0600000C0800000C0
310
A00000C0C00000C0E00000E0000000E0200000E0400000E0600000E0800000E0A00000E0C00000E0E00040000000400020004000400040006000400080004000A0004000C0004000E00040200000402020004020400040206000402080004020A0004020C0004020E000404000004040200040404000404060004040800040
310
40A0004040C0004040E00040600000406020004060400040606000406080004060A0004060C0004060E00040800000408020004080400040806000408080004080A0004080C0004080E00040A0000040A0200040A0400040A0600040A0800040A0A00040A0C00040A0E00040C0000040C0200040C0400040C0600040C08000
310
40C0A00040C0C00040C0E00040E0000040E0200040E0400040E0600040E0800040E0A00040E0C00040E0E00080000000800020008000400080006000800080008000A0008000C0008000E00080200000802020008020400080206000802080008020A0008020C0008020E00080400000804020008040400080406000804080
310
008040A0008040C0008040E00080600000806020008060400080606000806080008060A0008060C0008060E00080800000808020008080400080806000808080008080A0008080C0008080E00080A0000080A0200080A0400080A0600080A0800080A0A00080A0C00080A0E00080C0000080C0200080C0400080C0600080C0
310
800080C0A00080C0C00080C0E00080E0000080E0200080E0400080E0600080E0800080E0A00080E0C00080E0E000C0000000C0002000C0004000C0006000C0008000C000A000C000C000C000E000C0200000C0202000C0204000C0206000C0208000C020A000C020C000C020E000C0400000C0402000C0404000C0406000C0
310
408000C040A000C040C000C040E000C0600000C0602000C0604000C0606000C0608000C060A000C060C000C060E000C0800000C0802000C0804000C0806000C0808000C080A000C080C000C080E000C0A00000C0A02000C0A04000C0A06000C0A08000C0A0A000C0A0C000C0A0E000C0C00000C0C02000C0C04000C0C06000
310
C0C08000C0C0A000F0FBFF00A4A0A000808080000000FF0000FF000000FFFF00FF000000FF00FF00FFFF0000FFFFFF0000000000000000000000000000000000000000000000000000000000000000000000000000000000000000000000000000000000000000000000000000000000000000000000000000000000000000
310
00000000000000000000000000000000000000000000000000000000000000000000000000000000000000000000000000000000000000000000000000000000000000000000000000000000000000000000000000000000000000000000000000000000000000000000000000000000000000000000000000000000000000
310
00000000000000000000000000000000000000000000000000000000000000000000000000000000000000000000000000000000000000000000000000000000000000000000000000000000000000000000000000000000000000000000000000000000000000000000000000000000000000000000000000000000000000
310
000000000000FDFDFDFDFDFDFDFDFDFDFDFD0000FD0000000000000000000000000000000000FD0000FA0000000000FA00FD0000FDFD00000000000000000000000000000000FD0000FA0000000000FA00FD0000FDFDFD000000000000000000000000000000FD0000FA0000000000FA00FD0000FDFDFDFD00000000000000
310
00000000000000FD0000FAFAFAFAFAFAFA00FD0000FDFDFDFDFD00000000000000000000000000FD000000FA00000000FA00FD0000FDFDFDFDFDFDFDFDFDFDFDFDFDFDFDFDFDFDFD000000FA000000FA0000FD0000FDFDFDFDFD00000000000000000000000000FD00000000FA0000FA0000FD0000FDFDFDFD000000000000
310
0000000000000000FD00000000FA00FA000000FD0000FDFD00000000000000000000000000000000FD0000000000FAFA000000FD0000FD0000000000000000000000000000000000FD0000000000FA00000000FD0000000000000000000000000000000000000000FDFDFDFDFDFDFDFDFDFDFDFD0000000000000000000000
310
00000000000000000000000000000000000000000000000000000000000000000000000000000000000000000000000000000000000000000000000000000000000000000000000000000000000000000000000000000000000000000000000000000000000000000000000000000000000000000000000000000000000000
310
00000000000000000000000000000000000000000000000000000000000000000000000000000000000000000000000000000000000000000000000000000000000000000000000000000000000000000000000000000000000000000000000000000000000000000000000000000000000000000000000000000000000000
310
0000000000000000000000000000000000000000000000000000000000000000000000000000000000000000000000000000000000000000
102
{BLKREFS
331
8B0E
102
}
  0
BLOCK_RECORD
  5
8D81
330
1
100
AcDbSymbolTableRecord
100
AcDbBlockTableRecord
  2
*D11
340
0
  0
BLOCK_RECORD
  5
8E64
330
1
100
AcDbSymbolTableRecord
100
AcDbBlockTableRecord
  2
*D12
340
0
  0
BLOCK_RECORD
  5
8E73
330
1
100
AcDbSymbolTableRecord
100
AcDbBlockTableRecord
  2
*D13
340
0
  0
ENDTAB
  0
ENDSEC
  0
SECTION
  2
BLOCKS
  0
BLOCK
  5
19
330
18
100
AcDbEntity
  8
0
100
AcDbBlockBegin
  2
*MODEL_SPACE
 70
     0
 10
0.0
 20
0.0
 30
0.0
  3
*MODEL_SPACE
  1

  0
ENDBLK
  5
1A
330
18
100
AcDbEntity
  8
0
100
AcDbBlockEnd
  0
BLOCK
  5
16
330
15
100
AcDbEntity
 67
     1
  8
0
100
AcDbBlockBegin
  2
*PAPER_SPACE
 70
     0
 10
0.0
 20
0.0
 30
0.0
  3
*PAPER_SPACE
  1

  0
ENDBLK
  5
17
330
15
100
AcDbEntity
 67
     1
  8
0
100
AcDbBlockEnd
  0
BLOCK
  5
63A1
330
639D
100
AcDbEntity
  8
0
100
AcDbBlockBegin
  2
A$C255C26A2
 70
     0
 10
0.0
 20
0.0
 30
0.0
  3
A$C255C26A2
  1

  0
LWPOLYLINE
  5
639E
330
639D
100
AcDbEntity
  8
0
100
AcDbPolyline
 90
        3
 70
     1
 43
0.0
 10
7.014806023851633
 20
0.0000006939811783
 10
5.611844869720698
 20
2.430000693981241
 10
8.417767177982568
 20
2.430000693981241
  0
LWPOLYLINE
  5
639F
330
639D
100
AcDbEntity
  8
0
100
AcDbPolyline
 90
        3
 70
     1
 43
0.0
 10
4.20888371558999
 20
0.0000006939811783
 10
2.805922561459283
 20
2.430000693981241
 10
5.611844869720698
 20
2.430000693981241
  0
LWPOLYLINE
  5
63A0
330
639D
100
AcDbEntity
  8
0
100
AcDbPolyline
 90
        3
 70
     1
 43
0.0
 10
1.402961407328348
 20
0.0000006939811783
 10
0.0000002531974133
 20
2.430000693981241
 10
2.805922561459283
 20
2.430000693981241
  0
ENDBLK
  5
63A2
330
639D
100
AcDbEntity
  8
0
100
AcDbBlockEnd
  0
BLOCK
  5
8604
330
8600
100
AcDbEntity
  8
0
100
AcDbBlockBegin
  2
_Open30
 70
     0
 10
0.0
 20
0.0
 30
0.0
  3
_Open30
  1

  0
LINE
  5
8601
330
8600
100
AcDbEntity
  8
0
  6
ByBlock
 62
     0
370
    -2
100
AcDbLine
 10
-1.0
 20
0.26794919
 30
0.0
 11
0.0
 21
0.0
 31
0.0
  0
LINE
  5
8602
330
8600
100
AcDbEntity
  8
0
  6
ByBlock
 62
     0
370
    -2
100
AcDbLine
 10
0.0
 20
0.0
 30
0.0
 11
-1.0
 21
-0.26794919
 31
0.0
  0
LINE
  5
8603
330
8600
100
AcDbEntity
  8
0
  6
ByBlock
 62
     0
370
    -2
100
AcDbLine
 10
0.0
 20
0.0
 30
0.0
 11
-1.0
 21
0.0
 31
0.0
  0
ENDBLK
  5
8605
330
8600
100
AcDbEntity
  8
0
100
AcDbBlockEnd
  0
BLOCK
  5
89EC
330
89E0
100
AcDbEntity
  8
0
100
AcDbBlockBegin
  2
*D2
 70
     1
 10
0.0
 20
0.0
 30
0.0
  3
*D2
  1

  0
LINE
  5
908A
330
89E0
100
AcDbEntity
  8
mark
370
    -2
100
AcDbLine
 10
76.14934053800698
 20
184.249018985673
 30
0.0
 11
76.14934053800698
 21
161.8548439683837
 31
0.0
  0
LINE
  5
908B
330
89E0
100
AcDbEntity
  8
mark
370
    -2
100
AcDbLine
 10
74.18227746348605
 20
183.988144415411
 30
0.0
 11
74.18227746348605
 21
161.8548439683837
 31
0.0
  0
LINE
  5
908C
330
89E0
100
AcDbEntity
  8
mark
370
    -2
100
AcDbLine
 10
78.64934053800698
 20
162.6548439683837
 30
0.0
 11
81.14934053800698
 21
162.6548439683837
 31
0.0
  0
LINE
  5
908D
330
89E0
100
AcDbEntity
  8
mark
370
    -2
100
AcDbLine
 10
71.68227746348605
 20
162.6548439683837
 30
0.0
 11
65.91561079681941
 21
162.6548439683837
 31
0.0
  0
LINE
  5
908E
330
89E0
100
AcDbEntity
  8
mark
370
    -2
100
AcDbLine
 10
76.14934053800698
 20
162.6548439683837
 30
0.0
 11
74.18227746348605
 21
162.6548439683837
 31
0.0
  0
INSERT
  5
908F
330
89E0
100
AcDbEntity
  8
mark
370
    -2
100
AcDbBlockReference
  2
_Open30
 10
76.14934053800698
 20
162.6548439683837
 30
0.0
 41
2.5
 42
2.5
 43
2.5
 50
180.0
  0
INSERT
  5
9090
330
89E0
100
AcDbEntity
  8
mark
370
    -2
100
AcDbBlockReference
  2
_Open30
 10
74.18227746348605
 20
162.6548439683837
 30
0.0
 41
2.5
 42
2.5
 43
2.5
  0
MTEXT
  5
9091
330
89E0
100
AcDbEntity
  8
mark
 62
     3
100
AcDbMText
 10
67.54894413015273
 20
164.7048439683837
 30
0.0
 40
2.5
 41
0.0
 71
     5
 72
     1
  1
\A1;2
 73
     1
 44
1.0
  0
POINT
  5
9092
330
89E0
100
AcDbEntity
  8
DEFPOINTS
 62
     0
100
AcDbPoint
 10
76.14934053800698
 20
185.049018985673
 30
0.0
  0
POINT
  5
9093
330
89E0
100
AcDbEntity
  8
DEFPOINTS
 62
     0
100
AcDbPoint
 10
74.18227746348605
 20
184.788144415411
 30
0.0
  0
POINT
  5
9094
330
89E0
100
AcDbEntity
  8
DEFPOINTS
 62
     0
100
AcDbPoint
 10
74.18227746348605
 20
162.6548439683837
 30
0.0
  0
ENDBLK
  5
89ED
330
89E0
100
AcDbEntity
  8
0
100
AcDbBlockEnd
  0
BLOCK
  5
8A1D
330
8A11
100
AcDbEntity
  8
0
100
AcDbBlockBegin
  2
*D3
 70
     1
 10
0.0
 20
0.0
 30
0.0
  3
*D3
  1

  0
LINE
  5
8DCC
330
8A11
100
AcDbEntity
  8
mark
370
    -2
100
AcDbLine
 10
73.34934053800698
 20
185.049018985673
 30
0.0
 11
65.11561079681936
 21
185.049018985673
 31
0.0
  0
LINE
  5
8DCD
330
8A11
100
AcDbEntity
  8
mark
370
    -2
100
AcDbLine
 10
73.34934053800704
 20
190.049018985673
 30
0.0
 11
65.11561079681936
 21
190.049018985673
 31
0.0
  0
LINE
  5
8DCE
330
8A11
100
AcDbEntity
  8
mark
370
    -2
100
AcDbLine
 10
65.91561079681935
 20
182.549018985673
 30
0.0
 11
65.91561079681935
 21
180.049018985673
 31
0.0
  0
LINE
  5
8DCF
330
8A11
100
AcDbEntity
  8
mark
370
    -2
100
AcDbLine
 10
65.91561079681935
 20
192.549018985673
 30
0.0
 11
65.91561079681935
 21
195.049018985673
 31
0.0
  0
LINE
  5
8DD0
330
8A11
100
AcDbEntity
  8
mark
370
    -2
100
AcDbLine
 10
65.91561079681935
 20
185.049018985673
 30
0.0
 11
65.91561079681935
 21
190.049018985673
 31
0.0
  0
INSERT
  5
8DD1
330
8A11
100
AcDbEntity
  8
mark
370
    -2
100
AcDbBlockReference
  2
_Open30
 10
65.91561079681935
 20
185.049018985673
 30
0.0
 41
2.5
 42
2.5
 43
2.5
 50
90.0
  0
INSERT
  5
8DD2
330
8A11
100
AcDbEntity
  8
mark
370
    -2
100
AcDbBlockReference
  2
_Open30
 10
65.91561079681935
 20
190.049018985673
 30
0.0
 41
2.5
 42
2.5
 43
2.5
 50
270.0
  0
MTEXT
  5
8DD3
330
8A11
100
AcDbEntity
  8
mark
 62
     3
100
AcDbMText
 10
63.86561079681932
 20
187.5490189856731
 30
0.0
 40
2.5
 41
0.0
 71
     5
 72
     1
  1
\A1;5
 11
0.0000000000000001
 21
1.0
 31
0.0
 73
     1
 44
1.0
  0
POINT
  5
8DD4
330
8A11
100
AcDbEntity
  8
DEFPOINTS
 62
     0
100
AcDbPoint
 10
74.14934053800698
 20
185.049018985673
 30
0.0
  0
POINT
  5
8DD5
330
8A11
100
AcDbEntity
  8
DEFPOINTS
 62
     0
100
AcDbPoint
 10
74.14934053800704
 20
190.049018985673
 30
0.0
  0
POINT
  5
8DD6
330
8A11
100
AcDbEntity
  8
DEFPOINTS
 62
     0
100
AcDbPoint
 10
65.91561079681935
 20
190.049018985673
 30
0.0
  0
ENDBLK
  5
8A1E
330
8A11
100
AcDbEntity
  8
0
100
AcDbBlockEnd
  0
BLOCK
  5
8A2F
330
8A25
100
AcDbEntity
  8
0
100
AcDbBlockBegin
  2
*D4
 70
     1
 10
0.0
 20
0.0
 30
0.0
  3
*D4
  1

  0
LINE
  5
8DD7
330
8A25
100
AcDbEntity
  8
mark
370
    -2
100
AcDbLine
 10
82.0
 20
110.5418496151598
 30
0.0
 11
82.0
 21
117.9692092919322
 31
0.0
  0
LINE
  5
8DD8
330
8A25
100
AcDbEntity
  8
mark
370
    -2
100
AcDbLine
 10
108.0
 20
110.5418496151598
 30
0.0
 11
108.0
 21
117.9692092919322
 31
0.0
  0
LINE
  5
8DD9
330
8A25
100
AcDbEntity
  8
mark
370
    -2
100
AcDbLine
 10
84.50000000000001
 20
117.1692092919322
 30
0.0
 11
105.5
 21
117.1692092919322
 31
0.0
  0
INSERT
  5
8DDA
330
8A25
100
AcDbEntity
  8
mark
370
    -2
100
AcDbBlockReference
  2
_Open30
 10
82.0
 20
117.1692092919322
 30
0.0
 41
2.5
 42
2.5
 43
2.5
 50
180.0
  0
INSERT
  5
8DDB
330
8A25
100
AcDbEntity
  8
mark
370
    -2
100
AcDbBlockReference
  2
_Open30
 10
108.0
 20
117.1692092919322
 30
0.0
 41
2.5
 42
2.5
 43
2.5
  0
MTEXT
  5
8DDC
330
8A25
100
AcDbEntity
  8
mark
 62
     3
100
AcDbMText
 10
95.0
 20
119.2192092919322
 30
0.0
 40
2.5
 41
0.0
 71
     5
 72
     1
  1
\A1;%%C26
 73
     1
 44
1.0
  0
POINT
  5
8DDD
330
8A25
100
AcDbEntity
  8
DEFPOINTS
 62
     0
100
AcDbPoint
 10
82.0
 20
109.7418496151599
 30
0.0
  0
POINT
  5
8DDE
330
8A25
100
AcDbEntity
  8
DEFPOINTS
 62
     0
100
AcDbPoint
 10
108.0
 20
109.7418496151599
 30
0.0
  0
POINT
  5
8DDF
330
8A25
100
AcDbEntity
  8
DEFPOINTS
 62
     0
100
AcDbPoint
 10
108.0
 20
117.1692092919322
 30
0.0
  0
ENDBLK
  5
8A30
330
8A25
100
AcDbEntity
  8
0
100
AcDbBlockEnd
  0
BLOCK
  5
8A3C
330
8A32
100
AcDbEntity
  8
0
100
AcDbBlockBegin
  2
*D5
 70
     1
 10
0.0
 20
0.0
 30
0.0
  3
*D5
  1

  0
LINE
  5
8DE0
330
8A32
100
AcDbEntity
  8
mark
370
    -2
100
AcDbLine
 10
77.0
 20
110.5418496151598
 30
0.0
 11
77.0
 21
123.2747550920134
 31
0.0
  0
LINE
  5
8DE1
330
8A32
100
AcDbEntity
  8
mark
370
    -2
100
AcDbLine
 10
113.0
 20
110.5418496151598
 30
0.0
 11
113.0
 21
123.2747550920134
 31
0.0
  0
LINE
  5
8DE2
330
8A32
100
AcDbEntity
  8
mark
370
    -2
100
AcDbLine
 10
79.5
 20
122.4747550920134
 30
0.0
 11
110.5
 21
122.4747550920134
 31
0.0
  0
INSERT
  5
8DE3
330
8A32
100
AcDbEntity
  8
mark
370
    -2
100
AcDbBlockReference
  2
_Open30
 10
77.0
 20
122.4747550920134
 30
0.0
 41
2.5
 42
2.5
 43
2.5
 50
180.0
  0
INSERT
  5
8DE4
330
8A32
100
AcDbEntity
  8
mark
370
    -2
100
AcDbBlockReference
  2
_Open30
 10
113.0
 20
122.4747550920134
 30
0.0
 41
2.5
 42
2.5
 43
2.5
  0
MTEXT
  5
8DE5
330
8A32
100
AcDbEntity
  8
mark
 62
     3
100
AcDbMText
 10
95.0
 20
124.5247550920134
 30
0.0
 40
2.5
 41
0.0
 71
     5
 72
     1
  1
\A1;%%C36%%P0.5
 73
     1
 44
1.0
  0
POINT
  5
8DE6
330
8A32
100
AcDbEntity
  8
DEFPOINTS
 62
     0
100
AcDbPoint
 10
77.0
 20
109.7418496151599
 30
0.0
  0
POINT
  5
8DE7
330
8A32
100
AcDbEntity
  8
DEFPOINTS
 62
     0
100
AcDbPoint
 10
113.0
 20
109.7418496151599
 30
0.0
  0
POINT
  5
8DE8
330
8A32
100
AcDbEntity
  8
DEFPOINTS
 62
     0
100
AcDbPoint
 10
113.0
 20
122.4747550920134
 30
0.0
  0
ENDBLK
  5
8A3D
330
8A32
100
AcDbEntity
  8
0
100
AcDbBlockEnd
  0
BLOCK
  5
8A83
330
8A79
100
AcDbEntity
  8
0
100
AcDbBlockBegin
  2
*D6
 70
     1
 10
0.0
 20
0.0
 30
0.0
  3
*D6
  1

  0
LINE
  5
8DE9
330
8A79
100
AcDbEntity
  8
mark
370
    -2
100
AcDbLine
 10
74.0
 20
108.5418496151598
 30
0.0
 11
74.0
 21
128.6645590881275
 31
0.0
  0
LINE
  5
8DEA
330
8A79
100
AcDbEntity
  8
mark
370
    -2
100
AcDbLine
 10
115.9999999999999
 20
108.5418496151604
 30
0.0
 11
115.9999999999999
 21
128.6645590881275
 31
0.0
  0
LINE
  5
8DEB
330
8A79
100
AcDbEntity
  8
mark
370
    -2
100
AcDbLine
 10
76.5
 20
127.8645590881274
 30
0.0
 11
113.4999999999999
 21
127.8645590881274
 31
0.0
  0
INSERT
  5
8DEC
330
8A79
100
AcDbEntity
  8
mark
370
    -2
100
AcDbBlockReference
  2
_Open30
 10
74.0
 20
127.8645590881274
 30
0.0
 41
2.5
 42
2.5
 43
2.5
 50
180.0
  0
INSERT
  5
8DED
330
8A79
100
AcDbEntity
  8
mark
370
    -2
100
AcDbBlockReference
  2
_Open30
 10
115.9999999999999
 20
127.8645590881274
 30
0.0
 41
2.5
 42
2.5
 43
2.5
  0
MTEXT
  5
8DEE
330
8A79
100
AcDbEntity
  8
mark
 62
     3
100
AcDbMText
 10
94.99999999999998
 20
129.9145590881275
 30
0.0
 40
2.5
 41
0.0
 71
     5
 72
     1
  1
\A1;%%C42
 73
     1
 44
1.0
  0
POINT
  5
8DEF
330
8A79
100
AcDbEntity
  8
DEFPOINTS
 62
     0
100
AcDbPoint
 10
74.0
 20
107.7418496151599
 30
0.0
  0
POINT
  5
8DF0
330
8A79
100
AcDbEntity
  8
DEFPOINTS
 62
     0
100
AcDbPoint
 10
115.9999999999999
 20
107.7418496151604
 30
0.0
  0
POINT
  5
8DF1
330
8A79
100
AcDbEntity
  8
DEFPOINTS
 62
     0
100
AcDbPoint
 10
115.9999999999999
 20
127.8645590881274
 30
0.0
  0
ENDBLK
  5
8A84
330
8A79
100
AcDbEntity
  8
0
100
AcDbBlockEnd
  0
BLOCK
  5
8A94
330
8A88
100
AcDbEntity
  8
0
100
AcDbBlockBegin
  2
*D7
 70
     1
 10
0.0
 20
0.0
 30
0.0
  3
*D7
  1

  0
LINE
  5
907E
330
8A88
100
AcDbEntity
  8
mark
370
    -2
100
AcDbLine
 10
74.7
 20
109.2418496151599
 30
0.0
 11
65.11561079681936
 21
109.2418496151599
 31
0.0
  0
LINE
  5
907F
330
8A88
100
AcDbEntity
  8
mark
370
    -2
100
AcDbLine
 10
76.2
 20
109.7418496151599
 30
0.0
 11
65.11561079681936
 21
109.7418496151599
 31
0.0
  0
LINE
  5
9080
330
8A88
100
AcDbEntity
  8
mark
370
    -2
100
AcDbLine
 10
65.91561079681935
 20
106.7418496151599
 30
0.0
 11
65.91561079681935
 21
104.2418496151598
 31
0.0
  0
LINE
  5
9081
330
8A88
100
AcDbEntity
  8
mark
370
    -2
100
AcDbLine
 10
65.91561079681935
 20
112.2418496151599
 30
0.0
 11
65.91561079681935
 21
120.9251829484932
 31
0.0
  0
LINE
  5
9082
330
8A88
100
AcDbEntity
  8
mark
370
    -2
100
AcDbLine
 10
65.91561079681935
 20
109.2418496151599
 30
0.0
 11
65.91561079681935
 21
109.7418496151599
 31
0.0
  0
INSERT
  5
9083
330
8A88
100
AcDbEntity
  8
mark
370
    -2
100
AcDbBlockReference
  2
_Open30
 10
65.91561079681935
 20
109.2418496151599
 30
0.0
 41
2.5
 42
2.5
 43
2.5
 50
90.0
  0
INSERT
  5
9084
330
8A88
100
AcDbEntity
  8
mark
370
    -2
100
AcDbBlockReference
  2
_Open30
 10
65.91561079681935
 20
109.7418496151599
 30
0.0
 41
2.5
 42
2.5
 43
2.5
 50
270.0
  0
MTEXT
  5
9085
330
8A88
100
AcDbEntity
  8
mark
 62
     3
100
AcDbMText
 10
63.86561079681933
 20
117.8335162818265
 30
0.0
 40
2.5
 41
0.0
 71
     5
 72
     1
  1
\A1;0.5
 11
0.0000000000000001
 21
1.0
 31
0.0
 73
     1
 44
1.0
  0
POINT
  5
9086
330
8A88
100
AcDbEntity
  8
DEFPOINTS
 62
     0
100
AcDbPoint
 10
75.5
 20
109.2418496151599
 30
0.0
  0
POINT
  5
9087
330
8A88
100
AcDbEntity
  8
DEFPOINTS
 62
     0
100
AcDbPoint
 10
77.0
 20
109.7418496151599
 30
0.0
  0
POINT
  5
9088
330
8A88
100
AcDbEntity
  8
DEFPOINTS
 62
     0
100
AcDbPoint
 10
65.91561079681935
 20
109.7418496151599
 30
0.0
  0
ENDBLK
  5
8A95
330
8A88
100
AcDbEntity
  8
0
100
AcDbBlockEnd
  0
BLOCK
  5
8AA2
330
8A97
100
AcDbEntity
  8
0
100
AcDbBlockBegin
  2
*D8
 70
     1
 10
0.0
 20
0.0
 30
0.0
  3
*D8
  1

  0
LINE
  5
8DFD
330
8A97
100
AcDbEntity
  8
mark
370
    -2
100
AcDbLine
 10
113.8
 20
109.7418496151599
 30
0.0
 11
132.0324092840118
 21
109.7418496151599
 31
0.0
  0
LINE
  5
8DFE
330
8A97
100
AcDbEntity
  8
mark
370
    -2
100
AcDbLine
 10
115.3000000000001
 20
97.74184961515988
 30
0.0
 11
132.0324092840118
 21
97.74184961515988
 31
0.0
  0
LINE
  5
8DFF
330
8A97
100
AcDbEntity
  8
mark
370
    -2
100
AcDbLine
 10
131.2324092840117
 20
107.2418496151599
 30
0.0
 11
131.2324092840117
 21
100.2418496151598
 31
0.0
  0
INSERT
  5
8E00
330
8A97
100
AcDbEntity
  8
mark
370
    -2
100
AcDbBlockReference
  2
_Open30
 10
131.2324092840117
 20
109.7418496151599
 30
0.0
 41
2.5
 42
2.5
 43
2.5
 50
90.0
  0
INSERT
  5
8E01
330
8A97
100
AcDbEntity
  8
mark
370
    -2
100
AcDbBlockReference
  2
_Open30
 10
131.2324092840117
 20
97.74184961515988
 30
0.0
 41
2.5
 42
2.5
 43
2.5
 50
270.0
  0
MTEXT
  5
8E02
330
8A97
100
AcDbEntity
  8
mark
 62
     3
100
AcDbMText
 10
129.1824092840117
 20
103.7418496151599
 30
0.0
 40
2.5
 41
0.0
 71
     5
 72
     1
  1
\A1;12%%P0.2
 11
0.0000000000000001
 21
1.0
 31
0.0
 73
     1
 44
1.0
  0
POINT
  5
8E03
330
8A97
100
AcDbEntity
  8
DEFPOINTS
 62
     0
100
AcDbPoint
 10
113.0
 20
109.7418496151599
 30
0.0
  0
POINT
  5
8E04
330
8A97
100
AcDbEntity
  8
DEFPOINTS
 62
     0
100
AcDbPoint
 10
114.5000000000001
 20
97.74184961515988
 30
0.0
  0
POINT
  5
8E05
330
8A97
100
AcDbEntity
  8
DEFPOINTS
 62
     0
100
AcDbPoint
 10
131.2324092840117
 20
97.74184961515988
 30
0.0
  0
ENDBLK
  5
8AA3
330
8A97
100
AcDbEntity
  8
0
100
AcDbBlockEnd
  0
BLOCK
  5
8AB8
330
8AAE
100
AcDbEntity
  8
0
100
AcDbBlockBegin
  2
*D9
 70
     1
 10
0.0
 20
0.0
 30
0.0
  3
*D9
  1

  0
LINE
  5
8E89
330
8AAE
100
AcDbEntity
  8
mark
370
    -2
100
AcDbLine
 10
82.5
 20
97.57984961515978
 30
0.0
 11
82.5
 21
82.5173773273836
 31
0.0
  0
LINE
  5
8E8A
330
8AAE
100
AcDbEntity
  8
mark
370
    -2
100
AcDbLine
 10
107.4999999999999
 20
97.57984961515978
 30
0.0
 11
107.4999999999999
 21
82.5173773273836
 31
0.0
  0
LINE
  5
8E8B
330
8AAE
100
AcDbEntity
  8
mark
370
    -2
100
AcDbLine
 10
85.0
 20
83.31737732738361
 30
0.0
 11
104.9999999999999
 21
83.31737732738361
 31
0.0
  0
INSERT
  5
8E8C
330
8AAE
100
AcDbEntity
  8
mark
370
    -2
100
AcDbBlockReference
  2
_Open30
 10
82.5
 20
83.31737732738361
 30
0.0
 41
2.5
 42
2.5
 43
2.5
 50
180.0
  0
INSERT
  5
8E8D
330
8AAE
100
AcDbEntity
  8
mark
370
    -2
100
AcDbBlockReference
  2
_Open30
 10
107.4999999999999
 20
83.31737732738361
 30
0.0
 41
2.5
 42
2.5
 43
2.5
  0
MTEXT
  5
8E8E
330
8AAE
100
AcDbEntity
  8
mark
 62
     3
100
AcDbMText
 10
94.99999999999994
 20
85.36737732738361
 30
0.0
 40
2.5
 41
0.0
 71
     5
 72
     1
  1
\A1;M25X1.5P
 73
     1
 44
1.0
  0
POINT
  5
8E8F
330
8AAE
100
AcDbEntity
  8
DEFPOINTS
 62
     0
100
AcDbPoint
 10
82.5
 20
98.37984961515978
 30
0.0
  0
POINT
  5
8E90
330
8AAE
100
AcDbEntity
  8
DEFPOINTS
 62
     0
100
AcDbPoint
 10
107.4999999999999
 20
98.37984961515978
 30
0.0
  0
POINT
  5
8E91
330
8AAE
100
AcDbEntity
  8
DEFPOINTS
 62
     0
100
AcDbPoint
 10
107.4999999999999
 20
83.31737732738361
 30
0.0
  0
ENDBLK
  5
8AB9
330
8AAE
100
AcDbEntity
  8
0
100
AcDbBlockEnd
  0
BLOCK
  5
8B06
330
8B02
100
AcDbEntity
  8
0
100
AcDbBlockBegin
  2
A
 70
     0
 10
0.0
 20
0.0
 30
0.0
  3
A
  1

  0
MTEXT
  5
8B08
330
8B02
100
AcDbEntity
  8
mark
 62
     3
100
AcDbMText
 10
10.65641897020822
 20
-5.596245361730467
 30
0.0
 40
2.5
 41
0.0
 71
     5
 72
     1
  1
A
 73
     1
 44
1.0
1001
ACAD
1000
ACAD_MTEXT_DEFINED_HEIGHT_BEGIN
1070
    46
1040
0.0
1000
ACAD_MTEXT_DEFINED_HEIGHT_END
  0
LWPOLYLINE
  5
8B09
330
8B02
100
AcDbEntity
  8
mark
100
AcDbPolyline
 90
        4
 70
     1
 43
0.0
 10
9.07926800414657
 20
-7.141145101782569
 10
12.07926800414657
 20
-7.141145101782569
 10
12.07926800414657
 20
-4.141145101782569
 10
9.07926800414657
 20
-4.141145101782569
  0
HATCH
  5
8B0A
330
8B02
100
AcDbEntity
  8
mark
100
AcDbHatch
 10
0.0
 20
0.0
 30
0.0
210
0.0
220
0.0
230
1.0
  2
SOLID
 70
     1
 71
     0
 91
        1
 92
        7
 72
     0
 73
     1
 93
        3
 10
5.32926800414657
 20
-5.641145101782569
 10
4.07926800414657
 20
-4.391145101782541
 10
4.07926800414657
 20
-6.891145101782541
 97
        0
 75
     0
 76
     1
 47
0.0398277943677868
 98
        1
 10
4.589689734415287
 20
-5.732163331855076
450
        0
451
        0
460
0.0
461
0.0
452
        1
462
1.0
453
        2
463
0.0
 63
     5
421
      255
463
1.0
 63
     7
421
 16777215
470
LINEAR
1001
ACAD
1010
0.0
1020
0.0
1030
0.0
  0
LINE
  5
8B0B
330
8B02
100
AcDbEntity
  8
mark
100
AcDbLine
 10
5.32926800414657
 20
-5.641145101782569
 30
0.0
 11
9.07926800414657
 21
-5.641145101782569
 31
0.0
  0
LINE
  5
8B0C
330
8B02
100
AcDbEntity
  8
mark
100
AcDbLine
 10
5.32926800414657
 20
-5.641145101782569
 30
0.0
 11
4.07926800414657
 21
-4.391145101782569
 31
0.0
  0
LINE
  5
8B0D
330
8B02
100
AcDbEntity
  8
mark
100
AcDbLine
 10
5.32926800414657
 20
-5.641145101782569
 30
0.0
 11
4.07926800414657
 21
-6.891145101782569
 31
0.0
  0
ENDBLK
  5
8B07
330
8B02
100
AcDbEntity
  8
0
100
AcDbBlockEnd
  0
BLOCK
  5
8D88
330
8D81
100
AcDbEntity
  8
0
100
AcDbBlockBegin
  2
*D11
 70
     1
 10
0.0
 20
0.0
 30
0.0
  3
*D11
  1

  0
LINE
  5
8E0F
330
8D81
100
AcDbEntity
  8
mark
370
    -2
100
AcDbLine
 10
61.52285595855117
 20
85.26470557370055
 30
0.0
 11
72.67157287525456
 21
96.41342249041294
 31
0.0
  0
MTEXT
  5
8E10
330
8D81
100
AcDbEntity
  8
mark
 62
     3
100
AcDbMText
 10
64.76376203898704
 20
91.40474945700502
 30
0.0
 40
2.5
 41
0.0
 71
     5
 72
     1
  1
\A1;2-R1.5
 11
0.7071067811862635
 21
0.7071067811868316
 31
0.0
 73
     1
 44
1.0
  0
LINE
  5
8E11
330
8D81
100
AcDbEntity
  8
mark
370
    -2
100
AcDbLine
 10
75.49999999999939
 20
99.24184961516001
 30
0.0
 11
74.43933982822023
 21
98.18118944338001
 31
0.0
  0
INSERT
  5
8E12
330
8D81
100
AcDbEntity
  8
mark
370
    -2
100
AcDbBlockReference
  2
_Open30
 10
74.43933982822023
 20
98.18118944338001
 30
0.0
 41
2.5
 42
2.5
 43
2.5
 50
45.00000000002302
  0
POINT
  5
8E13
330
8D81
100
AcDbEntity
  8
DEFPOINTS
 62
     0
100
AcDbPoint
 10
74.43933982822023
 20
98.18118944338001
 30
0.0
  0
POINT
  5
8E14
330
8D81
100
AcDbEntity
  8
DEFPOINTS
 62
     0
100
AcDbPoint
 10
75.49999999999939
 20
99.24184961516001
 30
0.0
  0
ENDBLK
  5
8D89
330
8D81
100
AcDbEntity
  8
0
100
AcDbBlockEnd
  0
BLOCK
  5
8E70
330
8E64
100
AcDbEntity
  8
0
100
AcDbBlockBegin
  2
*D12
 70
     1
 10
0.0
 20
0.0
 30
0.0
  3
*D12
  1

  0
LINE
  5
8E65
330
8E64
100
AcDbEntity
  8
mark
370
    -2
100
AcDbLine
 10
117.8
 20
103.7418496151599
 30
0.0
 11
123.7162046420059
 21
103.7418496151599
 31
0.0
  0
LINE
  5
8E66
330
8E64
100
AcDbEntity
  8
mark
370
    -2
100
AcDbLine
 10
113.8
 20
109.7418496151599
 30
0.0
 11
123.7162046420059
 21
109.7418496151599
 31
0.0
  0
LINE
  5
8E67
330
8E64
100
AcDbEntity
  8
mark
370
    -2
100
AcDbLine
 10
122.9162046420058
 20
101.2418496151598
 30
0.0
 11
122.9162046420058
 21
98.74184961515988
 31
0.0
  0
LINE
  5
8E68
330
8E64
100
AcDbEntity
  8
mark
370
    -2
100
AcDbLine
 10
122.9162046420058
 20
112.2418496151599
 30
0.0
 11
122.9162046420058
 21
114.7418496151598
 31
0.0
  0
LINE
  5
8E69
330
8E64
100
AcDbEntity
  8
mark
370
    -2
100
AcDbLine
 10
122.9162046420058
 20
103.7418496151599
 30
0.0
 11
122.9162046420058
 21
109.7418496151599
 31
0.0
  0
INSERT
  5
8E6A
330
8E64
100
AcDbEntity
  8
mark
370
    -2
100
AcDbBlockReference
  2
_Open30
 10
122.9162046420058
 20
103.7418496151599
 30
0.0
 41
2.5
 42
2.5
 43
2.5
 50
90.0
  0
INSERT
  5
8E6B
330
8E64
100
AcDbEntity
  8
mark
370
    -2
100
AcDbBlockReference
  2
_Open30
 10
122.9162046420058
 20
109.7418496151599
 30
0.0
 41
2.5
 42
2.5
 43
2.5
 50
270.0
  0
MTEXT
  5
8E6C
330
8E64
100
AcDbEntity
  8
mark
 62
     3
100
AcDbMText
 10
120.8662046420058
 20
106.7418496151599
 30
0.0
 40
2.5
 41
0.0
 71
     5
 72
     1
  1
\A1;6
 11
0.0000000000000001
 21
1.0
 31
0.0
 73
     1
 44
1.0
  0
POINT
  5
8E6D
330
8E64
100
AcDbEntity
  8
DEFPOINTS
 62
     0
100
AcDbPoint
 10
117.0
 20
103.7418496151599
 30
0.0
  0
POINT
  5
8E6E
330
8E64
100
AcDbEntity
  8
DEFPOINTS
 62
     0
100
AcDbPoint
 10
113.0
 20
109.7418496151599
 30
0.0
  0
POINT
  5
8E6F
330
8E64
100
AcDbEntity
  8
DEFPOINTS
 62
     0
100
AcDbPoint
 10
122.9162046420058
 20
109.7418496151599
 30
0.0
  0
ENDBLK
  5
8E71
330
8E64
100
AcDbEntity
  8
0
100
AcDbBlockEnd
  0
BLOCK
  5
8E7D
330
8E73
100
AcDbEntity
  8
0
100
AcDbBlockBegin
  2
*D13
 70
     1
 10
0.0
 20
0.0
 30
0.0
  3
*D13
  1

  0
LINE
  5
8E7F
330
8E73
100
AcDbEntity
  8
mark
370
    -2
100
AcDbLine
 10
89.58497025312203
 20
112.2418496151599
 30
0.0
 11
89.58497025312203
 21
114.7418496151598
 31
0.0
  0
LINE
  5
8E80
330
8E73
100
AcDbEntity
  8
mark
370
    -2
100
AcDbLine
 10
89.58497025312203
 20
106.2418496151598
 30
0.0
 11
89.58497025312203
 21
101.3085162818265
 31
0.0
  0
LINE
  5
8E81
330
8E73
100
AcDbEntity
  8
mark
370
    -2
100
AcDbLine
 10
89.58497025312203
 20
109.7418496151599
 30
0.0
 11
89.58497025312203
 21
108.7418496151598
 31
0.0
  0
INSERT
  5
8E82
330
8E73
100
AcDbEntity
  8
mark
370
    -2
100
AcDbBlockReference
  2
_Open30
 10
89.58497025312203
 20
109.7418496151599
 30
0.0
 41
2.5
 42
2.5
 43
2.5
 50
270.0
  0
INSERT
  5
8E83
330
8E73
100
AcDbEntity
  8
mark
370
    -2
100
AcDbBlockReference
  2
_Open30
 10
89.58497025312203
 20
108.7418496151598
 30
0.0
 41
2.5
 42
2.5
 43
2.5
 50
90.0
  0
MTEXT
  5
8E84
330
8E73
100
AcDbEntity
  8
mark
 62
     3
100
AcDbMText
 10
87.53497025312201
 20
102.5251829484932
 30
0.0
 40
2.5
 41
0.0
 71
     5
 72
     1
  1
\A1;1
 11
0.0000000000000001
 21
1.0
 31
0.0
 73
     1
 44
1.0
  0
POINT
  5
8E85
330
8E73
100
AcDbEntity
  8
DEFPOINTS
 62
     0
100
AcDbPoint
 10
89.58497025312203
 20
109.7418496151599
 30
0.0
  0
POINT
  5
8E86
330
8E73
100
AcDbEntity
  8
DEFPOINTS
 62
     0
100
AcDbPoint
 10
89.58497025312203
 20
108.7418496151598
 30
0.0
  0
POINT
  5
8E87
330
8E73
100
AcDbEntity
  8
DEFPOINTS
 62
     0
100
AcDbPoint
 10
89.58497025312203
 20
108.7418496151598
 30
0.0
  0
ENDBLK
  5
8E7E
330
8E73
100
AcDbEntity
  8
0
100
AcDbBlockEnd
  0
ENDSEC
  0
SECTION
  2
ENTITIES
  0
MTEXT
  5
C0
330
18
100
AcDbEntity
  8
0
100
AcDbMText
 10
41.26970765600413
 20
233.6950877649332
 30
0.0
 40
2.5
 41
0.0
 71
     1
 72
     5
  1

  7
ISOCP3
 73
     1
 44
1.0
  0
ARC
  5
73B6
330
18
100
AcDbEntity
  8
contour
100
AcDbCircle
 10
95.0
 20
187.549018985673
 30
0.0
 40
21.0
100
AcDbArc
 50
186.8371411681362
 51
293.1628588318631
  0
LINE
  5
73B8
330
18
100
AcDbEntity
  8
contour
100
AcDbLine
 10
74.14934053800698
 20
190.049018985673
 30
0.0
 11
76.14934053800698
 21
190.049018985673
 31
0.0
  0
LINE
  5
73B9
330
18
100
AcDbEntity
  8
contour
100
AcDbLine
 10
74.14934053800698
 20
185.049018985673
 30
0.0
 11
76.14934053800698
 21
185.049018985673
 31
0.0
  0
LINE
  5
73BA
330
18
100
AcDbEntity
  8
contour
100
AcDbLine
 10
76.14934053800698
 20
190.049018985673
 30
0.0
 11
76.14934053800698
 21
185.049018985673
 31
0.0
  0
LINE
  5
73BB
330
18
100
AcDbEntity
  8
center
  6
CENTER
 48
0.15
100
AcDbLine
 10
95.0
 20
209.5490189856731
 30
0.0
 11
95.0
 21
165.549018985673
 31
0.0
  0
LINE
  5
73BC
330
18
100
AcDbEntity
  8
contour
100
AcDbLine
 10
107.5903932404576
 20
170.7418182059287
 30
0.0
 11
106.5903932404576
 21
172.4738690134976
 31
0.0
  0
LINE
  5
73BD
330
18
100
AcDbEntity
  8
contour
100
AcDbLine
 10
103.2602662215354
 20
168.2418182059287
 30
0.0
 11
102.2602662215354
 21
169.9738690134976
 31
0.0
  0
LINE
  5
73BE
330
18
100
AcDbEntity
  8
contour
100
AcDbLine
 10
102.2602662215354
 20
169.9738690134976
 30
0.0
 11
106.5903932404576
 21
172.4738690134976
 31
0.0
  0
LINE
  5
73BF
330
18
100
AcDbEntity
  8
contour
100
AcDbLine
 10
103.2602662215354
 20
206.8562197654174
 30
0.0
 11
102.2602662215354
 21
205.1241689578485
 31
0.0
  0
LINE
  5
73C0
330
18
100
AcDbEntity
  8
contour
100
AcDbLine
 10
107.5903932404576
 20
204.3562197654174
 30
0.0
 11
106.5903932404576
 21
202.6241689578484
 31
0.0
  0
LINE
  5
73C1
330
18
100
AcDbEntity
  8
contour
100
AcDbLine
 10
106.5903932404576
 20
202.6241689578484
 30
0.0
 11
102.2602662215354
 21
205.1241689578485
 31
0.0
  0
ARC
  5
73C2
330
18
100
AcDbEntity
  8
contour
100
AcDbCircle
 10
95.0
 20
187.549018985673
 30
0.0
 40
21.0
100
AcDbArc
 50
66.83714116813679
 51
173.1628588318638
  0
ARC
  5
73C3
330
18
100
AcDbEntity
  8
contour
100
AcDbCircle
 10
95.0
 20
187.549018985673
 30
0.0
 40
21.0
100
AcDbArc
 50
306.8371411681367
 51
53.16285883186328
  0
CIRCLE
  5
73C4
330
18
100
AcDbEntity
  8
contour
100
AcDbCircle
 10
95.0
 20
187.549018985673
 30
0.0
 40
18.0
  0
ARC
  5
73C5
330
18
100
AcDbEntity
  8
contour
 62
     4
100
AcDbCircle
 10
95.0
 20
187.549018985673
 30
0.0
 40
12.5
100
AcDbArc
 50
170.7931037786542
 51
99.20689622134734
  0
CIRCLE
  5
73C7
330
18
100
AcDbEntity
  8
contour
100
AcDbCircle
 10
95.0
 20
187.549018985673
 30
0.0
 40
11.638
  0
LINE
  5
73C8
330
18
100
AcDbEntity
  8
center
  6
CENTER
 48
0.15
100
AcDbLine
 10
73.0
 20
187.5490189856731
 30
0.0
 11
117.0
 21
187.5490189856729
 31
0.0
  0
LINE
  5
73D7
330
18
100
AcDbEntity
  8
bowle
 48
0.2
100
AcDbLine
 10
106.2446895910914
 20
184.549018985673
 30
0.0
 11
115.7846096908265
 21
184.5490189856729
 31
0.0
  0
LINE
  5
73D8
330
18
100
AcDbEntity
  8
bowle
 48
0.2
100
AcDbLine
 10
106.2446895910914
 20
190.549018985673
 30
0.0
 11
115.7846096908265
 21
190.5490189856729
 31
0.0
  0
LINE
  5
73DB
330
18
100
AcDbEntity
  8
bowle
 48
0.2
100
AcDbLine
 10
106.375035999943
 20
190.0090189856731
 30
0.0
 11
115.8554165626103
 21
190.009018985673
 31
0.0
  0
LINE
  5
73DD
330
18
100
AcDbEntity
  8
bowle
 48
0.2
100
AcDbLine
 10
91.97573141580766
 20
198.7872058292286
 30
0.0
 11
87.20577136594021
 21
207.0490189856731
 31
0.0
  0
LINE
  5
73DE
330
18
100
AcDbEntity
  8
bowle
 48
0.2
100
AcDbLine
 10
86.77957899310104
 20
195.7872058292287
 30
0.0
 11
82.00961894323359
 21
204.0490189856731
 31
0.0
  0
LINE
  5
73E1
330
18
100
AcDbEntity
  8
bowle
 48
0.2
100
AcDbLine
 10
86.77957899310092
 20
179.3108321421174
 30
0.0
 11
82.00961894323336
 21
171.049018985673
 31
0.0
  0
LINE
  5
73E2
330
18
100
AcDbEntity
  8
bowle
 48
0.2
100
AcDbLine
 10
91.97573141580756
 20
176.3108321421175
 30
0.0
 11
87.20577136594
 21
168.049018985673
 31
0.0
  0
LINE
  5
73E5
330
18
100
AcDbEntity
  8
center
  6
CENTER
 48
0.15
100
AcDbLine
 10
89.68100000000005
 20
196.7617972311319
 30
0.0
 11
84.00000000000011
 21
206.6015778689308
 31
0.0
  0
LINE
  5
73E8
330
18
100
AcDbEntity
  8
center
  6
CENTER
 48
0.15
100
AcDbLine
 10
89.68100000000005
 20
178.3362407402141
 30
0.0
 11
84.00000000000011
 21
168.4964601024153
 31
0.0
  0
LINE
  5
73E9
102
{ACAD_REACTORS
330
8F11
102
}
330
18
100
AcDbEntity
  8
contour
100
AcDbLine
 10
116.0
 20
107.7418496151599
 30
0.0
 11
116.0000000000001
 21
99.24184961515988
 31
0.0
  0
LINE
  5
73EA
102
{ACAD_REACTORS
330
8F11
102
}
330
18
100
AcDbEntity
  8
contour
100
AcDbLine
 10
114.5000000000001
 20
97.74184961515988
 30
0.0
 11
75.5
 21
97.74184961515985
 31
0.0
  0
LINE
  5
73EB
330
18
100
AcDbEntity
  8
contour
100
AcDbLine
 10
74.0
 20
99.24184961515985
 30
0.0
 11
74.0
 21
107.7418496151599
 31
0.0
  0
LINE
  5
73EC
102
{ACAD_REACTORS
330
8F11
102
}
330
18
100
AcDbEntity
  8
contour
100
AcDbLine
 10
77.0
 20
109.7418496151599
 30
0.0
 11
113.0
 21
109.7418496151599
 31
0.0
  0
LINE
  5
73ED
102
{ACAD_REACTORS
330
8F11
102
}
330
18
100
AcDbEntity
  8
contour
100
AcDbLine
 10
75.5
 20
109.2418496151599
 30
0.0
 11
77.0
 21
109.2418496151598
 31
0.0
  0
LINE
  5
73EF
102
{ACAD_REACTORS
330
8F11
102
}
330
18
100
AcDbEntity
  8
contour
100
AcDbLine
 10
77.0
 20
109.7418496151599
 30
0.0
 11
77.0
 21
109.2418496151599
 31
0.0
  0
LINE
  5
73F0
102
{ACAD_REACTORS
330
8F11
102
}
330
18
100
AcDbEntity
  8
contour
100
AcDbLine
 10
113.0
 20
109.7418496151599
 30
0.0
 11
113.0
 21
109.2418496151599
 31
0.0
  0
ARC
  5
73F1
330
18
100
AcDbEntity
  8
contour
100
AcDbCircle
 10
75.5
 20
99.24184961515985
 30
0.0
 40
1.5
100
AcDbArc
 50
180.0
 51
270.0
  0
ARC
  5
73F2
330
18
100
AcDbEntity
  8
contour
100
AcDbCircle
 10
75.5
 20
107.7418496151599
 30
0.0
 40
1.5
100
AcDbArc
 50
90.0
 51
180.0
  0
ARC
  5
73F3
102
{ACAD_REACTORS
330
8F11
102
}
330
18
100
AcDbEntity
  8
contour
100
AcDbCircle
 10
114.5
 20
107.7418496151599
 30
0.0
 40
1.5
100
AcDbArc
 50
0.0
 51
90.0
  0
ARC
  5
73F4
102
{ACAD_REACTORS
330
8F11
102
}
330
18
100
AcDbEntity
  8
contour
100
AcDbCircle
 10
114.5000000000001
 20
99.24184961515988
 30
0.0
 40
1.5
100
AcDbArc
 50
270.0
 51
0.0
  0
LINE
  5
73F8
102
{ACAD_REACTORS
330
8F11
102
}
330
18
100
AcDbEntity
  8
contour
100
AcDbLine
 10
113.0
 20
109.2418496151599
 30
0.0
 11
114.5
 21
109.2418496151599
 31
0.0
  0
LINE
  5
73FA
102
{ACAD_REACTORS
330
8F11
102
}
330
18
100
AcDbEntity
  8
contour
 62
     4
100
AcDbLine
 10
107.5
 20
108.2418496151599
 30
0.0
 11
107.4999999999999
 21
106.7418496151599
 31
0.0
  0
LINE
  5
73FB
102
{ACAD_REACTORS
330
8F11
102
}
330
18
100
AcDbEntity
  8
contour
100
AcDbLine
 10
106.6379999999999
 20
107.3798496151598
 30
0.0
 11
106.638
 21
99.24184961515988
 31
0.0
  0
LINE
  5
73FC
330
18
100
AcDbEntity
  8
contour
100
AcDbLine
 10
82.0
 20
108.7418496151599
 30
0.0
 11
108.0
 21
108.7418496151598
 31
0.0
  0
LINE
  5
73FE
102
{ACAD_REACTORS
330
8F11
102
}
330
18
100
AcDbEntity
  8
contour
100
AcDbLine
 10
82.0
 20
108.7418496151599
 30
0.0
 11
82.0
 21
109.7418496151599
 31
0.0
  0
LINE
  5
73FF
102
{ACAD_REACTORS
330
8F11
102
}
330
18
100
AcDbEntity
  8
contour
100
AcDbLine
 10
108.0
 20
108.7418496151599
 30
0.0
 11
108.0
 21
109.7418496151599
 31
0.0
  0
LINE
  5
7400
102
{ACAD_REACTORS
330
8F11
102
}
330
18
100
AcDbEntity
  8
contour
 62
     4
100
AcDbLine
 10
82.50000000000012
 20
108.2418496151598
 30
0.0
 11
82.5
 21
98.37984961515983
 31
0.0
  0
LINE
  5
7401
102
{ACAD_REACTORS
330
8F11
102
}
330
18
100
AcDbEntity
  8
contour
100
AcDbLine
 10
83.36200000000006
 20
107.3798496151598
 30
0.0
 11
83.36200000000008
 21
99.24184961515985
 31
0.0
  0
LINE
  5
7402
102
{ACAD_REACTORS
330
8F11
102
}
330
18
100
AcDbEntity
  8
contour
100
AcDbLine
 10
81.86200000000008
 20
97.74184961515985
 30
0.0
 11
83.36200000000008
 21
99.24184961515985
 31
0.0
  0
LINE
  5
7403
102
{ACAD_REACTORS
330
8F11
102
}
330
18
100
AcDbEntity
  8
contour
100
AcDbLine
 10
108.138
 20
97.74184961515988
 30
0.0
 11
106.638
 21
99.24184961515988
 31
0.0
  0
LINE
  5
7406
102
{ACAD_REACTORS
330
8F11
102
}
330
18
100
AcDbEntity
  8
contour
100
AcDbLine
 10
83.36200000000008
 20
107.3798496151598
 30
0.0
 11
82.0
 21
108.7418496151599
 31
0.0
  0
LINE
  5
740A
330
18
100
AcDbEntity
  8
contour
100
AcDbLine
 10
83.36200000000008
 20
107.3798496151598
 30
0.0
 11
106.6379999999999
 21
107.3798496151598
 31
0.0
  0
LINE
  5
740B
330
18
100
AcDbEntity
  8
contour
100
AcDbLine
 10
83.36200000000008
 20
99.24184961515985
 30
0.0
 11
106.6379999999999
 21
99.24184961516013
 31
0.0
  0
LINE
  5
740F
330
18
100
AcDbEntity
  8
center
  6
CENTER
 48
0.15
100
AcDbLine
 10
95.0
 20
96.74184961515988
 30
0.0
 11
95.0
 21
110.7418496151598
 31
0.0
  0
LINE
  5
7410
102
{ACAD_REACTORS
330
8F11
102
}
330
18
100
AcDbEntity
  8
contour
100
AcDbLine
 10
76.14934053800698
 20
109.2418496151599
 30
0.0
 11
76.14934053800698
 21
97.74184961515988
 31
0.0
  0
LINE
  5
7432
102
{ACAD_REACTORS
330
8D9A
102
}
330
18
100
AcDbEntity
  8
center
  6
CENTER
 48
0.15
100
AcDbLine
 10
117.0
 20
103.7418496151599
 30
0.0
 11
105.638
 21
103.7418496151599
 31
0.0
  0
LINE
  5
7447
330
18
100
AcDbEntity
  8
bowle
 48
0.2
100
AcDbLine
 10
106.3750359999429
 20
185.0890189856727
 30
0.0
 11
115.8554165626102
 21
185.0890189856728
 31
0.0
  0
LINE
  5
7448
330
18
100
AcDbEntity
  8
bowle
 48
0.2
100
AcDbLine
 10
87.18205950671848
 20
196.1700891305862
 30
0.0
 11
82.44186922538483
 21
204.3803395354004
 31
0.0
  0
LINE
  5
7449
330
18
100
AcDbEntity
  8
bowle
 48
0.2
100
AcDbLine
 10
91.44290449333823
 20
198.6300891305863
 30
0.0
 11
86.70271421200459
 21
206.8403395354004
 31
0.0
  0
LINE
  5
744A
330
18
100
AcDbEntity
  8
bowle
 48
0.2
100
AcDbLine
 10
91.44290449333812
 20
176.4679488407598
 30
0.0
 11
86.70271421200437
 21
168.2576984359456
 31
0.0
  0
LINE
  5
744B
330
18
100
AcDbEntity
  8
bowle
 48
0.2
100
AcDbLine
 10
87.18205950671848
 20
178.92794884076
 30
0.0
 11
82.44186922538483
 21
170.7176984359459
 31
0.0
  0
CIRCLE
  5
746F
330
18
100
AcDbEntity
  8
contour
100
AcDbCircle
 10
95.0
 20
187.549018985673
 30
0.0
 40
13.0
  0
LWPOLYLINE
  5
7474
330
18
100
AcDbEntity
  8
contour
100
AcDbPolyline
 90
        2
 70
     0
 43
0.0
 10
116.0
 20
101.2818496151597
 10
116.0
 20
106.20184961516
  0
LINE
  5
7477
102
{ACAD_REACTORS
330
8F11
102
}
330
18
100
AcDbEntity
  8
contour
 62
     4
100
AcDbLine
 10
106.6380000000001
 20
100.7418496151599
 30
0.0
 11
116.0000000000001
 21
100.7418496151599
 31
0.0
  0
LINE
  5
7478
102
{ACAD_REACTORS
330
8F11
102
}
330
18
100
AcDbEntity
  8
contour
 62
     4
100
AcDbLine
 10
106.638
 20
106.7418496151599
 30
0.0
 11
116.0
 21
106.7418496151599
 31
0.0
  0
LINE
  5
7479
102
{ACAD_REACTORS
330
8F11
102
}
330
18
100
AcDbEntity
  8
contour
100
AcDbLine
 10
110.0
 20
106.20184961516
 30
0.0
 11
110.9600000000001
 21
106.20184961516
 31
0.0
  0
LINE
  5
747A
102
{ACAD_REACTORS
330
8F11
102
}
330
18
100
AcDbEntity
  8
contour
100
AcDbLine
 10
110.0
 20
101.2818496151597
 30
0.0
 11
110.9600000000001
 21
101.2818496151597
 31
0.0
  0
LINE
  5
747B
330
18
100
AcDbEntity
  8
contour
100
AcDbLine
 10
111.5
 20
106.7418496151599
 30
0.0
 11
111.5
 21
100.7418496151599
 31
0.0
  0
LINE
  5
748E
330
18
100
AcDbEntity
  8
contour
100
AcDbLine
 10
113.9999999999999
 20
105.2418496151599
 30
0.0
 11
115.9999999999999
 21
105.2418496151598
 31
0.0
  0
LINE
  5
748F
330
18
100
AcDbEntity
  8
contour
100
AcDbLine
 10
113.9999999999999
 20
102.2418496151598
 30
0.0
 11
115.9999999999999
 21
102.2418496151598
 31
0.0
  0
LINE
  5
7490
330
18
100
AcDbEntity
  8
contour
100
AcDbLine
 10
113.9999999999999
 20
105.2418496151599
 30
0.0
 11
113.9999999999999
 21
102.2418496151598
 31
0.0
  0
LINE
  5
7491
330
18
100
AcDbEntity
  8
contour
100
AcDbLine
 10
113.9999999999999
 20
105.2418496151598
 30
0.0
 11
113.4993278334879
 21
103.7504802401401
 31
0.0
  0
LINE
  5
7492
330
18
100
AcDbEntity
  8
contour
100
AcDbLine
 10
113.4993278334879
 20
103.7504802401401
 30
0.0
 11
113.9999999999999
 21
102.2418496151598
 31
0.0
  0
LINE
  5
749E
330
18
100
AcDbEntity
  8
contour
 62
     4
100
AcDbLine
 10
110.9600000000001
 20
106.20184961516
 30
0.0
 11
116.0
 21
106.20184961516
 31
0.0
  0
LINE
  5
749F
330
18
100
AcDbEntity
  8
contour
 62
     4
100
AcDbLine
 10
110.9600000000001
 20
101.2818496151597
 30
0.0
 11
116.0000000000001
 21
101.2818496151597
 31
0.0
  0
LINE
  5
74A0
102
{ACAD_REACTORS
330
8F11
102
}
330
18
100
AcDbEntity
  8
contour
100
AcDbLine
 10
115.064692563913
 20
106.7418496151599
 30
0.0
 11
116.0
 21
106.20184961516
 31
0.0
  0
LINE
  5
74A1
102
{ACAD_REACTORS
330
8F11
102
}
330
18
100
AcDbEntity
  8
contour
100
AcDbLine
 10
115.064692563913
 20
100.7418496151599
 30
0.0
 11
116.0
 21
101.2818496151597
 31
0.0
  0
LWPOLYLINE
  5
74A2
102
{ACAD_REACTORS
330
8F11
102
}
330
18
100
AcDbEntity
  8
contour
100
AcDbPolyline
 90
        6
 70
     0
 43
0.0
 10
111.5
 20
106.7418496151599
 10
111.5
 20
106.7418496151599
 10
110.0
 20
105.2418496151598
 10
110.0
 20
102.2418496151598
 10
111.5
 20
100.7418496151599
 10
111.5
 20
100.7418496151599
  0
LINE
  5
74A3
330
18
100
AcDbEntity
  8
contour
100
AcDbLine
 10
115.064692563913
 20
106.7418496151599
 30
0.0
 11
115.064692563913
 21
100.7418496151599
 31
0.0
  0
LWPOLYLINE
  5
74A6
102
{ACAD_REACTORS
330
8D9A
330
8F11
102
}
330
18
100
AcDbEntity
  8
contour
100
AcDbPolyline
 90
        4
 70
     1
 43
0.0
 10
106.6379999999999
 20
106.3418496151599
 10
106.638
 20
101.1418496151599
 10
110.0
 20
101.1418496151599
 10
110.0
 20
106.3418496151598
  0
LINE
  5
74A8
102
{ACAD_REACTORS
330
8F11
102
}
330
18
100
AcDbEntity
  8
contour
 62
     4
100
AcDbLine
 10
107.4999999999999
 20
100.7418496151599
 30
0.0
 11
107.4999999999999
 21
98.37984961515994
 31
0.0
  0
LWPOLYLINE
  5
74B6
330
18
100
AcDbEntity
  8
frame
100
AcDbPolyline
 90
        4
 70
     1
 43
0.0
 10
190.0
 20
280.0
 10
0.0
 20
280.0
 10
0.0
 20
0.0
 10
190.0
 20
0.0
  0
MTEXT
  5
7500
330
18
100
AcDbEntity
  8
0
100
AcDbMText
 10
17.09950368689175
 20
19.07605901616614
 30
0.0
 40
4.5
 41
0.0
 71
     1
 72
     5
  1
{\Ftxt,bigfont|c128;林彦旭}
  7
JL
 73
     1
 44
1.0
1001
ACAD
1000
ACAD_MTEXT_DEFINED_HEIGHT_BEGIN
1070
    46
1040
0.0
1000
ACAD_MTEXT_DEFINED_HEIGHT_END
  0
MTEXT
  5
7501
330
18
100
AcDbEntity
  8
0
100
AcDbMText
 10
77.95294729228846
 20
28.93578979870674
 30
0.0
 40
4.5
 41
0.0
 71
     1
 72
     5
  1
\Ftxt.shx,bigfont.shx|c128;1 : 1
  7
JL
 73
     1
 44
1.0
  0
MTEXT
  5
7502
330
18
100
AcDbEntity
  8
0
 48
2.0
370
    25
100
AcDbMText
 10
140.2194500465656
 20
3.49002165463392
 30
0.0
 40
4.5
 41
0.0
 71
     5
 72
     1
  1
\Ftxt.shx,bigfont.shx|c128;N L 4 0 0 3 0
 73
     1
 44
1.0
  0
MTEXT
  5
7503
330
18
100
AcDbEntity
  8
0
 48
2.0
100
AcDbMText
 10
170.9328999644331
 20
21.76437127823689
 30
0.0
 40
4.318181818181822
 41
0.0
 71
     5
 72
     1
  1
\P\Ftxt.shx,bigfont.shx|c128;MR25X1.5P
 73
     1
 44
1.0
  0
MTEXT
  5
7504
330
18
100
AcDbEntity
  8
0
100
AcDbMText
 10
15.3760677136774
 20
28.37740359834709
 30
0.0
 40
4.5
 41
0.0
 71
     1
 72
     5
  1
{\Ftxt,bigfont|c128;06.06.13}
  7
JL
 73
     1
 44
1.0
1001
ACAD
1000
ACAD_MTEXT_DEFINED_HEIGHT_BEGIN
1070
    46
1040
0.0
1000
ACAD_MTEXT_DEFINED_HEIGHT_END
  0
LINE
  5
7505
330
18
100
AcDbEntity
  8
0
 62
     7
 48
5.0
100
AcDbLine
 39
3.838383838383842
 10
47.92942413992529
 20
27.65712907016089
 30
0.0
 11
53.04580144287854
 21
28.93622339589922
 31
0.0
  0
MTEXT
  5
7506
330
18
100
AcDbEntity
  8
0
100
AcDbMText
 10
14.91235548326415
 20
9.242195050049332
 30
0.0
 40
6.0
 41
0.0
 71
     1
 72
     5
  1
\Ftxt.shx,bigfont.shx|c128;日機株式会社
  7
LKK
 73
     1
 44
1.0
  0
LINE
  5
7508
330
18
100
AcDbEntity
  8
frame
100
AcDbLine
 10
0.0
 20
12.0
 30
0.0
 11
190.0
 21
12.00000000000005
 31
0.0
  0
LINE
  5
7509
330
18
100
AcDbEntity
  8
frame
100
AcDbLine
 10
0.0
 20
22.0
 30
0.0
 11
92.12121212121223
 21
22.0
 31
0.0
  0
LINE
  5
750A
330
18
100
AcDbEntity
  8
frame
100
AcDbLine
 10
0.0
 20
32.0
 30
0.0
 11
190.0
 21
32.0
 31
0.0
  0
LINE
  5
750B
330
18
100
AcDbEntity
  8
frame
100
AcDbLine
 10
12.19077332493799
 20
32.0
 30
0.0
 11
12.19077332493799
 21
12.0
 31
0.0
  0
LINE
  5
750C
330
18
100
AcDbEntity
  8
frame
100
AcDbLine
 10
30.70707070707067
 20
32.0
 30
0.0
 11
30.70707070707073
 21
12.0
 31
0.0
  0
MTEXT
  5
750D
330
18
100
AcDbEntity
  8
0
100
AcDbMText
 10
2.830274784221955
 20
29.08190089582834
 30
0.0
 40
4.5
 41
0.0
 71
     1
 72
     5
  1
\Ftxt.shx,bigfont.shx|c128;日 付
  7
JL
 73
     1
 44
1.0
  0
MTEXT
  5
750E
330
18
100
AcDbEntity
  8
0
100
AcDbMText
 10
2.97063307743889
 20
19.52163842926637
 30
0.0
 40
4.5
 41
0.0
 71
     1
 72
     5
  1
\Ftxt.shx,bigfont.shx|c128;製 図
  7
JL
 73
     1
 44
1.0
  0
LINE
  5
750F
330
18
100
AcDbEntity
  8
0
 62
     7
370
    25
100
AcDbLine
 10
53.04580144287854
 20
23.81984609294597
 30
0.0
 11
53.04580144287854
 21
28.93622339589922
 31
0.0
  0
MTEXT
  5
7510
330
18
100
AcDbEntity
  8
0
100
AcDbMText
 10
64.00748852490841
 20
29.12242703792379
 30
0.0
 40
4.5
 41
0.0
 71
     1
 72
     5
  1
\Ftxt.shx,bigfont.shx|c128;尺 度
  7
JL
 73
     1
 44
1.0
  0
LINE
  5
7511
330
18
100
AcDbEntity
  8
frame
100
AcDbLine
 10
61.41414141414145
 20
32.0
 30
0.0
 11
61.41414141414145
 21
12.0
 31
0.0
  0
LINE
  5
7512
330
18
100
AcDbEntity
  8
0
 62
     7
370
    25
100
AcDbLine
 10
39.6153110226262
 20
23.18889018332635
 30
0.0
 11
39.6153110226262
 21
29.36457992429672
 31
0.0
  0
CIRCLE
  5
7513
330
18
100
AcDbEntity
  8
0
 62
     7
100
AcDbCircle
 10
39.6153110226262
 20
26.37803474442248
 30
0.0
 40
2.558188651476678
  0
LINE
  5
7514
330
18
100
AcDbEntity
  8
0
 62
     7
370
    25
100
AcDbLine
 10
47.19321986919976
 20
26.3780347444226
 30
0.0
 11
53.50512581624247
 21
26.3780347444226
 31
0.0
  0
LINE
  5
7515
330
18
100
AcDbEntity
  8
0
 62
     7
100
AcDbLine
 10
47.92942413992529
 20
25.0989404186843
 30
0.0
 11
53.04580144287854
 21
23.81984609294597
 31
0.0
  0
LINE
  5
7516
330
18
100
AcDbEntity
  8
frame
100
AcDbLine
 10
42.74224195995105
 20
22.0
 30
0.0
 11
42.74224195995105
 21
12.0
 31
0.0
  0
LINE
  5
7517
330
18
100
AcDbEntity
  8
0
 62
     7
370
    25
100
AcDbLine
 10
36.41832228486606
 20
26.37803474442248
 30
0.0
 11
43.00325267619268
 21
26.3780347444226
 31
0.0
  0
CIRCLE
  5
7518
330
18
100
AcDbEntity
  8
0
 62
     7
100
AcDbCircle
 10
39.6153110226262
 20
26.37803474442248
 30
0.0
 40
1.279094325738339
  0
MTEXT
  5
7519
330
18
100
AcDbEntity
  8
0
100
AcDbMText
 10
33.70184032462407
 20
19.41013815785268
 30
0.0
 40
4.5
 41
0.0
 71
     1
 72
     5
  1
\Ftxt.shx,bigfont.shx|c128;検 図
  7
JL
 73
     1
 44
1.0
  0
LINE
  5
751A
330
18
100
AcDbEntity
  8
0
 62
     7
370
    25
100
AcDbLine
 10
47.92942413992529
 20
25.0989404186843
 30
0.0
 11
47.92942413992529
 21
27.65712907016089
 31
0.0
  0
MTEXT
  5
751B
330
18
100
AcDbEntity
  8
0
100
AcDbMText
 10
64.28820249919829
 20
19.32058534748881
 30
0.0
 40
4.5
 41
0.0
 71
     1
 72
     5
  1
\Ftxt.shx,bigfont.shx|c128;承 認
  7
JL
 73
     1
 44
1.0
  0
MTEXT
  5
751C
330
18
100
AcDbEntity
  8
0
100
AcDbMText
 10
93.71128715606705
 20
10.7026821961914
 30
0.0
 40
4.5
 41
0.0
 71
     1
 72
     5
  1
\Ftxt.shx,bigfont.shx|c128;図  面  番  号
  7
JL
 73
     1
 44
1.0
  0
MTEXT
  5
751D
330
18
100
AcDbEntity
  8
0
 48
2.0
100
AcDbMText
 10
116.9038190021384
 20
21.87574731495843
 30
0.0
 40
4.5
 41
0.0
 71
     5
 72
     1
  1
\P\Ftxt.shx,bigfont.shx|c128;    精密ロックナット
 73
     1
 44
1.0
  0
MTEXT
  5
751E
330
18
100
AcDbEntity
  8
0
100
AcDbMText
 10
94.80836130312315
 20
29.03862457973273
 30
0.0
 40
4.5
 41
0.0
 71
     1
 72
     5
  1
\Ftxt.shx,bigfont.shx|c128;品  名
  7
JL
 73
     1
 44
1.0
  0
LINE
  5
751F
330
18
100
AcDbEntity
  8
frame
100
AcDbLine
 10
92.12121212121223
 20
32.0
 30
0.0
 11
92.12121212121223
 21
0.1833227579584786
 31
0.0
  0
LINE
  5
7520
330
18
100
AcDbEntity
  8
frame
100
AcDbLine
 10
73.4141414141414
 20
32.0
 30
0.0
 11
73.41414141414145
 21
12.0
 31
0.0
  0
LINE
  5
7521
330
18
100
AcDbEntity
  8
frame
100
AcDbLine
 10
147.0327092740656
 20
32.0
 30
0.0
 11
147.0327092740656
 21
12.0
 31
0.0
  0
MTEXT
  5
7522
330
18
100
AcDbEntity
  8
0
100
AcDbMText
 10
150.895959446773
 20
29.04517782830391
 30
0.0
 40
4.5
 41
0.0
 71
     1
 72
     5
  1
\Ftxt.shx,bigfont.shx|c128;型  番
  7
JL
 73
     1
 44
1.0
  0
MTEXT
  5
7523
330
18
100
AcDbEntity
  8
0
100
AcDbMText
 10
165.8059614810325
 20
10.78298174971567
 30
0.0
 40
4.5
 41
0.0
 71
     1
 72
     5
  1
\Ftxt.shx,bigfont.shx|c128;変更
  7
JL
 73
     1
 44
1.0
  0
LINE
  5
7524
330
18
100
AcDbEntity
  8
frame
100
AcDbLine
 10
164.0909090909092
 20
12.00000000000005
 30
0.0
 11
164.0909090909093
 21
0.0
 31
0.0
  0
LINE
  5
752E
330
18
100
AcDbEntity
  8
frame
100
AcDbLine
 10
124.6157900786393
 20
43.13491348924492
 30
0.0
 11
184.6157900786393
 21
43.13491348924481
 31
0.0
  0
LINE
  5
752F
330
18
100
AcDbEntity
  8
frame
100
AcDbLine
 10
124.6157900786393
 20
50.33491348924497
 30
0.0
 11
184.6157900786393
 21
50.33491348924497
 31
0.0
  0
LINE
  5
7530
330
18
100
AcDbEntity
  8
frame
100
AcDbLine
 10
124.6157900786393
 20
57.5349134892449
 30
0.0
 11
184.6157900786393
 21
57.53491348924478
 31
0.0
  0
LINE
  5
7531
330
18
100
AcDbEntity
  8
frame
100
AcDbLine
 10
124.6157900786393
 20
64.73491348924494
 30
0.0
 11
184.6157900786393
 21
64.73491348924483
 31
0.0
  0
LINE
  5
7532
330
18
100
AcDbEntity
  8
frame
100
AcDbLine
 10
124.6157900786393
 20
35.93491348924488
 30
0.0
 11
184.6157900786393
 21
35.93491348924488
 31
0.0
  0
MTEXT
  5
7533
330
18
100
AcDbEntity
  8
0
 62
     7
 48
2.0
100
AcDbMText
 10
154.5011900445106
 20
65.52808189982909
 30
0.0
 40
4.8
 41
0.0
 71
     5
 72
     1
  1
\P\Ftxt.shx,bigfont.shx|c128;諸　　　　元
 73
     1
 44
1.0
  0
LINE
  5
7534
330
18
100
AcDbEntity
  8
frame
100
AcDbLine
 10
124.6157900786393
 20
64.73491348924483
 30
0.0
 11
124.6157900786393
 21
35.93491348924488
 31
0.0
  0
MTEXT
  5
7535
330
18
100
AcDbEntity
  8
0
100
AcDbMText
 10
128.1382258923195
 20
56.00840432212407
 30
0.0
 40
4.4
 41
163.916286842249
 71
     1
 72
     5
  1
\Ftxt.shx,bigfont.shx|c128;熱　処　理
  7
JL
 73
     1
 44
1.0
  0
LINE
  5
7536
330
18
100
AcDbEntity
  8
frame
100
AcDbLine
 10
148.6157900786393
 20
57.53491348924478
 30
0.0
 11
148.6157900786393
 21
35.93491348924488
 31
0.0
  0
MTEXT
  5
7537
330
18
100
AcDbEntity
  8
0
100
AcDbMText
 10
127.8579515249403
 20
49.00617587486397
 30
0.0
 40
4.4
 41
163.6058628849672
 71
     1
 72
     5
  1
\Ftxt.shx,bigfont.shx|c128;表 面 処 理
  7
JL
 73
     1
 44
1.0
  0
MTEXT
  5
7538
330
18
100
AcDbEntity
  8
0
100
AcDbMText
 10
128.1480173733753
 20
41.71770302125605
 30
0.0
 40
4.4
 41
166.1718
 71
     1
 72
     5
  1
\Ftxt.shx,bigfont.shx|c128;等     　級
  7
JL
 73
     1
 44
1.0
  0
LINE
  5
7539
330
18
100
AcDbEntity
  8
frame
100
AcDbLine
 10
184.6157900786393
 20
64.73491348924483
 30
0.0
 11
184.6157900786393
 21
35.93491348924499
 31
0.0
  0
MTEXT
  5
753A
330
18
100
AcDbEntity
  8
0
100
AcDbMText
 10
153.3627933880818
 20
55.83344641471445
 30
0.0
 40
4.4
 41
291.8960056857887
 71
     1
 72
     5
  1
\Ftxt.shx,bigfont.shx|c128;調質　HRC30%%d%%p２%%d
  7
JL
 73
     1
 44
1.0
  0
MTEXT
  5
753B
330
18
100
AcDbEntity
  8
0
100
AcDbMText
 10
153.6234323895182
 20
41.7183135927072
 30
0.0
 40
4.4
 41
290.783364796891
 71
     1
 72
     5
  1
\Ftxt.shx,bigfont.shx|c128;ＩＳＯ - ４Ｈ
  7
JL
 73
     1
 44
1.0
  0
MTEXT
  5
753C
330
18
100
AcDbEntity
  8
0
100
AcDbMText
 10
153.7978935876485
 20
48.65328293790913
 30
0.0
 40
4.4
 41
291.4548
 71
     1
 72
     5
  1
\Ftxt.shx,bigfont.shx|c128;黒  　    染
  7
JL
 73
     1
 44
1.0
  0
MTEXT
  5
753D
330
18
100
AcDbEntity
  8
0
100
AcDbMText
 10
57.63639061334425
 20
260.9000583279473
 30
0.0
 40
5.0
 41
0.0
 71
     1
 72
     5
  1
\Ftxt.shx,bigfont.shx|c128;M6X1.0P-6L
  7
JL
 73
     1
 44
1.0
  0
MTEXT
  5
753E
330
18
100
AcDbEntity
  8
0
100
AcDbMText
 10
57.63639061334425
 20
252.5660350862717
 30
0.0
 40
5.0
 41
0.0
 71
     1
 72
     5
  1
\Ftxt.shx,bigfont.shx|c128;%%c5.2X4L
  7
JL
 73
     1
 44
1.0
  0
LINE
  5
753F
330
18
100
AcDbEntity
  8
frame
100
AcDbLine
 10
0.0
 20
254.0
 30
0.0
 11
190.0
 21
254.0
 31
0.0
  0
LINE
  5
7540
330
18
100
AcDbEntity
  8
frame
100
AcDbLine
 10
0.0
 20
262.0
 30
0.0
 11
190.0
 21
262.0
 31
0.0
  0
LINE
  5
7541
330
18
100
AcDbEntity
  8
frame
 62
     9
100
AcDbLine
 10
0.0
 20
270.0
 30
0.0
 11
190.0
 21
270.0
 31
0.0
  0
MTEXT
  5
7543
330
18
100
AcDbEntity
  8
0
100
AcDbMText
 10
57.0156439060371
 20
277.4240560049041
 30
0.0
 40
5.0
 41
0.0
 71
     1
 72
     5
  1
\Ftxt.shx,bigfont.shx|c128;図    番 / 規　　格
  7
JL
 73
     1
 44
1.0
  0
LINE
  5
7544
330
18
100
AcDbEntity
  8
frame
100
AcDbLine
 10
0.0
 20
254.0
 30
0.0
 11
190.0
 21
254.0
 31
0.0
  0
LINE
  5
7545
330
18
100
AcDbEntity
  8
frame
100
AcDbLine
 10
0.0
 20
245.8933909875332
 30
0.0
 11
190.0
 21
245.8933909875332
 31
0.0
  0
MTEXT
  5
7546
330
18
100
AcDbEntity
  8
0
100
AcDbMText
 10
21.12488048923433
 20
277.4637981386743
 30
0.0
 40
5.0
 41
0.0
 71
     1
 72
     5
  1
\Ftxt.shx,bigfont.shx|c128;品　          名
  7
JL
 73
     1
 44
1.0
  0
MTEXT
  5
7547
330
18
100
AcDbEntity
  8
0
100
AcDbMText
 10
18.10281387110132
 20
260.7907237289111
 30
0.0
 40
5.0
 41
0.0
 71
     1
 72
     5
  1
\Ftxt.shx,bigfont.shx|c128;セットスクリュ-
  7
JL
 73
     1
 44
1.0
  0
MTEXT
  5
7548
330
18
100
AcDbEntity
  8
0
100
AcDbMText
 10
17.91509480863158
 20
268.8361230282964
 30
0.0
 40
5.0
 41
0.0
 71
     1
 72
     5
  1
\Ftxt.shx,bigfont.shx|c128;ロックナット　  
  7
JL
 73
     1
 44
1.0
  0
MTEXT
  5
7549
330
18
100
AcDbEntity
  8
0
100
AcDbMText
 10
18.10281387110132
 20
252.8510545014035
 30
0.0
 40
5.0
 41
0.0
 71
     1
 72
     5
  1
\Ftxt.shx,bigfont.shx|c128;ロックピン 
  7
JL
 73
     1
 44
1.0
  0
LINE
  5
754A
330
18
100
AcDbEntity
  8
frame
 62
     9
100
AcDbLine
 10
14.39393939393937
 20
279.9999999999999
 30
0.0
 11
14.39393939393972
 21
245.8933909875332
 31
0.0
  0
LINE
  5
754B
330
18
100
AcDbEntity
  8
frame
 62
     9
100
AcDbLine
 10
14.39393939393937
 20
279.9999999999999
 30
0.0
 11
14.39393939393937
 21
255.0505050505051
 31
0.0
  0
MTEXT
  5
754D
330
18
100
AcDbEntity
  8
0
100
AcDbMText
 10
6.815009268013824
 20
268.7281674434121
 30
0.0
 40
5.0
 41
0.0
 71
     1
 72
     5
  1
\Ftxt.shx,bigfont.shx|c128;1
  7
JL
 73
     1
 44
1.0
  0
MTEXT
  5
754F
330
18
100
AcDbEntity
  8
0
100
AcDbMText
 10
2.119828072980254
 20
277.4734782639491
 30
0.0
 40
5.0
 41
0.0
 71
     1
 72
     5
  1
\Ftxt.shx,bigfont.shx|c128;照   号
  7
JL
 73
     1
 44
1.0
  0
LINE
  5
7550
330
18
100
AcDbEntity
  8
frame
 62
     9
100
AcDbLine
 10
52.77777777777783
 20
279.9999999999999
 30
0.0
 11
52.77777777777783
 21
245.8933909875332
 31
0.0
  0
MTEXT
  5
7551
330
18
100
AcDbEntity
  8
0
100
AcDbMText
 10
145.5736374372851
 20
277.6781663894194
 30
0.0
 40
5.0
 41
0.0
 71
     1
 72
     5
  1
\Ftxt.shx,bigfont.shx|c128;備           考
  7
JL
 73
     1
 44
1.0
  0
LINE
  5
7552
330
18
100
AcDbEntity
  8
frame
 62
     9
100
AcDbLine
 10
91.16161616161617
 20
280.0
 30
0.0
 11
91.16161616161617
 21
245.8933909875332
 31
0.0
  0
MTEXT
  5
7553
330
18
100
AcDbEntity
  8
0
100
AcDbMText
 10
92.87341089179376
 20
252.4309794461317
 30
0.0
 40
5.0
 41
0.0
 71
     1
 72
     5
  1
\Ftxt.shx,bigfont.shx|c128;C3604
  7
JL
 73
     1
 44
1.0
  0
MTEXT
  5
7554
330
18
100
AcDbEntity
  8
0
100
AcDbMText
 10
92.87341089179376
 20
268.8361230282964
 30
0.0
 40
5.0
 41
0.0
 71
     1
 72
     5
  1
\Ftxt.shx,bigfont.shx|c128;SCM-440
  7
JL
 73
     1
 44
1.0
  0
MTEXT
  5
7555
330
18
100
AcDbEntity
  8
0
100
AcDbMText
 10
92.87341089179376
 20
260.765002012584
 30
0.0
 40
5.0
 41
0.0
 71
     1
 72
     5
  1
\Ftxt.shx,bigfont.shx|c128;SCM435
  7
JL
 73
     1
 44
1.0
  0
MTEXT
  5
7556
330
18
100
AcDbEntity
  8
0
100
AcDbMText
 10
95.76798863104199
 20
277.5645499482918
 30
0.0
 40
5.0
 41
0.0
 71
     1
 72
     5
  1
\Ftxt.shx,bigfont.shx|c128;材　質
  7
JL
 73
     1
 44
1.0
  0
LINE
  5
7557
330
18
100
AcDbEntity
  8
frame
 62
     9
100
AcDbLine
 10
110.3535353535354
 20
280.0
 30
0.0
 11
110.3535353535354
 21
245.8933909875332
 31
0.0
  0
LINE
  5
7558
330
18
100
AcDbEntity
  8
frame
100
AcDbLine
 10
124.7474747474747
 20
280.0
 30
0.0
 11
124.7474747474748
 21
245.8933909875332
 31
0.0
  0
MTEXT
  5
7559
330
18
100
AcDbEntity
  8
0
100
AcDbMText
 10
116.5939070266884
 20
252.4642985589993
 30
0.0
 40
5.0
 41
0.0
 71
     1
 72
     5
  1
\Ftxt.shx,bigfont.shx|c128;3
  7
JL
 73
     1
 44
1.0
  0
MTEXT
  5
755A
330
18
100
AcDbEntity
  8
0
100
AcDbMText
 10
117.1685446215491
 20
269.0412711679932
 30
0.0
 40
5.0
 41
0.0
 71
     1
 72
     5
  1
\Ftxt.shx,bigfont.shx|c128;1
  7
JL
 73
     1
 44
1.0
  0
MTEXT
  5
755B
330
18
100
AcDbEntity
  8
0
100
AcDbMText
 10
116.5939070266884
 20
260.5092290150679
 30
0.0
 40
5.0
 41
0.0
 71
     1
 72
     5
  1
\Ftxt.shx,bigfont.shx|c128;3
  7
JL
 73
     1
 44
1.0
  0
MTEXT
  5
755C
330
18
100
AcDbEntity
  8
0
100
AcDbMText
 10
112.4223895919262
 20
277.5645499482918
 30
0.0
 40
5.0
 41
0.0
 71
     1
 72
     5
  1
\Ftxt.shx,bigfont.shx|c128;数   量
  7
JL
 73
     1
 44
1.0
  0
MTEXT
  5
7561
330
18
100
AcDbEntity
  8
0
100
AcDbMText
 10
6.404019699056021
 20
260.7281674434121
 30
0.0
 40
5.0
 41
0.0
 71
     1
 72
     5
  1
{\Ftxt,bigfont|c128;2}
  7
JL
 73
     1
 44
1.0
1001
ACAD
1000
ACAD_MTEXT_DEFINED_HEIGHT_BEGIN
1070
    46
1040
0.0
1000
ACAD_MTEXT_DEFINED_HEIGHT_END
  0
MTEXT
  5
7562
330
18
100
AcDbEntity
  8
0
100
AcDbMText
 10
6.404019699056021
 20
252.6215584309452
 30
0.0
 40
5.0
 41
0.0
 71
     1
 72
     5
  1
{\Ftxt,bigfont|c128;3}
  7
JL
 73
     1
 44
1.0
1001
ACAD
1000
ACAD_MTEXT_DEFINED_HEIGHT_BEGIN
1070
    46
1040
0.0
1000
ACAD_MTEXT_DEFINED_HEIGHT_END
  0
DIMENSION
  5
89DF
330
18
100
AcDbEntity
  8
mark
100
AcDbDimension
  2
*D2
 10
74.18227746348605
 20
162.6548439683837
 30
0.0
 11
67.54894413015273
 21
164.7048439683837
 31
0.0
 70
    32
 71
     5
 42
1.967063074520922
  3
STANDARD
100
AcDbAlignedDimension
 13
76.14934053800698
 23
185.049018985673
 33
0.0
 14
74.18227746348605
 24
184.788144415411
 34
0.0
100
AcDbRotatedDimension
  0
MTEXT
  5
8A0F
330
18
100
AcDbEntity
  8
mark
 62
     3
100
AcDbMText
 10
69.05623973797543
 20
166.4188904860476
 30
0.0
 40
1.25
 41
0.0
 71
     1
 72
     1
  1
+0.15\P+0
 73
     1
 44
1.0
1001
ACAD
1000
ACAD_MTEXT_DEFINED_HEIGHT_BEGIN
1070
    46
1040
0.0
1000
ACAD_MTEXT_DEFINED_HEIGHT_END
  0
DIMENSION
  5
8A10
330
18
100
AcDbEntity
  8
mark
100
AcDbDimension
  2
*D3
 10
65.91561079681935
 20
190.049018985673
 30
0.0
 11
63.86561079681932
 21
187.5490189856731
 31
0.0
 70
    32
 71
     5
 42
5.0
  3
STANDARD
100
AcDbAlignedDimension
 13
74.14934053800698
 23
185.049018985673
 33
0.0
 14
74.14934053800704
 24
190.049018985673
 34
0.0
 50
90.0
100
AcDbRotatedDimension
  0
MTEXT
  5
8A1F
330
18
100
AcDbEntity
  8
mark
 62
     3
100
AcDbMText
 10
61.96325180162244
 20
189.0247126588672
 30
0.0
 40
1.25
 41
0.0
 71
     1
 72
     1
  1
+0.15\P+0
 11
0.0000000000000001
 21
1.0
 31
0.0
 73
     1
 44
1.0
1001
ACAD
1000
ACAD_MTEXT_DEFINED_HEIGHT_BEGIN
1070
    46
1040
0.0
1000
ACAD_MTEXT_DEFINED_HEIGHT_END
  0
MTEXT
  5
8A20
330
18
100
AcDbEntity
  8
mark
 62
     3
100
AcDbMText
 10
62.79658513495576
 20
194.2851096559531
 30
0.0
 40
2.5
 41
0.0
 71
     1
 72
     1
  1
(3{\Ftxt,bigfont|c128;等分\Ftxt,bigfont|c136;)}
 11
0.0000000000000001
 21
1.0
 31
0.0
 73
     1
 44
1.0
1001
ACAD
1000
ACAD_MTEXT_DEFINED_HEIGHT_BEGIN
1070
    46
1040
0.0
1000
ACAD_MTEXT_DEFINED_HEIGHT_END
  0
DIMENSION
  5
8A24
330
18
100
AcDbEntity
  8
mark
100
AcDbDimension
  2
*D4
 10
108.0
 20
117.1692092919322
 30
0.0
 11
95.0
 21
119.2192092919322
 31
0.0
 70
    32
  1
%%C26
 71
     5
 42
26.0
  3
STANDARD
100
AcDbAlignedDimension
 13
82.0
 23
109.7418496151599
 33
0.0
 14
108.0
 24
109.7418496151599
 34
0.0
100
AcDbRotatedDimension
  0
DIMENSION
  5
8A31
330
18
100
AcDbEntity
  8
mark
100
AcDbDimension
  2
*D5
 10
113.0
 20
122.4747550920134
 30
0.0
 11
95.0
 21
124.5247550920134
 31
0.0
 70
    32
  1
%%C36%%P0.5
 71
     5
 42
36.0
  3
STANDARD
100
AcDbAlignedDimension
 13
77.0
 23
109.7418496151599
 33
0.0
 14
113.0
 24
109.7418496151599
 34
0.0
100
AcDbRotatedDimension
  0
DIMENSION
  5
8A78
330
18
100
AcDbEntity
  8
mark
100
AcDbDimension
  2
*D6
 10
115.9999999999999
 20
127.8645590881274
 30
0.0
 11
94.99999999999998
 21
129.9145590881275
 31
0.0
 70
    32
  1
%%C42
 71
     5
 42
41.99999999999994
  3
STANDARD
100
AcDbAlignedDimension
 13
74.0
 23
107.7418496151599
 33
0.0
 14
115.9999999999999
 24
107.7418496151604
 34
0.0
100
AcDbRotatedDimension
  0
MTEXT
  5
8A85
330
18
100
AcDbEntity
  8
mark
 62
     3
100
AcDbMText
 10
99.47381460501924
 20
131.6689964000877
 30
0.0
 40
1.25
 41
0.0
 71
     1
 72
     1
  1
+0\P-0.2
 73
     1
 44
1.0
1001
ACAD
1000
ACAD_MTEXT_DEFINED_HEIGHT_BEGIN
1070
    46
1040
0.0
1000
ACAD_MTEXT_DEFINED_HEIGHT_END
  0
DIMENSION
  5
8A87
330
18
100
AcDbEntity
  8
mark
100
AcDbDimension
  2
*D7
 10
65.91561079681935
 20
109.7418496151599
 30
0.0
 11
63.86561079681933
 21
117.8335162818265
 31
0.0
 70
    32
 71
     5
 42
0.5
  3
STANDARD
100
AcDbAlignedDimension
 13
75.5
 23
109.2418496151599
 33
0.0
 14
77.0
 24
109.7418496151599
 34
0.0
 50
90.0
100
AcDbRotatedDimension
  0
DIMENSION
  5
8A96
330
18
100
AcDbEntity
  8
mark
100
AcDbDimension
  2
*D8
 10
131.2324092840117
 20
97.74184961515988
 30
0.0
 11
131.2324092840117
 21
103.7418496151599
 31
0.0
 70
   160
  1
12%%P0.2
 71
     5
 42
12.0
  3
STANDARD
100
AcDbAlignedDimension
 13
113.0
 23
109.7418496151599
 33
0.0
 14
114.5000000000001
 24
97.74184961515988
 34
0.0
 50
90.0
100
AcDbRotatedDimension
  0
DIMENSION
  5
8AAD
330
18
100
AcDbEntity
  8
mark
100
AcDbDimension
  2
*D9
 10
107.4999999999999
 20
83.31737732738361
 30
0.0
 11
94.99999999999994
 21
85.36737732738361
 31
0.0
 70
    32
  1
M25X1.5P
 71
     5
 42
24.99999999999989
  3
STANDARD
100
AcDbAlignedDimension
 13
82.5
 23
98.37984961515978
 33
0.0
 14
107.4999999999999
 24
98.37984961515978
 34
0.0
100
AcDbRotatedDimension
  0
LINE
  5
8AF6
330
18
100
AcDbEntity
  8
mark
100
AcDbLine
 10
82.5
 20
82.5173773273836
 30
0.0
 11
82.5
 21
73.76737732738361
 31
0.0
  0
INSERT
  5
8B0E
330
18
100
AcDbEntity
  8
mark
100
AcDbBlockReference
  2
A
 10
78.42073199585342
 20
78.15852242916618
 30
0.0
  0
TOLERANCE
  5
8B10
330
18
100
AcDbEntity
  8
mark
100
AcDbFcf
  3
STANDARD
 10
136.2324092840117
 20
119.7418496151599
 30
0.0
  1
{\Fgdt;h}%%v0.005%%v%%vA%%v%%v
  0
LWPOLYLINE
  5
8B13
330
18
100
AcDbEntity
  8
mark
100
AcDbPolyline
 90
        3
 70
     0
 43
0.0
 10
131.2324092840117
 20
109.7418496151599
 10
131.2324092840117
 20
119.7418496151599
 10
136.2324092840117
 20
119.7418496151599
  0
LWPOLYLINE
  5
8C12
330
18
100
AcDbEntity
  8
dim
100
AcDbPolyline
 90
        7
 70
     1
 43
0.0
 10
97.3768915796735
 20
112.24184961516
 10
106.0371456175179
 20
112.24184961516
 10
104.5937699445437
 20
109.7418496151599
 10
103.1503942715698
 20
112.24184961516
 10
101.7070185985956
 20
109.7418496151599
 10
100.2636429256216
 20
112.24184961516
 10
98.82026725264745
 20
109.7418496151599
  0
MTEXT
  5
8C53
330
18
100
AcDbEntity
  8
mark
 62
     3
100
AcDbMText
 10
101.7276955165995
 20
114.2975260039127
 30
0.0
 40
2.5
 41
0.0
 71
     5
 72
     1
  1
G
 73
     1
 44
1.0
1001
ACAD
1000
ACAD_MTEXT_DEFINED_HEIGHT_BEGIN
1070
    46
1040
0.0
1000
ACAD_MTEXT_DEFINED_HEIGHT_END
  0
DIMENSION
  5
8D80
330
18
100
AcDbEntity
  8
mark
100
AcDbDimension
  2
*D11
 10
75.49999999999939
 20
99.24184961516001
 30
0.0
 11
64.76376203898704
 21
91.40474945700502
 31
0.0
 70
    36
  1
2-R1.5
 71
     5
 42
1.499999999999644
  3
STANDARD
100
AcDbRadialDimension
 15
74.43933982822023
 25
98.18118944338001
 35
0.0
 40
0.0
1001
ACAD
1000
DSTYLE
1002
{
1070
   288
1070
     1
1002
}
  0
LEADER
  5
8D8B
330
18
100
AcDbEntity
  8
mark
100
AcDbLeader
  3
STANDARD
 76
     2
 10
113.1865334794732
 20
198.049018985673
 30
0.0
 10
121.7646019370668
 20
203.0015691187917
 30
0.0
211
0.8660254037844383
221
0.5000000000000004
231
0.0
1001
ACAD
1000
DSTYLE
1002
{
1070
   147
1040
0.8
1070
    77
1070
     0
1002
}
  0
HATCH
  5
8D9A
330
18
100
AcDbEntity
  8
section
100
AcDbHatch
 10
0.0
 20
0.0
 30
0.0
210
0.0
220
0.0
230
1.0
  2
AR-SAND
 70
     0
 71
     1
 91
        2
 92
        7
 72
     0
 73
     1
 93
        4
 10
106.6379999999999
 20
106.3418496151599
 10
106.6379999999999
 20
103.7418496151599
 10
110.0
 20
103.7418496151599
 10
110.0
 20
106.3418496151599
 97
        2
330
74A6
330
7432
 92
        7
 72
     0
 73
     1
 93
        4
 10
110.0
 20
101.1418496151599
 10
110.0
 20
103.7418496151599
 10
106.6379999999999
 20
103.7418496151599
 10
106.638
 20
101.1418496151599
 97
        2
330
7432
330
74A6
 75
     0
 76
     1
 52
0.0
 41
0.02
 77
     0
 78
     4
 53
37.5
 43
-245.0294318513932
 44
161.5874774532025
 45
-0.0320006259196809
 46
0.9788264746586847
 79
     6
 49
0.0
 49
-0.7721600000000001
 49
0.0
 49
-0.8636000000000001
 49
0.0
 49
-0.8255
 53
7.499999999999999
 43
-245.0294318513932
 44
161.5874774532025
 45
0.8990465662760053
 46
1.433650201136708
 79
     6
 49
0.0
 49
-0.4165600000000001
 49
0.0
 49
-0.69596
 49
0.0
 49
-0.2667000000000001
 53
327.5
 43
-245.6542718513932
 44
161.5874774532025
 45
1.581984740482915
 46
0.0028743693570914
 79
     6
 49
0.0
 49
-0.254
 49
0.0
 49
-0.9144
 49
0.0
 49
-1.193799999999999
 53
317.5
 43
-245.6542718513932
 44
161.5874774532025
 45
1.527112904944594
 46
0.4458586465144325
 79
     6
 49
0.0
 49
-0.127
 49
0.0
 49
-0.59944
 49
0.0
 49
-0.6858
 47
0.0233374670605618
 98
        2
 10
108.651602391071
 20
105.2442071090986
 10
108.4181572817072
 20
102.2803480169871
1001
ACAD
1010
0.0
1020
0.0
1030
0.0
  0
MTEXT
  5
8D9E
330
18
100
AcDbEntity
  8
mark
 62
     3
100
AcDbMText
 10
123.7591764100093
 20
118.2235402957062
 30
0.0
 40
3.5
 41
0.0
 71
     5
 72
     1
  1
2
 73
     1
 44
1.0
1001
ACAD
1000
ACAD_MTEXT_DEFINED_HEIGHT_BEGIN
1070
    46
1040
0.0
1000
ACAD_MTEXT_DEFINED_HEIGHT_END
  0
LEADER
  5
8DAB
330
18
100
AcDbEntity
  8
mark
100
AcDbLeader
  3
STANDARD
 76
     2
 10
116.0
 20
103.7418496151599
 30
0.0
 10
121.7646019370668
 20
117.3500916158106
 30
0.0
1001
ACAD
1000
DSTYLE
1002
{
1070
   147
1040
0.8
1070
    77
1070
     0
1002
}
  0
MTEXT
  5
8DB8
330
18
100
AcDbEntity
  8
mark
 62
     3
100
AcDbMText
 10
123.7591764100093
 20
87.53467633875743
 30
0.0
 40
3.5
 41
0.0
 71
     5
 72
     1
  1
3
 73
     1
 44
1.0
1001
ACAD
1000
ACAD_MTEXT_DEFINED_HEIGHT_BEGIN
1070
    46
1040
0.0
1000
ACAD_MTEXT_DEFINED_HEIGHT_END
  0
LEADER
  5
8DBA
330
18
100
AcDbEntity
  8
mark
100
AcDbLeader
  3
STANDARD
 76
     2
 10
108.3189999999999
 20
101.1418496151599
 30
0.0
 10
121.6882046898583
 20
87.7726449253015
 30
0.0
211
0.7071067811865476
221
0.7071067811865475
231
0.0
1001
ACAD
1000
DSTYLE
1002
{
1070
   147
1040
0.8
1070
    77
1070
     0
1002
}
  0
MTEXT
  5
8DBC
330
18
100
AcDbEntity
  8
mark
 62
     3
100
AcDbMText
 10
123.7591764100093
 20
203.6207596577792
 30
0.0
 40
3.5
 41
0.0
 71
     5
 72
     1
  1
1
 73
     1
 44
1.0
1001
ACAD
1000
ACAD_MTEXT_DEFINED_HEIGHT_BEGIN
1070
    46
1040
0.0
1000
ACAD_MTEXT_DEFINED_HEIGHT_END
  0
DIMENSION
  5
8E63
330
18
100
AcDbEntity
  8
mark
100
AcDbDimension
  2
*D12
 10
122.9162046420058
 20
109.7418496151599
 30
0.0
 11
120.8662046420058
 21
106.7418496151599
 31
0.0
 70
    32
 71
     5
 42
6.0
  3
STANDARD
100
AcDbAlignedDimension
 13
117.0
 23
103.7418496151599
 33
0.0
 14
113.0
 24
109.7418496151599
 34
0.0
 50
90.0
100
AcDbRotatedDimension
  0
DIMENSION
  5
8E72
330
18
100
AcDbEntity
  8
mark
100
AcDbDimension
  2
*D13
 10
89.58497025312203
 20
108.7418496151598
 30
0.0
 11
87.53497025312201
 21
102.5251829484932
 31
0.0
 70
    32
 71
     5
 42
1.000000000000014
  3
STANDARD
100
AcDbAlignedDimension
 13
89.58497025312203
 23
109.7418496151599
 33
0.0
 14
89.58497025312203
 24
108.7418496151598
 34
0.0
 50
90.0
100
AcDbRotatedDimension
  0
LEADER
  5
8E95
330
18
100
AcDbEntity
  8
mark
100
AcDbLeader
  3
STANDARD
 76
     2
 10
107.388
 20
98.49184961515987
 30
0.0
 10
98.71933051618661
 20
89.8231801313452
 30
0.0
211
0.0000000000000001
221
-1.0
231
0.0
1001
ACAD
1000
DSTYLE
1002
{
1070
   147
1040
0.8
1070
    77
1070
     0
1002
}
  0
MTEXT
  5
8EA7
330
18
100
AcDbEntity
  8
mark
 62
     3
100
AcDbMText
 10
99.60911892506301
 20
93.64743693037793
 30
0.0
 40
2.5
 41
0.0
 71
     5
 72
     1
  1
C1.5
 11
0.7071067811862683
 21
0.7071067811868267
 31
0.0
 73
     1
 44
1.0
1001
ACAD
1000
ACAD_MTEXT_DEFINED_HEIGHT_BEGIN
1070
    46
1040
0.0
1000
ACAD_MTEXT_DEFINED_HEIGHT_END
  0
LINE
  5
8EC4
102
{ACAD_REACTORS
330
8F11
102
}
330
18
100
AcDbEntity
  8
contour
100
AcDbLine
 10
106.6379999999999
 20
107.3798496151598
 30
0.0
 11
108.0
 21
108.7418496151599
 31
0.0
  0
HATCH
  5
8F11
330
18
100
AcDbEntity
  8
section
100
AcDbHatch
 10
0.0
 20
0.0
 30
0.0
210
0.0
220
0.0
230
1.0
  2
ANSI31
 70
     0
 71
     1
 91
       10
 92
        7
 72
     0
 73
     1
 93
        9
 10
82.50000000000012
 20
108.2418496151598
 10
82.0
 20
108.7418496151598
 10
82.0
 20
109.7418496151599
 10
77.0
 20
109.7418496151599
 10
77.0
 20
109.2418496151598
 10
76.14934053800698
 20
109.2418496151599
 10
76.14934053800698
 20
97.74184961515985
 10
81.86200000000006
 20
97.74184961515985
 10
82.5
 20
98.37984961515978
 97
        9
330
7406
330
73FE
330
73EC
330
73EF
330
73ED
330
7410
330
73EA
330
7402
330
7400
 92
        7
 72
     0
 73
     1
 93
        4
 10
82.5
 20
98.37984961515978
 10
83.36200000000008
 20
99.24184961515985
 10
83.36200000000006
 20
107.3798496151598
 10
82.50000000000012
 20
108.2418496151597
 97
        4
330
7406
330
7400
330
7402
330
7401
 92
        7
 72
     1
 73
     1
 93
        9
 10
116.0
 20
106.7418496151599
 42
0.0
 10
116.0
 20
107.7418496151599
 42
0.4142135623730951
 10
114.5
 20
109.2418496151599
 42
0.0
 10
113.0
 20
109.2418496151599
 42
0.0
 10
113.0
 20
109.7418496151599
 42
0.0
 10
108.0
 20
109.7418496151599
 42
0.0
 10
108.0
 20
108.7418496151599
 42
0.0
 10
107.5
 20
108.2418496151599
 42
0.0
 10
107.4999999999999
 20
106.7418496151599
 42
0.0
 97
        9
330
73F8
330
73F0
330
73EC
330
73FF
330
8EC4
330
73FA
330
7478
330
73E9
330
73F3
 92
        7
 72
     0
 73
     1
 93
        4
 10
107.5
 20
108.2418496151599
 10
106.6379999999999
 20
107.3798496151598
 10
106.6379999999999
 20
106.7418496151599
 10
107.4999999999999
 20
106.7418496151599
 97
        4
330
8EC4
330
73FB
330
7478
330
73FA
 92
        7
 72
     0
 73
     1
 93
        6
 10
106.6379999999999
 20
106.7418496151599
 10
106.6379999999999
 20
106.3418496151599
 10
110.0
 20
106.3418496151598
 10
110.0
 20
106.20184961516
 10
110.9600000000001
 20
106.20184961516
 10
111.5
 20
106.7418496151599
 97
        5
330
7478
330
73FB
330
74A6
330
7479
330
74A2
 92
        7
 72
     0
 73
     1
 93
        3
 10
115.064692563913
 20
106.7418496151599
 10
116.0
 20
106.20184961516
 10
116.0
 20
106.7418496151599
 97
        3
330
7478
330
74A0
330
73E9
 92
        7
 72
     1
 73
     1
 93
        6
 10
114.5000000000001
 20
97.74184961515988
 42
0.4142135623730951
 10
116.0000000000001
 20
99.24184961515988
 42
0.0
 10
116.0000000000001
 20
100.7418496151599
 42
0.0
 10
107.4999999999999
 20
100.7418496151599
 42
0.0
 10
107.4999999999999
 20
98.37984961516003
 42
0.0
 10
108.138
 20
97.7418496151599
 42
0.0
 97
        6
330
73E9
330
7477
330
74A8
330
7403
330
73EA
330
73F4
 92
        7
 72
     0
 73
     1
 93
        4
 10
107.4999999999999
 20
100.7418496151599
 10
106.638
 20
100.7418496151599
 10
106.638
 20
99.2418496151599
 10
107.4999999999999
 20
98.37984961516006
 97
        4
330
7477
330
73FB
330
7403
330
74A8
 92
        7
 72
     0
 73
     1
 93
        6
 10
111.4999999999999
 20
100.7418496151599
 10
110.9600000000001
 20
101.2818496151597
 10
110.0
 20
101.2818496151597
 10
110.0
 20
101.1418496151599
 10
106.638
 20
101.1418496151599
 10
106.638
 20
100.7418496151599
 97
        5
330
747A
330
74A6
330
73FB
330
7477
330
74A2
 92
        7
 72
     0
 73
     1
 93
        3
 10
116.0000000000001
 20
100.7418496151599
 10
116.0000000000001
 20
101.2818496151598
 10
115.0646925639131
 20
100.7418496151599
 97
        3
330
74A1
330
7477
330
73E9
 75
     0
 76
     1
 52
0.0
 41
0.5
 77
     0
 78
     1
 53
45.0
 43
0.0
 44
0.0
 45
-1.122532015133643
 46
1.122532015133644
 79
     0
 47
0.1188837546497869
 98
       10
 10
79.8422224194768
 20
104.3253578931767
 10
82.81106286452507
 20
104.3462142899058
 10
110.3269417614974
 20
107.8232072598202
 10
107.252496630178
 20
107.0826004428846
 10
107.7710772451826
 20
106.6012067701471
 10
115.735002013785
 20
106.6382367483427
 10
109.0464364006043
 20
98.96930057066606
 10
107.4120195859996
 20
99.89518981108723
 10
108.0657861549449
 20
100.8573890023502
 10
115.7293835498236
 20
100.784770419398
1001
ACAD
1010
0.0
1020
0.0
1030
0.0
  0
MTEXT
  5
90B4
330
18
100
AcDbEntity
  8
0
100
AcDbMText
 10
47.65097232190481
 20
19.07605901616615
 30
0.0
 40
4.5
 41
0.0
 71
     1
 72
     5
  1
{\Ftxt,bigfont|c128;小\~柳}
  7
JL
 73
     1
 44
1.0
1001
ACAD
1000
ACAD_MTEXT_DEFINED_HEIGHT_BEGIN
1070
    46
1040
0.0
1000
ACAD_MTEXT_DEFINED_HEIGHT_END
  0
ENDSEC
  0
SECTION
  2
OBJECTS
  0
DICTIONARY
  5
C
330
0
100
AcDbDictionary
281
     1
  3
ACAD_COLOR
350
716D
  3
ACAD_GROUP
350
D
  3
ACAD_LAYOUT
350
5CF3
  3
ACAD_MATERIAL
350
716C
  3
ACAD_MLINESTYLE
350
1B
  3
ACAD_PLOTSETTINGS
350
5CF4
  3
ACAD_PLOTSTYLENAME
350
5CF1
  3
ACAD_TABLESTYLE
350
716E
  3
AcadDim
350
8E88
  3
ACDBVARIABLEDICTIONARY
350
45D
  0
DICTIONARY
  5
7467
330
2
100
AcDbDictionary
280
     1
281
     1
  3
ACAD_LAYERFILTERS
360
746D
  3
ACLYDICTIONARY
360
746C
  0
DICTIONARY
  5
45F
330
18
100
AcDbDictionary
280
     1
281
     1
  3
ACAD_LAYOUTSELFREF
360
5D8B
  3
ACAD_SORTENTS
360
460
  0
DICTIONARY
  5
5D89
330
15
100
AcDbDictionary
280
     1
281
     1
  3
ACAD_LAYOUTSELFREF
360
5D8A
  0
DICTIONARY
  5
8B03
330
8B02
100
AcDbDictionary
280
     1
281
     1
  3
AcDbBlockTableRecordData
360
8B04
  0
DICTIONARY
  5
716D
102
{ACAD_REACTORS
330
C
102
}
330
C
100
AcDbDictionary
281
     1
  0
DICTIONARY
  5
D
102
{ACAD_REACTORS
330
C
102
}
330
C
100
AcDbDictionary
281
     1
  0
DICTIONARY
  5
5CF3
102
{ACAD_REACTORS
330
C
102
}
330
C
100
AcDbDictionary
281
     1
  3
Model
350
5CF5
  3
配置1
350
5CF6
  0
DICTIONARY
  5
716C
102
{ACAD_REACTORS
330
C
102
}
330
C
100
AcDbDictionary
281
     1
  0
DICTIONARY
  5
1B
102
{ACAD_REACTORS
330
C
102
}
330
C
100
AcDbDictionary
281
     1
  3
STANDARD
350
1C
  0
DICTIONARY
  5
5CF4
102
{ACAD_REACTORS
330
C
102
}
330
C
100
AcDbDictionary
281
     1
  0
ACDBDICTIONARYWDFLT
  5
5CF1
102
{ACAD_REACTORS
330
C
102
}
330
C
100
AcDbDictionary
281
     1
  3
Normal
350
5CF2
100
AcDbDictionaryWithDefault
340
5CF2
  0
DICTIONARY
  5
716E
102
{ACAD_REACTORS
330
C
102
}
330
C
100
AcDbDictionary
281
     1
  3
Standard
350
716F
  0
XRECORD
  5
8E88
102
{ACAD_REACTORS
330
C
102
}
330
C
100
AcDbXrecord
280
     1
 90
   990106
  3

 60
     0
 61
     0
 62
     1
 63
     3
 64
     0
 65
     0
 66
     0
 67
     3
 68
     1
 69
     0
 70
     0
 71
     0
 72
     0
 40
0.0
170
     0
  0
DICTIONARY
  5
45D
102
{ACAD_REACTORS
330
C
102
}
330
C
100
AcDbDictionary
281
     1
  3
CTABLESTYLE
350
717A
  3
SORTENTS
350
45E
  0
DICTIONARY
  5
746D
102
{ACAD_REACTORS
330
7467
102
}
330
7467
100
AcDbDictionary
281
     1
  0
DICTIONARY
  5
746C
102
{ACAD_REACTORS
330
7467
102
}
330
7467
100
AcDbDictionary
281
     1
1001
ACAD
1000
<All
  0
XRECORD
  5
5D8B
102
{ACAD_REACTORS
330
45F
102
}
330
45F
100
AcDbXrecord
280
     1
340
18
  0
SORTENTSTABLE
  5
460
102
{ACAD_REACTORS
330
45F
102
}
330
45F
100
AcDbSortentsTable
330
18
331
74A2
  5
7490
331
73BD
  5
73C1
331
73F4
  5
73FE
331
8E72
  5
8E95
331
C0
  5
CB
331
73C5
  5
73C8
331
73FC
  5
7406
331
7531
  5
7537
331
8DBC
  5
8E63
331
8A1F
  5
8A87
331
7539
  5
753F
331
8A96
  5
8AD3
331
7502
  5
7509
331
747B
  5
74A0
331
750A
  5
7510
331
7541
  5
7548
331
73DD
  5
73DF
331
7512
  5
7518
331
7549
  5
7551
331
73E5
  5
73E7
331
751A
  5
7520
331
7551
  5
7557
331
8E63
  5
8E72
331
8AF6
  5
8B89
331
73B6
  5
73B6
331
73ED
  5
7407
331
7522
  5
7531
331
7559
  5
89DF
331
8A10
  5
8A85
331
73BE
  5
73C2
331
74A3
  5
7503
331
7561
  5
8A20
331
8B0E
  5
8C0F
331
8A87
  5
8AD2
331
7532
  5
7538
331
8A20
  5
8A96
331
7474
  5
748F
331
753A
  5
7540
331
7503
  5
750A
331
750B
  5
7511
331
73DE
  5
73E0
331
7513
  5
7519
331
754A
  5
7552
331
751B
  5
7521
331
7552
  5
7558
331
8A78
  5
8AD0
331
7523
  5
7532
331
755A
  5
8A0F
331
8D9E
  5
8DB8
331
73BF
  5
73C3
331
7562
  5
8A24
331
73C7
  5
73D0
331
73FE
  5
7433
331
7533
  5
7539
331
7406
  5
7403
331
753B
  5
7541
331
7504
  5
750B
331
73D7
  5
73D7
331
750C
  5
7512
331
7543
  5
7549
331
8A31
  5
8ABA
331
7514
  5
751A
331
754B
  5
7553
331
751C
  5
7522
331
7553
  5
7559
331
8EC4
  5
8ECC
331
73EF
  5
740B
331
7524
  5
7533
331
755B
  5
8A10
331
73B8
  5
73BC
331
73C0
  5
73C4
331
8B10
  5
8C53
331
73FF
  5
7434
331
73C8
  5
73D5
331
7534
  5
753A
331
753C
  5
7543
331
7505
  5
750C
331
740F
  5
746F
331
750D
  5
7513
331
73D8
  5
73DB
331
7544
  5
754A
331
8E95
  5
8EA7
331
8D80
  5
8D9E
331
7515
  5
751B
331
748E
  5
74A1
331
751D
  5
7523
331
7447
  5
7477
331
73E8
  5
73E8
331
7554
  5
755A
331
755C
  5
8A1F
331
749E
  5
74B6
331
73B9
  5
73BB
331
73F0
  5
740C
331
74A6
  5
7504
331
73C1
  5
73C5
331
73F8
  5
7408
331
7535
  5
753B
331
746F
  5
748E
331
7400
  5
7447
331
8DB8
  5
8DBC
331
753D
  5
7544
331
7477
  5
7491
331
74B6
  5
7505
331
7506
  5
750D
331
7410
  5
7474
331
750E
  5
7514
331
7545
  5
754B
331
7516
  5
751C
331
748F
  5
74A2
331
73E1
  5
73E3
331
754D
  5
7554
331
751E
  5
7524
331
7448
  5
7478
331
73E9
  5
73F2
331
7555
  5
755B
331
749F
  5
7500
331
73BA
  5
73BD
331
73F1
  5
73FF
331
752E
  5
7534
331
73C2
  5
73B9
331
7536
  5
753C
331
7401
  5
7448
331
753E
  5
7545
331
8A24
  5
8AAD
331
8C12
  5
8D8B
331
7478
  5
7492
331
750F
  5
7515
331
7546
  5
754D
331
7517
  5
751D
331
7490
  5
74A3
331
73E2
  5
73E4
331
751F
  5
752E
331
7449
  5
7479
331
73EA
  5
73F8
331
7556
  5
755C
331
8EA7
  5
8EC4
331
8D9A
  5
73FA
331
74A0
  5
7501
331
73BB
  5
73BF
331
73F2
  5
740A
331
752F
  5
7535
331
74A8
  5
740E
331
73C3
  5
73B8
331
73FA
  5
740D
331
8DBA
  5
8E17
331
7537
  5
753D
331
7402
  5
7449
331
8B13
  5
8D80
331
7500
  5
7506
331
740A
  5
744A
331
753F
  5
7546
331
7508
  5
750E
331
7479
  5
749E
331
7510
  5
7516
331
7432
  5
73FB
331
73DB
  5
73DD
331
7547
  5
754F
331
8C53
  5
8D8D
331
7518
  5
751E
331
7491
  5
74A6
331
754F
  5
7555
331
7520
  5
752F
331
744A
  5
747A
331
73EB
  5
7400
331
7557
  5
7561
331
8D8B
  5
8DAB
331
74A1
  5
7502
331
73BC
  5
73C0
331
73F3
  5
73F4
331
7530
  5
7536
331
73C4
  5
73C7
331
73FB
  5
740F
331
8A85
  5
8AD1
331
8DAB
  5
8DBA
331
7403
  5
7410
331
7538
  5
753E
331
740B
  5
744B
331
7501
  5
7508
331
747A
  5
749F
331
7509
  5
750F
331
7540
  5
7547
331
89DF
  5
8A31
331
7511
  5
7517
331
7548
  5
7550
331
8AAD
  5
8B4A
331
7492
  5
74A8
331
7519
  5
751F
331
7550
  5
7556
331
744B
  5
747B
331
73EC
  5
7402
331
7521
  5
7530
331
7558
  5
7562
331
8A0F
  5
8A78
331
8F11
  5
73F1
  0
XRECORD
  5
5D8A
102
{ACAD_REACTORS
330
5D89
102
}
330
5D89
100
AcDbXrecord
280
     1
340
15
  0
DICTIONARY
  5
8B04
102
{ACAD_REACTORS
330
8B03
102
}
330
8B03
100
AcDbDictionary
280
     1
281
     1
  3
Edit
360
8B05
  0
LAYOUT
  5
5CF5
102
{ACAD_REACTORS
330
5CF3
102
}
330
5CF3
100
AcDbPlotSettings
  1

  2
hp LaserJet 1300 PCL 6
  4
A4
  6

 40
5.027083396911621
 41
5.069413185119628
 42
5.027084350585937
 43
5.027069091796875
 44
209.9733276367187
 45
296.9683227539062
 46
4.959579944610595
 47
3.435920238494873
 48
0.0
 49
0.0
140
190.0
141
280.0
142
1.0
143
1.0
 70
 11940
 72
     1
 73
     0
 74
     4
  7
LIN.ctb
 75
     0
147
1.02454228741782
 76
     0
 77
     2
 78
   300
148
0.0
149
0.0
100
AcDbLayout
  1
Model
 70
     1
 71
     0
 10
0.0
 20
0.0
 11
12.0
 21
9.0
 12
0.0
 22
0.0
 32
0.0
 14
0.0
 24
0.0
 34
0.0
 15
0.0
 25
0.0
 35
0.0
146
0.0
 13
0.0
 23
0.0
 33
0.0
 16
1.0
 26
0.0
 36
0.0
 17
0.0
 27
1.0
 37
0.0
 76
     0
330
18
1001
ACAD_PSEXT
1000
hp LaserJet 1300 PCL 6
1000
hp LaserJet 1300 PCL 6
1000
HP 1300
1000

1070
     0
  0
LAYOUT
  5
5CF6
102
{ACAD_REACTORS
330
5CF3
102
}
330
5CF3
100
AcDbPlotSettings
  1

  2
EPSON STYLUS COLOR 440
  4

  6

 40
0.0
 41
0.0
 42
0.0
 43
0.0
 44
0.0
 45
0.0
 46
0.0
 47
0.0
 48
0.0
 49
0.0
140
0.0
141
0.0
142
1.0
143
1.0
 70
   688
 72
     0
 73
     0
 74
     5
  7
LIN.ctb
 75
    16
147
1.0
 76
     0
 77
     2
 78
   300
148
0.0
149
0.0
100
AcDbLayout
  1
ｰtｸm1
 70
     1
 71
     1
 10
0.0
 20
0.0
 11
420.0
 21
297.0
 12
0.0
 22
0.0
 32
0.0
 14
1.000000000000000E+20
 24
1.000000000000000E+20
 34
1.000000000000000E+20
 15
-1.000000000000000E+20
 25
-1.000000000000000E+20
 35
-1.000000000000000E+20
146
0.0
 13
0.0
 23
0.0
 33
0.0
 16
1.0
 26
0.0
 36
0.0
 17
0.0
 27
1.0
 37
0.0
 76
     0
330
15
  0
MLINESTYLE
  5
1C
102
{ACAD_REACTORS
330
1B
102
}
330
1B
100
AcDbMlineStyle
  2
STANDARD
 70
     0
  3

 62
   256
 51
90.0
 52
90.0
 71
     2
 49
0.5
 62
   256
  6
BYLAYER
 49
-0.5
 62
   256
  6
BYLAYER
  0
ACDBPLACEHOLDER
  5
5CF2
102
{ACAD_REACTORS
330
5CF1
102
}
330
5CF1
  0
TABLESTYLE
  5
716F
102
{ACAD_REACTORS
330
716E
102
}
330
716E
100
AcDbTableStyle
  3
Standard
 70
     0
 71
     8
 40
1.5
 41
1.5
280
     0
281
     0
  7
STANDARD
140
4.5
170
     2
 62
     0
 63
     7
283
     0
274
    -2
284
     1
 64
     0
275
    -2
285
     1
 65
     0
276
    -2
286
     1
 66
     0
277
    -2
287
     1
 67
     0
278
    -2
288
     1
 68
     0
279
    -2
289
     1
 69
     0
  7
STANDARD
140
6.0
170
     5
 62
     0
 63
     7
283
     0
274
    -2
284
     1
 64
     0
275
    -2
285
     1
 65
     0
276
    -2
286
     1
 66
     0
277
    -2
287
     1
 67
     0
278
    -2
288
     1
 68
     0
279
    -2
289
     1
 69
     0
  7
STANDARD
140
4.5
170
     5
 62
     0
 63
     7
283
     0
274
    -2
284
     1
 64
     0
275
    -2
285
     1
 65
     0
276
    -2
286
     1
 66
     0
277
    -2
287
     1
 67
     0
278
    -2
288
     1
 68
     0
279
    -2
289
     1
 69
     0
  0
DICTIONARYVAR
  5
717A
102
{ACAD_REACTORS
330
45D
102
}
330
45D
100
DictionaryVariables
280
     0
  1
STANDARD
  0
DICTIONARYVAR
  5
45E
102
{ACAD_REACTORS
330
45D
102
}
330
45D
100
DictionaryVariables
280
     0
  1
127
  0
XRECORD
  5
8B05
102
{ACAD_REACTORS
330
8B04
102
}
330
8B04
100
AcDbXrecord
280
     1
1070
     0
1070
     1
1070
     1
  0
ENDSEC
  0
EOF
