  0
SECTION
  2
HEADER
  9
$ACADVER
  1
AC1018
  9
$ACADMAINTVER
 70
    76
  9
$DWGCODEPAGE
  3
ANSI_932
  9
$INSBASE
 10
0.0
 20
0.0
 30
0.0
  9
$EXTMIN
 10
210.0000012223609
 20
73.86026078725729
 30
-0.0001220647244224
  9
$EXTMAX
 10
309.0142830752468
 20
218.9024511621129
 30
2.000122083351442
  9
$LIMMIN
 10
0.0
 20
0.0
  9
$LIMMAX
 10
420.0
 20
297.0
  9
$ORTHOMODE
 70
     0
  9
$REGENMODE
 70
     1
  9
$FILLMODE
 70
     1
  9
$QTEXTMODE
 70
     0
  9
$MIRRTEXT
 70
     1
  9
$LTSCALE
 40
1.0
  9
$ATTMODE
 70
     1
  9
$TEXTSIZE
 40
2.5
  9
$TRACEWID
 40
1.0
  9
$TEXTSTYLE
  7
TXT
  9
$CLAYER
  8
DIM
  9
$CELTYPE
  6
BYLAYER
  9
$CECOLOR
 62
   256
  9
$CELTSCALE
 40
1.0
  9
$DISPSILH
 70
     0
  9
$DIMSCALE
 40
1.0
  9
$DIMASZ
 40
1.25
  9
$DIMEXO
 40
1.0
  9
$DIMDLI
 40
3.0
  9
$DIMRND
 40
0.0
  9
$DIMDLE
 40
0.0
  9
$DIMEXE
 40
1.0
  9
$DIMTP
 40
0.0
  9
$DIMTM
 40
0.0
  9
$DIMTXT
 40
1.75
  9
$DIMCEN
 40
0.0
  9
$DIMTSZ
 40
0.0
  9
$DIMTOL
 70
     0
  9
$DIMLIM
 70
     0
  9
$DIMTIH
 70
     0
  9
$DIMTOH
 70
     0
  9
$DIMSE1
 70
     0
  9
$DIMSE2
 70
     0
  9
$DIMTAD
 70
     3
  9
$DIMZIN
 70
     8
  9
$DIMBLK
  1

  9
$DIMASO
 70
     1
  9
$DIMSHO
 70
     1
  9
$DIMPOST
  1

  9
$DIMAPOST
  1

  9
$DIMALT
 70
     0
  9
$DIMALTD
 70
     2
  9
$DIMALTF
 40
25.4
  9
$DIMLFAC
 40
1.0
  9
$DIMTOFL
 70
     0
  9
$DIMTVP
 40
0.0
  9
$DIMTIX
 70
     0
  9
$DIMSOXD
 70
     0
  9
$DIMSAH
 70
     0
  9
$DIMBLK1
  1

  9
$DIMBLK2
  1

  9
$DIMSTYLE
  2
A
  9
$DIMCLRD
 70
     6
  9
$DIMCLRE
 70
     6
  9
$DIMCLRT
 70
     3
  9
$DIMTFAC
 40
1.0
  9
$DIMGAP
 40
0.5
  9
$DIMJUST
 70
     0
  9
$DIMSD1
 70
     0
  9
$DIMSD2
 70
     0
  9
$DIMTOLJ
 70
     1
  9
$DIMTZIN
 70
     0
  9
$DIMALTZ
 70
     0
  9
$DIMALTTZ
 70
     0
  9
$DIMUPT
 70
     0
  9
$DIMDEC
 70
     1
  9
$DIMTDEC
 70
     1
  9
$DIMALTU
 70
     2
  9
$DIMALTTD
 70
     2
  9
$DIMTXSTY
  7
TXT
  9
$DIMAUNIT
 70
     0
  9
$DIMADEC
 70
     0
  9
$DIMALTRND
 40
0.0
  9
$DIMAZIN
 70
     0
  9
$DIMDSEP
 70
    46
  9
$DIMATFIT
 70
     3
  9
$DIMFRAC
 70
     0
  9
$DIMLDRBLK
  1

  9
$DIMLUNIT
 70
     2
  9
$DIMLWD
 70
    -2
  9
$DIMLWE
 70
    -2
  9
$DIMTMOVE
 70
     1
  9
$LUNITS
 70
     2
  9
$LUPREC
 70
     2
  9
$SKETCHINC
 40
1.0
  9
$FILLETRAD
 40
1.0
  9
$AUNITS
 70
     0
  9
$AUPREC
 70
     2
  9
$MENU
  1
.
  9
$ELEVATION
 40
0.0
  9
$PELEVATION
 40
0.0
  9
$THICKNESS
 40
0.0
  9
$LIMCHECK
 70
     0
  9
$CHAMFERA
 40
1.75
  9
$CHAMFERB
 40
1.75
  9
$CHAMFERC
 40
1.75
  9
$CHAMFERD
 40
0.0174532925199433
  9
$SKPOLY
 70
     0
  9
$TDCREATE
 40
2451555.620234838
  9
$TDUCREATE
 40
2451555.245234838
  9
$TDUPDATE
 40
2455846.563971991
  9
$TDUUPDATE
 40
2455846.188971991
  9
$TDINDWG
 40
2.2064727431
  9
$TDUSRTIMER
 40
2.2064727431
  9
$USRTIMER
 70
     1
  9
$ANGBASE
 50
0.0
  9
$ANGDIR
 70
     0
  9
$PDMODE
 70
     0
  9
$PDSIZE
 40
0.0
  9
$PLINEWID
 40
0.0
  9
$SPLFRAME
 70
     0
  9
$SPLINETYPE
 70
     6
  9
$SPLINESEGS
 70
     8
  9
$HANDSEED
  5
7565
  9
$SURFTAB1
 70
     6
  9
$SURFTAB2
 70
     6
  9
$SURFTYPE
 70
     6
  9
$SURFU
 70
     6
  9
$SURFV
 70
     6
  9
$UCSBASE
  2

  9
$UCSNAME
  2

  9
$UCSORG
 10
0.0
 20
0.0
 30
0.0
  9
$UCSXDIR
 10
1.0
 20
0.0
 30
0.0
  9
$UCSYDIR
 10
0.0
 20
1.0
 30
0.0
  9
$UCSORTHOREF
  2

  9
$UCSORTHOVIEW
 70
     0
  9
$UCSORGTOP
 10
0.0
 20
0.0
 30
0.0
  9
$UCSORGBOTTOM
 10
0.0
 20
0.0
 30
0.0
  9
$UCSORGLEFT
 10
0.0
 20
0.0
 30
0.0
  9
$UCSORGRIGHT
 10
0.0
 20
0.0
 30
0.0
  9
$UCSORGFRONT
 10
0.0
 20
0.0
 30
0.0
  9
$UCSORGBACK
 10
0.0
 20
0.0
 30
0.0
  9
$PUCSBASE
  2

  9
$PUCSNAME
  2

  9
$PUCSORG
 10
0.0
 20
0.0
 30
0.0
  9
$PUCSXDIR
 10
1.0
 20
0.0
 30
0.0
  9
$PUCSYDIR
 10
0.0
 20
1.0
 30
0.0
  9
$PUCSORTHOREF
  2

  9
$PUCSORTHOVIEW
 70
     0
  9
$PUCSORGTOP
 10
0.0
 20
0.0
 30
0.0
  9
$PUCSORGBOTTOM
 10
0.0
 20
0.0
 30
0.0
  9
$PUCSORGLEFT
 10
0.0
 20
0.0
 30
0.0
  9
$PUCSORGRIGHT
 10
0.0
 20
0.0
 30
0.0
  9
$PUCSORGFRONT
 10
0.0
 20
0.0
 30
0.0
  9
$PUCSORGBACK
 10
0.0
 20
0.0
 30
0.0
  9
$USERI1
 70
     0
  9
$USERI2
 70
     0
  9
$USERI3
 70
     0
  9
$USERI4
 70
     0
  9
$USERI5
 70
     0
  9
$USERR1
 40
0.0
  9
$USERR2
 40
0.0
  9
$USERR3
 40
0.0
  9
$USERR4
 40
0.0
  9
$USERR5
 40
0.0
  9
$WORLDVIEW
 70
     1
  9
$SHADEDGE
 70
     3
  9
$SHADEDIF
 70
    70
  9
$TILEMODE
 70
     1
  9
$MAXACTVP
 70
    48
  9
$PINSBASE
 10
0.0
 20
0.0
 30
0.0
  9
$PLIMCHECK
 70
     0
  9
$PEXTMIN
 10
1.000000000000000E+20
 20
1.000000000000000E+20
 30
1.000000000000000E+20
  9
$PEXTMAX
 10
-1.000000000000000E+20
 20
-1.000000000000000E+20
 30
-1.000000000000000E+20
  9
$PLIMMIN
 10
0.0
 20
0.0
  9
$PLIMMAX
 10
420.0
 20
297.0
  9
$UNITMODE
 70
     0
  9
$VISRETAIN
 70
     1
  9
$PLINEGEN
 70
     0
  9
$PSLTSCALE
 70
     1
  9
$TREEDEPTH
 70
  3020
  9
$CMLSTYLE
  2
STANDARD
  9
$CMLJUST
 70
     0
  9
$CMLSCALE
 40
20.0
  9
$PROXYGRAPHICS
 70
     1
  9
$MEASUREMENT
 70
     1
  9
$CELWEIGHT
370
    -1
  9
$ENDCAPS
280
     0
  9
$JOINSTYLE
280
     0
  9
$LWDISPLAY
290
     0
  9
$INSUNITS
 70
     0
  9
$HYPERLINKBASE
  1

  9
$STYLESHEET
  1

  9
$XEDIT
290
     1
  9
$CEPSNTYPE
380
     0
  9
$PSTYLEMODE
290
     1
  9
$FINGERPRINTGUID
  2
{1CF51E8A-A506-11D4-A7D9-AF69F5C20846}
  9
$VERSIONGUID
  2
{F5877CF7-EC55-4E55-B859-66A3946A2938}
  9
$EXTNAMES
290
     1
  9
$PSVPSCALE
 40
0.0
  9
$OLESTARTUP
290
     0
  9
$SORTENTS
280
   127
  9
$INDEXCTL
280
     0
  9
$HIDETEXT
280
     0
  9
$XCLIPFRAME
290
     0
  9
$HALOGAP
280
     0
  9
$OBSCOLOR
 70
   257
  9
$OBSLTYPE
280
     0
  9
$INTERSECTIONDISPLAY
280
     0
  9
$INTERSECTIONCOLOR
 70
   257
  9
$DIMASSOC
280
     1
  9
$PROJECTNAME
  1

  0
ENDSEC
  0
SECTION
  2
CLASSES
  0
CLASS
  1
DICTIONARYVAR
  2
AcDbDictionaryVar
  3
ObjectDBX Classes
 90
        0
 91
        2
280
     0
281
     0
  0
CLASS
  1
SORTENTSTABLE
  2
AcDbSortentsTable
  3
ObjectDBX Classes
 90
        0
 91
        1
280
     0
281
     0
  0
CLASS
  1
ACDBDICTIONARYWDFLT
  2
AcDbDictionaryWithDefault
  3
ObjectDBX Classes
 90
        0
 91
        1
280
     0
281
     0
  0
CLASS
  1
TABLESTYLE
  2
AcDbTableStyle
  3
ObjectDBX Classes
 90
     2047
 91
        1
280
     0
281
     0
  0
ENDSEC
  0
SECTION
  2
TABLES
  0
TABLE
  2
VPORT
  5
8
330
0
100
AcDbSymbolTable
 70
     2
  0
VPORT
  5
7564
330
8
100
AcDbSymbolTableRecord
100
AcDbViewportTableRecord
  2
*Active
 70
     0
 10
0.0
 20
0.0
 11
1.0
 21
1.0
 12
262.1162513498335
 22
143.3105296369794
 13
0.0
 23
0.0
 14
10.0
 24
10.0
 15
10.0
 25
10.0
 16
0.0
 26
0.0
 36
1.0
 17
0.0
 27
0.0
 37
0.0
 40
130.2159057971112
 41
2.47104247104247
 42
50.0
 43
0.0
 44
0.0
 50
0.0
 51
0.0
 71
     0
 72
   100
 73
     1
 74
     1
 75
     0
 76
     0
 77
     0
 78
     0
281
     0
 65
     1
110
0.0
120
0.0
130
0.0
111
1.0
121
0.0
131
0.0
112
0.0
122
1.0
132
0.0
 79
     0
146
0.0
  0
ENDTAB
  0
TABLE
  2
LTYPE
  5
5
330
0
100
AcDbSymbolTable
 70
    10
  0
LTYPE
  5
12
330
5
100
AcDbSymbolTableRecord
100
AcDbLinetypeTableRecord
  2
BYBLOCK
 70
     0
  3

 72
    65
 73
     0
 40
0.0
  0
LTYPE
  5
13
330
5
100
AcDbSymbolTableRecord
100
AcDbLinetypeTableRecord
  2
BYLAYER
 70
     0
  3

 72
    65
 73
     0
 40
0.0
  0
LTYPE
  5
14
330
5
100
AcDbSymbolTableRecord
100
AcDbLinetypeTableRecord
  2
CONTINUOUS
 70
     0
  3
Solid line
 72
    65
 73
     0
 40
0.0
  0
LTYPE
  5
9D
330
5
100
AcDbSymbolTableRecord
100
AcDbLinetypeTableRecord
  2
CENTERX2
 70
     0
  3
Center (2x) ________  __  ________  __  _____
 72
    65
 73
     4
 40
101.6
 49
63.5
 74
     0
 49
-12.7
 74
     0
 49
12.7
 74
     0
 49
-12.7
 74
     0
  0
LTYPE
  5
A1
330
5
100
AcDbSymbolTableRecord
100
AcDbLinetypeTableRecord
  2
DASHED
 70
     0
  3
Dashed __ __ __ __ __ __ __ __ __ __ __ __ __ _
 72
    65
 73
     2
 40
19.05
 49
12.7
 74
     0
 49
-6.349999999999999
 74
     0
  0
LTYPE
  5
A2
330
5
100
AcDbSymbolTableRecord
100
AcDbLinetypeTableRecord
  2
DASHED2
 70
     0
  3
Dashed (.5x) _ _ _ _ _ _ _ _ _ _ _ _ _ _ _ _ _
 72
    65
 73
     2
 40
9.524999999999998
 49
6.349999999999999
 74
     0
 49
-3.174999999999999
 74
     0
  0
LTYPE
  5
A5
330
5
100
AcDbSymbolTableRecord
100
AcDbLinetypeTableRecord
  2
DIVIDE2
 70
     0
  3
Divide (.5x) __..__..__..__..__..__..__..__.._
 72
    65
 73
     6
 40
15.875
 49
6.349999999999999
 74
     0
 49
-3.174999999999999
 74
     0
 49
0.0
 74
     0
 49
-3.174999999999999
 74
     0
 49
0.0
 74
     0
 49
-3.174999999999999
 74
     0
  0
LTYPE
  5
650B
330
5
100
AcDbSymbolTableRecord
100
AcDbLinetypeTableRecord
  2
CENTER
 70
     0
  3
Center ____ _ ____ _ ____ _ ____ _ ____ _ ____
 72
    65
 73
     4
 40
50.8
 49
31.75
 74
     0
 49
-6.349999999999999
 74
     0
 49
6.349999999999999
 74
     0
 49
-6.349999999999999
 74
     0
  0
LTYPE
  5
650C
330
5
100
AcDbSymbolTableRecord
100
AcDbLinetypeTableRecord
  2
HIDDEN
 70
     0
  3
Hidden __ __ __ __ __ __ __ __ __ __ __ __ __ _
 72
    65
 73
     2
 40
9.524999999999998
 49
6.349999999999999
 74
     0
 49
-3.174999999999999
 74
     0
  0
LTYPE
  5
6684
330
5
100
AcDbSymbolTableRecord
100
AcDbLinetypeTableRecord
  2
HIDDEN2
 70
     0
  3
Hidden (.5x) _ _ _ _ _ _ _ _ _ _ _ _ _ _ _ _ _
 72
    65
 73
     2
 40
4.762499999999999
 49
3.174999999999999
 74
     0
 49
-1.587499999999999
 74
     0
  0
LTYPE
  5
6AF9
330
5
100
AcDbSymbolTableRecord
100
AcDbLinetypeTableRecord
  2
ACAD_ISO03W100
 70
     0
  3
ISO dash space __    __    __    __    __    __
 72
    65
 73
     2
 40
30.0
 49
12.0
 74
     0
 49
-18.0
 74
     0
  0
LTYPE
  5
711B
330
5
100
AcDbSymbolTableRecord
100
AcDbLinetypeTableRecord
  2
BORDERX2
 70
     0
  3
Border (2x) ____  ____  .  ____  ____  .  ___
 72
    65
 73
     6
 40
88.9
 49
25.4
 74
     0
 49
-12.7
 74
     0
 49
25.4
 74
     0
 49
-12.7
 74
     0
 49
0.0
 74
     0
 49
-12.7
 74
     0
  0
ENDTAB
  0
TABLE
  2
LAYER
  5
2
330
0
100
AcDbSymbolTable
 70
     9
  0
LAYER
  5
E
330
2
100
AcDbSymbolTableRecord
100
AcDbLayerTableRecord
  2
0
 70
     0
 62
     7
  6
CONTINUOUS
370
    -3
390
5CF2
  0
LAYER
  5
B9
330
2
100
AcDbSymbolTableRecord
100
AcDbLayerTableRecord
  2
DIM
 70
     0
 62
     3
  6
CONTINUOUS
370
    -3
390
5CF2
  0
LAYER
  5
F2
330
2
100
AcDbSymbolTableRecord
100
AcDbLayerTableRecord
  2
DEFPOINTS
 70
     0
 62
     7
  6
CONTINUOUS
290
     0
370
    -3
390
5CF2
  0
LAYER
  5
5F8B
330
2
100
AcDbSymbolTableRecord
100
AcDbLayerTableRecord
  2
公差
 70
     0
 62
     6
  6
CONTINUOUS
370
    -3
390
5CF2
  0
LAYER
  5
644E
330
2
100
AcDbSymbolTableRecord
100
AcDbLayerTableRecord
  2
図框線
 70
     0
 62
     9
  6
CONTINUOUS
370
    -3
390
5CF2
  0
LAYER
  5
650D
330
2
100
AcDbSymbolTableRecord
100
AcDbLayerTableRecord
  2
中心線
 70
     0
 62
     1
  6
CENTER
370
    -3
390
5CF2
  0
LAYER
  5
650E
330
2
100
AcDbSymbolTableRecord
100
AcDbLayerTableRecord
  2
本体内線
 70
     0
 62
     4
  6
HIDDEN
370
    -3
390
5CF2
  0
LAYER
  5
650F
330
2
100
AcDbSymbolTableRecord
100
AcDbLayerTableRecord
  2
本体外線
 70
     0
 62
     2
  6
CONTINUOUS
370
    -3
390
5CF2
  0
LAYER
  5
6510
330
2
100
AcDbSymbolTableRecord
100
AcDbLayerTableRecord
  2
剖面線
 70
     0
 62
     5
  6
CONTINUOUS
370
    -3
390
5CF2
  0
ENDTAB
  0
TABLE
  2
STYLE
  5
3
330
0
100
AcDbSymbolTable
 70
     6
  0
STYLE
  5
F
330
3
100
AcDbSymbolTableRecord
100
AcDbTextStyleTableRecord
  2
STANDARD
 70
     0
 40
0.0
 41
1.0
 50
0.0
 71
     0
 42
2.5
  3
txt
  4

  0
STYLE
  5
BE
330
3
100
AcDbSymbolTableRecord
100
AcDbTextStyleTableRecord
  2
ISOCP3
 70
     0
 40
0.0
 41
1.0
 50
0.0
 71
     0
 42
2.5
  3
isocp3.shx
  4

  0
STYLE
  5
2A37
330
3
100
AcDbSymbolTableRecord
100
AcDbTextStyleTableRecord
  2
TXT
 70
     0
 40
0.0
 41
1.0
 50
0.0
 71
     0
 42
2.5
  3
txt.shx
  4
bigfont.shx
  0
STYLE
  5
5DCB
330
3
100
AcDbSymbolTableRecord
100
AcDbTextStyleTableRecord
  2
LKK
 70
     0
 40
50.0
 41
1.5
 50
0.0
 71
     0
 42
50.0
  3
MS PGothic.ttf
  4

1001
ACAD
1000
MS PGothic
1071
    32818
  0
STYLE
  5
5DCC
330
3
100
AcDbSymbolTableRecord
100
AcDbTextStyleTableRecord
  2
JL
 70
     0
 40
10.0
 41
0.5
 50
0.0
 71
     0
 42
5.0
  3
MS Mincho.ttf
  4

1001
ACAD
1000
MS Mincho
1071
    32785
  0
ENDTAB
  0
TABLE
  2
VIEW
  5
6
330
0
100
AcDbSymbolTable
 70
     0
  0
ENDTAB
  0
TABLE
  2
UCS
  5
7
330
0
100
AcDbSymbolTable
 70
     0
  0
ENDTAB
  0
TABLE
  2
APPID
  5
9
330
0
100
AcDbSymbolTable
 70
     2
  0
APPID
  5
10
330
9
100
AcDbSymbolTableRecord
100
AcDbRegAppTableRecord
  2
ACAD
 70
     0
  0
APPID
  5
755B
330
9
100
AcDbSymbolTableRecord
100
AcDbRegAppTableRecord
  2
ACAD_PSEXT
 70
     0
  0
ENDTAB
  0
TABLE
  2
DIMSTYLE
  5
A
330
0
100
AcDbSymbolTable
 70
     4
100
AcDbDimStyleTable
 71
     1
340
1A4
  0
DIMSTYLE
105
1D
330
A
100
AcDbSymbolTableRecord
100
AcDbDimStyleTableRecord
  2
STANDARD
 70
     0
 41
3.0
 42
0.06
 77
     3
140
4.0
144
0.3333333333333333
172
     1
340
F
  0
DIMSTYLE
105
1A4
102
{ACAD_REACTORS
330
678A
330
6A66
330
7209
330
720A
330
7211
330
721A
330
731E
330
7496
102
}
330
A
100
AcDbSymbolTableRecord
100
AcDbDimStyleTableRecord
  2
A
 70
     0
 41
1.25
 42
1.0
 43
3.0
 44
1.0
 73
     0
 74
     0
 77
     3
 78
     8
140
1.75
141
0.0
147
0.5
176
     6
177
     6
178
     3
271
     1
272
     1
279
     1
340
2A37
  0
DIMSTYLE
105
6006
330
A
100
AcDbSymbolTableRecord
100
AcDbDimStyleTableRecord
  2
ISO-25
 70
     0
 40
0.0
 41
2.0
 42
0.3
 43
1.0
 44
0.3
 73
     0
 74
     0
 77
     1
 78
     8
140
3.0
147
1.0
172
     1
176
     6
177
     6
178
     3
271
     1
272
     2
284
     8
288
     1
289
     2
340
F
  0
ENDTAB
  0
TABLE
  2
BLOCK_RECORD
  5
1
330
0
100
AcDbSymbolTable
 70
    10
  0
BLOCK_RECORD
  5
18
102
{ACAD_XDICTIONARY
360
45F
102
}
330
1
100
AcDbSymbolTableRecord
100
AcDbBlockTableRecord
  2
*MODEL_SPACE
340
5CF5
  0
BLOCK_RECORD
  5
15
102
{ACAD_XDICTIONARY
360
5D89
102
}
330
1
100
AcDbSymbolTableRecord
100
AcDbBlockTableRecord
  2
*PAPER_SPACE
340
5CF6
  0
BLOCK_RECORD
  5
639D
330
1
100
AcDbSymbolTableRecord
100
AcDbBlockTableRecord
  2
A$C255C26A2
340
0
102
{BLKREFS
331
63A3
102
}
  0
BLOCK_RECORD
  5
67DE
330
1
100
AcDbSymbolTableRecord
100
AcDbBlockTableRecord
  2
*D1
340
0
  0
BLOCK_RECORD
  5
6A5A
330
1
100
AcDbSymbolTableRecord
100
AcDbBlockTableRecord
  2
*D2
340
0
  0
BLOCK_RECORD
  5
7249
330
1
100
AcDbSymbolTableRecord
100
AcDbBlockTableRecord
  2
*D3
340
0
  0
BLOCK_RECORD
  5
7259
330
1
100
AcDbSymbolTableRecord
100
AcDbBlockTableRecord
  2
*D4
340
0
  0
BLOCK_RECORD
  5
7265
330
1
100
AcDbSymbolTableRecord
100
AcDbBlockTableRecord
  2
*D5
340
0
  0
BLOCK_RECORD
  5
7271
330
1
100
AcDbSymbolTableRecord
100
AcDbBlockTableRecord
  2
*D6
340
0
  0
BLOCK_RECORD
  5
7316
330
1
100
AcDbSymbolTableRecord
100
AcDbBlockTableRecord
  2
*D7
340
0
  0
BLOCK_RECORD
  5
748A
330
1
100
AcDbSymbolTableRecord
100
AcDbBlockTableRecord
  2
*D8
340
0
  0
ENDTAB
  0
ENDSEC
  0
SECTION
  2
BLOCKS
  0
BLOCK
  5
19
330
18
100
AcDbEntity
  8
0
100
AcDbBlockBegin
  2
*MODEL_SPACE
 70
     0
 10
0.0
 20
0.0
 30
0.0
  3
*MODEL_SPACE
  1

  0
ENDBLK
  5
1A
330
18
100
AcDbEntity
  8
0
100
AcDbBlockEnd
  0
BLOCK
  5
16
330
15
100
AcDbEntity
 67
     1
  8
0
100
AcDbBlockBegin
  2
*PAPER_SPACE
 70
     0
 10
0.0
 20
0.0
 30
0.0
  3
*PAPER_SPACE
  1

  0
ENDBLK
  5
17
330
15
100
AcDbEntity
 67
     1
  8
0
100
AcDbBlockEnd
  0
BLOCK
  5
63A1
330
639D
100
AcDbEntity
  8
0
100
AcDbBlockBegin
  2
A$C255C26A2
 70
     0
 10
0.0
 20
0.0
 30
0.0
  3
A$C255C26A2
  1

  0
LWPOLYLINE
  5
639E
330
639D
100
AcDbEntity
  8
0
100
AcDbPolyline
 90
        3
 70
     1
 43
0.0
 10
7.014806023851633
 20
0.0000006939811783
 10
5.611844869720698
 20
2.430000693981241
 10
8.417767177982568
 20
2.430000693981241
  0
LWPOLYLINE
  5
639F
330
639D
100
AcDbEntity
  8
0
100
AcDbPolyline
 90
        3
 70
     1
 43
0.0
 10
4.20888371558999
 20
0.0000006939811783
 10
2.805922561459283
 20
2.430000693981241
 10
5.611844869720698
 20
2.430000693981241
  0
LWPOLYLINE
  5
63A0
330
639D
100
AcDbEntity
  8
0
100
AcDbPolyline
 90
        3
 70
     1
 43
0.0
 10
1.402961407328348
 20
0.0000006939811783
 10
0.0000002531974133
 20
2.430000693981241
 10
2.805922561459283
 20
2.430000693981241
  0
ENDBLK
  5
63A2
330
639D
100
AcDbEntity
  8
0
100
AcDbBlockEnd
  0
BLOCK
  5
745B
330
67DE
100
AcDbEntity
  8
0
100
AcDbBlockBegin
  2
*D1
 70
     1
 10
0.0
 20
0.0
 30
0.0
  3
*D1
  1

  0
LINE
  5
745C
330
67DE
100
AcDbEntity
  8
0
  6
ByBlock
 62
     6
100
AcDbLine
 10
241.6535210519581
 20
174.3745773653768
 30
0.0
 11
241.6535210519581
 21
155.5096139357886
 31
0.0
  0
LINE
  5
745D
330
67DE
100
AcDbEntity
  8
0
  6
ByBlock
 62
     6
100
AcDbLine
 10
243.6576407266074
 20
174.3745773653768
 30
0.0
 11
243.6576407266074
 21
155.5096139357886
 31
0.0
  0
LINE
  5
745E
330
67DE
100
AcDbEntity
  8
0
  6
ByBlock
 62
     6
100
AcDbLine
 10
240.4035210519581
 20
156.5096139357886
 30
0.0
 11
239.1535210519581
 21
156.5096139357886
 31
0.0
  0
LINE
  5
745F
330
67DE
100
AcDbEntity
  8
0
  6
ByBlock
 62
     6
100
AcDbLine
 10
244.9076407266074
 20
156.5096139357886
 30
0.0
 11
246.1576407266075
 21
156.5096139357886
 31
0.0
  0
MTEXT
  5
7460
330
67DE
100
AcDbEntity
  8
0
  6
ByBlock
 62
     3
100
AcDbMText
 10
242.6555808892828
 20
157.8846139357886
 30
0.0
 40
1.75
 41
0.0
 71
     5
 72
     1
  1
\A1;2
  7
TXT
 73
     1
 44
1.0
  0
LINE
  5
7461
330
67DE
100
AcDbEntity
  8
0
  6
ByBlock
 62
     6
100
AcDbLine
 10
241.6535210519581
 20
156.5096139357886
 30
0.0
 11
243.6576407266074
 21
156.5096139357886
 31
0.0
  0
SOLID
  5
7462
330
67DE
100
AcDbEntity
  8
0
  6
ByBlock
 62
     6
100
AcDbTrace
 10
240.4035210519581
 20
156.7179472691219
 30
0.0
 11
240.4035210519581
 21
156.3012806024552
 31
0.0
 12
241.6535210519581
 22
156.5096139357886
 32
0.0
 13
241.6535210519581
 23
156.5096139357886
 33
0.0
  0
SOLID
  5
7463
330
67DE
100
AcDbEntity
  8
0
  6
ByBlock
 62
     6
100
AcDbTrace
 10
244.9076407266074
 20
156.7179472691219
 30
0.0
 11
244.9076407266074
 21
156.3012806024552
 31
0.0
 12
243.6576407266074
 22
156.5096139357886
 32
0.0
 13
243.6576407266074
 23
156.5096139357886
 33
0.0
  0
POINT
  5
7464
330
67DE
100
AcDbEntity
  8
DEFPOINTS
  6
ByBlock
 62
     0
100
AcDbPoint
 10
241.6535210519581
 20
175.3745773653768
 30
0.0
  0
POINT
  5
7465
330
67DE
100
AcDbEntity
  8
DEFPOINTS
  6
ByBlock
 62
     0
100
AcDbPoint
 10
243.6576407266074
 20
175.3745773653768
 30
0.0
  0
POINT
  5
7466
330
67DE
100
AcDbEntity
  8
DEFPOINTS
  6
ByBlock
 62
     0
100
AcDbPoint
 10
243.6576407266074
 20
156.5096139357886
 30
0.0
  0
ENDBLK
  5
7467
330
67DE
100
AcDbEntity
  8
0
100
AcDbBlockEnd
  0
BLOCK
  5
741A
330
6A5A
100
AcDbEntity
  8
0
100
AcDbBlockBegin
  2
*D2
 70
     1
 10
0.0
 20
0.0
 30
0.0
  3
*D2
  1

  0
LINE
  5
741B
330
6A5A
100
AcDbEntity
  8
0
  6
ByBlock
 62
     6
100
AcDbLine
 10
272.0576407266075
 20
134.2267540721067
 30
0.0
 11
285.3932582882816
 21
134.2267540721067
 31
0.0
  0
LINE
  5
741C
330
6A5A
100
AcDbEntity
  8
0
  6
ByBlock
 62
     6
100
AcDbLine
 10
273.5576407266075
 20
124.2267540721067
 30
0.0
 11
285.3932582882816
 21
124.2267540721067
 31
0.0
  0
LINE
  5
741D
330
6A5A
100
AcDbEntity
  8
0
  6
ByBlock
 62
     6
100
AcDbLine
 10
284.3932582882816
 20
132.9767540721067
 30
0.0
 11
284.3932582882816
 21
125.4767540721067
 31
0.0
  0
MTEXT
  5
741E
330
6A5A
100
AcDbEntity
  8
0
  6
ByBlock
 62
     3
100
AcDbMText
 10
283.0182582882816
 20
129.2267540721067
 30
0.0
 40
1.75
 41
0.0
 71
     5
 72
     1
  1
\A1;10±0.2
  7
TXT
 11
0.0000000000000001
 21
1.0
 31
0.0
 73
     1
 44
1.0
  0
SOLID
  5
741F
330
6A5A
100
AcDbEntity
  8
0
  6
ByBlock
 62
     6
100
AcDbTrace
 10
284.1849249549483
 20
132.9767540721067
 30
0.0
 11
284.6015916216149
 21
132.9767540721067
 31
0.0
 12
284.3932582882816
 22
134.2267540721067
 32
0.0
 13
284.3932582882816
 23
134.2267540721067
 33
0.0
  0
SOLID
  5
7420
330
6A5A
100
AcDbEntity
  8
0
  6
ByBlock
 62
     6
100
AcDbTrace
 10
284.1849249549483
 20
125.4767540721067
 30
0.0
 11
284.6015916216149
 21
125.4767540721067
 31
0.0
 12
284.3932582882816
 22
124.2267540721067
 32
0.0
 13
284.3932582882816
 23
124.2267540721067
 33
0.0
  0
POINT
  5
7421
330
6A5A
100
AcDbEntity
  8
DEFPOINTS
  6
ByBlock
 62
     0
100
AcDbPoint
 10
271.0576407266075
 20
134.2267540721067
 30
0.0
  0
POINT
  5
7422
330
6A5A
100
AcDbEntity
  8
DEFPOINTS
  6
ByBlock
 62
     0
100
AcDbPoint
 10
272.5576407266075
 20
124.2267540721067
 30
0.0
  0
POINT
  5
7423
330
6A5A
100
AcDbEntity
  8
DEFPOINTS
  6
ByBlock
 62
     0
100
AcDbPoint
 10
284.3932582882816
 20
124.2267540721067
 30
0.0
  0
ENDBLK
  5
7424
330
6A5A
100
AcDbEntity
  8
0
100
AcDbBlockEnd
  0
BLOCK
  5
7425
330
7249
100
AcDbEntity
  8
0
100
AcDbBlockBegin
  2
*D3
 70
     1
 10
0.0
 20
0.0
 30
0.0
  3
*D3
  1

  0
LINE
  5
7426
330
7249
100
AcDbEntity
  8
0
  6
ByBlock
 62
     6
100
AcDbLine
 10
243.0576407266074
 20
134.2267540721067
 30
0.0
 11
233.3527641364822
 21
134.2267540721067
 31
0.0
  0
LINE
  5
7427
330
7249
100
AcDbEntity
  8
0
  6
ByBlock
 62
     6
100
AcDbLine
 10
241.6305048334175
 20
133.7267540721067
 30
0.0
 11
233.3527641364822
 21
133.7267540721067
 31
0.0
  0
LINE
  5
7428
330
7249
100
AcDbEntity
  8
0
  6
ByBlock
 62
     6
100
AcDbLine
 10
234.3527641364822
 20
135.4767540721067
 30
0.0
 11
234.3527641364822
 21
136.7267540721067
 31
0.0
  0
LINE
  5
7429
330
7249
100
AcDbEntity
  8
0
  6
ByBlock
 62
     6
100
AcDbLine
 10
234.3527641364822
 20
132.4767540721067
 30
0.0
 11
234.3527641364822
 21
131.2267540721067
 31
0.0
  0
LINE
  5
742A
330
7249
100
AcDbEntity
  8
0
  6
ByBlock
 62
     6
100
AcDbLine
 10
234.3527641364822
 20
142.2938038360774
 30
0.0
 11
234.3527641364822
 21
134.2267540721067
 31
0.0
  0
MTEXT
  5
742B
330
7249
100
AcDbEntity
  8
0
  6
ByBlock
 62
     3
100
AcDbMText
 10
232.9777641364822
 20
140.1896371694107
 30
0.0
 40
1.75
 41
0.0
 71
     5
 72
     1
  1
\A1;0.5
  7
TXT
 11
0.0000000000000001
 21
1.0
 31
0.0
 73
     1
 44
1.0
  0
LINE
  5
742C
330
7249
100
AcDbEntity
  8
0
  6
ByBlock
 62
     6
100
AcDbLine
 10
234.3527641364822
 20
134.2267540721067
 30
0.0
 11
234.3527641364822
 21
133.7267540721067
 31
0.0
  0
SOLID
  5
742D
330
7249
100
AcDbEntity
  8
0
  6
ByBlock
 62
     6
100
AcDbTrace
 10
234.1444308031489
 20
135.4767540721067
 30
0.0
 11
234.5610974698156
 21
135.4767540721067
 31
0.0
 12
234.3527641364822
 22
134.2267540721067
 32
0.0
 13
234.3527641364822
 23
134.2267540721067
 33
0.0
  0
SOLID
  5
742E
330
7249
100
AcDbEntity
  8
0
  6
ByBlock
 62
     6
100
AcDbTrace
 10
234.1444308031489
 20
132.4767540721067
 30
0.0
 11
234.5610974698156
 21
132.4767540721067
 31
0.0
 12
234.3527641364822
 22
133.7267540721067
 32
0.0
 13
234.3527641364822
 23
133.7267540721067
 33
0.0
  0
POINT
  5
742F
330
7249
100
AcDbEntity
  8
DEFPOINTS
  6
ByBlock
 62
     0
100
AcDbPoint
 10
244.0576407266075
 20
134.2267540721067
 30
0.0
  0
POINT
  5
7430
330
7249
100
AcDbEntity
  8
DEFPOINTS
  6
ByBlock
 62
     0
100
AcDbPoint
 10
242.6305048334175
 20
133.7267540721067
 30
0.0
  0
POINT
  5
7431
330
7249
100
AcDbEntity
  8
DEFPOINTS
  6
ByBlock
 62
     0
100
AcDbPoint
 10
234.3527641364822
 20
133.7267540721067
 30
0.0
  0
ENDBLK
  5
7432
330
7249
100
AcDbEntity
  8
0
100
AcDbBlockEnd
  0
BLOCK
  5
7433
330
7259
100
AcDbEntity
  8
0
100
AcDbBlockBegin
  2
*D4
 70
     1
 10
0.0
 20
0.0
 30
0.0
  3
*D4
  1

  0
LINE
  5
7434
330
7259
100
AcDbEntity
  8
0
  6
ByBlock
 62
     6
100
AcDbLine
 10
244.0576407266075
 20
135.2267540721067
 30
0.0
 11
244.0576407266075
 21
142.9613387290882
 31
0.0
  0
LINE
  5
7435
330
7259
100
AcDbEntity
  8
0
  6
ByBlock
 62
     6
100
AcDbLine
 10
271.0576407266075
 20
135.2267540721067
 30
0.0
 11
271.0576407266075
 21
142.9613387290882
 31
0.0
  0
LINE
  5
7436
330
7259
100
AcDbEntity
  8
0
  6
ByBlock
 62
     6
100
AcDbLine
 10
245.3076407266074
 20
141.9613387290882
 30
0.0
 11
269.8076407266075
 21
141.9613387290882
 31
0.0
  0
SOLID
  5
7437
330
7259
100
AcDbEntity
  8
0
  6
ByBlock
 62
     6
100
AcDbTrace
 10
245.3076407266074
 20
142.1696720624215
 30
0.0
 11
245.3076407266074
 21
141.7530053957548
 31
0.0
 12
244.0576407266075
 22
141.9613387290882
 32
0.0
 13
244.0576407266075
 23
141.9613387290882
 33
0.0
  0
SOLID
  5
7438
330
7259
100
AcDbEntity
  8
0
  6
ByBlock
 62
     6
100
AcDbTrace
 10
269.8076407266075
 20
142.1696720624215
 30
0.0
 11
269.8076407266075
 21
141.7530053957548
 31
0.0
 12
271.0576407266075
 22
141.9613387290882
 32
0.0
 13
271.0576407266075
 23
141.9613387290882
 33
0.0
  0
MTEXT
  5
7439
330
7259
100
AcDbEntity
  8
0
  6
ByBlock
 62
     3
100
AcDbMText
 10
257.5576407266075
 20
143.3363387290882
 30
0.0
 40
1.75
 41
0.0
 71
     5
 72
     1
  1
\A1;\U+220527±0.5
  7
TXT
 73
     1
 44
1.0
  0
POINT
  5
743A
330
7259
100
AcDbEntity
  8
DEFPOINTS
  6
ByBlock
 62
     0
100
AcDbPoint
 10
244.0576407266075
 20
134.2267540721067
 30
0.0
  0
POINT
  5
743B
330
7259
100
AcDbEntity
  8
DEFPOINTS
  6
ByBlock
 62
     0
100
AcDbPoint
 10
271.0576407266075
 20
134.2267540721067
 30
0.0
  0
POINT
  5
743C
330
7259
100
AcDbEntity
  8
DEFPOINTS
  6
ByBlock
 62
     0
100
AcDbPoint
 10
271.0576407266075
 20
141.9613387290882
 30
0.0
  0
ENDBLK
  5
743D
330
7259
100
AcDbEntity
  8
0
100
AcDbBlockEnd
  0
BLOCK
  5
743E
330
7265
100
AcDbEntity
  8
0
100
AcDbBlockBegin
  2
*D5
 70
     1
 10
0.0
 20
0.0
 30
0.0
  3
*D5
  1

  0
LINE
  5
743F
330
7265
100
AcDbEntity
  8
0
  6
ByBlock
 62
     6
100
AcDbLine
 10
241.5605081388318
 20
133.7240879124627
 30
0.0
 11
241.5605081388318
 21
148.1395682074244
 31
0.0
  0
LINE
  5
7440
330
7265
100
AcDbEntity
  8
0
  6
ByBlock
 62
     6
100
AcDbLine
 10
273.5576407266074
 20
133.7240879124627
 30
0.0
 11
273.5576407266074
 21
148.1395682074244
 31
0.0
  0
LINE
  5
7441
330
7265
100
AcDbEntity
  8
0
  6
ByBlock
 62
     6
100
AcDbLine
 10
242.8105081388318
 20
147.1395682074244
 30
0.0
 11
272.3076407266074
 21
147.1395682074244
 31
0.0
  0
SOLID
  5
7442
330
7265
100
AcDbEntity
  8
0
  6
ByBlock
 62
     6
100
AcDbTrace
 10
242.8105081388318
 20
147.3479015407577
 30
0.0
 11
242.8105081388318
 21
146.9312348740911
 31
0.0
 12
241.5605081388318
 22
147.1395682074244
 32
0.0
 13
241.5605081388318
 23
147.1395682074244
 33
0.0
  0
SOLID
  5
7443
330
7265
100
AcDbEntity
  8
0
  6
ByBlock
 62
     6
100
AcDbTrace
 10
272.3076407266074
 20
147.3479015407577
 30
0.0
 11
272.3076407266074
 21
146.9312348740911
 31
0.0
 12
273.5576407266074
 22
147.1395682074244
 32
0.0
 13
273.5576407266074
 23
147.1395682074244
 33
0.0
  0
MTEXT
  5
7444
330
7265
100
AcDbEntity
  8
0
  6
ByBlock
 62
     3
100
AcDbMText
 10
257.5590744327196
 20
148.5145682074244
 30
0.0
 40
1.75
 41
0.0
 71
     5
 72
     1
  1
\A1;\U+220532
  7
TXT
 73
     1
 44
1.0
  0
POINT
  5
7445
330
7265
100
AcDbEntity
  8
DEFPOINTS
  6
ByBlock
 62
     0
100
AcDbPoint
 10
241.5605081388318
 20
132.7240879124627
 30
0.0
  0
POINT
  5
7446
330
7265
100
AcDbEntity
  8
DEFPOINTS
  6
ByBlock
 62
     0
100
AcDbPoint
 10
273.5576407266074
 20
132.7240879124627
 30
0.0
  0
POINT
  5
7447
330
7265
100
AcDbEntity
  8
DEFPOINTS
  6
ByBlock
 62
     0
100
AcDbPoint
 10
273.5576407266074
 20
147.1395682074244
 30
0.0
  0
ENDBLK
  5
7448
330
7265
100
AcDbEntity
  8
0
100
AcDbBlockEnd
  0
BLOCK
  5
7449
330
7271
100
AcDbEntity
  8
0
100
AcDbBlockBegin
  2
*D6
 70
     1
 10
0.0
 20
0.0
 30
0.0
  3
*D6
  1

  0
LINE
  5
744A
330
7271
100
AcDbEntity
  8
0
  6
ByBlock
 62
     6
100
AcDbLine
 10
249.0500457045106
 20
124.7191590500099
 30
0.0
 11
249.0500457045106
 21
114.3623814534899
 31
0.0
  0
LINE
  5
744B
330
7271
100
AcDbEntity
  8
0
  6
ByBlock
 62
     6
100
AcDbLine
 10
266.0576407266075
 20
124.7191590500099
 30
0.0
 11
266.0576407266075
 21
114.3623814534899
 31
0.0
  0
LINE
  5
744C
330
7271
100
AcDbEntity
  8
0
  6
ByBlock
 62
     6
100
AcDbLine
 10
250.3000457045106
 20
115.3623814534899
 30
0.0
 11
264.8076407266075
 21
115.3623814534899
 31
0.0
  0
MTEXT
  5
744D
330
7271
100
AcDbEntity
  8
0
  6
ByBlock
 62
     3
100
AcDbMText
 10
257.553843215559
 20
116.7373814534899
 30
0.0
 40
1.75
 41
0.0
 71
     5
 72
     1
  1
\A1;M17X1.0P
  7
TXT
 73
     1
 44
1.0
  0
SOLID
  5
744E
330
7271
100
AcDbEntity
  8
0
  6
ByBlock
 62
     6
100
AcDbTrace
 10
250.3000457045106
 20
115.5707147868232
 30
0.0
 11
250.3000457045106
 21
115.1540481201565
 31
0.0
 12
249.0500457045106
 22
115.3623814534899
 32
0.0
 13
249.0500457045106
 23
115.3623814534899
 33
0.0
  0
SOLID
  5
744F
330
7271
100
AcDbEntity
  8
0
  6
ByBlock
 62
     6
100
AcDbTrace
 10
264.8076407266075
 20
115.5707147868232
 30
0.0
 11
264.8076407266075
 21
115.1540481201565
 31
0.0
 12
266.0576407266075
 22
115.3623814534899
 32
0.0
 13
266.0576407266075
 23
115.3623814534899
 33
0.0
  0
POINT
  5
7450
330
7271
100
AcDbEntity
  8
DEFPOINTS
  6
ByBlock
 62
     0
100
AcDbPoint
 10
249.0500457045106
 20
125.7191590500099
 30
0.0
  0
POINT
  5
7451
330
7271
100
AcDbEntity
  8
DEFPOINTS
  6
ByBlock
 62
     0
100
AcDbPoint
 10
266.0576407266075
 20
125.7191590500099
 30
0.0
  0
POINT
  5
7452
330
7271
100
AcDbEntity
  8
DEFPOINTS
  6
ByBlock
 62
     0
100
AcDbPoint
 10
266.0576407266075
 20
115.3623814534899
 30
0.0
  0
ENDBLK
  5
7453
330
7271
100
AcDbEntity
  8
0
100
AcDbBlockEnd
  0
BLOCK
  5
7454
330
7316
100
AcDbEntity
  8
0
100
AcDbBlockBegin
  2
*D7
 70
     1
 10
0.0
 20
0.0
 30
0.0
  3
*D7
  1

  0
LINE
  5
7455
330
7316
100
AcDbEntity
  8
0
  6
ByBlock
 62
     6
100
AcDbLine
 10
232.6078928252156
 20
119.8366554883686
 30
0.0
 11
241.6783728838105
 21
124.7504263901237
 31
0.0
  0
MTEXT
  5
7456
330
7316
100
AcDbEntity
  8
0
  6
ByBlock
 62
     3
100
AcDbMText
 10
234.9571073920448
 20
122.6731016856564
 30
0.0
 40
1.75
 41
0.0
 71
     5
 72
     1
  1
\A1;2-R1
  7
TXT
 11
0.879267842796856
 21
0.4763276819830685
 31
0.0
 73
     1
 44
1.0
  0
SOLID
  5
7457
330
7316
100
AcDbEntity
  8
0
  6
ByBlock
 62
     6
100
AcDbTrace
 10
240.480053146568
 20
124.3381975882275
 30
0.0
 11
240.6785230140609
 21
123.9718359870622
 31
0.0
 12
241.6783728838105
 22
124.7504263901237
 32
0.0
 13
241.6783728838105
 23
124.7504263901237
 33
0.0
  0
POINT
  5
7458
330
7316
100
AcDbEntity
  8
DEFPOINTS
  6
ByBlock
 62
     0
100
AcDbPoint
 10
241.6783728838105
 20
124.7504263901237
 30
0.0
  0
POINT
  5
7459
330
7316
100
AcDbEntity
  8
DEFPOINTS
  6
ByBlock
 62
     0
100
AcDbPoint
 10
242.5576407266074
 20
125.2267540721067
 30
0.0
  0
ENDBLK
  5
745A
330
7316
100
AcDbEntity
  8
0
100
AcDbBlockEnd
  0
BLOCK
  5
74FF
330
748A
100
AcDbEntity
  8
0
100
AcDbBlockBegin
  2
*D8
 70
     1
 10
0.0
 20
0.0
 30
0.0
  3
*D8
  1

  0
LINE
  5
7500
330
748A
100
AcDbEntity
  8
0
  6
ByBlock
 62
     6
100
AcDbLine
 10
240.6831328602199
 20
175.3745773653768
 30
0.0
 11
233.3527641364822
 21
175.3745773653768
 31
0.0
  0
LINE
  5
7501
330
748A
100
AcDbEntity
  8
0
  6
ByBlock
 62
     6
100
AcDbLine
 10
240.68313286022
 20
179.3745773653768
 30
0.0
 11
233.3527641364822
 21
179.3745773653768
 31
0.0
  0
LINE
  5
7502
330
748A
100
AcDbEntity
  8
0
  6
ByBlock
 62
     6
100
AcDbLine
 10
234.3527641364822
 20
176.6245773653768
 30
0.0
 11
234.3527641364822
 21
178.1245773653768
 31
0.0
  0
MTEXT
  5
7503
330
748A
100
AcDbEntity
  8
0
  6
ByBlock
 62
     3
100
AcDbMText
 10
232.2078766234195
 20
184.6746065350643
 30
0.0
 40
1.75
 41
0.0
 71
     5
 72
     1
  1
\A1;4      (3等分)
  7
TXT
 11
0.0000000000000001
 21
1.0
 31
0.0
 73
     1
 44
1.0
  0
SOLID
  5
7504
330
748A
100
AcDbEntity
  8
0
  6
ByBlock
 62
     6
100
AcDbTrace
 10
234.1444308031489
 20
176.6245773653768
 30
0.0
 11
234.5610974698156
 21
176.6245773653768
 31
0.0
 12
234.3527641364822
 22
175.3745773653768
 32
0.0
 13
234.3527641364822
 23
175.3745773653768
 33
0.0
  0
SOLID
  5
7505
330
748A
100
AcDbEntity
  8
0
  6
ByBlock
 62
     6
100
AcDbTrace
 10
234.1444308031489
 20
178.1245773653768
 30
0.0
 11
234.5610974698156
 21
178.1245773653768
 31
0.0
 12
234.3527641364822
 22
179.3745773653768
 32
0.0
 13
234.3527641364822
 23
179.3745773653768
 33
0.0
  0
POINT
  5
7506
330
748A
100
AcDbEntity
  8
DEFPOINTS
  6
ByBlock
 62
     0
100
AcDbPoint
 10
241.6831328602199
 20
175.3745773653768
 30
0.0
  0
POINT
  5
7507
330
748A
100
AcDbEntity
  8
DEFPOINTS
  6
ByBlock
 62
     0
100
AcDbPoint
 10
241.68313286022
 20
179.3745773653768
 30
0.0
  0
POINT
  5
7508
330
748A
100
AcDbEntity
  8
DEFPOINTS
  6
ByBlock
 62
     0
100
AcDbPoint
 10
234.3527641364822
 20
179.3745773653768
 30
0.0
  0
ENDBLK
  5
7509
330
748A
100
AcDbEntity
  8
0
100
AcDbBlockEnd
  0
ENDSEC
  0
SECTION
  2
ENTITIES
  0
MTEXT
  5
C0
330
18
100
AcDbEntity
  8
0
100
AcDbMText
 10
41.26970765600413
 20
233.6950877649332
 30
0.0
 40
2.5
 41
0.0
 71
     1
 72
     5
  1

  7
ISOCP3
 73
     1
 44
1.0
  0
MTEXT
  5
608E
330
18
100
AcDbEntity
  8
0
100
AcDbMText
 10
218.9159379645269
 20
83.56812717502874
 30
0.0
 40
2.5
 41
0.0
 71
     1
 72
     5
  1
\Ftxt.shx,bigfont.shx|c128;呉銘宏
  7
JL
 73
     1
 44
1.0
  0
MTEXT
  5
6095
330
18
100
AcDbEntity
  8
0
100
AcDbMText
 10
250.62378489576
 20
88.49503953014197
 30
0.0
 40
2.25
 41
0.0
 71
     1
 72
     5
  1
\Ftxt.shx,bigfont.shx|c128;2 : 1
  7
JL
 73
     1
 44
1.0
  0
MTEXT
  5
6098
330
18
100
AcDbEntity
  8
0
 48
2.0
370
    25
100
AcDbMText
 10
283.0679100150939
 20
75.69961297086194
 30
0.0
 40
2.25
 41
0.0
 71
     5
 72
     1
  1
\Ftxt.shx,bigfont.shx|c128;N L 4 0 0 2 8
 73
     1
 44
1.0
  0
MTEXT
  5
609C
330
18
100
AcDbEntity
  8
0
 48
2.0
100
AcDbMText
 10
299.0712339196668
 20
84.96887935368665
 30
0.0
 40
2.25
 41
0.0
 71
     5
 72
     1
  1
\P\Ftxt.shx,bigfont.shx|c128;    MR17X1.0P
 73
     1
 44
1.0
  0
MTEXT
  5
635A
330
18
100
AcDbEntity
  8
0
100
AcDbMText
 10
218.0179371153258
 20
88.20409093100721
 30
0.0
 40
2.25
 41
0.0
 71
     1
 72
     5
  1
\Ftxt.shx,bigfont.shx|c128;05.02.17
  7
JL
 73
     1
 44
1.0
  0
INSERT
  5
63A3
330
18
100
AcDbEntity
  8
0
100
AcDbBlockReference
  2
A$C255C26A2
 10
262.574613704145
 20
134.2267537251161
 30
0.0
 41
0.5
 42
0.5
 43
0.5
  0
MTEXT
  5
63A4
330
18
100
AcDbEntity
  8
0
 62
     7
 48
2.0
100
AcDbMText
 10
264.6215150785731
 20
136.6745292086255
 30
0.0
 40
1.5
 41
0.0
 71
     5
 72
     1
  1
G
 73
     1
 44
1.0
  0
LEADER
  5
63C9
330
18
100
AcDbEntity
  8
DIM
 62
     6
100
AcDbLeader
  3
A
 76
     2
 10
268.8667814877336
 20
186.4664296236819
 30
0.0
 10
276.0567145327657
 20
194.4521896646472
 30
0.0
  0
LEADER
  5
63CA
330
18
100
AcDbEntity
  8
DIM
 62
     6
100
AcDbLeader
  3
A
 76
     2
 10
267.6479656188348
 20
130.3117406021254
 30
0.0
 10
279.2622662703161
 20
144.4606815378376
 30
0.0
  0
LEADER
  5
63CB
330
18
100
AcDbEntity
  8
DIM
 62
     6
100
AcDbLeader
  3
A
 76
     2
 10
273.5576407266074
 20
129.2267540721068
 30
0.0
 10
277.7998431136213
 20
121.1162662674617
 30
0.0
  0
MTEXT
  5
63CC
330
18
100
AcDbEntity
  8
DIM
100
AcDbMText
 10
280.2327389930761
 20
147.0028651245407
 30
0.0
 40
2.5
 41
1.0
 71
     1
 72
     5
  1
\Ftxt.shx,bigfont.shx|c128;3
 73
     1
 44
1.0
  0
MTEXT
  5
63CD
330
18
100
AcDbEntity
  8
DIM
100
AcDbMText
 10
277.0611548085236
 20
196.8716613666001
 30
0.0
 40
2.5
 41
1.0
 71
     1
 72
     5
  1
\Ftxt.shx,bigfont.shx|c128;1
 73
     1
 44
1.0
  0
MTEXT
  5
63CE
330
18
100
AcDbEntity
  8
DIM
100
AcDbMText
 10
278.4010683726513
 20
121.3019702050252
 30
0.0
 40
2.5
 41
1.0
 71
     1
 72
     5
  1
\Ftxt.shx,bigfont.shx|c128;2
 73
     1
 44
1.0
  0
LINE
  5
64AF
330
18
100
AcDbEntity
  8
図框線
100
AcDbLine
 10
309.006196569778
 20
218.8811280034474
 30
0.0
 11
309.006196569778
 21
73.8811280034474
 31
0.0
  0
LINE
  5
64B0
330
18
100
AcDbEntity
  8
図框線
370
    30
100
AcDbLine
 10
210.006196569778
 20
73.88112800344742
 30
0.0
 11
210.006196569778
 21
218.8811280034475
 31
0.0
  0
LINE
  5
64B1
330
18
100
AcDbEntity
  8
0
 62
     7
 48
5.0
100
AcDbLine
 39
2.0
 10
234.9799491479497
 20
87.82878999263653
 30
0.0
 11
237.6458510058043
 21
88.49526545710018
 31
0.0
  0
MTEXT
  5
64B2
330
18
100
AcDbEntity
  8
0
100
AcDbMText
 10
217.9955314555718
 20
78.69679805584155
 30
0.0
 40
3.0
 41
0.0
 71
     1
 72
     5
  1
\Ftxt.shx,bigfont.shx|c128;日機株式会社
  7
LKK
 73
     1
 44
1.0
  0
LINE
  5
64B3
330
18
100
AcDbEntity
  8
図框線
100
AcDbLine
 10
210.0061965697781
 20
73.88112800344742
 30
0.0
 11
309.006196569778
 21
73.88112800344742
 31
0.0
  0
LINE
  5
64B7
330
18
100
AcDbEntity
  8
図框線
100
AcDbLine
 10
210.0061965697781
 20
79.88112800344743
 30
0.0
 11
309.006196569778
 21
79.88112800344746
 31
0.0
  0
LINE
  5
64B8
330
18
100
AcDbEntity
  8
図框線
100
AcDbLine
 10
210.0061965697781
 20
84.88112800344742
 30
0.0
 11
258.0061965697781
 21
84.88112800344742
 31
0.0
  0
LINE
  5
64B9
330
18
100
AcDbEntity
  8
図框線
100
AcDbLine
 10
210.0061965697781
 20
89.88112800344742
 30
0.0
 11
309.006196569778
 21
89.88112800344742
 31
0.0
  0
LINE
  5
64BA
330
18
100
AcDbEntity
  8
図框線
100
AcDbLine
 10
216.0061965697781
 20
89.88112800344742
 30
0.0
 11
216.0061965697781
 21
79.88112800344743
 31
0.0
  0
LINE
  5
64BB
330
18
100
AcDbEntity
  8
図框線
100
AcDbLine
 10
226.0061965697781
 20
89.88112800344742
 30
0.0
 11
226.0061965697781
 21
79.88112800344743
 31
0.0
  0
MTEXT
  5
64BC
330
18
100
AcDbEntity
  8
0
100
AcDbMText
 10
211.4809186941885
 20
88.40470317020356
 30
0.0
 40
2.25
 41
0.0
 71
     1
 72
     5
  1
\Ftxt.shx,bigfont.shx|c128;日 付
  7
JL
 73
     1
 44
1.0
  0
MTEXT
  5
64BD
330
18
100
AcDbEntity
  8
0
100
AcDbMText
 10
211.5540527522331
 20
83.80029750080201
 30
0.0
 40
2.25
 41
0.0
 71
     1
 72
     5
  1
\Ftxt.shx,bigfont.shx|c128;製 図
  7
JL
 73
     1
 44
1.0
  0
LINE
  5
64C0
330
18
100
AcDbEntity
  8
0
 62
     7
370
    25
100
AcDbLine
 10
237.6458510058043
 20
85.82936359924559
 30
0.0
 11
237.6458510058043
 21
88.49526545710018
 31
0.0
  0
MTEXT
  5
64C1
330
18
100
AcDbEntity
  8
0
100
AcDbMText
 10
243.3574669064409
 20
88.59228735478666
 30
0.0
 40
2.25
 41
0.0
 71
     1
 72
     5
  1
\Ftxt.shx,bigfont.shx|c128;尺 度
  7
JL
 73
     1
 44
1.0
  0
LINE
  5
64C2
330
18
100
AcDbEntity
  8
図框線
100
AcDbLine
 10
242.0061965697781
 20
89.88112800344742
 30
0.0
 11
242.0061965697781
 21
79.88112800344743
 31
0.0
  0
LINE
  5
64C3
330
18
100
AcDbEntity
  8
0
 62
     7
370
    25
100
AcDbLine
 10
230.647858628936
 20
85.500602362128
 30
0.0
 11
230.647858628936
 21
88.7184617534757
 31
0.0
  0
CIRCLE
  5
64C4
330
18
100
AcDbEntity
  8
0
 62
     7
100
AcDbCircle
 10
230.647858628936
 20
87.16231452817282
 30
0.0
 40
1.33295092892732
  0
LINE
  5
64C6
330
18
100
AcDbEntity
  8
0
 62
     7
370
    25
100
AcDbLine
 10
234.5963479753085
 20
87.16231452817288
 30
0.0
 11
237.8851831792939
 21
87.16231452817288
 31
0.0
  0
LINE
  5
64C7
330
18
100
AcDbEntity
  8
0
 62
     7
100
AcDbLine
 10
234.9799491479497
 20
86.49583906370924
 30
0.0
 11
237.6458510058043
 21
85.82936359924559
 31
0.0
  0
LINE
  5
64C8
330
18
100
AcDbEntity
  8
図框線
100
AcDbLine
 10
232.0061965697781
 20
84.88112800344737
 30
0.0
 11
232.0061965697781
 21
79.88112800344743
 31
0.0
  0
LINE
  5
64C9
330
18
100
AcDbEntity
  8
0
 62
     7
370
    25
100
AcDbLine
 10
228.9820592339978
 20
87.16231452817282
 30
0.0
 11
232.4131545431627
 21
87.16231452817288
 31
0.0
  0
CIRCLE
  5
64CA
330
18
100
AcDbEntity
  8
0
 62
     7
100
AcDbCircle
 10
230.647858628936
 20
87.16231452817282
 30
0.0
 40
0.6664754644636604
  0
MTEXT
  5
64CB
330
18
100
AcDbEntity
  8
0
100
AcDbMText
 10
227.566629159977
 20
83.58103971928768
 30
0.0
 40
2.25
 41
0.0
 71
     1
 72
     5
  1
\Ftxt.shx,bigfont.shx|c128;検 図
  7
JL
 73
     1
 44
1.0
  0
LINE
  5
64CC
330
18
100
AcDbEntity
  8
0
 62
     7
370
    25
100
AcDbLine
 10
234.9799491479497
 20
86.49583906370924
 30
0.0
 11
234.9799491479497
 21
87.82878999263653
 31
0.0
  0
MTEXT
  5
64CD
330
18
100
AcDbEntity
  8
0
100
AcDbMText
 10
243.5037336614656
 20
83.69553826345475
 30
0.0
 40
2.25
 41
0.0
 71
     1
 72
     5
  1
\Ftxt.shx,bigfont.shx|c128;承 認
  7
JL
 73
     1
 44
1.0
  0
LINE
  5
64CE
330
18
100
AcDbEntity
  8
図框線
100
AcDbLine
 10
276.130951037842
 20
96.34602047058535
 30
0.0
 11
306.130951037842
 21
96.3460204705853
 31
0.0
  0
LINE
  5
64CF
330
18
100
AcDbEntity
  8
図框線
100
AcDbLine
 10
276.130951037842
 20
99.94602047058538
 30
0.0
 11
306.130951037842
 21
99.94602047058538
 31
0.0
  0
LINE
  5
64D0
330
18
100
AcDbEntity
  8
図框線
100
AcDbLine
 10
276.130951037842
 20
103.5460204705853
 30
0.0
 11
306.130951037842
 21
103.5460204705853
 31
0.0
  0
LINE
  5
64D1
330
18
100
AcDbEntity
  8
図框線
100
AcDbLine
 10
276.130951037842
 20
107.1460204705853
 30
0.0
 11
306.130951037842
 21
107.1460204705853
 31
0.0
  0
LINE
  5
64D2
330
18
100
AcDbEntity
  8
図框線
100
AcDbLine
 10
276.130951037842
 20
92.74602047058534
 30
0.0
 11
306.130951037842
 21
92.74602047058534
 31
0.0
  0
MTEXT
  5
64D3
330
18
100
AcDbEntity
  8
0
 62
     7
 48
2.0
100
AcDbMText
 10
291.0736510207777
 20
107.5426046758774
 30
0.0
 40
2.4
 41
0.0
 71
     5
 72
     1
  1
\P\Ftxt.shx,bigfont.shx|c128;諸　　　　元
 73
     1
 44
1.0
  0
LINE
  5
64D5
330
18
100
AcDbEntity
  8
図框線
100
AcDbLine
 10
276.130951037842
 20
107.1460204705853
 30
0.0
 11
276.130951037842
 21
92.74602047058534
 31
0.0
  0
MTEXT
  5
64D6
330
18
100
AcDbEntity
  8
0
100
AcDbMText
 10
277.8921689446821
 20
102.7827658870249
 30
0.0
 40
2.2
 41
81.95814342112454
 71
     1
 72
     5
  1
\Ftxt.shx,bigfont.shx|c128;熱　処　理
  7
JL
 73
     1
 44
1.0
  0
LINE
  5
64D7
330
18
100
AcDbEntity
  8
図框線
100
AcDbLine
 10
288.130951037842
 20
103.5460204705853
 30
0.0
 11
288.130951037842
 21
92.74602047058534
 31
0.0
  0
MTEXT
  5
64D8
330
18
100
AcDbEntity
  8
0
100
AcDbMText
 10
258.8347093510972
 20
79.45778872672611
 30
0.0
 40
2.5
 41
0.0
 71
     1
 72
     5
  1
\Ftxt.shx,bigfont.shx|c128;図  面  番  号
  7
JL
 73
     1
 44
1.0
  0
MTEXT
  5
64D9
330
18
100
AcDbEntity
  8
0
 62
     7
 48
2.0
100
AcDbMText
 10
270.9192391024712
 20
85.02691213071523
 30
0.0
 40
2.25
 41
0.0
 71
     5
 72
     1
  1
\P\Ftxt.shx,bigfont.shx|c128;    精密ロックナット
 73
     1
 44
1.0
  0
MTEXT
  5
64DA
330
18
100
AcDbEntity
  8
0
370
    25
100
AcDbMText
 10
259.406342722458
 20
88.78457208046729
 30
0.0
 40
2.5
 41
0.0
 71
     1
 72
     5
  1
\Ftxt.shx,bigfont.shx|c128;品  名
  7
JL
 73
     1
 44
1.0
  0
LINE
  5
64DB
330
18
100
AcDbEntity
  8
図框線
100
AcDbLine
 10
258.0061965697781
 20
89.88112800344742
 30
0.0
 11
258.0061965697781
 21
73.97664880890999
 31
0.0
  0
LINE
  5
64DC
330
18
100
AcDbEntity
  8
図框線
100
AcDbLine
 10
248.0061965697781
 20
89.88112800344742
 30
0.0
 11
248.0061965697781
 21
79.88112800344743
 31
0.0
  0
LINE
  5
64DE
330
18
100
AcDbEntity
  8
図框線
100
AcDbLine
 10
286.6179766652123
 20
89.88112800344742
 30
0.0
 11
286.6179766652123
 21
79.88112800344743
 31
0.0
  0
MTEXT
  5
64DF
330
18
100
AcDbEntity
  8
0
100
AcDbMText
 10
277.7520317609925
 20
99.28165166339489
 30
0.0
 40
2.2
 41
81.80293144248363
 71
     1
 72
     5
  1
\Ftxt.shx,bigfont.shx|c128;表 面 処 理
  7
JL
 73
     1
 44
1.0
  0
MTEXT
  5
64E0
330
18
100
AcDbEntity
  8
0
100
AcDbMText
 10
277.89706468521
 20
95.63741523659093
 30
0.0
 40
2.2
 41
83.0859
 71
     1
 72
     5
  1
\Ftxt.shx,bigfont.shx|c128;等     　級
  7
JL
 73
     1
 44
1.0
  0
LINE
  5
64E1
330
18
100
AcDbEntity
  8
図框線
100
AcDbLine
 10
306.130951037842
 20
107.1460204705853
 30
0.0
 11
306.130951037842
 21
92.74602047058539
 31
0.0
  0
MTEXT
  5
64E2
330
18
100
AcDbEntity
  8
0
100
AcDbMText
 10
290.5044526925633
 20
102.6952869333201
 30
0.0
 40
2.2
 41
145.9480028428943
 71
     1
 72
     5
  1
\Ftxt.shx,bigfont.shx|c128;調質　HRC30%%d%%p２%%d
  7
JL
 73
     1
 44
1.0
  0
MTEXT
  5
64E4
330
18
100
AcDbEntity
  8
0
370
    25
100
AcDbMText
 10
288.6309333341493
 20
88.67397682391526
 30
0.0
 40
2.5
 41
0.0
 71
     1
 72
     5
  1
\Ftxt.shx,bigfont.shx|c128;型  番
  7
JL
 73
     1
 44
1.0
  0
MTEXT
  5
64E5
330
18
100
AcDbEntity
  8
0
100
AcDbMText
 10
296.3998291309476
 20
79.49962902040454
 30
0.0
 40
2.5
 41
0.0
 71
     1
 72
     5
  1
\Ftxt.shx,bigfont.shx|c128;変更
  7
JL
 73
     1
 44
1.0
  0
LINE
  5
64E6
330
18
100
AcDbEntity
  8
図框線
100
AcDbLine
 10
295.5061965697781
 20
79.88566314266108
 30
0.0
 11
295.5061965697781
 21
73.88112800344742
 31
0.0
  0
MTEXT
  5
64E7
330
18
100
AcDbEntity
  8
0
100
AcDbMText
 10
290.6347721932815
 20
95.6377205223165
 30
0.0
 40
2.2
 41
145.3916823984455
 71
     1
 72
     5
  1
\Ftxt.shx,bigfont.shx|c128;ＩＳＯ - ４Ｈ
  7
JL
 73
     1
 44
1.0
  0
MTEXT
  5
64E8
330
18
100
AcDbEntity
  8
0
100
AcDbMText
 10
290.7220027923466
 20
99.10520519491747
 30
0.0
 40
2.2
 41
145.7274
 71
     1
 72
     5
  1
\Ftxt.shx,bigfont.shx|c128;黒  　    染
  7
JL
 73
     1
 44
1.0
  0
MTEXT
  5
64EA
330
18
100
AcDbEntity
  8
0
100
AcDbMText
 10
240.0377895735732
 20
208.9290531322199
 30
0.0
 40
2.5
 41
0.0
 71
     1
 72
     5
  1
\Ftxt.shx,bigfont.shx|c128;M5X0.8P-5L
  7
JL
 73
     1
 44
1.0
  0
MTEXT
  5
64EB
330
18
100
AcDbEntity
  8
0
100
AcDbMText
 10
240.0377895735732
 20
204.9290531322199
 30
0.0
 40
2.5
 41
0.0
 71
     1
 72
     5
  1
\Ftxt.shx,bigfont.shx|c128;%%c4.5X3L
  7
JL
 73
     1
 44
1.0
  0
LINE
  5
64EC
330
18
100
AcDbEntity
  8
図框線
100
AcDbLine
 10
210.006196569778
 20
205.8811280034474
 30
0.0
 11
309.006196569778
 21
205.8811280034474
 31
0.0
  0
LINE
  5
64ED
330
18
100
AcDbEntity
  8
図框線
100
AcDbLine
 10
210.006196569778
 20
209.8811280034474
 30
0.0
 11
309.006196569778
 21
209.8811280034474
 31
0.0
  0
LINE
  5
64EE
330
18
100
AcDbEntity
  8
図框線
 62
     9
100
AcDbLine
 10
210.006196569778
 20
213.8811280034474
 30
0.0
 11
309.006196569778
 21
213.8811280034474
 31
0.0
  0
LINE
  5
64EF
330
18
100
AcDbEntity
  8
図框線
100
AcDbLine
 10
210.006196569778
 20
218.8811280034475
 30
0.0
 11
309.006196569778
 21
218.8811280034475
 31
0.0
  0
MTEXT
  5
64F0
330
18
100
AcDbEntity
  8
0
100
AcDbMText
 10
239.7143478681868
 20
217.5389256060026
 30
0.0
 40
2.5
 41
0.0
 71
     1
 72
     5
  1
\Ftxt.shx,bigfont.shx|c128;図    番 / 規　　格
  7
JL
 73
     1
 44
1.0
  0
LINE
  5
64F1
330
18
100
AcDbEntity
  8
図框線
100
AcDbLine
 10
210.006196569778
 20
205.8811280034474
 30
0.0
 11
309.006196569778
 21
205.8811280034474
 31
0.0
  0
LINE
  5
64F2
330
18
100
AcDbEntity
  8
図框線
100
AcDbLine
 10
210.006196569778
 20
201.8811280034474
 30
0.0
 11
309.006196569778
 21
201.8811280034474
 31
0.0
  0
MTEXT
  5
64F3
330
18
100
AcDbEntity
  8
0
100
AcDbMText
 10
221.0133711404843
 20
217.2755292944388
 30
0.0
 40
2.5
 41
0.0
 71
     1
 72
     5
  1
\Ftxt.shx,bigfont.shx|c128;品　          名
  7
JL
 73
     1
 44
1.0
  0
MTEXT
  5
64F4
330
18
100
AcDbEntity
  8
0
100
AcDbMText
 10
219.4387153762992
 20
209.1460554932147
 30
0.0
 40
3.0
 41
0.0
 71
     1
 72
     5
  1
\Ftxt.shx,bigfont.shx|c128;セットスクリュ-
  7
JL
 73
     1
 44
1.0
  0
MTEXT
  5
64F5
330
18
100
AcDbEntity
  8
0
100
AcDbMText
 10
219.3409038648018
 20
213.0641605287176
 30
0.0
 40
3.0
 41
0.0
 71
     1
 72
     5
  1
\Ftxt.shx,bigfont.shx|c128;ロックナット　  
  7
JL
 73
     1
 44
1.0
  0
MTEXT
  5
64F6
330
18
100
AcDbEntity
  8
0
100
AcDbMText
 10
219.4387153762992
 20
205.1460554932147
 30
0.0
 40
3.0
 41
0.0
 71
     1
 72
     5
  1
\Ftxt.shx,bigfont.shx|c128;ロックピン 
  7
JL
 73
     1
 44
1.0
  0
LINE
  5
64F7
330
18
100
AcDbEntity
  8
図框線
100
AcDbLine
 10
217.506196569778
 20
218.8811280034473
 30
0.0
 11
217.5061965697782
 21
201.8811280034474
 31
0.0
  0
LINE
  5
64F8
330
18
100
AcDbEntity
  8
0
100
AcDbLine
 10
217.506196569778
 20
218.8811280034473
 30
0.0
 11
217.506196569778
 21
205.8811280034474
 31
0.0
  0
MTEXT
  5
64F9
330
18
100
AcDbEntity
  8
0
100
AcDbMText
 10
213.1138411134734
 20
205.2529484712671
 30
0.0
 40
2.5
 41
0.0
 71
     1
 72
     5
  1
\Ftxt.shx,bigfont.shx|c128;3
  7
JL
 73
     1
 44
1.0
  0
MTEXT
  5
64FA
330
18
100
AcDbEntity
  8
0
100
AcDbMText
 10
213.5571750831115
 20
213.1710535067701
 30
0.0
 40
2.5
 41
0.0
 71
     1
 72
     5
  1
\Ftxt.shx,bigfont.shx|c128;1
  7
JL
 73
     1
 44
1.0
  0
MTEXT
  5
64FB
330
18
100
AcDbEntity
  8
0
100
AcDbMText
 10
213.1138411134734
 20
209.2529484712671
 30
0.0
 40
2.5
 41
0.0
 71
     1
 72
     5
  1
\Ftxt.shx,bigfont.shx|c128;2
  7
JL
 73
     1
 44
1.0
  0
MTEXT
  5
64FC
330
18
100
AcDbEntity
  8
0
100
AcDbMText
 10
211.1107385656993
 20
217.4253907116503
 30
0.0
 40
2.5
 41
0.0
 71
     1
 72
     5
  1
\Ftxt.shx,bigfont.shx|c128;照   号
  7
JL
 73
     1
 44
1.0
  0
LINE
  5
64FD
330
18
100
AcDbEntity
  8
図框線
 62
     9
100
AcDbLine
 10
237.506196569778
 20
218.8811280034473
 30
0.0
 11
237.506196569778
 21
201.8811280034474
 31
0.0
  0
MTEXT
  5
64FE
330
18
100
AcDbEntity
  8
0
100
AcDbMText
 10
283.173884866047
 20
217.6713304905659
 30
0.0
 40
2.5
 41
0.0
 71
     1
 72
     5
  1
\Ftxt.shx,bigfont.shx|c128;備           考
  7
JL
 73
     1
 44
1.0
  0
LINE
  5
64FF
330
18
100
AcDbEntity
  8
図框線
 62
     9
100
AcDbLine
 10
257.506196569778
 20
218.8811280034474
 30
0.0
 11
257.506196569778
 21
201.8811280034474
 31
0.0
  0
MTEXT
  5
6500
330
18
100
AcDbEntity
  8
0
100
AcDbMText
 10
258.39813171866
 20
205.0641605287176
 30
0.0
 40
2.5
 41
0.0
 71
     1
 72
     5
  1
\Ftxt.shx,bigfont.shx|c128;C3604
  7
JL
 73
     1
 44
1.0
  0
MTEXT
  5
6501
330
18
100
AcDbEntity
  8
0
100
AcDbMText
 10
258.39813171866
 20
213.0641605287176
 30
0.0
 40
2.5
 41
0.0
 71
     1
 72
     5
  1
\Ftxt.shx,bigfont.shx|c128;SCM-440
  7
JL
 73
     1
 44
1.0
  0
MTEXT
  5
6502
330
18
100
AcDbEntity
  8
0
100
AcDbMText
 10
258.39813171866
 20
209.0641605287176
 30
0.0
 40
2.5
 41
0.0
 71
     1
 72
     5
  1
\Ftxt.shx,bigfont.shx|c128;SCM435
  7
JL
 73
     1
 44
1.0
  0
MTEXT
  5
6503
330
18
100
AcDbEntity
  8
0
100
AcDbMText
 10
259.9063590670052
 20
217.6713304905659
 30
0.0
 40
2.5
 41
0.0
 71
     1
 72
     5
  1
\Ftxt.shx,bigfont.shx|c128;材　質
  7
JL
 73
     1
 44
1.0
  0
LINE
  5
6504
330
18
100
AcDbEntity
  8
図框線
 62
     9
100
AcDbLine
 10
267.506196569778
 20
218.8811280034474
 30
0.0
 11
267.506196569778
 21
201.8811280034474
 31
0.0
  0
LINE
  5
6505
330
18
100
AcDbEntity
  8
図框線
100
AcDbLine
 10
275.006196569778
 20
218.8811280034474
 30
0.0
 11
275.006196569778
 21
201.8811280034474
 31
0.0
  0
MTEXT
  5
6506
330
18
100
AcDbEntity
  8
0
100
AcDbMText
 10
270.6138411134733
 20
205.2529484712671
 30
0.0
 40
2.5
 41
0.0
 71
     1
 72
     5
  1
\Ftxt.shx,bigfont.shx|c128;3
  7
JL
 73
     1
 44
1.0
  0
MTEXT
  5
6507
330
18
100
AcDbEntity
  8
0
100
AcDbMText
 10
271.0571750831115
 20
213.1710535067701
 30
0.0
 40
2.5
 41
0.0
 71
     1
 72
     5
  1
\Ftxt.shx,bigfont.shx|c128;1
  7
JL
 73
     1
 44
1.0
  0
MTEXT
  5
6508
330
18
100
AcDbEntity
  8
0
100
AcDbMText
 10
270.6138411134733
 20
209.2529484712671
 30
0.0
 40
2.5
 41
0.0
 71
     1
 72
     5
  1
\Ftxt.shx,bigfont.shx|c128;3
  7
JL
 73
     1
 44
1.0
  0
MTEXT
  5
6509
330
18
100
AcDbEntity
  8
0
100
AcDbMText
 10
268.2230667257367
 20
217.6713304905659
 30
0.0
 40
2.5
 41
0.0
 71
     1
 72
     5
  1
\Ftxt.shx,bigfont.shx|c128;数   量
  7
JL
 73
     1
 44
1.0
  0
MTEXT
  5
6740
330
18
100
AcDbEntity
  8
公差
100
AcDbMText
 10
230.7136076849814
 20
179.8161896656468
 30
0.0
 40
1.25
 41
6.816289586974903
 71
     1
 72
     5
  1
+0.15\P+0
  7
TXT
 11
0.0000000000000001
 21
1.0
 31
0.0
 73
     1
 44
1.0
  0
MTEXT
  5
6741
330
18
100
AcDbEntity
  8
公差
100
AcDbMText
 10
245.0485740048598
 20
160.1515555785453
 30
0.0
 40
1.25
 41
15.60204752540142
 71
     1
 72
     5
  1
+0.15\P+0
  7
TXT
 73
     1
 44
1.0
  0
LINE
  5
6761
330
18
100
AcDbEntity
  8
DIM
100
AcDbLine
 10
249.0500457045106
 20
115.3623814534899
 30
0.0
 11
249.0306443601575
 21
105.7738861922508
 31
0.0
  0
LINE
  5
6764
330
18
100
AcDbEntity
  8
0
 62
     6
100
AcDbLine
 10
284.3594360861958
 20
133.1629723768056
 30
0.0
 11
284.3594360861958
 21
139.9700132716125
 31
0.0
  0
LINE
  5
6765
330
18
100
AcDbEntity
  8
0
 62
     6
100
AcDbLine
 10
284.3594360861958
 20
139.9700132716125
 30
0.0
 11
294.048037566206
 21
139.9700132716125
 31
0.0
  0
TOLERANCE
  5
6766
330
18
100
AcDbEntity
  8
0
  6
ByBlock
100
AcDbFcf
  3
A
 10
294.0389583406575
 20
139.995482489678
 30
0.0
  1
{\Fgdt;h}%%v0.005%%v%%vA%%v%%v
1001
ACAD
1000
DSTYLE
1002
{
1070
   140
1040
1.371999999999999
1070
    40
1040
1.0
1070
   147
1040
0.3429999999999999
1002
}
  0
LINE
  5
6775
330
18
100
AcDbEntity
  8
DIM
100
AcDbLine
 10
249.0514978772101
 20
107.7589510728536
 30
0.0
 11
249.9639562254357
 21
106.7810769771285
 31
0.0
  0
HATCH
  5
6776
330
18
100
AcDbEntity
  8
DIM
100
AcDbHatch
 10
0.0
 20
0.0
 30
0.0
210
0.0
220
0.0
230
1.0
  2
SOLID
 70
     1
 71
     0
 91
        1
 92
        7
 72
     0
 73
     1
 93
        3
 10
249.0503737627575
 20
105.775262677873
 10
249.9691058513576
 20
106.7600704731168
 10
249.0503737627575
 20
107.7448782683605
 97
        0
 75
     0
 76
     1
 47
0.2359147607200769
 98
        1
 10
249.3381897589884
 20
106.9715464788083
450
        0
451
        0
460
0.0
461
0.0
452
        0
462
0.0
453
        0
470

  0
LINE
  5
6777
330
18
100
AcDbEntity
  8
DIM
100
AcDbLine
 10
254.7110490321318
 20
104.967423172969
 30
0.0
 11
254.7110490321318
 21
108.6137219629901
 31
0.0
  0
LINE
  5
6778
330
18
100
AcDbEntity
  8
DIM
100
AcDbLine
 10
254.7110490321318
 20
108.6137219629901
 30
0.0
 11
258.5196842776424
 21
108.6137219629901
 31
0.0
  0
LINE
  5
6779
330
18
100
AcDbEntity
  8
DIM
100
AcDbLine
 10
258.5196842776424
 20
104.967423172969
 30
0.0
 11
258.5196842776424
 21
108.6137219629901
 31
0.0
  0
LINE
  5
677A
330
18
100
AcDbEntity
  8
DIM
100
AcDbLine
 10
254.7110490321318
 20
104.967423172969
 30
0.0
 11
258.5196842776424
 21
104.967423172969
 31
0.0
  0
LINE
  5
677B
330
18
100
AcDbEntity
  8
DIM
100
AcDbLine
 10
254.7110490321318
 20
106.7905725679795
 30
0.0
 11
249.9502551964087
 21
106.7905725679795
 31
0.0
  0
MTEXT
  5
677C
330
18
100
AcDbEntity
  8
DIM
100
AcDbMText
 10
258.2754698129591
 20
107.6429160119292
 30
0.0
 40
3.0
 41
2.354875985554478
 71
     1
 72
     5
  1
A
  7
ISOCP3
 11
-0.0000000000000002
 21
-1.0
 31
0.0
 73
     1
 44
1.0
  0
DIMENSION
  5
678A
330
18
100
AcDbEntity
  8
0
100
AcDbDimension
  2
*D1
 10
243.6576407266074
 20
156.5096139357886
 30
0.0
 11
242.6555808892828
 21
156.5096139357886
 31
0.0
 70
   160
 71
     5
 42
-1.0
  3
A
100
AcDbAlignedDimension
 13
241.6535210519581
 23
175.3745773653768
 33
0.0
 14
243.6576407266074
 24
175.3745773653768
 34
0.0
100
AcDbRotatedDimension
1001
ACAD
1000
DSTYLE
1002
{
1070
    40
1040
1.0
1002
}
  0
DIMENSION
  5
6A66
330
18
100
AcDbEntity
  8
DIM
100
AcDbDimension
  2
*D2
 10
284.3932582882816
 20
124.2267540721067
 30
0.0
 11
284.3932582882816
 21
129.2267540721067
 31
0.0
 70
   160
  1
<>%%p0.2
 71
     5
 42
-1.0
  3
A
100
AcDbAlignedDimension
 13
271.0576407266075
 23
134.2267540721067
 33
0.0
 14
272.5576407266075
 24
124.2267540721067
 34
0.0
 50
90.0
100
AcDbRotatedDimension
  0
LINE
  5
71B5
330
18
100
AcDbEntity
  8
中心線
  6
CENTER
 48
0.15
100
AcDbLine
 10
257.5576407266074
 20
136.2267540721067
 30
0.0
 11
257.5576407266074
 21
122.2267540721067
 31
0.0
  0
LINE
  5
71B9
330
18
100
AcDbEntity
  8
中心線
  6
CENTER
 48
0.15
100
AcDbLine
 10
257.5576407266075
 20
195.3745773653768
 30
0.0
 11
257.5576407266074
 21
159.3745773653768
 31
0.0
  0
LINE
  5
71BA
330
18
100
AcDbEntity
  8
本体外線
100
AcDbLine
 10
264.5500278103303
 20
189.5033251519946
 30
0.0
 11
264.5576407266074
 21
189.4989330183589
 31
0.0
  0
ARC
  5
71BB
330
18
100
AcDbEntity
  8
本体外線
100
AcDbCircle
 10
257.5576407266074
 20
177.3745773653768
 30
0.0
 40
14.0
100
AcDbArc
 50
59.99999999999996
 51
60.03596966159395
  0
MTEXT
  5
71BC
330
18
100
AcDbEntity
  8
公差
100
AcDbMText
 10
261.4276608082445
 20
150.8029053054345
 30
0.0
 40
1.25
 41
21.45207315668504
 71
     1
 72
     5
  1
+0\P-0.12
  7
TXT
 73
     1
 44
1.0
  0
ARC
  5
71BF
330
18
100
AcDbEntity
  8
本体外線
100
AcDbCircle
 10
257.5576407266075
 20
177.3745773653768
 30
0.0
 40
16.0
100
AcDbArc
 50
67.18075578145828
 51
172.8192442185418
  0
CIRCLE
  5
71C0
330
18
100
AcDbEntity
  8
本体外線
100
AcDbCircle
 10
257.5576407266075
 20
177.3745773653768
 30
0.0
 40
13.5
  0
ARC
  5
71C1
330
18
100
AcDbEntity
  8
0
100
AcDbCircle
 10
257.5576407266075
 20
177.3745773653768
 30
0.0
 40
8.5
100
AcDbArc
 50
162.5538640501476
 51
99.20880307346209
  0
CIRCLE
  5
71C2
330
18
100
AcDbEntity
  8
本体外線
100
AcDbCircle
 10
257.5576407266074
 20
177.3745773653768
 30
0.0
 40
8.0
  0
LINE
  5
71C3
330
18
100
AcDbEntity
  8
本体内線
  6
HIDDEN
 48
0.2
100
AcDbLine
 10
251.5929061787537
 20
172.0433540748327
 30
0.0
 11
247.4908369025068
 21
164.9383616722058
 31
0.0
  0
LINE
  5
71C4
330
18
100
AcDbEntity
  8
本体内線
  6
HIDDEN
 48
0.2
100
AcDbLine
 10
251.9526065728312
 20
171.6663734328774
 30
0.0
 11
247.8883359858448
 21
164.6268502805092
 31
0.0
  0
LINE
  5
71C5
330
18
100
AcDbEntity
  8
本体外線
 48
0.05
100
AcDbLine
 10
263.7628438522323
 20
192.1223044502443
 30
0.0
 11
262.7755899190386
 21
190.4123304779805
 31
0.0
  0
LINE
  5
71C6
330
18
100
AcDbEntity
  8
本体外線
 48
0.05
100
AcDbLine
 10
267.2269454673701
 20
190.1223044502443
 30
0.0
 11
266.2396915341763
 21
188.4123304779805
 31
0.0
  0
LINE
  5
71C7
330
18
100
AcDbEntity
  8
本体外線
100
AcDbLine
 10
262.7755899190386
 20
190.4123304779805
 30
0.0
 11
266.2396915341763
 21
188.4123304779805
 31
0.0
  0
LINE
  5
71C8
330
18
100
AcDbEntity
  8
中心線
  6
CENTER
 48
0.15
100
AcDbLine
 10
239.5576407266074
 20
177.3745773653768
 30
0.0
 11
275.5576407266075
 21
177.3745773653768
 31
0.0
  0
LINE
  5
71C9
330
18
100
AcDbEntity
  8
本体外線
100
AcDbLine
 10
243.5576434854407
 20
177.365788319666
 30
0.0
 11
243.5576407266075
 21
177.3745773653767
 31
0.0
  0
ARC
  5
71CA
330
18
100
AcDbEntity
  8
本体外線
100
AcDbCircle
 10
257.5576407266075
 20
177.3745773653767
 30
0.0
 40
14.0
100
AcDbArc
 50
179.9999999999999
 51
180.0359696615939
  0
LINE
  5
71CB
330
18
100
AcDbEntity
  8
本体外線
 48
0.05
100
AcDbLine
 10
241.6831328602199
 20
175.3745773653768
 30
0.0
 11
243.6576407266074
 21
175.3745773653768
 31
0.0
  0
LINE
  5
71CC
330
18
100
AcDbEntity
  8
本体外線
 48
0.05
100
AcDbLine
 10
241.6831328602199
 20
179.3745773653768
 30
0.0
 11
243.6576407266074
 21
179.3745773653767
 31
0.0
  0
LINE
  5
71CD
330
18
100
AcDbEntity
  8
本体外線
100
AcDbLine
 10
243.6576407266074
 20
175.3745773653768
 30
0.0
 11
243.6576407266074
 21
179.3745773653767
 31
0.0
  0
LINE
  5
71CE
330
18
100
AcDbEntity
  8
中心線
  6
CENTER
 48
0.15
100
AcDbLine
 10
248.5576407266075
 20
161.7861200972569
 30
0.0
 11
254.0576407266074
 21
171.3123995388857
 31
0.0
  0
LINE
  5
71CF
330
18
100
AcDbEntity
  8
本体外線
100
AcDbLine
 10
264.5652508840513
 20
165.2546186244697
 30
0.0
 11
264.5576407266075
 21
165.2502217123946
 31
0.0
  0
ARC
  5
71D0
330
18
100
AcDbEntity
  8
本体外線
100
AcDbCircle
 10
257.5576407266075
 20
177.3745773653768
 30
0.0
 40
14.0
100
AcDbArc
 50
300.0
 51
300.035969661594
  0
LINE
  5
71D1
330
18
100
AcDbEntity
  8
本体外線
 48
0.05
100
AcDbLine
 10
267.2269454673701
 20
164.6268502805092
 30
0.0
 11
266.2396915341763
 21
166.3368242527731
 31
0.0
  0
LINE
  5
71D2
330
18
100
AcDbEntity
  8
本体外線
 48
0.05
100
AcDbLine
 10
263.7628438522324
 20
162.6268502805092
 30
0.0
 11
262.7755899190386
 21
164.3368242527731
 31
0.0
  0
LINE
  5
71D3
330
18
100
AcDbEntity
  8
本体外線
100
AcDbLine
 10
266.2396915341763
 20
166.3368242527731
 30
0.0
 11
262.7755899190386
 21
164.3368242527731
 31
0.0
  0
ARC
  5
71D4
330
18
100
AcDbEntity
  8
本体外線
100
AcDbCircle
 10
257.5576407266075
 20
177.3745773653768
 30
0.0
 40
16.0
100
AcDbArc
 50
187.1807557814582
 51
292.8192442185419
  0
ARC
  5
71D5
330
18
100
AcDbEntity
  8
本体外線
100
AcDbCircle
 10
257.5576407266075
 20
177.3745773653768
 30
0.0
 40
16.0
100
AcDbArc
 50
307.1807557814584
 51
52.81924421854174
  0
LINE
  5
71D7
330
18
100
AcDbEntity
  8
本体内線
  6
HIDDEN
 48
0.2
100
AcDbLine
 10
265.1569828033928
 20
179.8745773653768
 30
0.0
 11
273.3611213558865
 21
179.8745773653767
 31
0.0
  0
LINE
  5
71D8
330
18
100
AcDbEntity
  8
本体内線
  6
HIDDEN
 48
0.2
100
AcDbLine
 10
265.1569828033927
 20
174.8745773653768
 30
0.0
 11
273.3611213558865
 21
174.8745773653767
 31
0.0
  0
LINE
  5
71D9
330
18
100
AcDbEntity
  8
本体内線
  6
HIDDEN
 48
0.2
100
AcDbLine
 10
265.3036074190223
 20
179.3745773653767
 30
0.0
 11
273.432148592995
 21
179.3745773653767
 31
0.0
  0
LINE
  5
71DA
330
18
100
AcDbEntity
  8
本体内線
  6
HIDDEN
 48
0.2
100
AcDbLine
 10
265.3036074190222
 20
175.3745773653767
 30
0.0
 11
273.432148592995
 21
175.3745773653767
 31
0.0
  0
LINE
  5
71DB
330
18
100
AcDbEntity
  8
中心線
  6
CENTER
 48
0.15
100
AcDbLine
 10
254.0576407266074
 20
183.4367551918679
 30
0.0
 11
248.5576407266075
 21
192.9630346334967
 31
0.0
  0
LINE
  5
71DC
330
18
100
AcDbEntity
  8
本体内線
  6
HIDDEN
 48
0.2
100
AcDbLine
 10
251.5929061787537
 20
182.7058006559209
 30
0.0
 11
247.4908369025069
 21
189.8107930585478
 31
0.0
  0
LINE
  5
71DD
330
18
100
AcDbEntity
  8
本体内線
  6
HIDDEN
 48
0.2
100
AcDbLine
 10
255.9230331976759
 20
185.2058006559209
 30
0.0
 11
251.820963921429
 21
192.3107930585478
 31
0.0
  0
LINE
  5
71DE
330
18
100
AcDbEntity
  8
本体内線
  6
HIDDEN
 48
0.2
100
AcDbLine
 10
251.9526065728312
 20
183.0827812978762
 30
0.0
 11
247.8883359858449
 21
190.1223044502444
 31
0.0
  0
LINE
  5
71DF
330
18
100
AcDbEntity
  8
本体内線
  6
HIDDEN
 48
0.2
100
AcDbLine
 10
255.4167081879689
 20
185.0827812978762
 30
0.0
 11
251.3524376009826
 21
192.1223044502443
 31
0.0
  0
LINE
  5
71E1
102
{ACAD_REACTORS
330
7399
102
}
330
18
100
AcDbEntity
  8
本体外線
100
AcDbLine
 10
244.0576407266075
 20
134.2267540721067
 30
0.0
 11
271.0576407266075
 21
134.2267540721067
 31
0.0
  0
LINE
  5
71E2
102
{ACAD_REACTORS
330
7399
102
}
330
18
100
AcDbEntity
  8
本体外線
100
AcDbLine
 10
242.5576407266074
 20
124.2267540721067
 30
0.0
 11
272.5576407266075
 21
124.2267540721067
 31
0.0
  0
LINE
  5
71E3
330
18
100
AcDbEntity
  8
本体外線
100
AcDbLine
 10
243.7012342660564
 20
185.3745773653768
 30
0.0
 11
243.6587728573302
 21
185.3005771100382
 31
0.0
  0
LINE
  5
71E4
102
{ACAD_REACTORS
330
7399
102
}
330
18
100
AcDbEntity
  8
本体外線
100
AcDbLine
 10
273.5576407266074
 20
132.7267540721067
 30
0.0
 11
273.5576407266075
 21
125.2267540721067
 31
0.0
  0
LINE
  5
71E5
102
{ACAD_REACTORS
330
7399
102
}
330
18
100
AcDbEntity
  8
本体外線
100
AcDbLine
 10
244.0576407266075
 20
134.2267540721067
 30
0.0
 11
244.0576407266075
 21
133.7267540721067
 31
0.0
  0
LINE
  5
71E7
102
{ACAD_REACTORS
330
7399
102
}
330
18
100
AcDbEntity
  8
本体外線
100
AcDbLine
 10
249.5576407266074
 20
132.2267540721067
 30
0.0
 11
249.5576407266074
 21
126.2267540721067
 31
0.0
  0
LINE
  5
71E8
102
{ACAD_REACTORS
330
721B
330
7399
102
}
330
18
100
AcDbEntity
  8
本体外線
100
AcDbLine
 10
265.5576407266075
 20
132.2267540721067
 30
0.0
 11
265.5576407266075
 21
126.2267540721067
 31
0.0
  0
LINE
  5
71E9
102
{ACAD_REACTORS
330
7399
102
}
330
18
100
AcDbEntity
  8
0
100
AcDbLine
 10
266.0576407266075
 20
132.7267540721068
 30
0.0
 11
266.0576407266075
 21
131.4767540721067
 31
0.0
  0
LINE
  5
71EA
102
{ACAD_REACTORS
330
7399
102
}
330
18
100
AcDbEntity
  8
本体外線
100
AcDbLine
 10
271.0576407266075
 20
134.2267540721067
 30
0.0
 11
271.0576407266075
 21
133.7267540721067
 31
0.0
  0
LINE
  5
71EB
102
{ACAD_REACTORS
330
7399
102
}
330
18
100
AcDbEntity
  8
本体外線
100
AcDbLine
 10
271.0576407266075
 20
133.7267540721067
 30
0.0
 11
272.5576407266074
 21
133.7267540721067
 31
0.0
  0
LINE
  5
71EC
102
{ACAD_REACTORS
330
7399
102
}
330
18
100
AcDbEntity
  8
本体外線
100
AcDbLine
 10
265.5576407266075
 20
132.2267540721067
 30
0.0
 11
267.5576407266075
 21
134.2267540721067
 31
0.0
  0
LINE
  5
71ED
102
{ACAD_REACTORS
330
7399
102
}
330
18
100
AcDbEntity
  8
本体外線
100
AcDbLine
 10
247.5576407266074
 20
134.2267540721067
 30
0.0
 11
249.5576407266074
 21
132.2267540721067
 31
0.0
  0
LINE
  5
71EE
330
18
100
AcDbEntity
  8
中心線
  6
CENTER
 48
0.15
100
AcDbLine
 10
264.5576407266075
 20
129.2267540721067
 30
0.0
 11
274.5576407266075
 21
129.2267540721067
 31
0.0
  0
LINE
  5
71EF
102
{ACAD_REACTORS
330
7399
102
}
330
18
100
AcDbEntity
  8
本体外線
100
AcDbLine
 10
265.5576407266075
 20
126.2267540721067
 30
0.0
 11
267.5576407266075
 21
124.2267540721067
 31
0.0
  0
LINE
  5
71F0
102
{ACAD_REACTORS
330
7399
102
}
330
18
100
AcDbEntity
  8
本体外線
100
AcDbLine
 10
247.5576407266074
 20
124.2267540721067
 30
0.0
 11
249.5576407266074
 21
126.2267540721067
 31
0.0
  0
LINE
  5
71F1
330
18
100
AcDbEntity
  8
本体外線
100
AcDbLine
 10
242.6305048334175
 20
133.7267540721067
 30
0.0
 11
244.0576407266075
 21
133.7267540721067
 31
0.0
  0
ARC
  5
71F2
102
{ACAD_REACTORS
330
7399
102
}
330
18
100
AcDbEntity
  8
本体外線
100
AcDbCircle
 10
272.5576407266074
 20
132.7267540721067
 30
0.0
 40
1.0
100
AcDbArc
 50
0.0000000000001018
 51
90.0
  0
ARC
  5
71F3
102
{ACAD_REACTORS
330
7399
102
}
330
18
100
AcDbEntity
  8
本体外線
100
AcDbCircle
 10
272.5576407266075
 20
125.2267540721067
 30
0.0
 40
1.0
100
AcDbArc
 50
270.0
 51
0.0000000000000891
  0
LINE
  5
71F4
102
{ACAD_REACTORS
330
7399
102
}
330
18
100
AcDbEntity
  8
0
100
AcDbLine
 10
266.0576407266075
 20
131.7267540721067
 30
0.0
 11
273.5576407266075
 21
131.7267540721067
 31
0.0
  0
LINE
  5
71F5
102
{ACAD_REACTORS
330
7399
102
}
330
18
100
AcDbEntity
  8
0
100
AcDbLine
 10
266.0576407266075
 20
126.7267540721067
 30
0.0
 11
273.5576407266075
 21
126.7267540721067
 31
0.0
  0
LINE
  5
71F6
102
{ACAD_REACTORS
330
721B
330
7399
102
}
330
18
100
AcDbEntity
  8
0
100
AcDbLine
 10
265.5576407266075
 20
131.4767540721067
 30
0.0
 11
268.5576407266075
 21
131.4767540721067
 31
0.0
  0
LINE
  5
71F7
102
{ACAD_REACTORS
330
721B
330
7399
102
}
330
18
100
AcDbEntity
  8
0
100
AcDbLine
 10
265.5576407266075
 20
126.9767540721067
 30
0.0
 11
268.5576407266074
 21
126.9767540721066
 31
0.0
  0
LINE
  5
71F8
330
18
100
AcDbEntity
  8
0
 48
0.5
100
AcDbLine
 10
269.3076407266074
 20
131.2267540721067
 30
0.0
 11
273.5576407266075
 21
131.2267540721067
 31
0.0
  0
LINE
  5
71F9
330
18
100
AcDbEntity
  8
0
 48
0.5
100
AcDbLine
 10
269.3377843922231
 20
127.2267540721067
 30
0.0
 11
273.5576407266075
 21
127.2267540721067
 31
0.0
  0
LINE
  5
71FA
330
18
100
AcDbEntity
  8
0
 48
0.5
100
AcDbLine
 10
273.0576407266074
 20
131.7267540721067
 30
0.0
 11
273.0576407266075
 21
126.7267540721067
 31
0.0
  0
LINE
  5
71FB
330
18
100
AcDbEntity
  8
0
100
AcDbLine
 10
273.0576407266074
 20
131.7267540721067
 30
0.0
 11
273.5576407266074
 21
131.4380789375119
 31
0.0
  0
LINE
  5
71FC
330
18
100
AcDbEntity
  8
0
100
AcDbLine
 10
273.0576407266074
 20
126.7267540721067
 30
0.0
 11
273.5576407266074
 21
127.0154292067015
 31
0.0
  0
LINE
  5
71FD
330
18
100
AcDbEntity
  8
0
 48
0.08
100
AcDbLine
 10
271.5576407266074
 20
130.4767540721067
 30
0.0
 11
271.5576407266075
 21
127.9767540721067
 31
0.0
  0
LINE
  5
71FE
330
18
100
AcDbEntity
  8
0
 48
0.08
100
AcDbLine
 10
271.5576407266074
 20
130.4767540721067
 30
0.0
 11
271.0930727583134
 21
129.2258199972262
 31
0.0
  0
LINE
  5
71FF
330
18
100
AcDbEntity
  8
0
 48
0.08
100
AcDbLine
 10
271.0930727583134
 20
129.2258199972262
 30
0.0
 11
271.5576407266075
 21
127.9767540721067
 31
0.0
  0
LINE
  5
7200
102
{ACAD_REACTORS
330
721B
102
}
330
18
100
AcDbEntity
  8
0
100
AcDbLine
 10
268.5576407266075
 20
131.4767540721067
 30
0.0
 11
268.5576407266075
 21
126.9767540721066
 31
0.0
  0
LINE
  5
7201
330
18
100
AcDbEntity
  8
0
 48
0.08
100
AcDbLine
 10
271.5576407266074
 20
130.4767540721067
 30
0.0
 11
273.5576407266075
 21
130.4767540721067
 31
0.0
  0
LINE
  5
7202
330
18
100
AcDbEntity
  8
0
 48
0.08
100
AcDbLine
 10
271.5576407266075
 20
127.9767540721067
 30
0.0
 11
273.5576407266075
 21
127.9767540721067
 31
0.0
  0
LINE
  5
7203
102
{ACAD_REACTORS
330
7399
102
}
330
18
100
AcDbEntity
  8
0
100
AcDbLine
 10
266.0576407266075
 20
126.9767540721067
 30
0.0
 11
266.0576407266075
 21
125.7267540721067
 31
0.0
  0
LINE
  5
7204
330
18
100
AcDbEntity
  8
0
 48
0.08
100
AcDbLine
 10
268.5576407266075
 20
130.4767540721067
 30
0.0
 11
269.3377843922231
 21
131.2568977377223
 31
0.0
  0
LINE
  5
7205
330
18
100
AcDbEntity
  8
0
 48
0.08
100
AcDbLine
 10
268.5576407266075
 20
128.0068977377224
 30
0.0
 11
269.3377843922232
 21
127.2267540721067
 31
0.0
  0
LINE
  5
7206
330
18
100
AcDbEntity
  8
0
 48
0.5
100
AcDbLine
 10
269.3377843922231
 20
127.2267540721067
 30
0.0
 11
269.3377843922231
 21
131.2568977377223
 31
0.0
  0
LINE
  5
7207
330
18
100
AcDbEntity
  8
0
100
AcDbLine
 10
266.0576407266075
 20
131.5267540721067
 30
0.0
 11
273.0576407266074
 21
131.5267540721067
 31
0.0
  0
LINE
  5
7208
330
18
100
AcDbEntity
  8
0
100
AcDbLine
 10
266.0576407266075
 20
126.9267540721067
 30
0.0
 11
273.0576407266075
 21
126.9267540721067
 31
0.0
  0
DIMENSION
  5
7209
330
18
100
AcDbEntity
  8
0
100
AcDbDimension
  2
*D3
 10
234.3527641364822
 20
133.7267540721067
 30
0.0
 11
234.3527641364822
 21
140.1896371694107
 31
0.0
 70
   160
 71
     5
 42
-1.0
  3
A
100
AcDbAlignedDimension
 13
244.0576407266075
 23
134.2267540721067
 33
0.0
 14
242.6305048334175
 24
133.7267540721067
 34
0.0
 50
90.0
100
AcDbRotatedDimension
  0
DIMENSION
  5
720A
330
18
100
AcDbEntity
  8
0
100
AcDbDimension
  2
*D4
 10
271.0576407266075
 20
141.9613387290882
 30
0.0
 11
257.5576407266075
 21
143.3363387290882
 31
0.0
 70
    32
  1
%%C<>%%p0.5
 71
     5
 42
-1.0
  3
A
100
AcDbAlignedDimension
 13
244.0576407266075
 23
134.2267540721067
 33
0.0
 14
271.0576407266075
 24
134.2267540721067
 34
0.0
100
AcDbRotatedDimension
  0
LINE
  5
720C
102
{ACAD_REACTORS
330
7399
102
}
330
18
100
AcDbEntity
  8
本体外線
100
AcDbLine
 10
244.0576407266075
 20
133.7267540721067
 30
0.0
 11
242.5576407266074
 21
133.7267540721067
 31
0.0
  0
DIMENSION
  5
7211
330
18
100
AcDbEntity
  8
0
100
AcDbDimension
  2
*D5
 10
273.5576407266074
 20
147.1395682074244
 30
0.0
 11
257.5590744327196
 21
148.5145682074244
 31
0.0
 70
    32
  1
%%C<>
 71
     5
 42
-1.0
  3
A
100
AcDbAlignedDimension
 13
241.5605081388318
 23
132.7240879124627
 33
0.0
 14
273.5576407266074
 24
132.7240879124627
 34
0.0
100
AcDbRotatedDimension
  0
LINE
  5
7212
330
18
100
AcDbEntity
  8
本体外線
100
AcDbLine
 10
249.5576407266074
 20
132.2267540721068
 30
0.0
 11
265.5576407266075
 21
132.2267540721067
 31
0.0
  0
LINE
  5
7213
330
18
100
AcDbEntity
  8
本体外線
100
AcDbLine
 10
249.5576407266074
 20
126.2267540721067
 30
0.0
 11
265.5576407266075
 21
126.2267540721067
 31
0.0
  0
POINT
  5
7215
330
18
100
AcDbEntity
  8
本体外線
100
AcDbPoint
 10
271.0576407266075
 20
134.2267540721067
 30
0.0
  0
POINT
  5
7216
330
18
100
AcDbEntity
  8
0
100
AcDbPoint
 10
271.0576407266075
 20
124.2267540721068
 30
0.0
  0
DIMENSION
  5
721A
330
18
100
AcDbEntity
  8
0
100
AcDbDimension
  2
*D6
 10
266.0576407266075
 20
115.3623814534899
 30
0.0
 11
257.553843215559
 21
115.3623814534899
 31
0.0
 70
   160
  1
M<>X1.0P
 71
     5
 42
-1.0
  3
A
100
AcDbAlignedDimension
 13
249.0500457045106
 23
125.7191590500099
 33
0.0
 14
266.0576407266075
 24
125.7191590500099
 34
0.0
100
AcDbRotatedDimension
  0
HATCH
  5
721B
330
18
100
AcDbEntity
  8
0
100
AcDbHatch
 10
0.0
 20
0.0
 30
0.0
210
0.0
220
0.0
230
1.0
  2
AR-SAND
 70
     0
 71
     1
 91
        1
 92
        7
 72
     0
 73
     1
 93
        4
 10
265.5576407266075
 20
126.9767540721067
 10
268.5576407266074
 20
126.9767540721066
 10
268.5576407266074
 20
131.4767540721067
 10
265.5576407266075
 20
131.4767540721067
 97
        4
330
71F6
330
71E8
330
71F7
330
7200
 75
     0
 76
     1
 52
0.0
 41
0.04
 77
     0
 78
     4
 53
37.5
 43
156.2858076840211
 44
21.93243886169673
 45
-0.0640012518393618
 46
1.957652949317369
 79
     6
 49
0.0
 49
-1.54432
 49
0.0
 49
-1.7272
 49
0.0
 49
-1.650999999999999
 53
7.499999999999999
 43
156.2858076840211
 44
21.93243886169673
 45
1.79809313255201
 46
2.867300402273416
 79
     6
 49
0.0
 49
-0.83312
 49
0.0
 49
-1.39192
 49
0.0
 49
-0.5334000000000002
 53
327.5
 43
155.0361276840211
 44
21.93243886169673
 45
3.163969480965831
 46
0.0057487387141828
 79
     6
 49
0.0
 49
-0.508
 49
0.0
 49
-1.8288
 49
0.0
 49
-2.387599999999999
 53
317.5
 43
155.0361276840211
 44
21.93243886169673
 45
3.054225809889188
 46
0.8917172930288648
 79
     6
 49
0.0
 49
-0.254
 49
0.0
 49
-1.198879999999999
 49
0.0
 49
-1.371599999999999
 47
0.0834468174601651
 98
        1
 10
266.8937195310873
 20
129.4720665174197
  0
LINE
  5
721E
330
18
100
AcDbEntity
  8
本体内線
  6
HIDDEN
 48
0.2
100
AcDbLine
 10
255.9230331976759
 20
169.5433540748326
 30
0.0
 11
251.820963921429
 21
162.4383616722058
 31
0.0
  0
LINE
  5
721F
330
18
100
AcDbEntity
  8
本体内線
  6
HIDDEN
 48
0.2
100
AcDbLine
 10
255.4167081879689
 20
169.6663734328774
 30
0.0
 11
251.3524376009826
 21
162.6268502805092
 31
0.0
  0
POINT
  5
722B
330
18
100
AcDbEntity
  8
本体外線
100
AcDbPoint
 10
270.376174118645
 20
134.2267540721067
 30
0.0
  0
POINT
  5
722C
330
18
100
AcDbEntity
  8
0
100
AcDbPoint
 10
270.376174118645
 20
124.2267540721067
 30
0.0
  0
LINE
  5
7234
102
{ACAD_REACTORS
330
7399
102
}
330
18
100
AcDbEntity
  8
本体外線
100
AcDbLine
 10
243.6576407266074
 20
133.7267540721067
 30
0.0
 11
243.6576407266074
 21
124.2267540721067
 31
0.0
  0
LINE
  5
7303
330
18
100
AcDbEntity
  8
本体外線
 48
0.1
100
AcDbLine
 10
241.5576407266073
 20
132.7267540721067
 30
0.0
 11
241.5576407266073
 21
125.2267540721067
 31
0.0
  0
ARC
  5
7305
330
18
100
AcDbEntity
  8
本体外線
 48
0.1
100
AcDbCircle
 10
242.5576407266074
 20
132.7267540721067
 30
0.0
 40
1.0
100
AcDbArc
 50
90.0
 51
180.0
  0
ARC
  5
7306
330
18
100
AcDbEntity
  8
本体外線
100
AcDbCircle
 10
242.5576407266074
 20
125.2267540721067
 30
0.0
 40
1.0
100
AcDbArc
 50
180.0
 51
270.0
  0
LINE
  5
7307
102
{ACAD_REACTORS
330
7399
102
}
330
18
100
AcDbEntity
  8
0
100
AcDbLine
 10
249.0576407266074
 20
132.7267540721067
 30
0.0
 11
249.0576407266074
 21
125.7267540721067
 31
0.0
  0
DIMENSION
  5
731E
330
18
100
AcDbEntity
  8
DIM
100
AcDbDimension
  2
*D7
 10
242.5576407266074
 20
125.2267540721067
 30
0.0
 11
235.6120579547716
 21
121.4641084018108
 31
0.0
 70
   164
  1
2-<>
 71
     5
 42
-1.0
  3
A
100
AcDbRadialDimension
 15
241.6783728838105
 25
124.7504263901237
 35
0.0
 40
0.0
1001
ACAD
1000
DSTYLE
1002
{
1070
   288
1070
     1
1002
}
  0
HATCH
  5
7399
330
18
100
AcDbEntity
  8
剖面線
100
AcDbHatch
 10
0.0
 20
0.0
 30
0.0
210
0.0
220
0.0
230
1.0
  2
ANSI31
 70
     0
 71
     1
 91
        6
 92
        7
 72
     0
 73
     1
 93
        8
 10
243.6576407266074
 20
124.2267540721067
 10
247.5576407266075
 20
124.2267540721067
 10
249.0576407266074
 20
125.7267540721066
 10
249.0576407266074
 20
132.7267540721068
 10
247.5576407266073
 20
134.2267540721067
 10
244.0576407266075
 20
134.2267540721067
 10
244.0576407266075
 20
133.7267540721067
 10
243.6576407266075
 20
133.7267540721067
 97
        8
330
71ED
330
71E1
330
71E5
330
720C
330
7234
330
71E2
330
71F0
330
7307
 92
        7
 72
     0
 73
     1
 93
        4
 10
249.5576407266074
 20
132.2267540721067
 10
249.0576407266074
 20
132.7267540721067
 10
249.0576407266074
 20
125.7267540721067
 10
249.5576407266074
 20
126.2267540721067
 97
        4
330
71ED
330
7307
330
71F0
330
71E7
 92
        7
 72
     1
 73
     1
 93
        8
 10
273.5576407266075
 20
131.7267540721067
 42
0.0
 10
273.5576407266074
 20
132.7267540721068
 42
0.414213562373078
 10
272.5576407266074
 20
133.7267540721067
 42
0.0
 10
271.0576407266075
 20
133.7267540721067
 42
0.0
 10
271.0576407266075
 20
134.2267540721067
 42
0.0
 10
267.5576407266075
 20
134.2267540721067
 42
0.0
 10
266.0576407266075
 20
132.7267540721068
 42
0.0
 10
266.0576407266075
 20
131.7267540721067
 42
0.0
 97
        8
330
71F2
330
71EB
330
71EA
330
71E1
330
71EC
330
71E9
330
71F4
330
71E4
 92
        7
 72
     1
 73
     1
 93
        6
 10
266.0576407266075
 20
126.7267540721067
 42
0.0
 10
266.0576407266075
 20
125.7267540721067
 42
0.0
 10
267.5576407266074
 20
124.2267540721067
 42
0.0
 10
272.5576407266075
 20
124.2267540721067
 42
0.4142135623730998
 10
273.5576407266075
 20
125.2267540721067
 42
0.0
 10
273.5576407266075
 20
126.7267540721067
 42
0.0
 97
        6
330
71F5
330
7203
330
71EF
330
71E2
330
71F3
330
71E4
 92
        7
 72
     0
 73
     1
 93
        4
 10
265.5576407266075
 20
131.4767540721067
 10
266.0576407266075
 20
131.4767540721067
 10
266.0576407266075
 20
132.7267540721067
 10
265.5576407266075
 20
132.2267540721067
 97
        4
330
71EC
330
71E8
330
71F6
330
71E9
 92
        7
 72
     0
 73
     1
 93
        4
 10
266.0576407266074
 20
125.7267540721068
 10
266.0576407266075
 20
126.9767540721067
 10
265.5576407266075
 20
126.9767540721067
 10
265.5576407266075
 20
126.2267540721067
 97
        4
330
71F7
330
71E8
330
71EF
330
7203
 75
     0
 76
     1
 52
0.0
 41
1.0
 77
     0
 78
     1
 53
45.0
 43
0.0
 44
0.0
 45
-2.245064030267287
 46
2.245064030267288
 79
     0
 47
0.0430319173345735
 98
        6
 10
245.8144742325036
 20
131.5673447771085
 10
249.4320538698403
 20
130.1903232197736
 10
267.3476864366738
 20
132.5570787689632
 10
269.1995430654258
 20
125.7150039901333
 10
265.7111622378555
 20
131.9976639246652
 10
265.8403618578643
 20
126.2313867770988
  0
LEADER
  5
739A
330
18
100
AcDbEntity
  8
DIM
 62
     6
100
AcDbLeader
  3
A
 73
     0
 74
     0
 75
     1
 40
1.75
 41
6.416666666666666
 76
     3
 10
248.5576407266074
 20
133.2267540721067
 30
0.0
 10
251.9688056218458
 20
138.0895447393001
 30
0.0
 10
253.2188056218458
 20
138.0895447393001
 30
0.0
340
739B
  0
MTEXT
  5
739B
102
{ACAD_REACTORS
330
739A
102
}
330
18
100
AcDbEntity
  8
DIM
 62
     3
100
AcDbMText
 10
253.7188056218458
 20
139.4645447393001
 30
0.0
 40
1.75
 41
0.0
 71
     4
 72
     1
  1
\A1;2-C2
  7
TXT
 73
     1
 44
1.0
  0
LINE
  5
7468
330
18
100
AcDbEntity
  8
DIM
 62
     6
100
AcDbLine
 10
246.1576407266075
 20
156.5096139357886
 30
0.0
 11
249.6048057936217
 21
156.5096139357886
 31
0.0
  0
DIMENSION
  5
7496
330
18
100
AcDbEntity
  8
DIM
100
AcDbDimension
  2
*D8
 10
234.3527641364822
 20
179.3745773653768
 30
0.0
 11
233.5828766234194
 21
184.6746065350643
 31
0.0
 70
   160
  1
<>      (3等分)
 71
     5
 42
-1.0
  3
A
100
AcDbAlignedDimension
 13
241.6831328602199
 23
175.3745773653768
 33
0.0
 14
241.68313286022
 24
179.3745773653768
 34
0.0
 50
90.0
100
AcDbRotatedDimension
  0
LINE
  5
74F3
330
18
100
AcDbEntity
  8
DIM
 62
     6
100
AcDbLine
 10
234.3095325507159
 20
179.3745773653768
 30
0.0
 11
234.3095325507159
 21
192.6336133450081
 31
0.0
  0
MTEXT
  5
7527
330
18
100
AcDbEntity
  8
DIM
100
AcDbMText
 10
216.0552607209847
 20
94.82614035185168
 30
0.0
 40
2.25
 41
0.0
 71
     1
 72
     5
  1
{\Ftxt,bigfont|c128;06.04.25外形寸法を変更する}
  7
JL
 73
     1
 44
1.0
1001
ACAD
1000
ACAD_MTEXT_DEFINED_HEIGHT_BEGIN
1070
    46
1040
0.0
1000
ACAD_MTEXT_DEFINED_HEIGHT_END
  0
MTEXT
  5
7528
330
18
100
AcDbEntity
  8
DIM
100
AcDbMText
 10
236.3565940841775
 20
94.76923959256424
 30
0.0
 40
2.25
 41
0.0
 71
     1
 72
     5
  1
{\Ftxt,bigfont|c128;謝}
  7
JL
 73
     1
 44
1.0
1001
ACAD
1000
ACAD_MTEXT_DEFINED_HEIGHT_BEGIN
1070
    46
1040
0.0
1000
ACAD_MTEXT_DEFINED_HEIGHT_END
  0
CIRCLE
  5
7529
330
18
100
AcDbEntity
  8
DIM
100
AcDbCircle
 10
236.8451346408788
 20
93.59491546019837
 30
0.0
 40
1.42601098075263
  0
MTEXT
  5
752A
330
18
100
AcDbEntity
  8
DIM
100
AcDbMText
 10
213.9823195248471
 20
94.57190568013913
 30
0.0
 40
1.75
 41
0.0
 71
     1
 72
     5
  1
{\Ftxt,bigfont|c128;1}
  7
JL
 73
     1
 44
1.0
1001
ACAD
1000
ACAD_MTEXT_DEFINED_HEIGHT_BEGIN
1070
    46
1040
0.0
1000
ACAD_MTEXT_DEFINED_HEIGHT_END
  0
REGION
  5
752B
330
18
100
AcDbEntity
  8
DIM
100
AcDbModelerGeometry
 70
     1
  1
mogoo mm m o          
  1
ni ^ *+0;:,4 ^ *+0\^ [ nh ^ LR iqoqjqhook QK mk K*: P<+ nn nlelmeoh monn 
  1
n fqfffffffffffffffj:rooh n:rono 
  1
>,27:>;:- {rn rn _nm mogqoqjqhook |
  1
=0;& {rn rn {rn {m {rn {rn |
  1
3*2/ {rn rn {rn {rn {l {n |
  1
,7:33 {rn rn {rn {rn {rn {k {rn {m |
  1
9><: {rn rn {rn {rn {j {l {rn {i 90-(>-; ;0*=3: 0*+ |
  1
300/ {rn rn {rn {rn {h {k |
  1
/3>1:r,*-9><: {rn rn {rn mnkqnoflokklghngi flqlhngnhifmfnhgkk o o o n n o o 90-(>-;@) V V V V |
  1
<0:;8: {rn rn {rn {g {f {rn {no 90-(>-; {j {rn |
  1
<0:;8: {rn rn {rn {f {h {rn {nn 90-(>-; {j {rn |
  1
<0:;8: {rn rn {rn {h {g {rn {nm -:):-,:; {j {rn |
  1
:;8: {rn rn {rn {nl o {nk mqjfgohimnnljlljjn {h {nj 90-(>-; _h *1410(1 |
  1
:;8: {rn rn {rn {nk o {ni mqjfgohimnnljllhmf {g {nh 90-(>-; _h *1410(1 |
  1
:;8: {rn rn {rn {nl o {ni mqjfgohimnnljlljjn {f {ng 90-(>-; _h *1410(1 |
  1
):-+:' {rn rn {rn {no {nf |
  1
):-+:' {rn rn {rn {no {mo |
  1
,+->687+r<*-): {rn rn {rn mnkqnoflokklghngi fkqghngnhifmfnhgjg o roqjoooooooooooooljj roqgiiomjkolhgkklihn o V V |
  1
):-+:' {rn rn {rn {nn {mn |
  1
,+->687+r<*-): {rn rn {rn mnmqgnomiillloknfn fmqimngnhifmfnhgl o n o o V V |
  1
,+->687+r<*-): {rn rn {rn mnkqnoflokklghngi fkqghngnhifmfnhgjg o oqjoooooooooooooljj roqgiiomjkolhgkklihn o V V |
  1
/061+ {rn rn {rn mnkqnoflokklghngi fkqghngnhifmfnhgjg o |
  1
/061+ {rn rn {rn mnmqgnomiillloknfn fmqimngnhifmfnhgl o |
  1
/061+ {rn rn {rn mnjqkoglkmjkklfjmg fmqimngnhifmfnhgl o |
  0
MTEXT
  5
753A
330
18
100
AcDbEntity
  8
DIM
100
AcDbMText
 10
244.8011985210349
 20
140.3244281491589
 30
0.0
 40
1.75
 41
0.0
 71
     1
 72
     5
  1
{\Ftxt,bigfont|c128;1}
  7
JL
 73
     1
 44
1.0
1001
ACAD
1000
ACAD_MTEXT_DEFINED_HEIGHT_BEGIN
1070
    46
1040
0.0
1000
ACAD_MTEXT_DEFINED_HEIGHT_END
  0
MTEXT
  5
753B
330
18
100
AcDbEntity
  8
DIM
 62
     3
100
AcDbMText
 10
249.621969771286
 20
139.454177277275
 30
0.0
 40
1.75
 41
0.0
 71
     5
 72
     1
  1
2-C1
  7
TXT
 73
     1
 44
1.0
1001
ACAD
1000
ACAD_MTEXT_DEFINED_HEIGHT_BEGIN
1070
    46
1040
0.0
1000
ACAD_MTEXT_DEFINED_HEIGHT_END
  0
LINE
  5
753C
330
18
100
AcDbEntity
  8
0
 62
     1
100
AcDbLine
 10
253.5398230343328
 20
140.1121065115272
 30
0.0
 11
260.3840656426884
 21
140.1121065115272
 31
0.0
  0
LINE
  5
753D
330
18
100
AcDbEntity
  8
0
 62
     1
100
AcDbLine
 10
253.5398230343328
 20
138.8386495349472
 30
0.0
 11
260.3840656426884
 21
138.8386495349472
 31
0.0
  0
REGION
  5
753E
330
18
100
AcDbEntity
  8
DIM
100
AcDbModelerGeometry
 70
     1
  1
mogoo mm m o          
  1
ni ^ *+0;:,4 ^ *+0\^ [ nh ^ LR iqoqjqhook QK mk K*: P<+ nn nlelmeoh monn 
  1
n fqfffffffffffffffj:rooh n:rono 
  1
>,27:>;:- {rn rn _nm mogqoqjqhook |
  1
=0;& {rn rn {rn {m {rn {rn |
  1
3*2/ {rn rn {rn {rn {l {n |
  1
,7:33 {rn rn {rn {rn {rn {k {rn {m |
  1
9><: {rn rn {rn {rn {j {l {rn {i 90-(>-; ;0*=3: 0*+ |
  1
300/ {rn rn {rn {rn {h {k |
  1
/3>1:r,*-9><: {rn rn {rn mkkqfmgnglklkfoilh nlfqnmklkoninflhij o o o n n o o 90-(>-;@) V V V V |
  1
<0:;8: {rn rn {rn {g {f {rn {no 90-(>-; {j {rn |
  1
<0:;8: {rn rn {rn {f {h {rn {nn 90-(>-; {j {rn |
  1
<0:;8: {rn rn {rn {h {g {rn {nm -:):-,:; {j {rn |
  1
:;8: {rn rn {rn {nl o {nk mqjfgohimnnljlljjn {h {nj 90-(>-; _h *1410(1 |
  1
:;8: {rn rn {rn {nk o {ni mqjfgohimnnljllhmf {g {nh 90-(>-; _h *1410(1 |
  1
:;8: {rn rn {rn {nl o {ni mqjfgohimnnljlljjn {f {ng 90-(>-; _h *1410(1 |
  1
):-+:' {rn rn {rn {no {nf |
  1
):-+:' {rn rn {rn {no {mo |
  1
,+->687+r<*-): {rn rn {rn mkkqfmgnglklkfoilh nkoqimklkoninflhig o roqjoooooooooooooljj roqgiiomjkolhgkklihn o V V |
  1
):-+:' {rn rn {rn {nn {mn |
  1
,+->687+r<*-): {rn rn {rn mklqimfnkjlmfmmfif nlgqlhklkoninflhij o n o o V V |
  1
,+->687+r<*-): {rn rn {rn mkkqfmgnglklkfoilh nkoqimklkoninflhig o oqjoooooooooooooljj roqgiiomjkolhgkklihn o V V |
  1
/061+ {rn rn {rn mkkqfmgnglklkfoilh nkoqimklkoninflhig o |
  1
/061+ {rn rn {rn mklqimfnkjlmfmmfif nlgqlhklkoninflhij o |
  1
/061+ {rn rn {rn mkiqmmhmmnjkojgloi nlgqlhklkoninflhij o |
  0
MTEXT
  5
754E
330
18
100
AcDbEntity
  8
0
100
AcDbMText
 10
234.915937964527
 20
83.56812717502874
 30
0.0
 40
2.5
 41
0.0
 71
     1
 72
     5
  1
{\Ftxt,bigfont|c128;小\~柳}
  7
JL
 73
     1
 44
1.0
1001
ACAD
1000
ACAD_MTEXT_DEFINED_HEIGHT_BEGIN
1070
    46
1040
0.0
1000
ACAD_MTEXT_DEFINED_HEIGHT_END
  0
MTEXT
  5
754F
330
18
100
AcDbEntity
  8
DIM
100
AcDbMText
 10
303.8894886070955
 20
77.23166044699983
 30
0.0
 40
1.75
 41
0.0
 71
     1
 72
     5
  1
{\Ftxt,bigfont|c128;1}
  7
JL
 73
     1
 44
1.0
1001
ACAD
1000
ACAD_MTEXT_DEFINED_HEIGHT_BEGIN
1070
    46
1040
0.0
1000
ACAD_MTEXT_DEFINED_HEIGHT_END
  0
REGION
  5
7550
330
18
100
AcDbEntity
  8
DIM
100
AcDbModelerGeometry
 70
     1
  1
mogoo mm m o          
  1
ni ^ *+0;:,4 ^ *+0\^ [ nh ^ LR iqoqjqhook QK mk K*: P<+ nn nlelmeoh monn 
  1
n fqfffffffffffffffj:rooh n:rono 
  1
>,27:>;:- {rn rn _nm mogqoqjqhook |
  1
=0;& {rn rn {rn {m {rn {rn |
  1
3*2/ {rn rn {rn {rn {l {n |
  1
,7:33 {rn rn {rn {rn {rn {k {rn {m |
  1
9><: {rn rn {rn {rn {j {l {rn {i 90-(>-; ;0*=3: 0*+ |
  1
300/ {rn rn {rn {rn {h {k |
  1
/3>1:r,*-9><: {rn rn {rn lokqonikhljmofih hiqolnjhmkjfhhgjln o o o n n o o 90-(>-;@) V V V V |
  1
<0:;8: {rn rn {rn {g {f {rn {no 90-(>-; {j {rn |
  1
<0:;8: {rn rn {rn {f {h {rn {nn 90-(>-; {j {rn |
  1
<0:;8: {rn rn {rn {h {g {rn {nm -:):-,:; {j {rn |
  1
:;8: {rn rn {rn {nl o {nk mqjfgohimnnljlljjn {h {nj 90-(>-; _h *1410(1 |
  1
:;8: {rn rn {rn {nk o {ni mqjfgohimnnljllhmf {g {nh 90-(>-; _h *1410(1 |
  1
:;8: {rn rn {rn {nl o {ni mqjfgohimnnljlljjn {f {ng 90-(>-; _h *1410(1 |
  1
):-+:' {rn rn {rn {no {nf |
  1
):-+:' {rn rn {rn {no {mo |
  1
,+->687+r<*-): {rn rn {rn lokqonikhljmofih hhqjlnjhmkjfhhgjkj o roqjoooooooooooooljj roqgiiomjkolhgkklihn o V V |
  1
):-+:' {rn rn {rn {nn {mn |
  1
,+->687+r<*-): {rn rn {rn lomqhnhkljknjmfoln hjqmgnjhmkjfhhgjni o n o o V V |
  1
,+->687+r<*-): {rn rn {rn lokqonikhljmofih hhqjlnjhmkjfhhgjkj o oqjoooooooooooooljj roqgiiomjkolhgkklihn o V V |
  1
/061+ {rn rn {rn lokqonikhljmofih hhqjlnjhmkjfhhgjkj o |
  1
/061+ {rn rn {rn lomqhnhkljknjmfoln hjqmgnjhmkjfhhgjni o |
  1
/061+ {rn rn {rn lojqlnjjnnimiiklig hjqmgnjhmkjfhhgjni o |
  0
ENDSEC
  0
SECTION
  2
OBJECTS
  0
DICTIONARY
  5
C
330
0
100
AcDbDictionary
281
     1
  3
ACAD_COLOR
350
750D
  3
ACAD_GROUP
350
D
  3
ACAD_LAYOUT
350
5CF3
  3
ACAD_MATERIAL
350
750C
  3
ACAD_MLINESTYLE
350
1B
  3
ACAD_PLOTSETTINGS
350
5CF4
  3
ACAD_PLOTSTYLENAME
350
5CF1
  3
ACAD_TABLESTYLE
350
750E
  3
ACDBVARIABLEDICTIONARY
350
45D
  0
DICTIONARY
  5
45F
330
18
100
AcDbDictionary
280
     1
281
     1
  3
ACAD_LAYOUTSELFREF
360
5D8B
  3
ACAD_SORTENTS
360
460
  0
DICTIONARY
  5
5D89
330
15
100
AcDbDictionary
280
     1
281
     1
  3
ACAD_LAYOUTSELFREF
360
5D8A
  0
DICTIONARY
  5
750D
102
{ACAD_REACTORS
330
C
102
}
330
C
100
AcDbDictionary
281
     1
  0
DICTIONARY
  5
D
102
{ACAD_REACTORS
330
C
102
}
330
C
100
AcDbDictionary
281
     1
  0
DICTIONARY
  5
5CF3
102
{ACAD_REACTORS
330
C
102
}
330
C
100
AcDbDictionary
281
     1
  3
Model
350
5CF5
  3
配置1
350
5CF6
  0
DICTIONARY
  5
750C
102
{ACAD_REACTORS
330
C
102
}
330
C
100
AcDbDictionary
281
     1
  0
DICTIONARY
  5
1B
102
{ACAD_REACTORS
330
C
102
}
330
C
100
AcDbDictionary
281
     1
  3
STANDARD
350
1C
  0
DICTIONARY
  5
5CF4
102
{ACAD_REACTORS
330
C
102
}
330
C
100
AcDbDictionary
281
     1
  0
ACDBDICTIONARYWDFLT
  5
5CF1
102
{ACAD_REACTORS
330
C
102
}
330
C
100
AcDbDictionary
281
     1
  3
Normal
350
5CF2
100
AcDbDictionaryWithDefault
340
5CF2
  0
DICTIONARY
  5
750E
102
{ACAD_REACTORS
330
C
102
}
330
C
100
AcDbDictionary
281
     1
  3
Standard
350
750F
  0
DICTIONARY
  5
45D
102
{ACAD_REACTORS
330
C
102
}
330
C
100
AcDbDictionary
281
     1
  3
CTABLESTYLE
350
7544
  3
SORTENTS
350
45E
  0
XRECORD
  5
5D8B
102
{ACAD_REACTORS
330
45F
102
}
330
45F
100
AcDbXrecord
280
     1
340
18
  0
SORTENTSTABLE
  5
460
102
{ACAD_REACTORS
330
45F
102
}
330
45F
100
AcDbSortentsTable
330
18
331
C0
  5
CB
  0
XRECORD
  5
5D8A
102
{ACAD_REACTORS
330
5D89
102
}
330
5D89
100
AcDbXrecord
280
     1
340
15
  0
LAYOUT
  5
5CF5
102
{ACAD_REACTORS
330
5CF3
102
}
330
5CF3
100
AcDbPlotSettings
  1

  2
none_device
  4
ISO_A4_(210.00_x_297.00_MM)
  6

 40
7.5
 41
20.0
 42
7.5
 43
20.0
 44
210.0
 45
297.0
 46
0.0
 47
0.0
 48
0.0
 49
0.0
140
0.0
141
0.0
142
1.0
143
1.252019586108667
 70
 11952
 72
     1
 73
     1
 74
     0
  7
a.ctb
 75
     0
147
0.7987095498306419
 76
     0
 77
     2
 78
   300
148
-101.2317345348698
149
-78.20257673842377
100
AcDbLayout
  1
Model
 70
     1
 71
     0
 10
0.0
 20
0.0
 11
12.0
 21
9.0
 12
0.0
 22
0.0
 32
0.0
 14
0.0
 24
0.0
 34
0.0
 15
0.0
 25
0.0
 35
0.0
146
0.0
 13
0.0
 23
0.0
 33
0.0
 16
1.0
 26
0.0
 36
0.0
 17
0.0
 27
1.0
 37
0.0
 76
     0
330
18
1001
ACAD_PSEXT
1000
なし
1000
なし
1000
適切ではありません
1000
新しいプロッタ環境設定名を選択しない限り、レイアウトは印刷されません。
1070
     0
  0
LAYOUT
  5
5CF6
102
{ACAD_REACTORS
330
5CF3
102
}
330
5CF3
100
AcDbPlotSettings
  1

  2
EPSON STYLUS COLOR 440
  4

  6

 40
0.0
 41
0.0
 42
0.0
 43
0.0
 44
0.0
 45
0.0
 46
0.0
 47
0.0
 48
0.0
 49
0.0
140
0.0
141
0.0
142
1.0
143
1.0
 70
   688
 72
     0
 73
     0
 74
     5
  7
a.ctb
 75
    16
147
1.0
 76
     0
 77
     2
 78
   300
148
0.0
149
0.0
100
AcDbLayout
  1
ｰtｸm1
 70
     1
 71
     1
 10
0.0
 20
0.0
 11
420.0
 21
297.0
 12
0.0
 22
0.0
 32
0.0
 14
1.000000000000000E+20
 24
1.000000000000000E+20
 34
1.000000000000000E+20
 15
-1.000000000000000E+20
 25
-1.000000000000000E+20
 35
-1.000000000000000E+20
146
0.0
 13
0.0
 23
0.0
 33
0.0
 16
1.0
 26
0.0
 36
0.0
 17
0.0
 27
1.0
 37
0.0
 76
     0
330
15
  0
MLINESTYLE
  5
1C
102
{ACAD_REACTORS
330
1B
102
}
330
1B
100
AcDbMlineStyle
  2
STANDARD
 70
     0
  3

 62
   256
 51
90.0
 52
90.0
 71
     2
 49
0.5
 62
   256
  6
BYLAYER
 49
-0.5
 62
   256
  6
BYLAYER
  0
ACDBPLACEHOLDER
  5
5CF2
102
{ACAD_REACTORS
330
5CF1
102
}
330
5CF1
  0
TABLESTYLE
  5
750F
102
{ACAD_REACTORS
330
750E
102
}
330
750E
100
AcDbTableStyle
  3
Standard
 70
     0
 71
     8
 40
1.5
 41
1.5
280
     0
281
     0
  7
STANDARD
140
4.5
170
     2
 62
     0
 63
     7
283
     0
274
    -2
284
     1
 64
     0
275
    -2
285
     1
 65
     0
276
    -2
286
     1
 66
     0
277
    -2
287
     1
 67
     0
278
    -2
288
     1
 68
     0
279
    -2
289
     1
 69
     0
  7
STANDARD
140
6.0
170
     5
 62
     0
 63
     7
283
     0
274
    -2
284
     1
 64
     0
275
    -2
285
     1
 65
     0
276
    -2
286
     1
 66
     0
277
    -2
287
     1
 67
     0
278
    -2
288
     1
 68
     0
279
    -2
289
     1
 69
     0
  7
STANDARD
140
4.5
170
     5
 62
     0
 63
     7
283
     0
274
    -2
284
     1
 64
     0
275
    -2
285
     1
 65
     0
276
    -2
286
     1
 66
     0
277
    -2
287
     1
 67
     0
278
    -2
288
     1
 68
     0
279
    -2
289
     1
 69
     0
  0
DICTIONARYVAR
  5
7544
102
{ACAD_REACTORS
330
45D
102
}
330
45D
100
DictionaryVariables
280
     0
  1
STANDARD
  0
DICTIONARYVAR
  5
45E
102
{ACAD_REACTORS
330
45D
102
}
330
45D
100
DictionaryVariables
280
     0
  1
127
  0
ENDSEC
  0
EOF
