  0
SECTION
  2
HEADER
  9
$ACADVER
  1
AC1018
  9
$ACADMAINTVER
 70
    76
  9
$DWGCODEPAGE
  3
ANSI_932
  9
$INSBASE
 10
0.0
 20
0.0
 30
0.0
  9
$EXTMIN
 10
0.0
 20
0.0
 30
0.0
  9
$EXTMAX
 10
190.0
 20
280.0
 30
0.0
  9
$LIMMIN
 10
0.0
 20
0.0
  9
$LIMMAX
 10
420.0
 20
297.0
  9
$ORTHOMODE
 70
     1
  9
$REGENMODE
 70
     1
  9
$FILLMODE
 70
     1
  9
$QTEXTMODE
 70
     0
  9
$MIRRTEXT
 70
     1
  9
$LTSCALE
 40
1.0
  9
$ATTMODE
 70
     1
  9
$TEXTSIZE
 40
2.5
  9
$TRACEWID
 40
1.0
  9
$TEXTSTYLE
  7
STANDARD
  9
$CLAYER
  8
0
  9
$CELTYPE
  6
BYLAYER
  9
$CECOLOR
 62
   256
  9
$CELTSCALE
 40
1.0
  9
$DISPSILH
 70
     0
  9
$DIMSCALE
 40
1.0
  9
$DIMASZ
 40
2.5
  9
$DIMEXO
 40
0.85
  9
$DIMDLI
 40
0.38
  9
$DIMRND
 40
0.0
  9
$DIMDLE
 40
0.0
  9
$DIMEXE
 40
0.85
  9
$DIMTP
 40
0.0
  9
$DIMTM
 40
0.0
  9
$DIMTXT
 40
2.5
  9
$DIMCEN
 40
0.09
  9
$DIMTSZ
 40
0.0
  9
$DIMTOL
 70
     0
  9
$DIMLIM
 70
     0
  9
$DIMTIH
 70
     0
  9
$DIMTOH
 70
     0
  9
$DIMSE1
 70
     0
  9
$DIMSE2
 70
     0
  9
$DIMTAD
 70
     3
  9
$DIMZIN
 70
     8
  9
$DIMBLK
  1
Open30
  9
$DIMASO
 70
     1
  9
$DIMSHO
 70
     1
  9
$DIMPOST
  1

  9
$DIMAPOST
  1

  9
$DIMALT
 70
     0
  9
$DIMALTD
 70
     2
  9
$DIMALTF
 40
25.4
  9
$DIMLFAC
 40
1.0
  9
$DIMTOFL
 70
     1
  9
$DIMTVP
 40
0.0
  9
$DIMTIX
 70
     0
  9
$DIMSOXD
 70
     0
  9
$DIMSAH
 70
     0
  9
$DIMBLK1
  1

  9
$DIMBLK2
  1

  9
$DIMSTYLE
  2
STANDARD
  9
$DIMCLRD
 70
   256
  9
$DIMCLRE
 70
   256
  9
$DIMCLRT
 70
     3
  9
$DIMTFAC
 40
1.0
  9
$DIMGAP
 40
0.85
  9
$DIMJUST
 70
     0
  9
$DIMSD1
 70
     0
  9
$DIMSD2
 70
     0
  9
$DIMTOLJ
 70
     1
  9
$DIMTZIN
 70
     0
  9
$DIMALTZ
 70
     0
  9
$DIMALTTZ
 70
     0
  9
$DIMUPT
 70
     0
  9
$DIMDEC
 70
     2
  9
$DIMTDEC
 70
     2
  9
$DIMALTU
 70
     2
  9
$DIMALTTD
 70
     2
  9
$DIMTXSTY
  7
STANDARD
  9
$DIMAUNIT
 70
     0
  9
$DIMADEC
 70
     2
  9
$DIMALTRND
 40
0.0
  9
$DIMAZIN
 70
     2
  9
$DIMDSEP
 70
    46
  9
$DIMATFIT
 70
     3
  9
$DIMFRAC
 70
     0
  9
$DIMLDRBLK
  1
Open30
  9
$DIMLUNIT
 70
     2
  9
$DIMLWD
 70
    -2
  9
$DIMLWE
 70
    -2
  9
$DIMTMOVE
 70
     0
  9
$LUNITS
 70
     2
  9
$LUPREC
 70
     2
  9
$SKETCHINC
 40
1.0
  9
$FILLETRAD
 40
1.0
  9
$AUNITS
 70
     0
  9
$AUPREC
 70
     2
  9
$MENU
  1
.
  9
$ELEVATION
 40
0.0
  9
$PELEVATION
 40
0.0
  9
$THICKNESS
 40
0.0
  9
$LIMCHECK
 70
     0
  9
$CHAMFERA
 40
1.0
  9
$CHAMFERB
 40
1.0
  9
$CHAMFERC
 40
1.75
  9
$CHAMFERD
 40
0.0174532925199433
  9
$SKPOLY
 70
     0
  9
$TDCREATE
 40
2451555.620234838
  9
$TDUCREATE
 40
2451555.245234838
  9
$TDUPDATE
 40
2455846.622878415
  9
$TDUUPDATE
 40
2455846.247878415
  9
$TDINDWG
 40
3.1659586690
  9
$TDUSRTIMER
 40
3.1659586690
  9
$USRTIMER
 70
     1
  9
$ANGBASE
 50
0.0
  9
$ANGDIR
 70
     0
  9
$PDMODE
 70
     0
  9
$PDSIZE
 40
0.0
  9
$PLINEWID
 40
0.0
  9
$SPLFRAME
 70
     0
  9
$SPLINETYPE
 70
     6
  9
$SPLINESEGS
 70
     8
  9
$HANDSEED
  5
EA5E
  9
$SURFTAB1
 70
     6
  9
$SURFTAB2
 70
     6
  9
$SURFTYPE
 70
     6
  9
$SURFU
 70
     6
  9
$SURFV
 70
     6
  9
$UCSBASE
  2

  9
$UCSNAME
  2

  9
$UCSORG
 10
0.0
 20
0.0
 30
0.0
  9
$UCSXDIR
 10
1.0
 20
0.0
 30
0.0
  9
$UCSYDIR
 10
0.0
 20
1.0
 30
0.0
  9
$UCSORTHOREF
  2

  9
$UCSORTHOVIEW
 70
     1
  9
$UCSORGTOP
 10
0.0
 20
0.0
 30
0.0
  9
$UCSORGBOTTOM
 10
0.0
 20
0.0
 30
0.0
  9
$UCSORGLEFT
 10
0.0
 20
0.0
 30
0.0
  9
$UCSORGRIGHT
 10
0.0
 20
0.0
 30
0.0
  9
$UCSORGFRONT
 10
0.0
 20
0.0
 30
0.0
  9
$UCSORGBACK
 10
0.0
 20
0.0
 30
0.0
  9
$PUCSBASE
  2

  9
$PUCSNAME
  2

  9
$PUCSORG
 10
0.0
 20
0.0
 30
0.0
  9
$PUCSXDIR
 10
1.0
 20
0.0
 30
0.0
  9
$PUCSYDIR
 10
0.0
 20
1.0
 30
0.0
  9
$PUCSORTHOREF
  2

  9
$PUCSORTHOVIEW
 70
     0
  9
$PUCSORGTOP
 10
0.0
 20
0.0
 30
0.0
  9
$PUCSORGBOTTOM
 10
0.0
 20
0.0
 30
0.0
  9
$PUCSORGLEFT
 10
0.0
 20
0.0
 30
0.0
  9
$PUCSORGRIGHT
 10
0.0
 20
0.0
 30
0.0
  9
$PUCSORGFRONT
 10
0.0
 20
0.0
 30
0.0
  9
$PUCSORGBACK
 10
0.0
 20
0.0
 30
0.0
  9
$USERI1
 70
     0
  9
$USERI2
 70
     0
  9
$USERI3
 70
     0
  9
$USERI4
 70
     0
  9
$USERI5
 70
     0
  9
$USERR1
 40
0.0
  9
$USERR2
 40
0.0
  9
$USERR3
 40
0.0
  9
$USERR4
 40
0.0
  9
$USERR5
 40
0.0
  9
$WORLDVIEW
 70
     1
  9
$SHADEDGE
 70
     3
  9
$SHADEDIF
 70
    70
  9
$TILEMODE
 70
     1
  9
$MAXACTVP
 70
    48
  9
$PINSBASE
 10
0.0
 20
0.0
 30
0.0
  9
$PLIMCHECK
 70
     0
  9
$PEXTMIN
 10
1.000000000000000E+20
 20
1.000000000000000E+20
 30
1.000000000000000E+20
  9
$PEXTMAX
 10
-1.000000000000000E+20
 20
-1.000000000000000E+20
 30
-1.000000000000000E+20
  9
$PLIMMIN
 10
0.0
 20
0.0
  9
$PLIMMAX
 10
420.0
 20
297.0
  9
$UNITMODE
 70
     0
  9
$VISRETAIN
 70
     1
  9
$PLINEGEN
 70
     0
  9
$PSLTSCALE
 70
     1
  9
$TREEDEPTH
 70
  3020
  9
$CMLSTYLE
  2
STANDARD
  9
$CMLJUST
 70
     0
  9
$CMLSCALE
 40
20.0
  9
$PROXYGRAPHICS
 70
     1
  9
$MEASUREMENT
 70
     1
  9
$CELWEIGHT
370
    -1
  9
$ENDCAPS
280
     0
  9
$JOINSTYLE
280
     0
  9
$LWDISPLAY
290
     0
  9
$INSUNITS
 70
     0
  9
$HYPERLINKBASE
  1

  9
$STYLESHEET
  1
LIN.ctb
  9
$XEDIT
290
     1
  9
$CEPSNTYPE
380
     0
  9
$PSTYLEMODE
290
     1
  9
$FINGERPRINTGUID
  2
{1CF51E8A-A506-11D4-A7D9-AF69F5C20846}
  9
$VERSIONGUID
  2
{62FEAAB3-7FD2-4A51-9140-B3FA142C836B}
  9
$EXTNAMES
290
     1
  9
$PSVPSCALE
 40
0.0
  9
$OLESTARTUP
290
     0
  9
$SORTENTS
280
   127
  9
$INDEXCTL
280
     0
  9
$HIDETEXT
280
     0
  9
$XCLIPFRAME
290
     0
  9
$HALOGAP
280
     0
  9
$OBSCOLOR
 70
   257
  9
$OBSLTYPE
280
     0
  9
$INTERSECTIONDISPLAY
280
     0
  9
$INTERSECTIONCOLOR
 70
   257
  9
$DIMASSOC
280
     1
  9
$PROJECTNAME
  1

  0
ENDSEC
  0
SECTION
  2
CLASSES
  0
CLASS
  1
DICTIONARYVAR
  2
AcDbDictionaryVar
  3
ObjectDBX Classes
 90
        0
 91
        2
280
     0
281
     0
  0
CLASS
  1
SORTENTSTABLE
  2
AcDbSortentsTable
  3
ObjectDBX Classes
 90
        0
 91
        1
280
     0
281
     0
  0
CLASS
  1
ACDBDICTIONARYWDFLT
  2
AcDbDictionaryWithDefault
  3
ObjectDBX Classes
 90
        0
 91
        1
280
     0
281
     0
  0
CLASS
  1
TABLESTYLE
  2
AcDbTableStyle
  3
ObjectDBX Classes
 90
     2047
 91
        1
280
     0
281
     0
  0
ENDSEC
  0
SECTION
  2
TABLES
  0
TABLE
  2
VPORT
  5
8
330
0
100
AcDbSymbolTable
 70
     2
  0
VPORT
  5
EA5D
330
8
100
AcDbSymbolTableRecord
100
AcDbViewportTableRecord
  2
*Active
 70
     0
 10
0.0
 20
0.0
 11
1.0
 21
1.0
 12
245.9711475312993
 22
140.0027625224352
 13
0.0
 23
0.0
 14
10.0
 24
10.0
 15
10.0
 25
10.0
 16
0.0
 26
0.0
 36
1.0
 17
0.0
 27
0.0
 37
0.0
 40
283.4247480802468
 41
2.47104247104247
 42
50.0
 43
0.0
 44
0.0
 50
0.0
 51
0.0
 71
     0
 72
 20000
 73
     1
 74
     1
 75
     0
 76
     0
 77
     0
 78
     0
281
     0
 65
     1
110
0.0
120
0.0
130
0.0
111
1.0
121
0.0
131
0.0
112
0.0
122
1.0
132
0.0
 79
     1
146
0.0
  0
ENDTAB
  0
TABLE
  2
LTYPE
  5
5
330
0
100
AcDbSymbolTable
 70
     7
  0
LTYPE
  5
12
330
5
100
AcDbSymbolTableRecord
100
AcDbLinetypeTableRecord
  2
BYBLOCK
 70
     0
  3

 72
    65
 73
     0
 40
0.0
  0
LTYPE
  5
13
330
5
100
AcDbSymbolTableRecord
100
AcDbLinetypeTableRecord
  2
BYLAYER
 70
     0
  3

 72
    65
 73
     0
 40
0.0
  0
LTYPE
  5
14
330
5
100
AcDbSymbolTableRecord
100
AcDbLinetypeTableRecord
  2
CONTINUOUS
 70
     0
  3
Solid line
 72
    65
 73
     0
 40
0.0
  0
LTYPE
  5
9D
330
5
100
AcDbSymbolTableRecord
100
AcDbLinetypeTableRecord
  2
CENTERX2
 70
     0
  3
Center (2x) ________  __  ________  __  _____
 72
    65
 73
     4
 40
101.6
 49
63.5
 74
     0
 49
-12.7
 74
     0
 49
12.7
 74
     0
 49
-12.7
 74
     0
  0
LTYPE
  5
A1
330
5
100
AcDbSymbolTableRecord
100
AcDbLinetypeTableRecord
  2
DASHED
 70
     0
  3
Dashed __ __ __ __ __ __ __ __ __ __ __ __ __ _
 72
    65
 73
     2
 40
19.05
 49
12.7
 74
     0
 49
-6.349999999999999
 74
     0
  0
LTYPE
  5
A2
330
5
100
AcDbSymbolTableRecord
100
AcDbLinetypeTableRecord
  2
DASHED2
 70
     0
  3
Dashed (.5x) _ _ _ _ _ _ _ _ _ _ _ _ _ _ _ _ _
 72
    65
 73
     2
 40
9.524999999999998
 49
6.349999999999999
 74
     0
 49
-3.174999999999999
 74
     0
  0
LTYPE
  5
A5
330
5
100
AcDbSymbolTableRecord
100
AcDbLinetypeTableRecord
  2
DIVIDE2
 70
     0
  3
Divide (.5x) __..__..__..__..__..__..__..__.._
 72
    65
 73
     6
 40
15.875
 49
6.349999999999999
 74
     0
 49
-3.174999999999999
 74
     0
 49
0.0
 74
     0
 49
-3.174999999999999
 74
     0
 49
0.0
 74
     0
 49
-3.174999999999999
 74
     0
  0
LTYPE
  5
650B
330
5
100
AcDbSymbolTableRecord
100
AcDbLinetypeTableRecord
  2
CENTER
 70
     0
  3
Center ____ _ ____ _ ____ _ ____ _ ____ _ ____
 72
    65
 73
     4
 40
50.8
 49
31.75
 74
     0
 49
-6.349999999999999
 74
     0
 49
6.349999999999999
 74
     0
 49
-6.349999999999999
 74
     0
  0
LTYPE
  5
650C
330
5
100
AcDbSymbolTableRecord
100
AcDbLinetypeTableRecord
  2
HIDDEN
 70
     0
  3
Hidden __ __ __ __ __ __ __ __ __ __ __ __ __ _
 72
    65
 73
     2
 40
9.524999999999998
 49
6.349999999999999
 74
     0
 49
-3.174999999999999
 74
     0
  0
ENDTAB
  0
TABLE
  2
LAYER
  5
2
102
{ACAD_XDICTIONARY
360
7BFE
102
}
330
0
100
AcDbSymbolTable
 70
     9
  0
LAYER
  5
E
330
2
100
AcDbSymbolTableRecord
100
AcDbLayerTableRecord
  2
0
 70
     0
 62
     7
  6
CONTINUOUS
370
    -3
390
5CF2
  0
LAYER
  5
B9
330
2
100
AcDbSymbolTableRecord
100
AcDbLayerTableRecord
  2
dim
 70
     0
 62
     3
  6
CONTINUOUS
370
    -3
390
5CF2
  0
LAYER
  5
F2
330
2
100
AcDbSymbolTableRecord
100
AcDbLayerTableRecord
  2
DEFPOINTS
 70
     0
 62
     4
  6
CONTINUOUS
290
     0
370
    -3
390
5CF2
  0
LAYER
  5
5F8B
330
2
100
AcDbSymbolTableRecord
100
AcDbLayerTableRecord
  2
mark
 70
     0
 62
     6
  6
CONTINUOUS
370
    -3
390
5CF2
  0
LAYER
  5
644E
330
2
100
AcDbSymbolTableRecord
100
AcDbLayerTableRecord
  2
frame
 70
     0
 62
     9
  6
CONTINUOUS
370
    -3
390
5CF2
  0
LAYER
  5
650D
330
2
100
AcDbSymbolTableRecord
100
AcDbLayerTableRecord
  2
center
 70
     0
 62
     1
  6
CENTER
370
    -3
390
5CF2
  0
LAYER
  5
650E
330
2
100
AcDbSymbolTableRecord
100
AcDbLayerTableRecord
  2
bowle
 70
     0
 62
     4
  6
HIDDEN
370
    -3
390
5CF2
  0
LAYER
  5
650F
330
2
100
AcDbSymbolTableRecord
100
AcDbLayerTableRecord
  2
contour
 70
     0
 62
     2
  6
CONTINUOUS
370
    -3
390
5CF2
  0
LAYER
  5
6510
330
2
100
AcDbSymbolTableRecord
100
AcDbLayerTableRecord
  2
section
 70
     0
 62
     5
  6
CONTINUOUS
370
    -3
390
5CF2
  0
ENDTAB
  0
TABLE
  2
STYLE
  5
3
330
0
100
AcDbSymbolTable
 70
     3
  0
STYLE
  5
F
330
3
100
AcDbSymbolTableRecord
100
AcDbTextStyleTableRecord
  2
STANDARD
 70
     0
 40
0.0
 41
1.0
 50
0.0
 71
     0
 42
2.5
  3
txt.shx
  4
bigfont.shx
  0
STYLE
  5
BE
330
3
100
AcDbSymbolTableRecord
100
AcDbTextStyleTableRecord
  2
CN
 70
     0
 40
0.0
 41
1.0
 50
0.0
 71
     0
 42
2.5
  3
txt.shx
  4
gbcbig.shx
  0
STYLE
  5
5DCC
330
3
100
AcDbSymbolTableRecord
100
AcDbTextStyleTableRecord
  2
TW
 70
     0
 40
0.0
 41
1.0
 50
0.0
 71
     0
 42
5.0
  3
txt.shx
  4
chineset.shx
  0
ENDTAB
  0
TABLE
  2
VIEW
  5
6
330
0
100
AcDbSymbolTable
 70
     0
  0
ENDTAB
  0
TABLE
  2
UCS
  5
7
330
0
100
AcDbSymbolTable
 70
     0
  0
ENDTAB
  0
TABLE
  2
APPID
  5
9
330
0
100
AcDbSymbolTable
 70
    12
  0
APPID
  5
10
330
9
100
AcDbSymbolTableRecord
100
AcDbRegAppTableRecord
  2
ACAD
 70
     0
  0
APPID
  5
7C91
330
9
100
AcDbSymbolTableRecord
100
AcDbRegAppTableRecord
  2
ACAD_DSTYLE_DIMEXT_LENGTH
 70
     0
  0
APPID
  5
7C92
330
9
100
AcDbSymbolTableRecord
100
AcDbRegAppTableRecord
  2
ACAD_DSTYLE_DIMEXT_ENABLED
 70
     0
  0
APPID
  5
7C93
330
9
100
AcDbSymbolTableRecord
100
AcDbRegAppTableRecord
  2
ACAD_DSTYLE_DIMJOGGED_JOGANGLE_SYMBOL
 70
     0
  0
APPID
  5
7C94
330
9
100
AcDbSymbolTableRecord
100
AcDbRegAppTableRecord
  2
ACAD_DSTYLE_DIMARC_LENGTH_SYMBOL
 70
     0
  0
APPID
  5
7F1C
330
9
100
AcDbSymbolTableRecord
100
AcDbRegAppTableRecord
  2
ACAD_EXEMPT_FROM_CAD_STANDARDS
 70
     0
  0
APPID
  5
7F49
330
9
100
AcDbSymbolTableRecord
100
AcDbRegAppTableRecord
  2
ACAD_DSTYLE_DIMTEXT_FILL
 70
     0
  0
APPID
  5
7F4C
330
9
100
AcDbSymbolTableRecord
100
AcDbRegAppTableRecord
  2
ACAD_DSTYLE_DIM_LINETYPE
 70
     0
  0
APPID
  5
7F4D
330
9
100
AcDbSymbolTableRecord
100
AcDbRegAppTableRecord
  2
ACAD_DSTYLE_DIM_EXT1_LINETYPE
 70
     0
  0
APPID
  5
7F4E
330
9
100
AcDbSymbolTableRecord
100
AcDbRegAppTableRecord
  2
ACAD_DSTYLE_DIM_EXT2_LINETYPE
 70
     0
  0
APPID
  5
8C73
330
9
100
AcDbSymbolTableRecord
100
AcDbRegAppTableRecord
  2
ACAD_PSEXT
 70
     0
  0
APPID
  5
DF16
330
9
100
AcDbSymbolTableRecord
100
AcDbRegAppTableRecord
  2
PE_URL
 70
     0
  0
ENDTAB
  0
TABLE
  2
DIMSTYLE
  5
A
330
0
100
AcDbSymbolTable
 70
     1
100
AcDbDimStyleTable
 71
     1
340
1D
  0
DIMSTYLE
105
1D
102
{ACAD_REACTORS
330
E828
330
E835
330
E842
330
E85C
330
E87F
330
E88D
330
E8A2
330
E8B4
102
}
330
A
100
AcDbSymbolTableRecord
100
AcDbDimStyleTableRecord
  2
STANDARD
 70
     0
 41
2.5
 42
0.85
 44
0.85
 73
     0
 74
     0
 77
     3
 78
     8
 79
     2
140
2.5
147
0.85
172
     1
176
   256
177
   256
178
     3
179
     2
271
     2
272
     2
340
F
341
7C04
342
7C04
1001
ACAD_DSTYLE_DIMEXT_LENGTH
1070
   378
1040
0.18
1001
ACAD_DSTYLE_DIMEXT_ENABLED
1070
   383
1070
     0
1001
ACAD_DSTYLE_DIMARC_LENGTH_SYMBOL
1070
   379
1070
     0
1001
ACAD_DSTYLE_DIMJOGGED_JOGANGLE_SYMBOL
1070
   384
1040
1.570796326794896
  0
ENDTAB
  0
TABLE
  2
BLOCK_RECORD
  5
1
330
0
100
AcDbSymbolTable
 70
    33
  0
BLOCK_RECORD
  5
18
102
{ACAD_XDICTIONARY
360
45F
102
}
330
1
100
AcDbSymbolTableRecord
100
AcDbBlockTableRecord
  2
*MODEL_SPACE
340
5CF5
  0
BLOCK_RECORD
  5
15
102
{ACAD_XDICTIONARY
360
5D89
102
}
330
1
100
AcDbSymbolTableRecord
100
AcDbBlockTableRecord
  2
*PAPER_SPACE
340
5CF6
  0
BLOCK_RECORD
  5
639D
330
1
100
AcDbSymbolTableRecord
100
AcDbBlockTableRecord
  2
A$C255C26A2
340
0
  0
BLOCK_RECORD
  5
7C04
330
1
100
AcDbSymbolTableRecord
100
AcDbBlockTableRecord
  2
_Open30
340
0
102
{BLKREFS
331
E1DF
331
E1E0
331
E1EA
331
E1EB
331
E1F3
331
E1F4
331
E1FC
331
E1FD
331
E205
331
E206
331
E20E
331
E20F
331
E218
331
E219
331
E220
331
E221
331
E656
331
E657
331
E65F
331
E660
331
E66A
331
E66B
331
E673
331
E674
331
E67C
331
E67D
331
E685
331
E686
331
E68F
331
E690
331
E697
331
E698
331
E997
331
E998
331
E9A0
331
E9A1
331
E9AB
331
E9AC
331
E9B4
331
E9B5
331
E9BD
331
E9BE
331
E9C7
331
E9C8
331
E9CF
331
E9D0
331
E9D6
331
E9D7
102
}
  0
BLOCK_RECORD
  5
7C0A
102
{ACAD_XDICTIONARY
360
7C0B
102
}
330
1
100
AcDbSymbolTableRecord
100
AcDbBlockTableRecord
  2
A
340
0
310
2800000020000000200000000100080000000000000400000000000000000000000000000000000000000000000080000080000000808000800000008000800080800000C0C0C000C0DCC000F0CAA6000020400000206000002080000020A0000020C0000020E00000400000004020000040400000406000004080000040A0
310
000040C0000040E00000600000006020000060400000606000006080000060A0000060C0000060E00000800000008020000080400000806000008080000080A0000080C0000080E00000A0000000A0200000A0400000A0600000A0800000A0A00000A0C00000A0E00000C0000000C0200000C0400000C0600000C0800000C0
310
A00000C0C00000C0E00000E0000000E0200000E0400000E0600000E0800000E0A00000E0C00000E0E00040000000400020004000400040006000400080004000A0004000C0004000E00040200000402020004020400040206000402080004020A0004020C0004020E000404000004040200040404000404060004040800040
310
40A0004040C0004040E00040600000406020004060400040606000406080004060A0004060C0004060E00040800000408020004080400040806000408080004080A0004080C0004080E00040A0000040A0200040A0400040A0600040A0800040A0A00040A0C00040A0E00040C0000040C0200040C0400040C0600040C08000
310
40C0A00040C0C00040C0E00040E0000040E0200040E0400040E0600040E0800040E0A00040E0C00040E0E00080000000800020008000400080006000800080008000A0008000C0008000E00080200000802020008020400080206000802080008020A0008020C0008020E00080400000804020008040400080406000804080
310
008040A0008040C0008040E00080600000806020008060400080606000806080008060A0008060C0008060E00080800000808020008080400080806000808080008080A0008080C0008080E00080A0000080A0200080A0400080A0600080A0800080A0A00080A0C00080A0E00080C0000080C0200080C0400080C0600080C0
310
800080C0A00080C0C00080C0E00080E0000080E0200080E0400080E0600080E0800080E0A00080E0C00080E0E000C0000000C0002000C0004000C0006000C0008000C000A000C000C000C000E000C0200000C0202000C0204000C0206000C0208000C020A000C020C000C020E000C0400000C0402000C0404000C0406000C0
310
408000C040A000C040C000C040E000C0600000C0602000C0604000C0606000C0608000C060A000C060C000C060E000C0800000C0802000C0804000C0806000C0808000C080A000C080C000C080E000C0A00000C0A02000C0A04000C0A06000C0A08000C0A0A000C0A0C000C0A0E000C0C00000C0C02000C0C04000C0C06000
310
C0C08000C0C0A000F0FBFF00A4A0A000808080000000FF0000FF000000FFFF00FF000000FF00FF00FFFF0000FFFFFF0000000000000000000000000000000000000000000000000000000000000000000000000000000000000000000000000000000000000000000000000000000000000000000000000000000000000000
310
00000000000000000000000000000000000000000000000000000000000000000000000000000000000000000000000000000000000000000000000000000000000000000000000000000000000000000000000000000000000000000000000000000000000000000000000000000000000000000000000000000000000000
310
00000000000000000000000000000000000000000000000000000000000000000000000000000000000000000000000000000000000000000000000000000000000000000000000000000000000000000000000000000000000000000000000000000000000000000000000000000000000000000000000000000000000000
310
000000000000FDFDFDFDFDFDFDFDFDFDFDFD0000FD0000000000000000000000000000000000FD0000FA0000000000FA00FD0000FDFD00000000000000000000000000000000FD0000FA0000000000FA00FD0000FDFDFD000000000000000000000000000000FD0000FA0000000000FA00FD0000FDFDFDFD00000000000000
310
00000000000000FD0000FAFAFAFAFAFAFA00FD0000FDFDFDFDFD00000000000000000000000000FD000000FA00000000FA00FD0000FDFDFDFDFDFDFDFDFDFDFDFDFDFDFDFDFDFDFD000000FA000000FA0000FD0000FDFDFDFDFD00000000000000000000000000FD00000000FA0000FA0000FD0000FDFDFDFD000000000000
310
0000000000000000FD00000000FA00FA000000FD0000FDFD00000000000000000000000000000000FD0000000000FAFA000000FD0000FD0000000000000000000000000000000000FD0000000000FA00000000FD0000000000000000000000000000000000000000FDFDFDFDFDFDFDFDFDFDFDFD0000000000000000000000
310
00000000000000000000000000000000000000000000000000000000000000000000000000000000000000000000000000000000000000000000000000000000000000000000000000000000000000000000000000000000000000000000000000000000000000000000000000000000000000000000000000000000000000
310
00000000000000000000000000000000000000000000000000000000000000000000000000000000000000000000000000000000000000000000000000000000000000000000000000000000000000000000000000000000000000000000000000000000000000000000000000000000000000000000000000000000000000
310
0000000000000000000000000000000000000000000000000000000000000000000000000000000000000000000000000000000000000000
  0
BLOCK_RECORD
  5
8E72
102
{ACAD_XDICTIONARY
360
8E73
102
}
330
1
100
AcDbSymbolTableRecord
100
AcDbBlockTableRecord
  2
LS
340
0
310
2800000020000000200000000100080000000000000400000000000000000000000000000000000000000000000080000080000000808000800000008000800080800000C0C0C000C0DCC000F0CAA6000020400000206000002080000020A0000020C0000020E00000400000004020000040400000406000004080000040A0
310
000040C0000040E00000600000006020000060400000606000006080000060A0000060C0000060E00000800000008020000080400000806000008080000080A0000080C0000080E00000A0000000A0200000A0400000A0600000A0800000A0A00000A0C00000A0E00000C0000000C0200000C0400000C0600000C0800000C0
310
A00000C0C00000C0E00000E0000000E0200000E0400000E0600000E0800000E0A00000E0C00000E0E00040000000400020004000400040006000400080004000A0004000C0004000E00040200000402020004020400040206000402080004020A0004020C0004020E000404000004040200040404000404060004040800040
310
40A0004040C0004040E00040600000406020004060400040606000406080004060A0004060C0004060E00040800000408020004080400040806000408080004080A0004080C0004080E00040A0000040A0200040A0400040A0600040A0800040A0A00040A0C00040A0E00040C0000040C0200040C0400040C0600040C08000
310
40C0A00040C0C00040C0E00040E0000040E0200040E0400040E0600040E0800040E0A00040E0C00040E0E00080000000800020008000400080006000800080008000A0008000C0008000E00080200000802020008020400080206000802080008020A0008020C0008020E00080400000804020008040400080406000804080
310
008040A0008040C0008040E00080600000806020008060400080606000806080008060A0008060C0008060E00080800000808020008080400080806000808080008080A0008080C0008080E00080A0000080A0200080A0400080A0600080A0800080A0A00080A0C00080A0E00080C0000080C0200080C0400080C0600080C0
310
800080C0A00080C0C00080C0E00080E0000080E0200080E0400080E0600080E0800080E0A00080E0C00080E0E000C0000000C0002000C0004000C0006000C0008000C000A000C000C000C000E000C0200000C0202000C0204000C0206000C0208000C020A000C020C000C020E000C0400000C0402000C0404000C0406000C0
310
408000C040A000C040C000C040E000C0600000C0602000C0604000C0606000C0608000C060A000C060C000C060E000C0800000C0802000C0804000C0806000C0808000C080A000C080C000C080E000C0A00000C0A02000C0A04000C0A06000C0A08000C0A0A000C0A0C000C0A0E000C0C00000C0C02000C0C04000C0C06000
310
C0C08000C0C0A000F0FBFF00A4A0A000808080000000FF0000FF000000FFFF00FF000000FF00FF00FFFF0000FFFFFF00000000000000000000000000000000000000000000000000000000000000000000000000000000000000FBFBFEFBFEFBFBFEFBFEFBFB00000000000000000000000000000000000000FBFBFBFEFBFE
310
FBFBFEFBFEFBFBFB000000000000000000000000000000000000FB0000FE00FE0000FE00FE0000FB000000000000000000000000000000000000FB0000FE00FE0000FE00FE0000FB000000000000000000000000000000000000FB0000FEFEFEFEFEFEFEFE0000FB000000000000000000000000000000000000FB000000FE
310
FE0000FEFE000000FB000000000000000000000000000000000000FB0000000000FEFE0000000000FB000000000000000000000000000000000000FBFBFBFEFBFBFBFBFBFBFEFBFBFB000000000000000000000000000000000000000000FBFE0000000000FE000000000000000000000000000000000000000000000000FB
310
FBFBFBFBFBFEFB000000000000000000000000000000000000000000000000FBFE00000000FEFB000000000000000000000000000000000000000000000000FBFE00000000FEFB000000000000000000000000000000000000000000000000FBFE00000000FEFB000000000000000000000000000000000000000000000000
310
FBFE00000000FEFB000000000000000000000000000000000000000000000000FBFE00000000FEFB000000000000000000000000000000000000000000000000FBFE00000000FEFB000000000000000000000000000000000000000000000000FBFE00000000FEFB0000000000000000000000000000000000000000000000
310
00FBFE00000000FEFB000000000000000000000000000000000000000000000000FBFE00000000FEFB000000000000000000000000000000000000000000000000FBFE00000000FEFB000000000000000000000000000000000000000000000000FBFE00000000FEFB00000000000000000000000000000000000000000000
310
0000FBFE00000000FEFB000000000000000000000000000000000000000000000000FBFE00000000FEFB000000000000000000000000000000000000000000000000FBFE00000000FEFB000000000000000000000000000000000000000000000000FBFE00000000FEFB000000000000000000000000000000000000000000
310
000000FBFE00000000FEFB000000000000000000000000000000000000000000000000FBFE00000000FEFB000000000000000000000000000000000000000000000000FBFEFBFBFBFBFEFB00000000000000000000000000000000000000000000000000FE00000000FEFB0000000000000000000000000000000000000000
310
0000000000FBFBFBFBFBFB000000000000000000000000000000000000000000000000000000000000000000000000000000000000000000
  0
BLOCK_RECORD
  5
9D15
102
{ACAD_XDICTIONARY
360
9D16
102
}
330
1
100
AcDbSymbolTableRecord
100
AcDbBlockTableRecord
  2
LS2
340
0
310
2800000020000000200000000100080000000000000400000000000000000000000000000000000000000000000080000080000000808000800000008000800080800000C0C0C000C0DCC000F0CAA6000020400000206000002080000020A0000020C0000020E00000400000004020000040400000406000004080000040A0
310
000040C0000040E00000600000006020000060400000606000006080000060A0000060C0000060E00000800000008020000080400000806000008080000080A0000080C0000080E00000A0000000A0200000A0400000A0600000A0800000A0A00000A0C00000A0E00000C0000000C0200000C0400000C0600000C0800000C0
310
A00000C0C00000C0E00000E0000000E0200000E0400000E0600000E0800000E0A00000E0C00000E0E00040000000400020004000400040006000400080004000A0004000C0004000E00040200000402020004020400040206000402080004020A0004020C0004020E000404000004040200040404000404060004040800040
310
40A0004040C0004040E00040600000406020004060400040606000406080004060A0004060C0004060E00040800000408020004080400040806000408080004080A0004080C0004080E00040A0000040A0200040A0400040A0600040A0800040A0A00040A0C00040A0E00040C0000040C0200040C0400040C0600040C08000
310
40C0A00040C0C00040C0E00040E0000040E0200040E0400040E0600040E0800040E0A00040E0C00040E0E00080000000800020008000400080006000800080008000A0008000C0008000E00080200000802020008020400080206000802080008020A0008020C0008020E00080400000804020008040400080406000804080
310
008040A0008040C0008040E00080600000806020008060400080606000806080008060A0008060C0008060E00080800000808020008080400080806000808080008080A0008080C0008080E00080A0000080A0200080A0400080A0600080A0800080A0A00080A0C00080A0E00080C0000080C0200080C0400080C0600080C0
310
800080C0A00080C0C00080C0E00080E0000080E0200080E0400080E0600080E0800080E0A00080E0C00080E0E000C0000000C0002000C0004000C0006000C0008000C000A000C000C000C000E000C0200000C0202000C0204000C0206000C0208000C020A000C020C000C020E000C0400000C0402000C0404000C0406000C0
310
408000C040A000C040C000C040E000C0600000C0602000C0604000C0606000C0608000C060A000C060C000C060E000C0800000C0802000C0804000C0806000C0808000C080A000C080C000C080E000C0A00000C0A02000C0A04000C0A06000C0A08000C0A0A000C0A0C000C0A0E000C0C00000C0C02000C0C04000C0C06000
310
C0C08000C0C0A000F0FBFF00A4A0A000808080000000FF0000FF000000FFFF00FF000000FF00FF00FFFF0000FFFFFF0000000000000000000000000000000000000000000000000000000000000000000000000000000000000000FBFBFEFEFBFBFEFEFBFB00000000000000000000000000000000000000000000FBFBFEFE
310
FBFBFEFEFBFB00000000000000000000000000000000000000000000FB00FEFE0000FEFE00FB00000000000000000000000000000000000000000000FB00FEFE0000FEFE00FB00000000000000000000000000000000000000000000FB00FEFEFEFEFEFE00FB00000000000000000000000000000000000000000000FB0000
310
FEFEFE000000FB00000000000000000000000000000000000000000000FBFBFEFBFBFBFBFEFBFB000000000000000000000000000000000000000000000000FBFBFBFBFBFE0000000000000000000000000000000000000000000000000000FE00000000FE0000000000000000000000000000000000000000000000000000
310
FE00000000FE0000000000000000000000000000000000000000000000000000FE00000000FE0000000000000000000000000000000000000000000000000000FE00000000FE0000000000000000000000000000000000000000000000000000FE00000000FE00000000000000000000000000000000000000000000000000
310
00FE00000000FE0000000000000000000000000000000000000000000000000000FE00000000FE0000000000000000000000000000000000000000000000000000FE00000000FE0000000000000000000000000000000000000000000000000000FE00000000FE000000000000000000000000000000000000000000000000
310
0000FE00000000FE0000000000000000000000000000000000000000000000000000FE00000000FE0000000000000000000000000000000000000000000000000000FE00000000FE0000000000000000000000000000000000000000000000000000FE00000000FE0000000000000000000000000000000000000000000000
310
000000FE00000000FE0000000000000000000000000000000000000000000000000000FE00000000FE0000000000000000000000000000000000000000000000000000FE00000000FE0000000000000000000000000000000000000000000000000000FE00000000FE00000000000000000000000000000000000000000000
310
00000000FE00000000FE0000000000000000000000000000000000000000000000000000FE00000000FE0000000000000000000000000000000000000000000000000000FEFBFBFBFBFE0000000000000000000000000000000000000000000000000000FEFB000000FE000000000000000000000000000000000000000000
310
000000000000FBFBFBFB00000000000000000000000000000000000000000000000000000000000000000000000000000000000000000000
  0
BLOCK_RECORD
  5
A518
102
{ACAD_XDICTIONARY
360
A519
102
}
330
1
100
AcDbSymbolTableRecord
100
AcDbBlockTableRecord
  2
LS3
340
0
310
2800000020000000200000000100080000000000000400000000000000000000000000000000000000000000000080000080000000808000800000008000800080800000C0C0C000C0DCC000F0CAA6000020400000206000002080000020A0000020C0000020E00000400000004020000040400000406000004080000040A0
310
000040C0000040E00000600000006020000060400000606000006080000060A0000060C0000060E00000800000008020000080400000806000008080000080A0000080C0000080E00000A0000000A0200000A0400000A0600000A0800000A0A00000A0C00000A0E00000C0000000C0200000C0400000C0600000C0800000C0
310
A00000C0C00000C0E00000E0000000E0200000E0400000E0600000E0800000E0A00000E0C00000E0E00040000000400020004000400040006000400080004000A0004000C0004000E00040200000402020004020400040206000402080004020A0004020C0004020E000404000004040200040404000404060004040800040
310
40A0004040C0004040E00040600000406020004060400040606000406080004060A0004060C0004060E00040800000408020004080400040806000408080004080A0004080C0004080E00040A0000040A0200040A0400040A0600040A0800040A0A00040A0C00040A0E00040C0000040C0200040C0400040C0600040C08000
310
40C0A00040C0C00040C0E00040E0000040E0200040E0400040E0600040E0800040E0A00040E0C00040E0E00080000000800020008000400080006000800080008000A0008000C0008000E00080200000802020008020400080206000802080008020A0008020C0008020E00080400000804020008040400080406000804080
310
008040A0008040C0008040E00080600000806020008060400080606000806080008060A0008060C0008060E00080800000808020008080400080806000808080008080A0008080C0008080E00080A0000080A0200080A0400080A0600080A0800080A0A00080A0C00080A0E00080C0000080C0200080C0400080C0600080C0
310
800080C0A00080C0C00080C0E00080E0000080E0200080E0400080E0600080E0800080E0A00080E0C00080E0E000C0000000C0002000C0004000C0006000C0008000C000A000C000C000C000E000C0200000C0202000C0204000C0206000C0208000C020A000C020C000C020E000C0400000C0402000C0404000C0406000C0
310
408000C040A000C040C000C040E000C0600000C0602000C0604000C0606000C0608000C060A000C060C000C060E000C0800000C0802000C0804000C0806000C0808000C080A000C080C000C080E000C0A00000C0A02000C0A04000C0A06000C0A08000C0A0A000C0A0C000C0A0E000C0C00000C0C02000C0C04000C0C06000
310
C0C08000C0C0A000F0FBFF00A4A0A000808080000000FF0000FF000000FFFF00FF000000FF00FF00FFFF0000FFFFFF0000000000000000000000000000000000000000000000000000000000000000000000000000000000000000FBFBFEFEFBFBFEFEFBFB00000000000000000000000000000000000000000000FBFBFEFE
310
FBFBFEFEFBFB00000000000000000000000000000000000000000000FB00FEFE0000FEFE00FB00000000000000000000000000000000000000000000FB00FEFEFEFEFEFE00FB00000000000000000000000000000000000000000000FB0000FEFE00FE0000FB00000000000000000000000000000000000000000000FB0000
310
0000FE000000FB00000000000000000000000000000000000000000000FBFBFEFBFBFBFBFBFBFB000000000000000000000000000000000000000000000000FE00000000FE0000000000000000000000000000000000000000000000000000FE00000000FE0000000000000000000000000000000000000000000000000000
310
FE00000000FE0000000000000000000000000000000000000000000000000000FE00000000FE0000000000000000000000000000000000000000000000000000FE00000000FE0000000000000000000000000000000000000000000000000000FE00000000FE00000000000000000000000000000000000000000000000000
310
00FE00000000FE0000000000000000000000000000000000000000000000000000FE00000000FE0000000000000000000000000000000000000000000000000000FE00000000FE0000000000000000000000000000000000000000000000000000FE00000000FE000000000000000000000000000000000000000000000000
310
0000FE00000000FE0000000000000000000000000000000000000000000000000000FE00000000FE0000000000000000000000000000000000000000000000000000FE00000000FE0000000000000000000000000000000000000000000000000000FE00000000FE0000000000000000000000000000000000000000000000
310
000000FE00000000FE0000000000000000000000000000000000000000000000000000FE00000000FE0000000000000000000000000000000000000000000000000000FE00000000FE0000000000000000000000000000000000000000000000000000FE00000000FE00000000000000000000000000000000000000000000
310
00000000FE00000000FE0000000000000000000000000000000000000000000000000000FE00000000FE0000000000000000000000000000000000000000000000000000FE00000000FE0000000000000000000000000000000000000000000000000000FEFBFBFBFBFE000000000000000000000000000000000000000000
310
000000000000FBFBFBFB00000000000000000000000000000000000000000000000000000000000000000000000000000000000000000000
  0
BLOCK_RECORD
  5
A627
102
{ACAD_XDICTIONARY
360
A628
102
}
330
1
100
AcDbSymbolTableRecord
100
AcDbBlockTableRecord
  2
LS4
340
0
310
2800000020000000200000000100080000000000000400000000000000000000000000000000000000000000000080000080000000808000800000008000800080800000C0C0C000C0DCC000F0CAA6000020400000206000002080000020A0000020C0000020E00000400000004020000040400000406000004080000040A0
310
000040C0000040E00000600000006020000060400000606000006080000060A0000060C0000060E00000800000008020000080400000806000008080000080A0000080C0000080E00000A0000000A0200000A0400000A0600000A0800000A0A00000A0C00000A0E00000C0000000C0200000C0400000C0600000C0800000C0
310
A00000C0C00000C0E00000E0000000E0200000E0400000E0600000E0800000E0A00000E0C00000E0E00040000000400020004000400040006000400080004000A0004000C0004000E00040200000402020004020400040206000402080004020A0004020C0004020E000404000004040200040404000404060004040800040
310
40A0004040C0004040E00040600000406020004060400040606000406080004060A0004060C0004060E00040800000408020004080400040806000408080004080A0004080C0004080E00040A0000040A0200040A0400040A0600040A0800040A0A00040A0C00040A0E00040C0000040C0200040C0400040C0600040C08000
310
40C0A00040C0C00040C0E00040E0000040E0200040E0400040E0600040E0800040E0A00040E0C00040E0E00080000000800020008000400080006000800080008000A0008000C0008000E00080200000802020008020400080206000802080008020A0008020C0008020E00080400000804020008040400080406000804080
310
008040A0008040C0008040E00080600000806020008060400080606000806080008060A0008060C0008060E00080800000808020008080400080806000808080008080A0008080C0008080E00080A0000080A0200080A0400080A0600080A0800080A0A00080A0C00080A0E00080C0000080C0200080C0400080C0600080C0
310
800080C0A00080C0C00080C0E00080E0000080E0200080E0400080E0600080E0800080E0A00080E0C00080E0E000C0000000C0002000C0004000C0006000C0008000C000A000C000C000C000E000C0200000C0202000C0204000C0206000C0208000C020A000C020C000C020E000C0400000C0402000C0404000C0406000C0
310
408000C040A000C040C000C040E000C0600000C0602000C0604000C0606000C0608000C060A000C060C000C060E000C0800000C0802000C0804000C0806000C0808000C080A000C080C000C080E000C0A00000C0A02000C0A04000C0A06000C0A08000C0A0A000C0A0C000C0A0E000C0C00000C0C02000C0C04000C0C06000
310
C0C08000C0C0A000F0FBFF00A4A0A000808080000000FF0000FF000000FFFF00FF000000FF00FF00FFFF0000FFFFFF0000000000000000000000000000000000000000000000000000000000000000000000000000000000000000FBFBFEFEFBFBFEFEFBFB000000000000000000000000000000000000000000FBFBFBFEFE
310
FBFBFEFEFBFBFB0000000000000000000000000000000000000000FB0000FEFE0000FEFE0000FB0000000000000000000000000000000000000000FB0000FEFEFEFEFEFE0000FB0000000000000000000000000000000000000000FB000000FEFE00FE000000FB0000000000000000000000000000000000000000FB000000
310
0000FE00000000FB0000000000000000000000000000000000000000FB00000000000000000000FB0000000000000000000000000000000000000000FBFBFEFEFBFBFBFBFBFBFBFB00000000000000000000000000000000000000000000FBFE00000000FEFB000000000000000000000000000000000000000000000000FB
310
FE00000000FEFB000000000000000000000000000000000000000000000000FBFE00000000FEFB000000000000000000000000000000000000000000000000FBFE00000000FEFB000000000000000000000000000000000000000000000000FBFE00000000FEFB000000000000000000000000000000000000000000000000
310
FBFE00000000FEFB000000000000000000000000000000000000000000000000FBFE00000000FEFB000000000000000000000000000000000000000000000000FBFE00000000FEFB000000000000000000000000000000000000000000000000FBFE00000000FEFB0000000000000000000000000000000000000000000000
310
00FBFE00000000FEFB000000000000000000000000000000000000000000000000FBFE00000000FEFB000000000000000000000000000000000000000000000000FBFE00000000FEFB000000000000000000000000000000000000000000000000FBFE00000000FEFB00000000000000000000000000000000000000000000
310
0000FBFE00000000FEFB000000000000000000000000000000000000000000000000FBFE00000000FEFB000000000000000000000000000000000000000000000000FBFE00000000FEFB000000000000000000000000000000000000000000000000FBFE00000000FEFB000000000000000000000000000000000000000000
310
000000FBFE00000000FEFB000000000000000000000000000000000000000000000000FBFE00000000FEFB000000000000000000000000000000000000000000000000FBFEFBFBFBFBFEFB00000000000000000000000000000000000000000000000000FE00000000FE000000000000000000000000000000000000000000
310
000000000000FBFBFBFB00000000000000000000000000000000000000000000000000000000000000000000000000000000000000000000
  0
BLOCK_RECORD
  5
DEF7
102
{ACAD_XDICTIONARY
360
DEF8
102
}
330
1
100
AcDbSymbolTableRecord
100
AcDbBlockTableRecord
  2
LS5
340
0
310
2800000020000000200000000100080000000000000400000000000000000000000000000000000000000000000080000080000000808000800000008000800080800000C0C0C000C0DCC000F0CAA6000020400000206000002080000020A0000020C0000020E00000400000004020000040400000406000004080000040A0
310
000040C0000040E00000600000006020000060400000606000006080000060A0000060C0000060E00000800000008020000080400000806000008080000080A0000080C0000080E00000A0000000A0200000A0400000A0600000A0800000A0A00000A0C00000A0E00000C0000000C0200000C0400000C0600000C0800000C0
310
A00000C0C00000C0E00000E0000000E0200000E0400000E0600000E0800000E0A00000E0C00000E0E00040000000400020004000400040006000400080004000A0004000C0004000E00040200000402020004020400040206000402080004020A0004020C0004020E000404000004040200040404000404060004040800040
310
40A0004040C0004040E00040600000406020004060400040606000406080004060A0004060C0004060E00040800000408020004080400040806000408080004080A0004080C0004080E00040A0000040A0200040A0400040A0600040A0800040A0A00040A0C00040A0E00040C0000040C0200040C0400040C0600040C08000
310
40C0A00040C0C00040C0E00040E0000040E0200040E0400040E0600040E0800040E0A00040E0C00040E0E00080000000800020008000400080006000800080008000A0008000C0008000E00080200000802020008020400080206000802080008020A0008020C0008020E00080400000804020008040400080406000804080
310
008040A0008040C0008040E00080600000806020008060400080606000806080008060A0008060C0008060E00080800000808020008080400080806000808080008080A0008080C0008080E00080A0000080A0200080A0400080A0600080A0800080A0A00080A0C00080A0E00080C0000080C0200080C0400080C0600080C0
310
800080C0A00080C0C00080C0E00080E0000080E0200080E0400080E0600080E0800080E0A00080E0C00080E0E000C0000000C0002000C0004000C0006000C0008000C000A000C000C000C000E000C0200000C0202000C0204000C0206000C0208000C020A000C020C000C020E000C0400000C0402000C0404000C0406000C0
310
408000C040A000C040C000C040E000C0600000C0602000C0604000C0606000C0608000C060A000C060C000C060E000C0800000C0802000C0804000C0806000C0808000C080A000C080C000C080E000C0A00000C0A02000C0A04000C0A06000C0A08000C0A0A000C0A0C000C0A0E000C0C00000C0C02000C0C04000C0C06000
310
C0C08000C0C0A000F0FBFF00A4A0A000808080000000FF0000FF000000FFFF00FF000000FF00FF00FFFF0000FFFFFF0000000000000000000000000000000000000000000000000000000000000000000000000000000000000000FBFBFEFEFBFBFEFEFBFB00000000000000000000000000000000000000000000FBFBFEFE
310
FBFBFEFEFBFB00000000000000000000000000000000000000000000FB00FEFE0000FEFE00FB00000000000000000000000000000000000000000000FB00FEFEFEFEFEFE00FB00000000000000000000000000000000000000000000FB0000FE00FEFE0000FB00000000000000000000000000000000000000000000FB0000
310
00FE00000000FB00000000000000000000000000000000000000000000FBFBFEFBFBFBFBFEFBFB000000000000000000000000000000000000000000000000FEFBFBFBFBFB0000000000000000000000000000000000000000000000000000FE00000000FE0000000000000000000000000000000000000000000000000000
310
FE00000000FE0000000000000000000000000000000000000000000000000000FE00000000FE0000000000000000000000000000000000000000000000000000FE00000000FE0000000000000000000000000000000000000000000000000000FE00000000FE00000000000000000000000000000000000000000000000000
310
00FE00000000FE0000000000000000000000000000000000000000000000000000FE00000000FE0000000000000000000000000000000000000000000000000000FE00000000FE0000000000000000000000000000000000000000000000000000FE00000000FE000000000000000000000000000000000000000000000000
310
0000FE00000000FE0000000000000000000000000000000000000000000000000000FE00000000FE0000000000000000000000000000000000000000000000000000FE00000000FE0000000000000000000000000000000000000000000000000000FE00000000FE0000000000000000000000000000000000000000000000
310
000000FE00000000FE0000000000000000000000000000000000000000000000000000FE00000000FE0000000000000000000000000000000000000000000000000000FE00000000FE0000000000000000000000000000000000000000000000000000FE00000000FE00000000000000000000000000000000000000000000
310
00000000FE00000000FE0000000000000000000000000000000000000000000000000000FE00000000FE0000000000000000000000000000000000000000000000000000FE00000000FE0000000000000000000000000000000000000000000000000000FEFBFBFBFBFE000000000000000000000000000000000000000000
310
000000000000FBFBFBFB00000000000000000000000000000000000000000000000000000000000000000000000000000000000000000000
1001
PE_URL
1000
S5
1002
{
1000
S5
1002
{
1071
2081726645
1002
}
1002
}
  0
BLOCK_RECORD
  5
E6A0
102
{ACAD_XDICTIONARY
360
E6A1
102
}
330
1
100
AcDbSymbolTableRecord
100
AcDbBlockTableRecord
  2
ls6
340
0
310
2800000020000000200000000100080000000000000400000000000000000000000000000000000000000000000080000080000000808000800000008000800080800000C0C0C000C0DCC000F0CAA6000020400000206000002080000020A0000020C0000020E00000400000004020000040400000406000004080000040A0
310
000040C0000040E00000600000006020000060400000606000006080000060A0000060C0000060E00000800000008020000080400000806000008080000080A0000080C0000080E00000A0000000A0200000A0400000A0600000A0800000A0A00000A0C00000A0E00000C0000000C0200000C0400000C0600000C0800000C0
310
A00000C0C00000C0E00000E0000000E0200000E0400000E0600000E0800000E0A00000E0C00000E0E00040000000400020004000400040006000400080004000A0004000C0004000E00040200000402020004020400040206000402080004020A0004020C0004020E000404000004040200040404000404060004040800040
310
40A0004040C0004040E00040600000406020004060400040606000406080004060A0004060C0004060E00040800000408020004080400040806000408080004080A0004080C0004080E00040A0000040A0200040A0400040A0600040A0800040A0A00040A0C00040A0E00040C0000040C0200040C0400040C0600040C08000
310
40C0A00040C0C00040C0E00040E0000040E0200040E0400040E0600040E0800040E0A00040E0C00040E0E00080000000800020008000400080006000800080008000A0008000C0008000E00080200000802020008020400080206000802080008020A0008020C0008020E00080400000804020008040400080406000804080
310
008040A0008040C0008040E00080600000806020008060400080606000806080008060A0008060C0008060E00080800000808020008080400080806000808080008080A0008080C0008080E00080A0000080A0200080A0400080A0600080A0800080A0A00080A0C00080A0E00080C0000080C0200080C0400080C0600080C0
310
800080C0A00080C0C00080C0E00080E0000080E0200080E0400080E0600080E0800080E0A00080E0C00080E0E000C0000000C0002000C0004000C0006000C0008000C000A000C000C000C000E000C0200000C0202000C0204000C0206000C0208000C020A000C020C000C020E000C0400000C0402000C0404000C0406000C0
310
408000C040A000C040C000C040E000C0600000C0602000C0604000C0606000C0608000C060A000C060C000C060E000C0800000C0802000C0804000C0806000C0808000C080A000C080C000C080E000C0A00000C0A02000C0A04000C0A06000C0A08000C0A0A000C0A0C000C0A0E000C0C00000C0C02000C0C04000C0C06000
310
C0C08000C0C0A000F0FBFF00A4A0A000808080000000FF0000FF000000FFFF00FF000000FF00FF00FFFF0000FFFFFF0000000000000000000000000000000000000000000000000000000000000000000000000000000000000000FBFEFBFEFBFBFEFBFEFB000000000000000000000000000000000000000000FBFBFEFBFE
310
FBFBFEFBFEFBFB0000000000000000000000000000000000000000FB00FE00FE0000FE00FE00FB0000000000000000000000000000000000000000FB00FE00FE0000FE00FE00FB0000000000000000000000000000000000000000FB00FEFEFEFEFEFEFEFE00FB0000000000000000000000000000000000000000FB000000
310
FEFEFEFE000000FB0000000000000000000000000000000000000000FB00000000000000000000FB0000000000000000000000000000000000000000FBFBFBFEFBFBFBFBFEFBFBFB00000000000000000000000000000000000000000000FBFE00000000FEFB000000000000000000000000000000000000000000000000FB
310
FE00000000FEFB000000000000000000000000000000000000000000000000FBFE00000000FEFB000000000000000000000000000000000000000000000000FBFE00000000FEFB000000000000000000000000000000000000000000000000FBFE00000000FEFB000000000000000000000000000000000000000000000000
310
FBFE00000000FEFB000000000000000000000000000000000000000000000000FBFE00000000FEFB000000000000000000000000000000000000000000000000FBFE00000000FEFB000000000000000000000000000000000000000000000000FBFE00000000FEFB0000000000000000000000000000000000000000000000
310
00FBFE00000000FEFB000000000000000000000000000000000000000000000000FBFE00000000FEFB000000000000000000000000000000000000000000000000FBFE00000000FEFB000000000000000000000000000000000000000000000000FBFE00000000FEFB00000000000000000000000000000000000000000000
310
0000FBFE00000000FEFB000000000000000000000000000000000000000000000000FBFE00000000FEFB000000000000000000000000000000000000000000000000FBFE00000000FEFB000000000000000000000000000000000000000000000000FBFE00000000FEFB000000000000000000000000000000000000000000
310
000000FBFE00000000FEFB000000000000000000000000000000000000000000000000FBFE00000000FEFB000000000000000000000000000000000000000000000000FBFE00000000FEFB000000000000000000000000000000000000000000000000FBFEFBFBFBFBFEFB0000000000000000000000000000000000000000
310
0000000000FBFBFBFBFBFB000000000000000000000000000000000000000000000000000000000000000000000000000000000000000000
102
{BLKREFS
331
E7AB
102
}
  0
BLOCK_RECORD
  5
E829
330
1
100
AcDbSymbolTableRecord
100
AcDbBlockTableRecord
  2
*D25
340
0
  0
BLOCK_RECORD
  5
E836
330
1
100
AcDbSymbolTableRecord
100
AcDbBlockTableRecord
  2
*D26
340
0
  0
BLOCK_RECORD
  5
E843
330
1
100
AcDbSymbolTableRecord
100
AcDbBlockTableRecord
  2
*D27
340
0
  0
BLOCK_RECORD
  5
E85D
330
1
100
AcDbSymbolTableRecord
100
AcDbBlockTableRecord
  2
*D28
340
0
  0
BLOCK_RECORD
  5
E880
330
1
100
AcDbSymbolTableRecord
100
AcDbBlockTableRecord
  2
*D29
340
0
  0
BLOCK_RECORD
  5
E88E
330
1
100
AcDbSymbolTableRecord
100
AcDbBlockTableRecord
  2
*D30
340
0
  0
BLOCK_RECORD
  5
E8A3
330
1
100
AcDbSymbolTableRecord
100
AcDbBlockTableRecord
  2
*D31
340
0
  0
BLOCK_RECORD
  5
E8B5
330
1
100
AcDbSymbolTableRecord
100
AcDbBlockTableRecord
  2
*D32
340
0
  0
ENDTAB
  0
ENDSEC
  0
SECTION
  2
BLOCKS
  0
BLOCK
  5
19
330
18
100
AcDbEntity
  8
0
100
AcDbBlockBegin
  2
*MODEL_SPACE
 70
     0
 10
0.0
 20
0.0
 30
0.0
  3
*MODEL_SPACE
  1

  0
ENDBLK
  5
1A
330
18
100
AcDbEntity
  8
0
100
AcDbBlockEnd
  0
BLOCK
  5
16
330
15
100
AcDbEntity
 67
     1
  8
0
100
AcDbBlockBegin
  2
*PAPER_SPACE
 70
     0
 10
0.0
 20
0.0
 30
0.0
  3
*PAPER_SPACE
  1

  0
ENDBLK
  5
17
330
15
100
AcDbEntity
 67
     1
  8
0
100
AcDbBlockEnd
  0
BLOCK
  5
63A1
330
639D
100
AcDbEntity
  8
0
100
AcDbBlockBegin
  2
A$C255C26A2
 70
     0
 10
0.0
 20
0.0
 30
0.0
  3
A$C255C26A2
  1

  0
LWPOLYLINE
  5
639E
330
639D
100
AcDbEntity
  8
0
100
AcDbPolyline
 90
        3
 70
     1
 43
0.0
 10
7.014806023851633
 20
0.0000006939811783
 10
5.611844869720698
 20
2.430000693981241
 10
8.417767177982568
 20
2.430000693981241
  0
LWPOLYLINE
  5
639F
330
639D
100
AcDbEntity
  8
0
100
AcDbPolyline
 90
        3
 70
     1
 43
0.0
 10
4.20888371558999
 20
0.0000006939811783
 10
2.805922561459283
 20
2.430000693981241
 10
5.611844869720698
 20
2.430000693981241
  0
LWPOLYLINE
  5
63A0
330
639D
100
AcDbEntity
  8
0
100
AcDbPolyline
 90
        3
 70
     1
 43
0.0
 10
1.402961407328348
 20
0.0000006939811783
 10
0.0000002531974133
 20
2.430000693981241
 10
2.805922561459283
 20
2.430000693981241
  0
ENDBLK
  5
63A2
330
639D
100
AcDbEntity
  8
0
100
AcDbBlockEnd
  0
BLOCK
  5
7C05
330
7C04
100
AcDbEntity
  8
0
100
AcDbBlockBegin
  2
_Open30
 70
     0
 10
0.0
 20
0.0
 30
0.0
  3
_Open30
  1

  0
LINE
  5
7C06
330
7C04
100
AcDbEntity
  8
0
  6
ByBlock
 62
     0
370
    -2
100
AcDbLine
 10
-1.0
 20
0.26794919
 30
0.0
 11
0.0
 21
0.0
 31
0.0
  0
LINE
  5
7C07
330
7C04
100
AcDbEntity
  8
0
  6
ByBlock
 62
     0
370
    -2
100
AcDbLine
 10
0.0
 20
0.0
 30
0.0
 11
-1.0
 21
-0.26794919
 31
0.0
  0
LINE
  5
7C08
330
7C04
100
AcDbEntity
  8
0
  6
ByBlock
 62
     0
370
    -2
100
AcDbLine
 10
0.0
 20
0.0
 30
0.0
 11
-1.0
 21
0.0
 31
0.0
  0
ENDBLK
  5
7C09
330
7C04
100
AcDbEntity
  8
0
100
AcDbBlockEnd
  0
BLOCK
  5
7C0E
330
7C0A
100
AcDbEntity
  8
0
100
AcDbBlockBegin
  2
A
 70
     0
 10
0.0
 20
0.0
 30
0.0
  3
A
  1

  0
MTEXT
  5
7C0F
330
7C0A
100
AcDbEntity
  8
mark
 62
     3
100
AcDbMText
 10
10.65641897020822
 20
-5.596245361730467
 30
0.0
 40
2.5
 41
0.0
 71
     5
 72
     1
  1
A
 73
     1
 44
1.0
1001
ACAD
1000
ACAD_MTEXT_DEFINED_HEIGHT_BEGIN
1070
    46
1040
0.0
1000
ACAD_MTEXT_DEFINED_HEIGHT_END
  0
LWPOLYLINE
  5
7C10
330
7C0A
100
AcDbEntity
  8
mark
100
AcDbPolyline
 90
        4
 70
     1
 43
0.0
 10
9.07926800414657
 20
-7.141145101782569
 10
12.07926800414657
 20
-7.141145101782569
 10
12.07926800414657
 20
-4.141145101782569
 10
9.07926800414657
 20
-4.141145101782569
  0
HATCH
  5
7C11
330
7C0A
100
AcDbEntity
  8
mark
100
AcDbHatch
 10
0.0
 20
0.0
 30
0.0
210
0.0
220
0.0
230
1.0
  2
SOLID
 70
     1
 71
     0
 91
        1
 92
        7
 72
     0
 73
     1
 93
        3
 10
5.32926800414657
 20
-5.641145101782569
 10
4.07926800414657
 20
-4.391145101782541
 10
4.07926800414657
 20
-6.891145101782541
 97
        0
 75
     0
 76
     1
 47
0.0398277943677868
 98
        1
 10
4.589689734415287
 20
-5.732163331855076
450
        0
451
        0
460
0.0
461
0.0
452
        1
462
1.0
453
        2
463
0.0
 63
     5
421
      255
463
1.0
 63
     7
421
 16777215
470
LINEAR
1001
ACAD
1010
0.0
1020
0.0
1030
0.0
  0
LINE
  5
7C12
330
7C0A
100
AcDbEntity
  8
mark
100
AcDbLine
 10
5.32926800414657
 20
-5.641145101782569
 30
0.0
 11
9.07926800414657
 21
-5.641145101782569
 31
0.0
  0
LINE
  5
7C13
330
7C0A
100
AcDbEntity
  8
mark
100
AcDbLine
 10
5.32926800414657
 20
-5.641145101782569
 30
0.0
 11
4.07926800414657
 21
-4.391145101782569
 31
0.0
  0
LINE
  5
7C14
330
7C0A
100
AcDbEntity
  8
mark
100
AcDbLine
 10
5.32926800414657
 20
-5.641145101782569
 30
0.0
 11
4.07926800414657
 21
-6.891145101782569
 31
0.0
  0
ENDBLK
  5
7C15
330
7C0A
100
AcDbEntity
  8
0
100
AcDbBlockEnd
  0
BLOCK
  5
8E76
330
8E72
100
AcDbEntity
  8
0
100
AcDbBlockBegin
  2
LS
 70
     0
 10
0.0
 20
0.0
 30
0.0
  3
LS
  1

  0
LINE
  5
8E78
330
8E72
100
AcDbEntity
  8
contour
100
AcDbLine
 10
310.7457309951603
 20
181.0160360664828
 30
0.0
 11
310.7457309951603
 21
184.7160360664827
 31
0.0
  0
LINE
  5
8E79
330
8E72
100
AcDbEntity
  8
contour
100
AcDbLine
 10
310.7457309951603
 20
184.7160360664827
 30
0.0
 11
303.7457309951603
 21
184.7160360664827
 31
0.0
  0
LINE
  5
8E7A
330
8E72
100
AcDbEntity
  8
contour
100
AcDbLine
 10
308.4457309951603
 20
196.7160360664827
 30
0.0
 11
306.0457309951603
 21
196.7160360664826
 31
0.0
  0
LINE
  5
8E7B
330
8E72
100
AcDbEntity
  8
contour
100
AcDbLine
 10
309.2457309951603
 20
195.9160360664826
 30
0.0
 11
308.4457309951603
 21
196.7160360664826
 31
0.0
  0
LINE
  5
8E7C
330
8E72
100
AcDbEntity
  8
contour
100
AcDbLine
 10
303.7457309951603
 20
184.7160360664827
 30
0.0
 11
303.7457309951603
 21
181.0160360664827
 31
0.0
  0
LINE
  5
8E7D
330
8E72
100
AcDbEntity
  8
contour
100
AcDbLine
 10
304.0457309951603
 20
180.7160360664827
 30
0.0
 11
310.4457309951603
 21
180.7160360664828
 31
0.0
  0
LINE
  5
8E7E
330
8E72
100
AcDbEntity
  8
contour
100
AcDbLine
 10
310.7457309951603
 20
181.0160360664828
 30
0.0
 11
310.4457309951603
 21
180.7160360664828
 31
0.0
  0
LINE
  5
8E7F
330
8E72
100
AcDbEntity
  8
contour
100
AcDbLine
 10
303.7457309951603
 20
181.0160360664827
 30
0.0
 11
304.0457309951603
 21
180.7160360664827
 31
0.0
  0
LINE
  5
8E80
330
8E72
100
AcDbEntity
  8
contour
100
AcDbLine
 10
309.2457309951603
 20
184.7160360664826
 30
0.0
 11
309.2457309951603
 21
195.9160360664827
 31
0.0
  0
LINE
  5
8E81
330
8E72
100
AcDbEntity
  8
contour
100
AcDbLine
 10
305.2457309951603
 20
184.7160360664826
 30
0.0
 11
305.2457309951603
 21
195.9160360664827
 31
0.0
  0
LINE
  5
8E82
330
8E72
100
AcDbEntity
  8
contour
100
AcDbLine
 10
306.0457309951603
 20
196.7160360664826
 30
0.0
 11
305.2457309951603
 21
195.9160360664826
 31
0.0
  0
LINE
  5
8E83
330
8E72
100
AcDbEntity
  8
contour
100
AcDbLine
 10
309.2457309951603
 20
195.9160360664827
 30
0.0
 11
305.2457309951603
 21
195.9160360664827
 31
0.0
  0
LINE
  5
8E84
330
8E72
100
AcDbEntity
  8
contour
 62
     4
100
AcDbLine
 10
308.8667309951603
 20
185.3724833225513
 30
0.0
 11
308.8667309951603
 21
196.2950360664826
 31
0.0
  0
LINE
  5
8E85
330
8E72
100
AcDbEntity
  8
contour
 62
     4
100
AcDbLine
 10
305.6247309951603
 20
185.3724833225513
 30
0.0
 11
305.6247309951603
 21
196.2950360664826
 31
0.0
  0
LINE
  5
8E86
330
8E72
100
AcDbEntity
  8
contour
100
AcDbLine
 10
310.7457309951603
 20
181.0160360664828
 30
0.0
 11
303.7457309951603
 21
181.0160360664828
 31
0.0
  0
LINE
  5
8E87
330
8E72
100
AcDbEntity
  8
bowle
 48
0.1
100
AcDbLine
 10
308.1117563989447
 20
180.7160360664827
 30
0.0
 11
308.1117563989447
 21
182.9160360664827
 31
0.0
  0
LINE
  5
8E88
330
8E72
100
AcDbEntity
  8
bowle
 48
0.1
100
AcDbLine
 10
308.9777818027293
 20
180.7160360664827
 30
0.0
 11
308.9777818027293
 21
182.9160360664827
 31
0.0
  0
LINE
  5
8E89
330
8E72
100
AcDbEntity
  8
bowle
 48
0.1
100
AcDbLine
 10
306.3797055913759
 20
180.7160360664827
 30
0.0
 11
306.3797055913759
 21
182.9160360664826
 31
0.0
  0
LINE
  5
8E8A
330
8E72
100
AcDbEntity
  8
bowle
 48
0.1
100
AcDbLine
 10
305.5136801875914
 20
180.7160360664827
 30
0.0
 11
305.5136801875914
 21
182.9160360664826
 31
0.0
  0
LINE
  5
8E8B
330
8E72
100
AcDbEntity
  8
bowle
 48
0.1
100
AcDbLine
 10
308.9777818027292
 20
182.9160360664827
 30
0.0
 11
305.5136801875914
 21
182.9160360664827
 31
0.0
  0
LINE
  5
8E8C
330
8E72
100
AcDbEntity
  8
bowle
 48
0.1
100
AcDbLine
 10
305.5136801875914
 20
182.9160360664826
 30
0.0
 11
307.2457309951603
 21
183.9160360664826
 31
0.0
  0
LINE
  5
8E8D
330
8E72
100
AcDbEntity
  8
bowle
 48
0.1
100
AcDbLine
 10
308.9777818027292
 20
182.9160360664826
 30
0.0
 11
307.2457309951603
 21
183.9160360664826
 31
0.0
  0
LINE
  5
8E8E
330
8E72
100
AcDbEntity
  8
contour
 62
     4
100
AcDbLine
 10
305.6247309951603
 20
185.3724833225513
 30
0.0
 11
305.2457309951603
 21
184.7160360664826
 31
0.0
  0
LINE
  5
8E8F
330
8E72
100
AcDbEntity
  8
contour
100
AcDbLine
 10
305.2457309951603
 20
185.3724833225513
 30
0.0
 11
309.2457309951603
 21
185.3724833225513
 31
0.0
  0
LINE
  5
8E90
330
8E72
100
AcDbEntity
  8
contour
 62
     4
100
AcDbLine
 10
309.2457309951603
 20
184.7160360664827
 30
0.0
 11
308.8667309951603
 21
185.3724833225513
 31
0.0
  0
ENDBLK
  5
8E77
330
8E72
100
AcDbEntity
  8
0
100
AcDbBlockEnd
  0
BLOCK
  5
9D19
330
9D15
100
AcDbEntity
  8
0
100
AcDbBlockBegin
  2
LS2
 70
     0
 10
0.0
 20
0.0
 30
0.0
  3
LS2
  1

  0
LINE
  5
9D1B
330
9D15
100
AcDbEntity
  8
contour
100
AcDbLine
 10
143.2797554375081
 20
0.0655328110734672
 30
0.0
 11
143.2797554375081
 21
3.765532811073398
 31
0.0
  0
LINE
  5
9D1C
330
9D15
100
AcDbEntity
  8
contour
100
AcDbLine
 10
143.2797554375081
 20
3.765532811073398
 30
0.0
 11
136.2797554375081
 21
3.765532811073398
 31
0.0
  0
LINE
  5
9D1D
330
9D15
100
AcDbEntity
  8
contour
100
AcDbLine
 10
140.979755437508
 20
19.7655328110734
 30
0.0
 11
138.5797554375081
 21
19.76553281107334
 31
0.0
  0
LINE
  5
9D1E
330
9D15
100
AcDbEntity
  8
contour
100
AcDbLine
 10
141.7797554375081
 20
18.96553281107333
 30
0.0
 11
140.9797554375081
 21
19.76553281107334
 31
0.0
  0
LINE
  5
9D1F
330
9D15
100
AcDbEntity
  8
contour
100
AcDbLine
 10
136.2797554375081
 20
3.765532811073398
 30
0.0
 11
136.2797554375081
 21
0.0655328110733535
 31
0.0
  0
LINE
  5
9D20
330
9D15
100
AcDbEntity
  8
contour
100
AcDbLine
 10
136.5797554375081
 20
-0.2344671889266578
 30
0.0
 11
142.9797554375081
 21
-0.2344671889265442
 31
0.0
  0
LINE
  5
9D21
330
9D15
100
AcDbEntity
  8
contour
100
AcDbLine
 10
143.2797554375081
 20
0.0655328110734672
 30
0.0
 11
142.9797554375081
 21
-0.2344671889265442
 31
0.0
  0
LINE
  5
9D22
330
9D15
100
AcDbEntity
  8
contour
100
AcDbLine
 10
136.2797554375081
 20
0.0655328110733535
 30
0.0
 11
136.5797554375081
 21
-0.2344671889266578
 31
0.0
  0
LINE
  5
9D23
330
9D15
100
AcDbEntity
  8
contour
100
AcDbLine
 10
141.7797554375081
 20
3.765532811073342
 30
0.0
 11
141.7797554375081
 21
18.96553281107339
 31
0.0
  0
LINE
  5
9D24
330
9D15
100
AcDbEntity
  8
contour
100
AcDbLine
 10
137.7797554375081
 20
3.765532811073342
 30
0.0
 11
137.7797554375081
 21
18.96553281107339
 31
0.0
  0
LINE
  5
9D25
330
9D15
100
AcDbEntity
  8
contour
100
AcDbLine
 10
138.5797554375081
 20
19.76553281107334
 30
0.0
 11
137.7797554375081
 21
18.96553281107333
 31
0.0
  0
LINE
  5
9D26
330
9D15
100
AcDbEntity
  8
contour
100
AcDbLine
 10
141.7797554375081
 20
18.96553281107339
 30
0.0
 11
137.7797554375081
 21
18.96553281107339
 31
0.0
  0
LINE
  5
9D27
330
9D15
100
AcDbEntity
  8
contour
 62
     4
100
AcDbLine
 10
141.400755437508
 20
4.42198006714193
 30
0.0
 11
141.4007554375081
 21
19.34453281107327
 31
0.0
  0
LINE
  5
9D28
330
9D15
100
AcDbEntity
  8
contour
 62
     4
100
AcDbLine
 10
138.1587554375081
 20
4.42198006714193
 30
0.0
 11
138.1587554375081
 21
19.34453281107336
 31
0.0
  0
LINE
  5
9D29
330
9D15
100
AcDbEntity
  8
contour
100
AcDbLine
 10
143.2797554375081
 20
0.0655328110734672
 30
0.0
 11
136.2797554375081
 21
0.0655328110735241
 31
0.0
  0
LINE
  5
9D2A
330
9D15
100
AcDbEntity
  8
bowle
 48
0.1
100
AcDbLine
 10
140.6457808412925
 20
-0.234467188926601
 30
0.0
 11
140.6457808412925
 21
1.965532811073387
 31
0.0
  0
LINE
  5
9D2B
330
9D15
100
AcDbEntity
  8
bowle
 48
0.1
100
AcDbLine
 10
141.511806245077
 20
-0.2344671889266578
 30
0.0
 11
141.511806245077
 21
1.965532811073387
 31
0.0
  0
LINE
  5
9D2C
330
9D15
100
AcDbEntity
  8
bowle
 48
0.1
100
AcDbLine
 10
138.9137300337237
 20
-0.234467188926601
 30
0.0
 11
138.9137300337237
 21
1.96553281107333
 31
0.0
  0
LINE
  5
9D2D
330
9D15
100
AcDbEntity
  8
bowle
 48
0.1
100
AcDbLine
 10
138.0477046299392
 20
-0.2344671889266578
 30
0.0
 11
138.0477046299391
 21
1.96553281107333
 31
0.0
  0
LINE
  5
9D2E
330
9D15
100
AcDbEntity
  8
bowle
 48
0.1
100
AcDbLine
 10
141.511806245077
 20
1.965532811073387
 30
0.0
 11
138.0477046299391
 21
1.965532811073387
 31
0.0
  0
LINE
  5
9D2F
330
9D15
100
AcDbEntity
  8
bowle
 48
0.1
100
AcDbLine
 10
138.0477046299391
 20
1.96553281107333
 30
0.0
 11
139.779755437508
 21
2.96553281107333
 31
0.0
  0
LINE
  5
9D30
330
9D15
100
AcDbEntity
  8
bowle
 48
0.1
100
AcDbLine
 10
141.511806245077
 20
1.96553281107333
 30
0.0
 11
139.779755437508
 21
2.96553281107333
 31
0.0
  0
LINE
  5
9D31
330
9D15
100
AcDbEntity
  8
contour
 62
     4
100
AcDbLine
 10
138.1587554375081
 20
4.421980067141987
 30
0.0
 11
137.7797554375081
 21
3.765532811073342
 31
0.0
  0
LINE
  5
9D32
330
9D15
100
AcDbEntity
  8
contour
100
AcDbLine
 10
137.7797554375081
 20
4.42198006714193
 30
0.0
 11
141.7797554375081
 21
4.42198006714193
 31
0.0
  0
LINE
  5
9D33
330
9D15
100
AcDbEntity
  8
contour
 62
     4
100
AcDbLine
 10
141.7797554375081
 20
3.765532811073398
 30
0.0
 11
141.400755437508
 21
4.42198006714193
 31
0.0
  0
ENDBLK
  5
9D1A
330
9D15
100
AcDbEntity
  8
0
100
AcDbBlockEnd
  0
BLOCK
  5
A51C
330
A518
100
AcDbEntity
  8
0
100
AcDbBlockBegin
  2
LS3
 70
     0
 10
0.0
 20
0.0
 30
0.0
  3
LS3
  1

  0
LINE
  5
A51E
330
A518
100
AcDbEntity
  8
contour
100
AcDbLine
 10
329.8877449821333
 20
4.477662871771769
 30
0.0
 11
329.8877449821333
 21
8.177662871771701
 31
0.0
  0
LINE
  5
A51F
330
A518
100
AcDbEntity
  8
contour
100
AcDbLine
 10
329.8877449821333
 20
8.177662871771701
 30
0.0
 11
336.8877449821333
 21
8.177662871771701
 31
0.0
  0
LINE
  5
A520
330
A518
100
AcDbEntity
  8
contour
100
AcDbLine
 10
332.1877449821334
 20
26.1776628717717
 30
0.0
 11
334.5877449821334
 21
26.17766287177165
 31
0.0
  0
LINE
  5
A521
330
A518
100
AcDbEntity
  8
contour
100
AcDbLine
 10
331.3877449821333
 20
25.37766287177163
 30
0.0
 11
332.1877449821334
 21
26.17766287177165
 31
0.0
  0
LINE
  5
A522
330
A518
100
AcDbEntity
  8
contour
100
AcDbLine
 10
336.8877449821333
 20
8.177662871771701
 30
0.0
 11
336.8877449821333
 21
4.477662871771656
 31
0.0
  0
LINE
  5
A523
330
A518
100
AcDbEntity
  8
contour
100
AcDbLine
 10
336.5877449821334
 20
4.177662871771644
 30
0.0
 11
330.1877449821334
 21
4.177662871771758
 31
0.0
  0
LINE
  5
A524
330
A518
100
AcDbEntity
  8
contour
100
AcDbLine
 10
329.8877449821333
 20
4.477662871771769
 30
0.0
 11
330.1877449821334
 21
4.177662871771758
 31
0.0
  0
LINE
  5
A525
330
A518
100
AcDbEntity
  8
contour
100
AcDbLine
 10
336.8877449821333
 20
4.477662871771656
 30
0.0
 11
336.5877449821334
 21
4.177662871771644
 31
0.0
  0
LINE
  5
A526
330
A518
100
AcDbEntity
  8
contour
100
AcDbLine
 10
331.3877449821333
 20
8.177662871771644
 30
0.0
 11
331.3877449821334
 21
25.37766287177168
 31
0.0
  0
LINE
  5
A527
330
A518
100
AcDbEntity
  8
contour
100
AcDbLine
 10
335.3877449821333
 20
8.177662871771644
 30
0.0
 11
335.3877449821333
 21
25.37766287177166
 31
0.0
  0
LINE
  5
A528
330
A518
100
AcDbEntity
  8
contour
100
AcDbLine
 10
334.5877449821334
 20
26.17766287177165
 30
0.0
 11
335.3877449821333
 21
25.37766287177163
 31
0.0
  0
LINE
  5
A529
330
A518
100
AcDbEntity
  8
contour
100
AcDbLine
 10
331.3877449821333
 20
25.37766287177169
 30
0.0
 11
335.3877449821333
 21
25.37766287177169
 31
0.0
  0
LINE
  5
A52A
330
A518
100
AcDbEntity
  8
contour
 62
     4
100
AcDbLine
 10
331.7667449821333
 20
8.834110127840233
 30
0.0
 11
331.7667449821333
 21
25.75666287177167
 31
0.0
  0
LINE
  5
A52B
330
A518
100
AcDbEntity
  8
contour
 62
     4
100
AcDbLine
 10
335.0087449821333
 20
8.834110127840233
 30
0.0
 11
335.0087449821334
 21
25.75666287177161
 31
0.0
  0
LINE
  5
A52C
330
A518
100
AcDbEntity
  8
contour
100
AcDbLine
 10
329.8877449821333
 20
4.477662871771769
 30
0.0
 11
336.8877449821333
 21
4.477662871771826
 31
0.0
  0
LINE
  5
A52D
330
A518
100
AcDbEntity
  8
bowle
 48
0.1
100
AcDbLine
 10
332.5217195783489
 20
4.177662871771701
 30
0.0
 11
332.5217195783489
 21
6.37766287177169
 31
0.0
  0
LINE
  5
A52E
330
A518
100
AcDbEntity
  8
bowle
 48
0.1
100
AcDbLine
 10
331.6556941745643
 20
4.177662871771644
 30
0.0
 11
331.6556941745643
 21
6.37766287177169
 31
0.0
  0
LINE
  5
A52F
330
A518
100
AcDbEntity
  8
bowle
 48
0.1
100
AcDbLine
 10
334.2537703859177
 20
4.177662871771701
 30
0.0
 11
334.2537703859177
 21
6.377662871771633
 31
0.0
  0
LINE
  5
A530
330
A518
100
AcDbEntity
  8
bowle
 48
0.1
100
AcDbLine
 10
335.1197957897023
 20
4.177662871771644
 30
0.0
 11
335.1197957897023
 21
6.377662871771633
 31
0.0
  0
LINE
  5
A531
330
A518
100
AcDbEntity
  8
bowle
 48
0.1
100
AcDbLine
 10
331.6556941745645
 20
6.37766287177169
 30
0.0
 11
335.1197957897023
 21
6.37766287177169
 31
0.0
  0
LINE
  5
A532
330
A518
100
AcDbEntity
  8
bowle
 48
0.1
100
AcDbLine
 10
335.1197957897023
 20
6.377662871771633
 30
0.0
 11
333.3877449821334
 21
7.377662871771633
 31
0.0
  0
LINE
  5
A533
330
A518
100
AcDbEntity
  8
bowle
 48
0.1
100
AcDbLine
 10
331.6556941745645
 20
6.377662871771633
 30
0.0
 11
333.3877449821334
 21
7.377662871771633
 31
0.0
  0
LINE
  5
A534
330
A518
100
AcDbEntity
  8
contour
 62
     4
100
AcDbLine
 10
335.0087449821333
 20
8.83411012784029
 30
0.0
 11
335.3877449821333
 21
8.177662871771644
 31
0.0
  0
LINE
  5
A535
330
A518
100
AcDbEntity
  8
contour
100
AcDbLine
 10
335.3877449821333
 20
8.834110127840233
 30
0.0
 11
331.3877449821333
 21
8.834110127840233
 31
0.0
  0
LINE
  5
A536
330
A518
100
AcDbEntity
  8
contour
 62
     4
100
AcDbLine
 10
331.3877449821333
 20
8.177662871771701
 30
0.0
 11
331.7667449821333
 21
8.834110127840233
 31
0.0
  0
ENDBLK
  5
A51D
330
A518
100
AcDbEntity
  8
0
100
AcDbBlockEnd
  0
BLOCK
  5
A62B
330
A627
100
AcDbEntity
  8
0
100
AcDbBlockBegin
  2
LS4
 70
     0
 10
0.0
 20
0.0
 30
0.0
  3
LS4
  1

  0
LINE
  5
A62D
330
A627
100
AcDbEntity
  8
contour
100
AcDbLine
 10
402.9074768226647
 20
108.9417821167274
 30
0.0
 11
410.8074768226646
 21
108.9417821167274
 31
0.0
  0
LINE
  5
A62E
330
A627
100
AcDbEntity
  8
contour
100
AcDbLine
 10
411.1074768226647
 20
109.2417821167273
 30
0.0
 11
411.1074768226647
 21
113.9417821167274
 31
0.0
  0
LINE
  5
A62F
330
A627
100
AcDbEntity
  8
contour
100
AcDbLine
 10
410.8074768226646
 20
108.9417821167274
 30
0.0
 11
411.1074768226647
 21
109.2417821167273
 31
0.0
  0
LINE
  5
A630
330
A627
100
AcDbEntity
  8
contour
100
AcDbLine
 10
411.1074768226647
 20
113.9417821167274
 30
0.0
 11
402.6074768226647
 21
113.9417821167274
 31
0.0
  0
LINE
  5
A631
330
A627
100
AcDbEntity
  8
contour
100
AcDbLine
 10
408.4574768226646
 20
131.9417821167274
 30
0.0
 11
405.2574768226646
 21
131.9417821167273
 31
0.0
  0
LINE
  5
A632
330
A627
100
AcDbEntity
  8
contour
100
AcDbLine
 10
409.3574768226646
 20
131.0417821167273
 30
0.0
 11
408.4574768226646
 21
131.9417821167274
 31
0.0
  0
LINE
  5
A633
330
A627
100
AcDbEntity
  8
contour
100
AcDbLine
 10
402.6074768226647
 20
113.9417821167274
 30
0.0
 11
402.6074768226647
 21
109.2417821167273
 31
0.0
  0
LINE
  5
A634
330
A627
100
AcDbEntity
  8
contour
100
AcDbLine
 10
402.9074768226647
 20
108.9417821167274
 30
0.0
 11
402.6074768226647
 21
109.2417821167273
 31
0.0
  0
LINE
  5
A635
330
A627
100
AcDbEntity
  8
contour
100
AcDbLine
 10
402.6074768226647
 20
109.2417821167273
 30
0.0
 11
411.1074768226647
 21
109.2417821167273
 31
0.0
  0
LINE
  5
A636
330
A627
100
AcDbEntity
  8
contour
100
AcDbLine
 10
404.3574768226647
 20
113.9417821167274
 30
0.0
 11
404.3574768226647
 21
131.0417821167273
 31
0.0
  0
LINE
  5
A637
330
A627
100
AcDbEntity
  8
contour
100
AcDbLine
 10
405.2574768226646
 20
131.9417821167273
 30
0.0
 11
404.3574768226647
 21
131.0417821167273
 31
0.0
  0
LINE
  5
A638
330
A627
100
AcDbEntity
  8
contour
100
AcDbLine
 10
409.3574768226647
 20
113.9417821167274
 30
0.0
 11
409.3574768226646
 21
131.0417821167273
 31
0.0
  0
LINE
  5
A639
330
A627
100
AcDbEntity
  8
contour
100
AcDbLine
 10
404.3574768226647
 20
131.0417821167273
 30
0.0
 11
409.3574768226646
 21
131.0417821167273
 31
0.0
  0
LINE
  5
A63A
330
A627
100
AcDbEntity
  8
contour
 62
     4
100
AcDbLine
 10
404.7904768226646
 20
114.6917601164047
 30
0.0
 11
404.7904768226647
 21
131.4747821167274
 31
0.0
  0
LINE
  5
A63B
330
A627
100
AcDbEntity
  8
contour
 62
     4
100
AcDbLine
 10
408.9244768226647
 20
114.6917601164048
 30
0.0
 11
408.9244768226647
 21
131.4747821167273
 31
0.0
  0
LINE
  5
A63C
330
A627
100
AcDbEntity
  8
contour
 62
     4
100
AcDbLine
 10
408.9244768226646
 20
114.6917601164048
 30
0.0
 11
409.3574768226647
 21
113.9417821167274
 31
0.0
  0
LINE
  5
A63D
330
A627
100
AcDbEntity
  8
contour
100
AcDbLine
 10
409.3574768226647
 20
114.6917601164048
 30
0.0
 11
404.3574768226647
 21
114.6917601164048
 31
0.0
  0
LINE
  5
A63E
330
A627
100
AcDbEntity
  8
contour
 62
     4
100
AcDbLine
 10
404.7904768226647
 20
114.6917601164048
 30
0.0
 11
404.3574768226647
 21
113.9417821167274
 31
0.0
  0
LINE
  5
A63F
330
A627
100
AcDbEntity
  8
bowle
 48
0.2
100
AcDbLine
 10
404.5480757459062
 20
108.9417821167274
 30
0.0
 11
404.5480757459062
 21
111.4417821167274
 31
0.0
  0
LINE
  5
A640
330
A627
100
AcDbEntity
  8
bowle
 48
0.2
100
AcDbLine
 10
409.1668778994232
 20
108.9417821167274
 30
0.0
 11
409.1668778994232
 21
111.4417821167274
 31
0.0
  0
LINE
  5
A641
330
A627
100
AcDbEntity
  8
bowle
 48
0.2
100
AcDbLine
 10
404.5480757459062
 20
111.4417821167274
 30
0.0
 11
409.1668778994232
 21
111.4417821167274
 31
0.0
  0
LINE
  5
A642
330
A627
100
AcDbEntity
  8
bowle
 48
0.2
100
AcDbLine
 10
405.7027762842854
 20
111.4417821167274
 30
0.0
 11
405.7027762842854
 21
108.9417821167274
 31
0.0
  0
LINE
  5
A643
330
A627
100
AcDbEntity
  8
bowle
 48
0.2
100
AcDbLine
 10
408.0121773610439
 20
111.4417821167274
 30
0.0
 11
408.0121773610439
 21
108.9417821167274
 31
0.0
  0
LINE
  5
A644
330
A627
100
AcDbEntity
  8
bowle
 48
0.2
100
AcDbLine
 10
409.1668778994232
 20
111.4417821167274
 30
0.0
 11
406.8574768226646
 21
112.7751154500606
 31
0.0
  0
LINE
  5
A645
330
A627
100
AcDbEntity
  8
bowle
 48
0.2
100
AcDbLine
 10
404.5480757459062
 20
111.4417821167274
 30
0.0
 11
406.8574768226646
 21
112.7751154500606
 31
0.0
  0
ENDBLK
  5
A62C
330
A627
100
AcDbEntity
  8
0
100
AcDbBlockEnd
  0
BLOCK
  5
DEFB
330
DEF7
100
AcDbEntity
  8
0
100
AcDbBlockBegin
  2
LS5
 70
     0
 10
0.0
 20
0.0
 30
0.0
  3
LS5
  1

  0
LINE
  5
DEFC
330
DEF7
100
AcDbEntity
  8
contour
100
AcDbLine
 10
332.051087530478
 20
128.9140801935821
 30
0.0
 11
339.951087530478
 21
128.9140801935821
 31
0.0
  0
LINE
  5
DEFD
330
DEF7
100
AcDbEntity
  8
contour
100
AcDbLine
 10
340.251087530478
 20
129.2140801935821
 30
0.0
 11
340.251087530478
 21
133.9140801935821
 31
0.0
  0
LINE
  5
DEFE
330
DEF7
100
AcDbEntity
  8
contour
100
AcDbLine
 10
339.951087530478
 20
128.9140801935821
 30
0.0
 11
340.251087530478
 21
129.2140801935821
 31
0.0
  0
LINE
  5
DEFF
330
DEF7
100
AcDbEntity
  8
contour
100
AcDbLine
 10
340.251087530478
 20
133.9140801935821
 30
0.0
 11
331.751087530478
 21
133.9140801935821
 31
0.0
  0
LINE
  5
DF00
330
DEF7
100
AcDbEntity
  8
contour
100
AcDbLine
 10
337.6010875304779
 20
153.9140801935821
 30
0.0
 11
334.4010875304779
 21
153.9140801935821
 31
0.0
  0
LINE
  5
DF01
330
DEF7
100
AcDbEntity
  8
contour
100
AcDbLine
 10
338.5010875304779
 20
153.0140801935821
 30
0.0
 11
337.6010875304779
 21
153.9140801935821
 31
0.0
  0
LINE
  5
DF02
330
DEF7
100
AcDbEntity
  8
contour
100
AcDbLine
 10
331.751087530478
 20
133.9140801935821
 30
0.0
 11
331.751087530478
 21
129.2140801935821
 31
0.0
  0
LINE
  5
DF03
330
DEF7
100
AcDbEntity
  8
contour
100
AcDbLine
 10
332.051087530478
 20
128.9140801935821
 30
0.0
 11
331.751087530478
 21
129.2140801935821
 31
0.0
  0
LINE
  5
DF04
330
DEF7
100
AcDbEntity
  8
contour
100
AcDbLine
 10
331.751087530478
 20
129.2140801935821
 30
0.0
 11
340.251087530478
 21
129.2140801935821
 31
0.0
  0
LINE
  5
DF05
330
DEF7
100
AcDbEntity
  8
contour
100
AcDbLine
 10
333.5010875304779
 20
133.9140801935821
 30
0.0
 11
333.5010875304779
 21
153.0140801935821
 31
0.0
  0
LINE
  5
DF06
330
DEF7
100
AcDbEntity
  8
contour
100
AcDbLine
 10
334.4010875304779
 20
153.9140801935821
 30
0.0
 11
333.5010875304779
 21
153.0140801935821
 31
0.0
  0
LINE
  5
DF07
330
DEF7
100
AcDbEntity
  8
contour
100
AcDbLine
 10
338.501087530478
 20
133.9140801935821
 30
0.0
 11
338.5010875304778
 21
153.0140801935821
 31
0.0
  0
LINE
  5
DF08
330
DEF7
100
AcDbEntity
  8
contour
100
AcDbLine
 10
333.5010875304779
 20
153.0140801935821
 30
0.0
 11
338.5010875304779
 21
153.0140801935821
 31
0.0
  0
LINE
  5
DF09
330
DEF7
100
AcDbEntity
  8
contour
 62
     4
100
AcDbLine
 10
333.9340875304779
 20
134.6640581932595
 30
0.0
 11
333.934087530478
 21
153.4470801935821
 31
0.0
  0
LINE
  5
DF0A
330
DEF7
100
AcDbEntity
  8
contour
 62
     4
100
AcDbLine
 10
338.068087530478
 20
134.6640581932595
 30
0.0
 11
338.068087530478
 21
153.4470801935821
 31
0.0
  0
LINE
  5
DF0B
330
DEF7
100
AcDbEntity
  8
contour
 62
     4
100
AcDbLine
 10
338.0680875304779
 20
134.6640581932595
 30
0.0
 11
338.501087530478
 21
133.9140801935821
 31
0.0
  0
LINE
  5
DF0C
330
DEF7
100
AcDbEntity
  8
contour
100
AcDbLine
 10
338.501087530478
 20
134.6640581932595
 30
0.0
 11
333.501087530478
 21
134.6640581932595
 31
0.0
  0
LINE
  5
DF0D
330
DEF7
100
AcDbEntity
  8
contour
 62
     4
100
AcDbLine
 10
333.934087530478
 20
134.6640581932595
 30
0.0
 11
333.5010875304779
 21
133.9140801935821
 31
0.0
  0
LINE
  5
DF0E
330
DEF7
100
AcDbEntity
  8
bowle
 48
0.2
100
AcDbLine
 10
333.6916864537195
 20
128.9140801935821
 30
0.0
 11
333.6916864537195
 21
131.4140801935821
 31
0.0
  0
LINE
  5
DF0F
330
DEF7
100
AcDbEntity
  8
bowle
 48
0.2
100
AcDbLine
 10
338.3104886072364
 20
128.9140801935821
 30
0.0
 11
338.3104886072364
 21
131.4140801935821
 31
0.0
  0
LINE
  5
DF10
330
DEF7
100
AcDbEntity
  8
bowle
 48
0.2
100
AcDbLine
 10
333.6916864537195
 20
131.4140801935821
 30
0.0
 11
338.3104886072364
 21
131.4140801935821
 31
0.0
  0
LINE
  5
DF11
330
DEF7
100
AcDbEntity
  8
bowle
 48
0.2
100
AcDbLine
 10
334.8463869920987
 20
131.4140801935821
 30
0.0
 11
334.8463869920986
 21
128.9140801935821
 31
0.0
  0
LINE
  5
DF12
330
DEF7
100
AcDbEntity
  8
bowle
 48
0.2
100
AcDbLine
 10
337.1557880688572
 20
131.4140801935821
 30
0.0
 11
337.1557880688572
 21
128.9140801935821
 31
0.0
  0
LINE
  5
DF13
330
DEF7
100
AcDbEntity
  8
bowle
 48
0.2
100
AcDbLine
 10
338.3104886072364
 20
131.4140801935821
 30
0.0
 11
336.0010875304779
 21
132.7474135269154
 31
0.0
  0
LINE
  5
DF14
330
DEF7
100
AcDbEntity
  8
bowle
 48
0.2
100
AcDbLine
 10
333.6916864537195
 20
131.4140801935821
 30
0.0
 11
336.0010875304779
 21
132.7474135269154
 31
0.0
  0
ENDBLK
  5
DF15
330
DEF7
100
AcDbEntity
  8
0
100
AcDbBlockEnd
  0
BLOCK
  5
E6A4
330
E6A0
100
AcDbEntity
  8
0
100
AcDbBlockBegin
  2
ls6
 70
     0
 10
0.0
 20
0.0
 30
0.0
  3
ls6
  1

  0
LINE
  5
E6A5
330
E6A0
100
AcDbEntity
  8
contour
100
AcDbLine
 10
336.1608521184414
 20
142.3975413614303
 30
0.0
 11
340.1608521184414
 21
142.3975413614303
 31
0.0
  0
LINE
  5
E6A6
330
E6A0
100
AcDbEntity
  8
contour
100
AcDbLine
 10
341.1608521184414
 20
141.3975413614303
 30
0.0
 11
341.1608521184414
 21
122.3975413614303
 31
0.0
  0
LINE
  5
E6A7
330
E6A0
100
AcDbEntity
  8
contour
100
AcDbLine
 10
340.1608521184414
 20
142.3975413614303
 30
0.0
 11
341.1608521184414
 21
141.3975413614303
 31
0.0
  0
LINE
  5
E6A8
330
E6A0
100
AcDbEntity
  8
contour
100
AcDbLine
 10
335.1608521184414
 20
141.3975413614303
 30
0.0
 11
335.1608521184414
 21
122.3975413614303
 31
0.0
  0
LINE
  5
E6A9
330
E6A0
100
AcDbEntity
  8
contour
100
AcDbLine
 10
336.1608521184414
 20
142.3975413614303
 30
0.0
 11
335.1608521184414
 21
141.3975413614303
 31
0.0
  0
LINE
  5
E6AA
330
E6A0
100
AcDbEntity
  8
contour
100
AcDbLine
 10
333.1608521184414
 20
122.3975413614303
 30
0.0
 11
343.1608521184414
 21
122.3975413614303
 31
0.0
  0
LINE
  5
E6AB
330
E6A0
100
AcDbEntity
  8
contour
100
AcDbLine
 10
333.1608521184414
 20
122.3975413614303
 30
0.0
 11
333.1608521184414
 21
116.7975413614303
 31
0.0
  0
LINE
  5
E6AC
330
E6A0
100
AcDbEntity
  8
contour
100
AcDbLine
 10
333.5608521184414
 20
116.3975413614303
 30
0.0
 11
333.1608521184414
 21
116.7975413614303
 31
0.0
  0
LINE
  5
E6AD
330
E6A0
100
AcDbEntity
  8
contour
100
AcDbLine
 10
343.1608521184414
 20
122.3975413614303
 30
0.0
 11
343.1608521184414
 21
116.7975413614303
 31
0.0
  0
LINE
  5
E6AE
330
E6A0
100
AcDbEntity
  8
contour
100
AcDbLine
 10
342.7608521184414
 20
116.3975413614303
 30
0.0
 11
343.1608521184414
 21
116.7975413614303
 31
0.0
  0
LINE
  5
E6AF
330
E6A0
100
AcDbEntity
  8
contour
100
AcDbLine
 10
342.7608521184414
 20
116.3975413614303
 30
0.0
 11
333.5608521184414
 21
116.3975413614303
 31
0.0
  0
LINE
  5
E6B0
330
E6A0
100
AcDbEntity
  8
bowle
 48
0.2
100
AcDbLine
 10
341.0476034643896
 20
119.3975413614303
 30
0.0
 11
335.2741007724933
 21
119.3975413614303
 31
0.0
  0
LINE
  5
E6B1
330
E6A0
100
AcDbEntity
  8
contour
100
AcDbLine
 10
333.1608521184414
 20
116.7975413614303
 30
0.0
 11
343.1608521184414
 21
116.7975413614303
 31
0.0
  0
LINE
  5
E6B2
330
E6A0
100
AcDbEntity
  8
contour
100
AcDbLine
 10
335.1608521184414
 20
141.3975413614303
 30
0.0
 11
341.1608521184414
 21
141.3975413614303
 31
0.0
  0
LINE
  5
E6B3
330
E6A0
100
AcDbEntity
  8
contour
 62
     4
100
AcDbLine
 10
335.7023521184414
 20
122.3975413614303
 30
0.0
 11
335.7023521184414
 21
141.9390413614302
 31
0.0
  0
LINE
  5
E6B4
330
E6A0
100
AcDbEntity
  8
contour
 62
     4
100
AcDbLine
 10
340.6193521184414
 20
122.3975413614303
 30
0.0
 11
340.6193521184414
 21
141.9390413614302
 31
0.0
  0
LINE
  5
E6B5
330
E6A0
100
AcDbEntity
  8
bowle
 48
0.2
100
AcDbLine
 10
335.2741007724933
 20
116.3975413614303
 30
0.0
 11
335.2741007724933
 21
119.3975413614303
 31
0.0
  0
LINE
  5
E6B6
330
E6A0
100
AcDbEntity
  8
bowle
 48
0.2
100
AcDbLine
 10
336.7174764454674
 20
119.3975413614303
 30
0.0
 11
336.7174764454674
 21
116.3975413614303
 31
0.0
  0
LINE
  5
E6B7
330
E6A0
100
AcDbEntity
  8
bowle
 48
0.2
100
AcDbLine
 10
339.6042277914155
 20
119.3975413614303
 30
0.0
 11
339.6042277914154
 21
116.3975413614303
 31
0.0
  0
LINE
  5
E6B8
330
E6A0
100
AcDbEntity
  8
bowle
 48
0.2
100
AcDbLine
 10
341.0476034643896
 20
116.3975413614303
 30
0.0
 11
341.0476034643896
 21
119.3975413614303
 31
0.0
  0
LINE
  5
E6B9
330
E6A0
100
AcDbEntity
  8
bowle
 48
0.2
100
AcDbLine
 10
341.0476034643896
 20
119.3975413614303
 30
0.0
 11
338.1608521184415
 21
121.064208028097
 31
0.0
  0
LINE
  5
E6BA
330
E6A0
100
AcDbEntity
  8
bowle
 48
0.2
100
AcDbLine
 10
335.2741007724933
 20
119.3975413614303
 30
0.0
 11
338.1608521184415
 21
121.064208028097
 31
0.0
  0
ENDBLK
  5
E6BB
330
E6A0
100
AcDbEntity
  8
0
100
AcDbBlockEnd
  0
BLOCK
  5
E833
330
E829
100
AcDbEntity
  8
0
100
AcDbBlockBegin
  2
*D25
 70
     1
 10
0.0
 20
0.0
 30
0.0
  3
*D25
  1

  0
LINE
  5
E994
330
E829
100
AcDbEntity
  8
mark
370
    -2
100
AcDbLine
 10
52.97235055255686
 20
86.0178736074819
 30
0.0
 11
52.97235055255686
 21
72.81978381270815
 31
0.0
  0
LINE
  5
E995
330
E829
100
AcDbEntity
  8
mark
370
    -2
100
AcDbLine
 10
127.9723505525568
 20
86.0178736074819
 30
0.0
 11
127.9723505525568
 21
72.81978381270815
 31
0.0
  0
LINE
  5
E996
330
E829
100
AcDbEntity
  8
mark
370
    -2
100
AcDbLine
 10
55.47235055255686
 20
73.66978381270815
 30
0.0
 11
125.4723505525568
 21
73.66978381270815
 31
0.0
  0
INSERT
  5
E997
330
E829
100
AcDbEntity
  8
mark
370
    -2
100
AcDbBlockReference
  2
_Open30
 10
52.97235055255686
 20
73.66978381270815
 30
0.0
 41
2.5
 42
2.5
 43
2.5
 50
180.0
  0
INSERT
  5
E998
330
E829
100
AcDbEntity
  8
mark
370
    -2
100
AcDbBlockReference
  2
_Open30
 10
127.9723505525568
 20
73.66978381270815
 30
0.0
 41
2.5
 42
2.5
 43
2.5
  0
MTEXT
  5
E999
330
E829
100
AcDbEntity
  8
mark
 62
     3
100
AcDbMText
 10
90.47235055255686
 20
75.76978381270814
 30
0.0
 40
2.5
 41
0.0
 71
     5
 72
     1
  1
\A1;M75x2.0P
 73
     1
 44
1.0
  0
POINT
  5
E99A
330
E829
100
AcDbEntity
  8
DEFPOINTS
 62
     0
100
AcDbPoint
 10
52.97235055255686
 20
86.86787360748189
 30
0.0
  0
POINT
  5
E99B
330
E829
100
AcDbEntity
  8
DEFPOINTS
 62
     0
100
AcDbPoint
 10
127.9723505525568
 20
86.86787360748189
 30
0.0
  0
POINT
  5
E99C
330
E829
100
AcDbEntity
  8
DEFPOINTS
 62
     0
100
AcDbPoint
 10
127.9723505525568
 20
73.66978381270815
 30
0.0
  0
ENDBLK
  5
E834
330
E829
100
AcDbEntity
  8
0
100
AcDbBlockEnd
  0
BLOCK
  5
E840
330
E836
100
AcDbEntity
  8
0
100
AcDbBlockBegin
  2
*D26
 70
     1
 10
0.0
 20
0.0
 30
0.0
  3
*D26
  1

  0
LINE
  5
E99D
330
E836
100
AcDbEntity
  8
mark
370
    -2
100
AcDbLine
 10
140.3223505525568
 20
113.9503736074819
 30
0.0
 11
150.1185862043217
 21
113.9503736074819
 31
0.0
  0
LINE
  5
E99E
330
E836
100
AcDbEntity
  8
mark
370
    -2
100
AcDbLine
 10
140.3223505525568
 20
96.60037360748194
 30
0.0
 11
150.1185862043217
 21
96.60037360748194
 31
0.0
  0
LINE
  5
E99F
330
E836
100
AcDbEntity
  8
mark
370
    -2
100
AcDbLine
 10
149.2685862043217
 20
111.4503736074819
 30
0.0
 11
149.2685862043217
 21
99.10037360748194
 31
0.0
  0
INSERT
  5
E9A0
330
E836
100
AcDbEntity
  8
mark
370
    -2
100
AcDbBlockReference
  2
_Open30
 10
149.2685862043217
 20
113.9503736074819
 30
0.0
 41
2.5
 42
2.5
 43
2.5
 50
90.0
  0
INSERT
  5
E9A1
330
E836
100
AcDbEntity
  8
mark
370
    -2
100
AcDbBlockReference
  2
_Open30
 10
149.2685862043217
 20
96.60037360748194
 30
0.0
 41
2.5
 42
2.5
 43
2.5
 50
270.0
  0
MTEXT
  5
E9A2
330
E836
100
AcDbEntity
  8
mark
 62
     3
100
AcDbMText
 10
147.1685862043217
 20
105.2753736074819
 30
0.0
 40
2.5
 41
0.0
 71
     5
 72
     1
  1
\A1;17.35
 11
0.0000000000000001
 21
1.0
 31
0.0
 73
     1
 44
1.0
  0
POINT
  5
E9A3
330
E836
100
AcDbEntity
  8
DEFPOINTS
 62
     0
100
AcDbPoint
 10
139.4723505525568
 20
113.9503736074819
 30
0.0
  0
POINT
  5
E9A4
330
E836
100
AcDbEntity
  8
DEFPOINTS
 62
     0
100
AcDbPoint
 10
139.4723505525568
 20
96.60037360748194
 30
0.0
  0
POINT
  5
E9A5
330
E836
100
AcDbEntity
  8
DEFPOINTS
 62
     0
100
AcDbPoint
 10
149.2685862043217
 20
96.60037360748194
 30
0.0
  0
ENDBLK
  5
E841
330
E836
100
AcDbEntity
  8
0
100
AcDbBlockEnd
  0
BLOCK
  5
E84F
330
E843
100
AcDbEntity
  8
0
100
AcDbBlockBegin
  2
*D27
 70
     1
 10
0.0
 20
0.0
 30
0.0
  3
*D27
  1

  0
LINE
  5
E9A6
330
E843
100
AcDbEntity
  8
mark
370
    -2
100
AcDbLine
 10
140.3223505525568
 20
96.60037360748194
 30
0.0
 11
150.1185862043217
 21
96.60037360748194
 31
0.0
  0
LINE
  5
E9A7
330
E843
100
AcDbEntity
  8
mark
370
    -2
100
AcDbLine
 10
140.3223505525568
 20
94.60037360748192
 30
0.0
 11
150.1185862043217
 21
94.60037360748192
 31
0.0
  0
LINE
  5
E9A8
330
E843
100
AcDbEntity
  8
mark
370
    -2
100
AcDbLine
 10
149.2685862043217
 20
99.10037360748194
 30
0.0
 11
149.2685862043217
 21
101.6003736074819
 31
0.0
  0
LINE
  5
E9A9
330
E843
100
AcDbEntity
  8
mark
370
    -2
100
AcDbLine
 10
149.2685862043217
 20
92.10037360748192
 30
0.0
 11
149.2685862043217
 21
89.60037360748192
 31
0.0
  0
LINE
  5
E9AA
330
E843
100
AcDbEntity
  8
mark
370
    -2
100
AcDbLine
 10
149.2685862043217
 20
96.60037360748194
 30
0.0
 11
149.2685862043217
 21
94.60037360748192
 31
0.0
  0
INSERT
  5
E9AB
330
E843
100
AcDbEntity
  8
mark
370
    -2
100
AcDbBlockReference
  2
_Open30
 10
149.2685862043217
 20
96.60037360748194
 30
0.0
 41
2.5
 42
2.5
 43
2.5
 50
270.0
  0
INSERT
  5
E9AC
330
E843
100
AcDbEntity
  8
mark
370
    -2
100
AcDbBlockReference
  2
_Open30
 10
149.2685862043217
 20
94.60037360748192
 30
0.0
 41
2.5
 42
2.5
 43
2.5
 50
90.0
  0
MTEXT
  5
E9AD
330
E843
100
AcDbEntity
  8
mark
 62
     3
100
AcDbMText
 10
147.1685862043217
 20
95.60037360748195
 30
0.0
 40
2.5
 41
0.0
 71
     5
 72
     1
  1
\A1;2
 11
0.0000000000000001
 21
1.0
 31
0.0
 73
     1
 44
1.0
  0
POINT
  5
E9AE
330
E843
100
AcDbEntity
  8
DEFPOINTS
 62
     0
100
AcDbPoint
 10
139.4723505525568
 20
96.60037360748194
 30
0.0
  0
POINT
  5
E9AF
330
E843
100
AcDbEntity
  8
DEFPOINTS
 62
     0
100
AcDbPoint
 10
139.4723505525568
 20
94.60037360748192
 30
0.0
  0
POINT
  5
E9B0
330
E843
100
AcDbEntity
  8
DEFPOINTS
 62
     0
100
AcDbPoint
 10
149.2685862043217
 20
94.60037360748192
 30
0.0
  0
ENDBLK
  5
E850
330
E843
100
AcDbEntity
  8
0
100
AcDbBlockEnd
  0
BLOCK
  5
E867
330
E85D
100
AcDbEntity
  8
0
100
AcDbBlockBegin
  2
*D28
 70
     1
 10
0.0
 20
0.0
 30
0.0
  3
*D28
  1

  0
LINE
  5
E9B1
330
E85D
100
AcDbEntity
  8
mark
370
    -2
100
AcDbLine
 10
140.3223505525569
 20
85.95037360748191
 30
0.0
 11
159.6923840042623
 21
85.95037360748191
 31
0.0
  0
LINE
  5
E9B2
330
E85D
100
AcDbEntity
  8
mark
370
    -2
100
AcDbLine
 10
140.3223505525568
 20
113.9503736074819
 30
0.0
 11
159.6923840042623
 21
113.9503736074819
 31
0.0
  0
LINE
  5
E9B3
330
E85D
100
AcDbEntity
  8
mark
370
    -2
100
AcDbLine
 10
158.8423840042623
 20
88.45037360748191
 30
0.0
 11
158.8423840042623
 21
111.4503736074819
 31
0.0
  0
INSERT
  5
E9B4
330
E85D
100
AcDbEntity
  8
mark
370
    -2
100
AcDbBlockReference
  2
_Open30
 10
158.8423840042623
 20
85.95037360748191
 30
0.0
 41
2.5
 42
2.5
 43
2.5
 50
270.0
  0
INSERT
  5
E9B5
330
E85D
100
AcDbEntity
  8
mark
370
    -2
100
AcDbBlockReference
  2
_Open30
 10
158.8423840042623
 20
113.9503736074819
 30
0.0
 41
2.5
 42
2.5
 43
2.5
 50
90.0
  0
MTEXT
  5
E9B6
330
E85D
100
AcDbEntity
  8
mark
 62
     3
100
AcDbMText
 10
156.7423840042623
 20
99.95037360748192
 30
0.0
 40
2.5
 41
0.0
 71
     5
 72
     1
  1
\A1;28%%p0.2
 11
0.0000000000000001
 21
1.0
 31
0.0
 73
     1
 44
1.0
  0
POINT
  5
E9B7
330
E85D
100
AcDbEntity
  8
DEFPOINTS
 62
     0
100
AcDbPoint
 10
139.4723505525569
 20
85.95037360748191
 30
0.0
  0
POINT
  5
E9B8
330
E85D
100
AcDbEntity
  8
DEFPOINTS
 62
     0
100
AcDbPoint
 10
139.4723505525568
 20
113.9503736074819
 30
0.0
  0
POINT
  5
E9B9
330
E85D
100
AcDbEntity
  8
DEFPOINTS
 62
     0
100
AcDbPoint
 10
158.8423840042623
 20
113.9503736074819
 30
0.0
  0
ENDBLK
  5
E868
330
E85D
100
AcDbEntity
  8
0
100
AcDbBlockEnd
  0
BLOCK
  5
E88A
330
E880
100
AcDbEntity
  8
0
100
AcDbBlockBegin
  2
*D29
 70
     1
 10
0.0
 20
0.0
 30
0.0
  3
*D29
  1

  0
LINE
  5
E9BA
330
E880
100
AcDbEntity
  8
mark
370
    -2
100
AcDbLine
 10
40.47235055255685
 20
113.8003736074819
 30
0.0
 11
40.47235055255685
 21
121.5927612686945
 31
0.0
  0
LINE
  5
E9BB
330
E880
100
AcDbEntity
  8
mark
370
    -2
100
AcDbLine
 10
140.4723505525568
 20
113.8003736074819
 30
0.0
 11
140.4723505525568
 21
121.5927612686945
 31
0.0
  0
LINE
  5
E9BC
330
E880
100
AcDbEntity
  8
mark
370
    -2
100
AcDbLine
 10
42.97235055255685
 20
120.7427612686945
 30
0.0
 11
137.9723505525568
 21
120.7427612686945
 31
0.0
  0
INSERT
  5
E9BD
330
E880
100
AcDbEntity
  8
mark
370
    -2
100
AcDbBlockReference
  2
_Open30
 10
40.47235055255685
 20
120.7427612686945
 30
0.0
 41
2.5
 42
2.5
 43
2.5
 50
180.0
  0
INSERT
  5
E9BE
330
E880
100
AcDbEntity
  8
mark
370
    -2
100
AcDbBlockReference
  2
_Open30
 10
140.4723505525568
 20
120.7427612686945
 30
0.0
 41
2.5
 42
2.5
 43
2.5
  0
MTEXT
  5
E9BF
330
E880
100
AcDbEntity
  8
mark
 62
     3
100
AcDbMText
 10
90.47235055255686
 20
122.8427612686945
 30
0.0
 40
2.5
 41
0.0
 71
     5
 72
     1
  1
\A1;%%c100
 73
     1
 44
1.0
  0
POINT
  5
E9C0
330
E880
100
AcDbEntity
  8
DEFPOINTS
 62
     0
100
AcDbPoint
 10
40.47235055255685
 20
112.9503736074819
 30
0.0
  0
POINT
  5
E9C1
330
E880
100
AcDbEntity
  8
DEFPOINTS
 62
     0
100
AcDbPoint
 10
140.4723505525568
 20
112.9503736074819
 30
0.0
  0
POINT
  5
E9C2
330
E880
100
AcDbEntity
  8
DEFPOINTS
 62
     0
100
AcDbPoint
 10
140.4723505525568
 20
120.7427612686945
 30
0.0
  0
ENDBLK
  5
E88B
330
E880
100
AcDbEntity
  8
0
100
AcDbBlockEnd
  0
BLOCK
  5
E897
330
E88E
100
AcDbEntity
  8
0
100
AcDbBlockBegin
  2
*D30
 70
     1
 10
0.0
 20
0.0
 30
0.0
  3
*D30
  1

  0
LINE
  5
E9C3
330
E88E
100
AcDbEntity
  8
mark
370
    -2
100
AcDbLine
 10
160.6806851188916
 20
206.5768106714073
 30
0.0
 11
135.8594631794193
 21
202.483983390983
 31
0.0
  0
LINE
  5
E9C4
330
E88E
100
AcDbEntity
  8
mark
370
    -2
100
AcDbLine
 10
45.08523792569457
 20
187.516016609017
 30
0.0
 11
42.61854702206074
 21
187.1092783812462
 31
0.0
  0
MTEXT
  5
E9C5
330
E88E
100
AcDbEntity
  8
mark
 62
     3
100
AcDbMText
 10
152.1825004195483
 20
207.3038832906309
 30
0.0
 40
2.5
 41
0.0
 71
     5
 72
     1
  1
\A1;P.C.D 87
 11
0.9866763614535299
 21
0.1626952911083261
 31
0.0
 73
     1
 44
1.0
  0
LINE
  5
E9C6
330
E88E
100
AcDbEntity
  8
mark
370
    -2
100
AcDbLine
 10
47.55192882932838
 20
187.9227548367878
 30
0.0
 11
133.3927722757855
 21
202.0772451632122
 31
0.0
  0
INSERT
  5
E9C7
330
E88E
100
AcDbEntity
  8
mark
370
    -2
100
AcDbBlockReference
  2
_Open30
 10
47.55192882932838
 20
187.9227548367878
 30
0.0
 41
2.5
 42
2.5
 43
2.5
 50
9.363375324956901
  0
INSERT
  5
E9C8
330
E88E
100
AcDbEntity
  8
mark
370
    -2
100
AcDbBlockReference
  2
_Open30
 10
133.3927722757855
 20
202.0772451632122
 30
0.0
 41
2.5
 42
2.5
 43
2.5
 50
189.3633753249568
  0
POINT
  5
E9C9
330
E88E
100
AcDbEntity
  8
DEFPOINTS
 62
     0
100
AcDbPoint
 10
133.3927722757855
 20
202.0772451632122
 30
0.0
  0
POINT
  5
E9CA
330
E88E
100
AcDbEntity
  8
DEFPOINTS
 62
     0
100
AcDbPoint
 10
47.55192882932838
 20
187.9227548367878
 30
0.0
  0
ENDBLK
  5
E898
330
E88E
100
AcDbEntity
  8
0
100
AcDbBlockEnd
  0
BLOCK
  5
E8AC
330
E8A3
100
AcDbEntity
  8
0
100
AcDbBlockBegin
  2
*D31
 70
     1
 10
0.0
 20
0.0
 30
0.0
  3
*D31
  1

  0
LINE
  5
E9CB
330
E8A3
100
AcDbEntity
  8
mark
370
    -2
100
AcDbLine
 10
157.1139066477998
 20
221.0302956639905
 30
0.0
 11
133.7854614009131
 21
211.9181685958618
 31
0.0
  0
LINE
  5
E9CC
330
E8A3
100
AcDbEntity
  8
mark
370
    -2
100
AcDbLine
 10
47.1592397042007
 20
178.081831404138
 30
0.0
 11
44.83057783063316
 21
177.1722524473713
 31
0.0
  0
MTEXT
  5
E9CD
330
E8A3
100
AcDbEntity
  8
mark
 62
     3
100
AcDbMText
 10
148.6497517288524
 20
219.9786972207451
 30
0.0
 40
2.5
 41
0.0
 71
     5
 72
     1
  1
\A1;P.C.D 88
 11
0.9314647494270154
 21
0.363831582706707
 31
0.0
 73
     1
 44
1.0
  0
LINE
  5
E9CE
330
E8A3
100
AcDbEntity
  8
mark
370
    -2
100
AcDbLine
 10
49.48790157776824
 20
178.9914103609048
 30
0.0
 11
131.4567995273456
 21
211.0085896390951
 31
0.0
  0
INSERT
  5
E9CF
330
E8A3
100
AcDbEntity
  8
mark
370
    -2
100
AcDbBlockReference
  2
_Open30
 10
49.48790157776824
 20
178.9914103609048
 30
0.0
 41
2.5
 42
2.5
 43
2.5
 50
21.33569398693236
  0
INSERT
  5
E9D0
330
E8A3
100
AcDbEntity
  8
mark
370
    -2
100
AcDbBlockReference
  2
_Open30
 10
131.4567995273456
 20
211.0085896390951
 30
0.0
 41
2.5
 42
2.5
 43
2.5
 50
201.3356939869324
  0
POINT
  5
E9D1
330
E8A3
100
AcDbEntity
  8
DEFPOINTS
 62
     0
100
AcDbPoint
 10
131.4567995273456
 20
211.0085896390951
 30
0.0
  0
POINT
  5
E9D2
330
E8A3
100
AcDbEntity
  8
DEFPOINTS
 62
     0
100
AcDbPoint
 10
49.48790157776824
 20
178.9914103609048
 30
0.0
  0
ENDBLK
  5
E8AD
330
E8A3
100
AcDbEntity
  8
0
100
AcDbBlockEnd
  0
BLOCK
  5
E8BF
330
E8B5
100
AcDbEntity
  8
0
100
AcDbBlockBegin
  2
*D32
 70
     1
 10
0.0
 20
0.0
 30
0.0
  3
*D32
  1

  0
LINE
  5
E9D3
330
E8B5
100
AcDbEntity
  8
mark
370
    -2
100
AcDbLine
 10
40.62235055255691
 20
113.9503736074819
 30
0.0
 11
29.56424904237573
 21
113.9503736074819
 31
0.0
  0
LINE
  5
E9D4
330
E8B5
100
AcDbEntity
  8
mark
370
    -2
100
AcDbLine
 10
37.62235055255697
 20
105.4503736074818
 30
0.0
 11
29.56424904237573
 21
105.4503736074818
 31
0.0
  0
LINE
  5
E9D5
330
E8B5
100
AcDbEntity
  8
mark
370
    -2
100
AcDbLine
 10
30.41424904237573
 20
111.4503736074819
 30
0.0
 11
30.41424904237573
 21
107.9503736074818
 31
0.0
  0
INSERT
  5
E9D6
330
E8B5
100
AcDbEntity
  8
mark
370
    -2
100
AcDbBlockReference
  2
_Open30
 10
30.41424904237573
 20
113.9503736074819
 30
0.0
 41
2.5
 42
2.5
 43
2.5
 50
90.0
  0
INSERT
  5
E9D7
330
E8B5
100
AcDbEntity
  8
mark
370
    -2
100
AcDbBlockReference
  2
_Open30
 10
30.41424904237573
 20
105.4503736074818
 30
0.0
 41
2.5
 42
2.5
 43
2.5
 50
270.0
  0
MTEXT
  5
E9D8
330
E8B5
100
AcDbEntity
  8
mark
 62
     3
100
AcDbMText
 10
28.31424904237571
 20
109.7003736074819
 30
0.0
 40
2.5
 41
0.0
 71
     5
 72
     1
  1
\A1;8.5
 11
0.0000000000000001
 21
1.0
 31
0.0
 73
     1
 44
1.0
  0
POINT
  5
E9D9
330
E8B5
100
AcDbEntity
  8
DEFPOINTS
 62
     0
100
AcDbPoint
 10
41.47235055255691
 20
113.9503736074819
 30
0.0
  0
POINT
  5
E9DA
330
E8B5
100
AcDbEntity
  8
DEFPOINTS
 62
     0
100
AcDbPoint
 10
38.47235055255698
 20
105.4503736074818
 30
0.0
  0
POINT
  5
E9DB
330
E8B5
100
AcDbEntity
  8
DEFPOINTS
 62
     0
100
AcDbPoint
 10
30.41424904237573
 20
105.4503736074818
 30
0.0
  0
ENDBLK
  5
E8C0
330
E8B5
100
AcDbEntity
  8
0
100
AcDbBlockEnd
  0
ENDSEC
  0
SECTION
  2
ENTITIES
  0
MTEXT
  5
C0
330
18
100
AcDbEntity
  8
0
100
AcDbMText
 10
41.26970765600413
 20
233.6950877649332
 30
0.0
 40
2.5
 41
0.0
 71
     1
 72
     5
  1

  7
CN
 73
     1
 44
1.0
  0
LWPOLYLINE
  5
AF44
330
18
100
AcDbEntity
  8
frame
100
AcDbPolyline
 90
        4
 70
     1
 43
0.0
 10
190.0
 20
280.0
 10
0.0
 20
280.0
 10
0.0
 20
0.0
 10
190.0
 20
0.0
  0
MTEXT
  5
AF45
330
18
100
AcDbEntity
  8
0
100
AcDbMText
 10
17.09950368689175
 20
19.07605901616614
 30
0.0
 40
5.0
 41
0.0
 71
     1
 72
     5
  1
{\Ftxt,bigfont|c128;\W0.5;林彦旭}
 73
     1
 44
1.0
1001
ACAD
1000
ACAD_MTEXT_DEFINED_HEIGHT_BEGIN
1070
    46
1040
0.0
1000
ACAD_MTEXT_DEFINED_HEIGHT_END
  0
MTEXT
  5
AF46
330
18
100
AcDbEntity
  8
0
100
AcDbMText
 10
77.95294729228851
 20
28.93578979870677
 30
0.0
 40
4.5
 41
0.0
 71
     1
 72
     5
  1
{\Ftxt,bigfont|c128;\W0.5;1 : 1}
 73
     1
 44
1.0
1001
ACAD
1000
ACAD_MTEXT_DEFINED_HEIGHT_BEGIN
1070
    46
1040
0.0
1000
ACAD_MTEXT_DEFINED_HEIGHT_END
  0
MTEXT
  5
AF47
330
18
100
AcDbEntity
  8
0
100
AcDbMText
 10
126.3732928177675
 20
8.303263321280269
 30
0.0
 40
5.0
 41
0.0
 71
     1
 72
     5
  1
{\Ftxt,bigfont|c128;\W0.5;N L 4 0 2 9 3}
 73
     1
 44
1.0
1001
ACAD
1000
ACAD_MTEXT_DEFINED_HEIGHT_BEGIN
1070
    46
1040
0.0
1000
ACAD_MTEXT_DEFINED_HEIGHT_END
  0
MTEXT
  5
AF48
330
18
100
AcDbEntity
  8
0
100
AcDbMText
 10
151.5700116201594
 20
27.85218499726989
 30
0.0
 40
5.0
 41
0.0
 71
     1
 72
     5
  1
\P{\Ftxt,bigfont|c128;\W0.5;MKR75X2.0P}
 73
     1
 44
1.0
1001
ACAD
1000
ACAD_MTEXT_DEFINED_HEIGHT_BEGIN
1070
    46
1040
0.0
1000
ACAD_MTEXT_DEFINED_HEIGHT_END
  0
MTEXT
  5
AF49
330
18
100
AcDbEntity
  8
0
100
AcDbMText
 10
15.3760677136774
 20
28.37740359834709
 30
0.0
 40
4.5
 41
0.0
 71
     1
 72
     5
  1
{\Ftxt,bigfont|c128;\W0.5;08.07.07}
 73
     1
 44
1.0
1001
ACAD
1000
ACAD_MTEXT_DEFINED_HEIGHT_BEGIN
1070
    46
1040
0.0
1000
ACAD_MTEXT_DEFINED_HEIGHT_END
  0
MTEXT
  5
AF4A
330
18
100
AcDbEntity
  8
0
100
AcDbMText
 10
9.2763627141411
 20
9.242195050049303
 30
0.0
 40
7.0
 41
0.0
 71
     1
 72
     5
  1
{\Ftxt,bigfont|c128;\W1.5;日機株式会社}
 73
     1
 44
1.0
1001
ACAD
1000
ACAD_MTEXT_DEFINED_HEIGHT_BEGIN
1070
    46
1040
0.0
1000
ACAD_MTEXT_DEFINED_HEIGHT_END
  0
LINE
  5
AF4B
330
18
100
AcDbEntity
  8
frame
100
AcDbLine
 10
0.0
 20
12.0
 30
0.0
 11
190.0
 21
12.00000000000005
 31
0.0
  0
LINE
  5
AF4C
330
18
100
AcDbEntity
  8
frame
100
AcDbLine
 10
0.0
 20
22.0
 30
0.0
 11
92.12121212121223
 21
22.0
 31
0.0
  0
LINE
  5
AF4D
330
18
100
AcDbEntity
  8
frame
100
AcDbLine
 10
0.0
 20
32.0
 30
0.0
 11
190.0
 21
32.0
 31
0.0
  0
LINE
  5
AF4E
330
18
100
AcDbEntity
  8
frame
100
AcDbLine
 10
12.19077332493799
 20
32.0
 30
0.0
 11
12.19077332493799
 21
12.0
 31
0.0
  0
LINE
  5
AF4F
330
18
100
AcDbEntity
  8
frame
100
AcDbLine
 10
30.70707070707067
 20
32.0
 30
0.0
 11
30.70707070707078
 21
12.0
 31
0.0
  0
MTEXT
  5
AF50
330
18
100
AcDbEntity
  8
0
100
AcDbMText
 10
2.830274784221955
 20
29.08190089582831
 30
0.0
 40
5.0
 41
0.0
 71
     1
 72
     5
  1
{\Ftxt,bigfont|c128;\W0.5;日 付}
 73
     1
 44
1.0
1001
ACAD
1000
ACAD_MTEXT_DEFINED_HEIGHT_BEGIN
1070
    46
1040
0.0
1000
ACAD_MTEXT_DEFINED_HEIGHT_END
  0
MTEXT
  5
AF51
330
18
100
AcDbEntity
  8
0
100
AcDbMText
 10
2.97063307743889
 20
19.52163842926637
 30
0.0
 40
5.0
 41
0.0
 71
     1
 72
     5
  1
{\Ftxt,bigfont|c128;\W0.5;製 図}
 73
     1
 44
1.0
1001
ACAD
1000
ACAD_MTEXT_DEFINED_HEIGHT_BEGIN
1070
    46
1040
0.0
1000
ACAD_MTEXT_DEFINED_HEIGHT_END
  0
LINE
  5
AF52
330
18
100
AcDbEntity
  8
0
 62
     7
370
    25
100
AcDbLine
 10
53.04580144287854
 20
23.81984609294597
 30
0.0
 11
53.04580144287854
 21
28.93622339589922
 31
0.0
  0
MTEXT
  5
AF53
330
18
100
AcDbEntity
  8
0
100
AcDbMText
 10
64.00748852490835
 20
29.12242703792379
 30
0.0
 40
5.0
 41
0.0
 71
     1
 72
     5
  1
{\Ftxt,bigfont|c128;\W0.5;尺 度}
 73
     1
 44
1.0
1001
ACAD
1000
ACAD_MTEXT_DEFINED_HEIGHT_BEGIN
1070
    46
1040
0.0
1000
ACAD_MTEXT_DEFINED_HEIGHT_END
  0
LINE
  5
AF54
330
18
100
AcDbEntity
  8
frame
100
AcDbLine
 10
61.41414141414145
 20
32.0
 30
0.0
 11
61.41414141414145
 21
12.0
 31
0.0
  0
LINE
  5
AF55
330
18
100
AcDbEntity
  8
0
 62
     7
370
    25
100
AcDbLine
 10
39.6153110226262
 20
23.18889018332635
 30
0.0
 11
39.6153110226262
 21
29.36457992429672
 31
0.0
  0
CIRCLE
  5
AF56
330
18
100
AcDbEntity
  8
0
 62
     7
100
AcDbCircle
 10
39.6153110226262
 20
26.37803474442251
 30
0.0
 40
2.558188651476678
  0
LINE
  5
AF57
330
18
100
AcDbEntity
  8
0
 62
     7
370
    25
100
AcDbLine
 10
47.19321986919976
 20
26.37803474442262
 30
0.0
 11
53.50512581624241
 21
26.37803474442262
 31
0.0
  0
LINE
  5
AF58
330
18
100
AcDbEntity
  8
0
 62
     7
100
AcDbLine
 10
47.92942413992534
 20
25.09894041868427
 30
0.0
 11
53.04580144287854
 21
23.81984609294597
 31
0.0
  0
LINE
  5
AF59
330
18
100
AcDbEntity
  8
frame
100
AcDbLine
 10
42.742241959951
 20
22.0
 30
0.0
 11
42.742241959951
 21
12.0
 31
0.0
  0
LINE
  5
AF5A
330
18
100
AcDbEntity
  8
0
 62
     7
370
    25
100
AcDbLine
 10
36.41832228486612
 20
26.37803474442251
 30
0.0
 11
43.00325267619268
 21
26.37803474442262
 31
0.0
  0
CIRCLE
  5
AF5B
330
18
100
AcDbEntity
  8
0
 62
     7
100
AcDbCircle
 10
39.6153110226262
 20
26.37803474442251
 30
0.0
 40
1.279094325738339
  0
MTEXT
  5
AF5C
330
18
100
AcDbEntity
  8
0
100
AcDbMText
 10
33.70184032462407
 20
19.41013815785266
 30
0.0
 40
5.0
 41
0.0
 71
     1
 72
     5
  1
{\Ftxt,bigfont|c128;\W0.5;検 図}
 73
     1
 44
1.0
1001
ACAD
1000
ACAD_MTEXT_DEFINED_HEIGHT_BEGIN
1070
    46
1040
0.0
1000
ACAD_MTEXT_DEFINED_HEIGHT_END
  0
LINE
  5
AF5D
330
18
100
AcDbEntity
  8
0
 62
     7
370
    25
100
AcDbLine
 10
47.92942413992534
 20
25.09894041868427
 30
0.0
 11
47.92942413992534
 21
27.65712907016086
 31
0.0
  0
MTEXT
  5
AF5E
330
18
100
AcDbEntity
  8
0
100
AcDbMText
 10
64.28820249919829
 20
19.32058534748881
 30
0.0
 40
5.0
 41
0.0
 71
     1
 72
     5
  1
{\Ftxt,bigfont|c128;\W0.5;承 認}
 73
     1
 44
1.0
1001
ACAD
1000
ACAD_MTEXT_DEFINED_HEIGHT_BEGIN
1070
    46
1040
0.0
1000
ACAD_MTEXT_DEFINED_HEIGHT_END
  0
MTEXT
  5
AF5F
330
18
100
AcDbEntity
  8
0
100
AcDbMText
 10
93.71128715606699
 20
8.296061362868272
 30
0.0
 40
5.0
 41
0.0
 71
     1
 72
     5
  1
{\Ftxt,bigfont|c128;\W0.5;図  面  番  号}
 73
     1
 44
1.0
1001
ACAD
1000
ACAD_MTEXT_DEFINED_HEIGHT_BEGIN
1070
    46
1040
0.0
1000
ACAD_MTEXT_DEFINED_HEIGHT_END
  0
MTEXT
  5
AF60
330
18
100
AcDbEntity
  8
0
100
AcDbMText
 10
99.83012938662671
 20
27.61736863466092
 30
0.0
 40
5.0
 41
0.0
 71
     1
 72
     5
  1
\P{\Ftxt,bigfont|c128;    \W0.5;精密ロックナット}
 73
     1
 44
1.0
1001
ACAD
1000
ACAD_MTEXT_DEFINED_HEIGHT_BEGIN
1070
    46
1040
0.0
1000
ACAD_MTEXT_DEFINED_HEIGHT_END
  0
MTEXT
  5
AF61
330
18
100
AcDbEntity
  8
0
100
AcDbMText
 10
94.8083613031232
 20
29.03862457973275
 30
0.0
 40
5.0
 41
0.0
 71
     1
 72
     5
  1
{\Ftxt,bigfont|c128;\W0.5;品  名}
 73
     1
 44
1.0
1001
ACAD
1000
ACAD_MTEXT_DEFINED_HEIGHT_BEGIN
1070
    46
1040
0.0
1000
ACAD_MTEXT_DEFINED_HEIGHT_END
  0
LINE
  5
AF62
330
18
100
AcDbEntity
  8
frame
100
AcDbLine
 10
92.12121212121223
 20
32.0
 30
0.0
 11
92.12121212121223
 21
0.1833227579584786
 31
0.0
  0
LINE
  5
AF63
330
18
100
AcDbEntity
  8
frame
100
AcDbLine
 10
73.41414141414145
 20
32.0
 30
0.0
 11
73.41414141414145
 21
12.0
 31
0.0
  0
LINE
  5
AF64
330
18
100
AcDbEntity
  8
frame
100
AcDbLine
 10
147.0327092740656
 20
32.0
 30
0.0
 11
147.0327092740657
 21
12.0
 31
0.0
  0
MTEXT
  5
AF65
330
18
100
AcDbEntity
  8
0
100
AcDbMText
 10
150.895959446773
 20
29.04517782830391
 30
0.0
 40
5.0
 41
0.0
 71
     1
 72
     5
  1
{\Ftxt,bigfont|c128;\W0.5;型  番}
 73
     1
 44
1.0
1001
ACAD
1000
ACAD_MTEXT_DEFINED_HEIGHT_BEGIN
1070
    46
1040
0.0
1000
ACAD_MTEXT_DEFINED_HEIGHT_END
  0
MTEXT
  5
AF66
330
18
100
AcDbEntity
  8
0
100
AcDbMText
 10
165.8059614810325
 20
8.576913178763106
 30
0.0
 40
5.0
 41
0.0
 71
     1
 72
     5
  1
{\Ftxt,bigfont|c128;\W0.5;変更}
 73
     1
 44
1.0
1001
ACAD
1000
ACAD_MTEXT_DEFINED_HEIGHT_BEGIN
1070
    46
1040
0.0
1000
ACAD_MTEXT_DEFINED_HEIGHT_END
  0
LINE
  5
AF67
330
18
100
AcDbEntity
  8
frame
100
AcDbLine
 10
164.0909090909092
 20
12.00000000000005
 30
0.0
 11
164.0909090909093
 21
0.0
 31
0.0
  0
LINE
  5
AF68
330
18
100
AcDbEntity
  8
frame
100
AcDbLine
 10
124.6157900786393
 20
43.13491348924492
 30
0.0
 11
184.6157900786393
 21
43.13491348924481
 31
0.0
  0
LINE
  5
AF69
330
18
100
AcDbEntity
  8
frame
100
AcDbLine
 10
124.6157900786393
 20
50.33491348924497
 30
0.0
 11
184.6157900786393
 21
50.33491348924497
 31
0.0
  0
LINE
  5
AF6A
330
18
100
AcDbEntity
  8
frame
100
AcDbLine
 10
124.6157900786393
 20
57.5349134892449
 30
0.0
 11
184.6157900786393
 21
57.53491348924478
 31
0.0
  0
LINE
  5
AF6B
330
18
100
AcDbEntity
  8
frame
100
AcDbLine
 10
124.6157900786393
 20
64.73491348924494
 30
0.0
 11
184.6157900786393
 21
64.73491348924483
 31
0.0
  0
LINE
  5
AF6C
330
18
100
AcDbEntity
  8
frame
100
AcDbLine
 10
124.6157900786393
 20
35.93491348924488
 30
0.0
 11
184.6157900786393
 21
35.93491348924488
 31
0.0
  0
MTEXT
  5
AF6D
330
18
100
AcDbEntity
  8
0
 48
2.0
100
AcDbMText
 10
154.5011900445106
 20
65.52808189982909
 30
0.0
 40
5.0
 41
0.0
 71
     5
 72
     1
  1
\P{\Ftxt,bigfont|c128;\H1.042x;\W0.5;諸　　　　元}
 73
     1
 44
1.0
1001
ACAD
1000
ACAD_MTEXT_DEFINED_HEIGHT_BEGIN
1070
    46
1040
0.0
1000
ACAD_MTEXT_DEFINED_HEIGHT_END
  0
LINE
  5
AF6E
330
18
100
AcDbEntity
  8
frame
100
AcDbLine
 10
124.6157900786393
 20
64.73491348924483
 30
0.0
 11
124.6157900786393
 21
35.93491348924488
 31
0.0
  0
MTEXT
  5
AF6F
330
18
100
AcDbEntity
  8
0
 48
2.0
100
AcDbMText
 10
135.799177113669
 20
54.01970870242223
 30
0.0
 40
5.0
 41
0.0
 71
     5
 72
     1
  1
{\Ftxt,bigfont|c128;\W0.5;熱　処　理}
 73
     1
 44
1.0
1001
ACAD
1000
ACAD_MTEXT_DEFINED_HEIGHT_BEGIN
1070
    46
1040
0.0
1000
ACAD_MTEXT_DEFINED_HEIGHT_END
  0
LINE
  5
AF70
330
18
100
AcDbEntity
  8
0
100
AcDbLine
 10
148.6157900786393
 20
57.53491348924478
 30
0.0
 11
148.6157900786393
 21
35.93491348924488
 31
0.0
  0
MTEXT
  5
AF71
330
18
100
AcDbEntity
  8
0
 48
2.0
100
AcDbMText
 10
136.1158625954765
 20
46.61974099088547
 30
0.0
 40
5.0
 41
0.0
 71
     5
 72
     1
  1
{\Ftxt,bigfont|c128;\W0.5;表 面 処 理}
 73
     1
 44
1.0
1001
ACAD
1000
ACAD_MTEXT_DEFINED_HEIGHT_BEGIN
1070
    46
1040
0.0
1000
ACAD_MTEXT_DEFINED_HEIGHT_END
  0
MTEXT
  5
AF72
330
18
100
AcDbEntity
  8
0
 48
2.0
100
AcDbMText
 10
136.3064351357138
 20
39.53013776941589
 30
0.0
 40
5.0
 41
0.0
 71
     5
 72
     1
  1
{\Ftxt,bigfont|c128;\W0.5;等     　級}
 73
     1
 44
1.0
1001
ACAD
1000
ACAD_MTEXT_DEFINED_HEIGHT_BEGIN
1070
    46
1040
0.0
1000
ACAD_MTEXT_DEFINED_HEIGHT_END
  0
LINE
  5
AF73
330
18
100
AcDbEntity
  8
frame
100
AcDbLine
 10
184.6157900786393
 20
64.73491348924483
 30
0.0
 11
184.6157900786393
 21
35.93491348924499
 31
0.0
  0
MTEXT
  5
AF74
330
18
100
AcDbEntity
  8
0
 48
2.0
100
AcDbMText
 10
167.1483511063784
 20
53.94720739886157
 30
0.0
 40
5.0
 41
0.0
 71
     5
 72
     1
  1
{\Ftxt,bigfont|c128;\W0.5;調質　HRC30%%D%%P２%%D}
 73
     1
 44
1.0
1001
ACAD
1000
ACAD_MTEXT_DEFINED_HEIGHT_BEGIN
1070
    46
1040
0.0
1000
ACAD_MTEXT_DEFINED_HEIGHT_END
  0
MTEXT
  5
AF75
330
18
100
AcDbEntity
  8
0
 48
2.0
100
AcDbMText
 10
161.5295505616327
 20
39.48145527421412
 30
0.0
 40
5.0
 41
0.0
 71
     5
 72
     1
  1
{\Ftxt,bigfont|c128;\W0.5;ＩＳＯ - ４Ｈ}
 73
     1
 44
1.0
1001
ACAD
1000
ACAD_MTEXT_DEFINED_HEIGHT_BEGIN
1070
    46
1040
0.0
1000
ACAD_MTEXT_DEFINED_HEIGHT_END
  0
MTEXT
  5
AF76
330
18
100
AcDbEntity
  8
0
 48
2.0
100
AcDbMText
 10
161.3126275617533
 20
46.86379586210626
 30
0.0
 40
5.0
 41
0.0
 71
     5
 72
     1
  1
{\Ftxt,bigfont|c128;\W0.5;黒  　    染}
 73
     1
 44
1.0
1001
ACAD
1000
ACAD_MTEXT_DEFINED_HEIGHT_BEGIN
1070
    46
1040
0.0
1000
ACAD_MTEXT_DEFINED_HEIGHT_END
  0
MTEXT
  5
AF77
330
18
100
AcDbEntity
  8
0
100
AcDbMText
 10
57.63639061334425
 20
260.2464527942954
 30
0.0
 40
5.0
 41
0.0
 71
     1
 72
     5
  1
{\Ftxt,bigfont|c128;\W0.5;M6X1.0P-20L}
 73
     1
 44
1.0
1001
ACAD
1000
ACAD_MTEXT_DEFINED_HEIGHT_BEGIN
1070
    46
1040
0.0
1000
ACAD_MTEXT_DEFINED_HEIGHT_END
  0
LINE
  5
AF78
330
18
100
AcDbEntity
  8
frame
100
AcDbLine
 10
0.0
 20
254.0
 30
0.0
 11
190.0
 21
254.0
 31
0.0
  0
LINE
  5
AF79
330
18
100
AcDbEntity
  8
frame
100
AcDbLine
 10
0.0
 20
262.0
 30
0.0
 11
190.0
 21
262.0
 31
0.0
  0
LINE
  5
AF7A
330
18
100
AcDbEntity
  8
frame
 62
     9
100
AcDbLine
 10
0.0
 20
270.0
 30
0.0
 11
190.0
 21
270.0
 31
0.0
  0
MTEXT
  5
AF7B
330
18
100
AcDbEntity
  8
0
100
AcDbMText
 10
57.0156439060371
 20
277.4240560049041
 30
0.0
 40
5.0
 41
0.0
 71
     1
 72
     5
  1
{\Ftxt,bigfont|c128;\W0.5;図    番 / 規　　格}
 73
     1
 44
1.0
1001
ACAD
1000
ACAD_MTEXT_DEFINED_HEIGHT_BEGIN
1070
    46
1040
0.0
1000
ACAD_MTEXT_DEFINED_HEIGHT_END
  0
LINE
  5
AF7C
330
18
100
AcDbEntity
  8
frame
100
AcDbLine
 10
0.0
 20
254.0
 30
0.0
 11
190.0
 21
254.0
 31
0.0
  0
MTEXT
  5
AF7D
330
18
100
AcDbEntity
  8
0
100
AcDbMText
 10
21.12488048923433
 20
277.4637981386743
 30
0.0
 40
5.0
 41
0.0
 71
     1
 72
     5
  1
{\Ftxt,bigfont|c128;\W0.5;品　          名}
 73
     1
 44
1.0
1001
ACAD
1000
ACAD_MTEXT_DEFINED_HEIGHT_BEGIN
1070
    46
1040
0.0
1000
ACAD_MTEXT_DEFINED_HEIGHT_END
  0
MTEXT
  5
AF7E
330
18
100
AcDbEntity
  8
0
100
AcDbMText
 10
21.00789435981875
 20
260.7907237289111
 30
0.0
 40
5.0
 41
0.0
 71
     1
 72
     5
  1
{\Ftxt,bigfont|c128;\W0.5;セットスクリュ-}
 73
     1
 44
1.0
1001
ACAD
1000
ACAD_MTEXT_DEFINED_HEIGHT_BEGIN
1070
    46
1040
0.0
1000
ACAD_MTEXT_DEFINED_HEIGHT_END
  0
MTEXT
  5
AF7F
330
18
100
AcDbEntity
  8
0
100
AcDbMText
 10
20.82017529734901
 20
268.8361230282964
 30
0.0
 40
5.0
 41
0.0
 71
     1
 72
     5
  1
{\Ftxt,bigfont|c128;\W0.5;ロックナット　  }
 73
     1
 44
1.0
1001
ACAD
1000
ACAD_MTEXT_DEFINED_HEIGHT_BEGIN
1070
    46
1040
0.0
1000
ACAD_MTEXT_DEFINED_HEIGHT_END
  0
LINE
  5
AF80
330
18
100
AcDbEntity
  8
frame
 62
     9
100
AcDbLine
 10
14.39393939393937
 20
279.9999999999999
 30
0.0
 11
14.39393939393963
 21
254.0
 31
0.0
  0
LINE
  5
AF81
330
18
100
AcDbEntity
  8
frame
 62
     9
100
AcDbLine
 10
14.39393939393937
 20
279.9999999999999
 30
0.0
 11
14.39393939393937
 21
255.0505050505051
 31
0.0
  0
MTEXT
  5
AF82
330
18
100
AcDbEntity
  8
0
100
AcDbMText
 10
6.815009268013795
 20
268.7281674434121
 30
0.0
 40
5.0
 41
0.0
 71
     1
 72
     5
  1
{\Ftxt,bigfont|c128;1}
 73
     1
 44
1.0
1001
ACAD
1000
ACAD_MTEXT_DEFINED_HEIGHT_BEGIN
1070
    46
1040
0.0
1000
ACAD_MTEXT_DEFINED_HEIGHT_END
  0
MTEXT
  5
AF83
330
18
100
AcDbEntity
  8
0
100
AcDbMText
 10
2.119828072980226
 20
277.4734782639491
 30
0.0
 40
5.0
 41
0.0
 71
     1
 72
     5
  1
{\Ftxt,bigfont|c128;\W0.5;照   号}
 73
     1
 44
1.0
1001
ACAD
1000
ACAD_MTEXT_DEFINED_HEIGHT_BEGIN
1070
    46
1040
0.0
1000
ACAD_MTEXT_DEFINED_HEIGHT_END
  0
LINE
  5
AF84
330
18
100
AcDbEntity
  8
frame
 62
     9
100
AcDbLine
 10
52.77777777777783
 20
279.9999999999999
 30
0.0
 11
52.77777777777783
 21
254.0
 31
0.0
  0
MTEXT
  5
AF85
330
18
100
AcDbEntity
  8
0
100
AcDbMText
 10
145.5736374372851
 20
277.6781663894194
 30
0.0
 40
5.0
 41
0.0
 71
     1
 72
     5
  1
{\Ftxt,bigfont|c128;\W0.5;備           考}
 73
     1
 44
1.0
1001
ACAD
1000
ACAD_MTEXT_DEFINED_HEIGHT_BEGIN
1070
    46
1040
0.0
1000
ACAD_MTEXT_DEFINED_HEIGHT_END
  0
LINE
  5
AF86
330
18
100
AcDbEntity
  8
frame
 62
     9
100
AcDbLine
 10
91.16161616161617
 20
280.0
 30
0.0
 11
91.16161616161617
 21
254.0
 31
0.0
  0
MTEXT
  5
AF87
330
18
100
AcDbEntity
  8
0
100
AcDbMText
 10
92.87341089179369
 20
268.8361230282964
 30
0.0
 40
5.0
 41
0.0
 71
     1
 72
     5
  1
{\Ftxt,bigfont|c128;\W0.5;SCM440}
 73
     1
 44
1.0
1001
ACAD
1000
ACAD_MTEXT_DEFINED_HEIGHT_BEGIN
1070
    46
1040
0.0
1000
ACAD_MTEXT_DEFINED_HEIGHT_END
  0
MTEXT
  5
AF88
330
18
100
AcDbEntity
  8
0
100
AcDbMText
 10
92.87341089179369
 20
260.765002012584
 30
0.0
 40
5.0
 41
0.0
 71
     1
 72
     5
  1
{\Ftxt,bigfont|c128;\W0.5;SCM435}
 73
     1
 44
1.0
1001
ACAD
1000
ACAD_MTEXT_DEFINED_HEIGHT_BEGIN
1070
    46
1040
0.0
1000
ACAD_MTEXT_DEFINED_HEIGHT_END
  0
MTEXT
  5
AF89
330
18
100
AcDbEntity
  8
0
100
AcDbMText
 10
95.76798863104192
 20
277.5645499482919
 30
0.0
 40
5.0
 41
0.0
 71
     1
 72
     5
  1
{\Ftxt,bigfont|c128;\W0.5;材　質}
 73
     1
 44
1.0
1001
ACAD
1000
ACAD_MTEXT_DEFINED_HEIGHT_BEGIN
1070
    46
1040
0.0
1000
ACAD_MTEXT_DEFINED_HEIGHT_END
  0
LINE
  5
AF8A
330
18
100
AcDbEntity
  8
frame
 62
     9
100
AcDbLine
 10
110.3535353535354
 20
280.0
 30
0.0
 11
110.3535353535354
 21
254.0
 31
0.0
  0
LINE
  5
AF8B
330
18
100
AcDbEntity
  8
frame
100
AcDbLine
 10
124.7474747474747
 20
280.0
 30
0.0
 11
124.7474747474748
 21
254.0
 31
0.0
  0
MTEXT
  5
AF8C
330
18
100
AcDbEntity
  8
0
100
AcDbMText
 10
117.1685446215491
 20
269.0412711679932
 30
0.0
 40
5.0
 41
0.0
 71
     1
 72
     5
  1
\Ftxt.shx,bigfont.shx|c128;1
 73
     1
 44
1.0
  0
MTEXT
  5
AF8D
330
18
100
AcDbEntity
  8
0
100
AcDbMText
 10
116.5939070266884
 20
260.5092290150679
 30
0.0
 40
5.0
 41
0.0
 71
     1
 72
     5
  1
{\Ftxt,bigfont|c128;6}
 73
     1
 44
1.0
1001
ACAD
1000
ACAD_MTEXT_DEFINED_HEIGHT_BEGIN
1070
    46
1040
0.0
1000
ACAD_MTEXT_DEFINED_HEIGHT_END
  0
MTEXT
  5
AF8E
330
18
100
AcDbEntity
  8
0
100
AcDbMText
 10
112.4223895919262
 20
277.5645499482919
 30
0.0
 40
5.0
 41
0.0
 71
     1
 72
     5
  1
{\Ftxt,bigfont|c128;\W0.5;数   量}
 73
     1
 44
1.0
1001
ACAD
1000
ACAD_MTEXT_DEFINED_HEIGHT_BEGIN
1070
    46
1040
0.0
1000
ACAD_MTEXT_DEFINED_HEIGHT_END
  0
MTEXT
  5
AF8F
330
18
100
AcDbEntity
  8
0
100
AcDbMText
 10
6.404019699055993
 20
260.7281674434121
 30
0.0
 40
5.0
 41
0.0
 71
     1
 72
     5
  1
{\Ftxt,bigfont|c128;2}
 73
     1
 44
1.0
1001
ACAD
1000
ACAD_MTEXT_DEFINED_HEIGHT_BEGIN
1070
    46
1040
0.0
1000
ACAD_MTEXT_DEFINED_HEIGHT_END
  0
LINE
  5
AFC8
330
18
100
AcDbEntity
  8
0
 62
     7
100
AcDbLine
 10
47.92942413992534
 20
27.65712907016098
 30
0.0
 11
53.04580144287854
 21
28.93622339589928
 31
0.0
  0
LINE
  5
E774
330
18
100
AcDbEntity
  8
contour
100
AcDbLine
 10
40.47235055255685
 20
112.9503736074819
 30
0.0
 11
40.47235055255685
 21
97.60037360748192
 31
0.0
  0
ARC
  5
E775
330
18
100
AcDbEntity
  8
contour
100
AcDbCircle
 10
41.47235055255686
 20
97.60037360748192
 30
0.0
 40
1.0
100
AcDbArc
 50
180.0
 51
270.0
  0
LINE
  5
E776
330
18
100
AcDbEntity
  8
contour
100
AcDbLine
 10
40.47235055255685
 20
93.60037360748194
 30
0.0
 11
40.47235055255685
 21
86.95037360748193
 31
0.0
  0
ARC
  5
E777
330
18
100
AcDbEntity
  8
contour
100
AcDbCircle
 10
41.47235055255686
 20
86.95037360748193
 30
0.0
 40
1.0
100
AcDbArc
 50
180.0
 51
270.0
  0
LINE
  5
E778
330
18
100
AcDbEntity
  8
contour
100
AcDbLine
 10
41.47235055255686
 20
85.95037360748188
 30
0.0
 11
139.4723505525569
 21
85.95037360748191
 31
0.0
  0
ARC
  5
E779
330
18
100
AcDbEntity
  8
contour
100
AcDbCircle
 10
139.4723505525569
 20
86.95037360748191
 30
0.0
 40
1.0
100
AcDbArc
 50
270.0
 51
0.0
  0
LINE
  5
E77A
330
18
100
AcDbEntity
  8
contour
100
AcDbLine
 10
41.47235055255686
 20
94.60037360748193
 30
0.0
 11
50.72235055255686
 21
94.60037360748192
 31
0.0
  0
ARC
  5
E77B
330
18
100
AcDbEntity
  8
contour
100
AcDbCircle
 10
41.47235055255686
 20
93.60037360748194
 30
0.0
 40
1.0
100
AcDbArc
 50
90.0
 51
180.0
  0
LINE
  5
E77C
330
18
100
AcDbEntity
  8
contour
100
AcDbLine
 10
41.47235055255686
 20
96.60037360748191
 30
0.0
 11
50.72235055255686
 21
96.60037360748191
 31
0.0
  0
LINE
  5
E77D
330
18
100
AcDbEntity
  8
contour
100
AcDbLine
 10
43.22235055255691
 20
97.80037360748199
 30
0.0
 11
130.9723505525568
 21
97.80037360748199
 31
0.0
  0
LINE
  5
E77E
330
18
100
AcDbEntity
  8
contour
100
AcDbLine
 10
43.22235055255691
 20
100.800373607482
 30
0.0
 11
130.9723505525568
 21
100.8003736074819
 31
0.0
  0
LINE
  5
E77F
330
18
100
AcDbEntity
  8
contour
100
AcDbLine
 10
54.05485055255685
 20
102.800373607482
 30
0.0
 11
52.05485055255684
 21
100.800373607482
 31
0.0
  0
LINE
  5
E780
330
18
100
AcDbEntity
  8
contour
100
AcDbLine
 10
140.4723505525569
 20
86.95037360748191
 30
0.0
 11
140.4723505525568
 21
93.60037360748192
 31
0.0
  0
ARC
  5
E781
330
18
100
AcDbEntity
  8
contour
100
AcDbCircle
 10
139.4723505525568
 20
93.60037360748192
 30
0.0
 40
1.0
100
AcDbArc
 50
0.0
 51
90.0
  0
LINE
  5
E782
330
18
100
AcDbEntity
  8
contour
100
AcDbLine
 10
140.4723505525568
 20
97.60037360748194
 30
0.0
 11
140.4723505525568
 21
112.9503736074819
 31
0.0
  0
ARC
  5
E783
330
18
100
AcDbEntity
  8
contour
100
AcDbCircle
 10
139.4723505525568
 20
97.60037360748194
 30
0.0
 40
1.0
100
AcDbArc
 50
270.0
 51
0.0
  0
ARC
  5
E784
330
18
100
AcDbEntity
  8
contour
100
AcDbCircle
 10
139.4723505525568
 20
112.9503736074819
 30
0.0
 40
1.0
100
AcDbArc
 50
0.0
 51
90.0
  0
LINE
  5
E785
330
18
100
AcDbEntity
  8
contour
100
AcDbLine
 10
139.4723505525568
 20
113.9503736074819
 30
0.0
 11
41.47235055255686
 21
113.9503736074818
 31
0.0
  0
LINE
  5
E786
330
18
100
AcDbEntity
  8
contour
100
AcDbLine
 10
54.05485055255685
 20
111.9503736074819
 30
0.0
 11
52.05485055255684
 21
113.9503736074819
 31
0.0
  0
ARC
  5
E787
330
18
100
AcDbEntity
  8
contour
100
AcDbCircle
 10
41.47235055255686
 20
112.9503736074819
 30
0.0
 40
1.0
100
AcDbArc
 50
90.0
 51
180.0
  0
LINE
  5
E788
330
18
100
AcDbEntity
  8
center
 48
0.4
100
AcDbLine
 10
90.47235055255686
 20
115.9503736074819
 30
0.0
 11
90.47235055255686
 21
83.9503736074819
 31
0.0
  0
LINE
  5
E789
330
18
100
AcDbEntity
  8
center
 48
0.4
100
AcDbLine
 10
133.9723505525568
 20
115.9503736074819
 30
0.0
 11
133.9723505525568
 21
83.9503736074819
 31
0.0
  0
LINE
  5
E78A
330
18
100
AcDbEntity
  8
contour
100
AcDbLine
 10
43.22235055255686
 20
100.8003736074819
 30
0.0
 11
43.22235055255686
 21
97.80037360748199
 31
0.0
  0
LINE
  5
E78B
330
18
100
AcDbEntity
  8
contour
100
AcDbLine
 10
50.72235055255686
 20
94.60037360748197
 30
0.0
 11
50.72235055255686
 21
96.60037360748198
 31
0.0
  0
LINE
  5
E78C
330
18
100
AcDbEntity
  8
contour
100
AcDbLine
 10
137.7223505525568
 20
100.8003736074819
 30
0.0
 11
137.7223505525568
 21
97.80037360748188
 31
0.0
  0
LINE
  5
E78D
330
18
100
AcDbEntity
  8
contour
100
AcDbLine
 10
41.47235055255691
 20
101.4503736074818
 30
0.0
 11
40.47235055255703
 21
100.4503736074819
 31
0.0
  0
LINE
  5
E78E
330
18
100
AcDbEntity
  8
contour
100
AcDbLine
 10
41.47235055255686
 20
101.4503736074818
 30
0.0
 11
48.16294947579848
 21
101.4503736074818
 31
0.0
  0
LINE
  5
E78F
330
18
100
AcDbEntity
  8
contour
100
AcDbLine
 10
50.47235055255703
 20
105.4503736074818
 30
0.0
 11
48.16294947579837
 21
109.4503736074818
 31
0.0
  0
LINE
  5
E790
330
18
100
AcDbEntity
  8
contour
100
AcDbLine
 10
48.16294947579837
 20
109.4503736074818
 30
0.0
 11
41.47235055255686
 21
109.4503736074818
 31
0.0
  0
LINE
  5
E791
330
18
100
AcDbEntity
  8
contour
100
AcDbLine
 10
50.47235055255703
 20
105.4503736074818
 30
0.0
 11
48.16294947579848
 21
101.4503736074818
 31
0.0
  0
LINE
  5
E792
330
18
100
AcDbEntity
  8
contour
100
AcDbLine
 10
48.16294947579837
 20
101.4503736074819
 30
0.0
 11
48.16294947579837
 21
109.4503736074818
 31
0.0
  0
LINE
  5
E793
330
18
100
AcDbEntity
  8
contour
100
AcDbLine
 10
41.47235055255686
 20
109.4503736074818
 30
0.0
 11
40.47235055255703
 21
110.4503736074817
 31
0.0
  0
LINE
  5
E794
330
18
100
AcDbEntity
  8
contour
100
AcDbLine
 10
41.47235055255686
 20
109.4503736074818
 30
0.0
 11
41.47235055255691
 21
101.4503736074818
 31
0.0
  0
LINE
  5
E795
330
18
100
AcDbEntity
  8
center
 48
0.2
100
AcDbLine
 10
52.47235055255703
 20
105.4503736074818
 30
0.0
 11
38.47235055255698
 21
105.4503736074818
 31
0.0
  0
LINE
  5
E796
330
18
100
AcDbEntity
  8
contour
100
AcDbLine
 10
136.9723505525568
 20
96.60037360748189
 30
0.0
 11
139.4723505525568
 21
96.60037360748194
 31
0.0
  0
LINE
  5
E797
330
18
100
AcDbEntity
  8
contour
100
AcDbLine
 10
136.9723505525568
 20
94.60037360748193
 30
0.0
 11
139.4723505525568
 21
94.60037360748192
 31
0.0
  0
LINE
  5
E798
330
18
100
AcDbEntity
  8
contour
 62
     4
100
AcDbLine
 10
52.97235055255686
 20
113.0328736074818
 30
0.0
 11
52.97235055255686
 21
101.717873607482
 31
0.0
  0
LINE
  5
E799
330
18
100
AcDbEntity
  8
contour
 62
     4
100
AcDbLine
 10
52.97235055255686
 20
96.88287360748203
 30
0.0
 11
52.97235055255686
 21
86.86787360748189
 31
0.0
  0
LINE
  5
E79A
330
18
100
AcDbEntity
  8
contour
100
AcDbLine
 10
54.05485055255685
 20
111.9503736074818
 30
0.0
 11
54.05485055255685
 21
102.800373607482
 31
0.0
  0
LINE
  5
E79B
330
18
100
AcDbEntity
  8
contour
100
AcDbLine
 10
54.05485055255685
 20
111.9503736074819
 30
0.0
 11
126.8898505525569
 21
111.9503736074819
 31
0.0
  0
LINE
  5
E79C
330
18
100
AcDbEntity
  8
contour
100
AcDbLine
 10
126.889850552557
 20
102.8003736074818
 30
0.0
 11
54.05485055255685
 21
102.800373607482
 31
0.0
  0
LINE
  5
E79D
330
18
100
AcDbEntity
  8
contour
100
AcDbLine
 10
130.2223505525568
 20
94.60037360748193
 30
0.0
 11
130.2223505525568
 21
96.60037360748194
 31
0.0
  0
LINE
  5
E79E
330
18
100
AcDbEntity
  8
contour
100
AcDbLine
 10
130.2223505525568
 20
96.60037360748194
 30
0.0
 11
130.9723505525568
 21
96.60037360748194
 31
0.0
  0
LINE
  5
E79F
330
18
100
AcDbEntity
  8
contour
100
AcDbLine
 10
130.2223505525568
 20
94.60037360748193
 30
0.0
 11
130.9723505525568
 21
94.60037360748193
 31
0.0
  0
LINE
  5
E7A0
330
18
100
AcDbEntity
  8
contour
100
AcDbLine
 10
49.67235055255696
 20
86.4503736074818
 30
0.0
 11
50.17235055255696
 21
85.95037360748179
 31
0.0
  0
LINE
  5
E7A1
330
18
100
AcDbEntity
  8
contour
100
AcDbLine
 10
49.67235055255684
 20
90.10285274607509
 30
0.0
 11
46.47235055255686
 21
91.95037360748187
 31
0.0
  0
LINE
  5
E7A2
330
18
100
AcDbEntity
  8
center
 48
0.1
100
AcDbLine
 10
46.47235055255686
 20
83.95037360748188
 30
0.0
 11
46.47235055255686
 21
95.60037360748195
 31
0.0
  0
LINE
  5
E7A3
330
18
100
AcDbEntity
  8
contour
100
AcDbLine
 10
43.27235055255693
 20
90.10285274607502
 30
0.0
 11
43.27235055255687
 21
86.45037360748194
 31
0.0
  0
LINE
  5
E7A4
330
18
100
AcDbEntity
  8
contour
100
AcDbLine
 10
42.77235055255687
 20
85.95037360748193
 30
0.0
 11
43.27235055255687
 21
86.45037360748194
 31
0.0
  0
LINE
  5
E7A5
330
18
100
AcDbEntity
  8
contour
100
AcDbLine
 10
49.67235055255684
 20
90.10285274607509
 30
0.0
 11
49.67235055255696
 21
86.4503736074819
 31
0.0
  0
LINE
  5
E7A6
330
18
100
AcDbEntity
  8
contour
100
AcDbLine
 10
43.27235055255693
 20
90.10285274607502
 30
0.0
 11
46.47235055255686
 21
91.95037360748187
 31
0.0
  0
LINE
  5
E7A7
330
18
100
AcDbEntity
  8
contour
100
AcDbLine
 10
43.27235055255693
 20
90.10285274607506
 30
0.0
 11
49.67235055255684
 21
90.10285274607509
 31
0.0
  0
LINE
  5
E7A8
330
18
100
AcDbEntity
  8
contour
100
AcDbLine
 10
43.27235055255687
 20
86.4503736074819
 30
0.0
 11
49.67235055255691
 21
86.45037360748203
 31
0.0
  0
LINE
  5
E7A9
330
18
100
AcDbEntity
  8
contour
100
AcDbLine
 10
137.7223505525568
 20
100.8003736074819
 30
0.0
 11
136.9723505525568
 21
100.8003736074819
 31
0.0
  0
LINE
  5
E7AA
330
18
100
AcDbEntity
  8
contour
100
AcDbLine
 10
137.7223505525568
 20
97.80037360748188
 30
0.0
 11
136.9723505525568
 21
97.8003736074819
 31
0.0
  0
INSERT
  5
E7AB
330
18
100
AcDbEntity
  8
contour
100
AcDbBlockReference
  2
ls6
 10
-204.1885015658845
 20
-30.44716775394838
 30
0.0
  0
LINE
  5
E7AC
330
18
100
AcDbEntity
  8
contour
100
AcDbLine
 10
128.9723505525568
 20
86.3503736074819
 30
0.0
 11
128.9723505525568
 21
85.95037360748191
 31
0.0
  0
LINE
  5
E7AD
330
18
100
AcDbEntity
  8
contour
100
AcDbLine
 10
138.9723505525568
 20
86.3503736074819
 30
0.0
 11
138.9723505525568
 21
85.95037360748191
 31
0.0
  0
LINE
  5
E7AE
330
18
100
AcDbEntity
  8
contour
100
AcDbLine
 10
131.5138505525568
 20
111.4918736074819
 30
0.0
 11
131.5138505525568
 21
113.9503736074819
 31
0.0
  0
LINE
  5
E7AF
330
18
100
AcDbEntity
  8
contour
 62
     4
100
AcDbLine
 10
130.9723505525568
 20
110.9503736074819
 30
0.0
 11
130.9723505525568
 21
113.9503736074819
 31
0.0
  0
LINE
  5
E7B0
330
18
100
AcDbEntity
  8
contour
100
AcDbLine
 10
136.4308505525569
 20
111.4918736074818
 30
0.0
 11
136.4308505525569
 21
113.9503736074819
 31
0.0
  0
LINE
  5
E7B1
330
18
100
AcDbEntity
  8
contour
 62
     4
100
AcDbLine
 10
136.9723505525568
 20
110.9503736074819
 30
0.0
 11
136.9723505525568
 21
113.9503736074819
 31
0.0
  0
LINE
  5
E7B2
330
18
100
AcDbEntity
  8
center
 48
0.3
100
AcDbLine
 10
90.47235055255692
 20
143.0
 30
0.0
 11
90.47235055255697
 21
247.0
 31
0.0
  0
LINE
  5
E7B3
330
18
100
AcDbEntity
  8
center
 48
0.3
100
AcDbLine
 10
38.47235055255698
 20
195.0
 30
0.0
 11
142.472350552557
 21
195.0
 31
0.0
  0
CIRCLE
  5
E7B4
330
18
100
AcDbEntity
  8
contour
100
AcDbCircle
 10
90.47235055255692
 20
195.0
 30
0.0
 40
49.99999999999994
  0
CIRCLE
  5
E7B5
330
18
100
AcDbEntity
  8
center
 48
0.3
100
AcDbCircle
 10
90.47235055255692
 20
195.0
 30
0.0
 40
43.5
  0
CIRCLE
  5
E7B6
330
18
100
AcDbEntity
  8
contour
100
AcDbCircle
 10
133.972350552557
 20
195.0
 30
0.0
 40
2.458500000000015
  0
ARC
  5
E7B7
330
18
100
AcDbEntity
  8
contour
 62
     4
100
AcDbCircle
 10
133.972350552557
 20
195.0
 30
0.0
 40
3.0
100
AcDbArc
 50
168.4630409671834
 51
101.5369590328181
  0
CIRCLE
  5
E7B8
330
18
100
AcDbEntity
  8
bowle
 48
0.2
100
AcDbCircle
 10
133.972350552557
 20
195.0
 30
0.0
 40
5.0
  0
LINE
  5
E7B9
330
18
100
AcDbEntity
  8
bowle
 48
0.2
100
AcDbLine
 10
46.03710576711949
 20
216.0358983848623
 30
0.0
 11
44.98283428949849
 21
215.7534071938305
 31
0.0
  0
LINE
  5
E7BA
330
18
100
AcDbEntity
  8
bowle
 48
0.2
100
AcDbLine
 10
46.03710576711949
 20
216.0358983848623
 30
0.0
 11
51.8313344011795
 21
212.6905989232415
 31
0.0
  0
LINE
  5
E7BB
330
18
100
AcDbEntity
  8
bowle
 48
0.2
100
AcDbLine
 10
55.83133440117961
 20
214.9999999999999
 30
0.0
 11
55.83133440117939
 21
219.618802153517
 31
0.0
  0
LINE
  5
E7BC
330
18
100
AcDbEntity
  8
bowle
 48
0.2
100
AcDbLine
 10
55.83133440117939
 20
219.618802153517
 30
0.0
 11
50.0371057671195
 21
222.9641016151378
 31
0.0
  0
LINE
  5
E7BD
330
18
100
AcDbEntity
  8
bowle
 48
0.2
100
AcDbLine
 10
55.83133440117961
 20
214.9999999999999
 30
0.0
 11
51.8313344011795
 21
212.6905989232415
 31
0.0
  0
LINE
  5
E7BE
330
18
100
AcDbEntity
  8
bowle
 48
0.2
100
AcDbLine
 10
51.83133440117945
 20
212.6905989232416
 30
0.0
 11
55.83133440117939
 21
219.618802153517
 31
0.0
  0
LINE
  5
E7BF
330
18
100
AcDbEntity
  8
bowle
 48
0.2
100
AcDbLine
 10
50.0371057671195
 20
222.9641016151378
 30
0.0
 11
49.75461457608782
 21
224.0183730927587
 31
0.0
  0
LINE
  5
E7C0
330
18
100
AcDbEntity
  8
bowle
 48
0.2
100
AcDbLine
 10
50.0371057671195
 20
222.9641016151378
 30
0.0
 11
46.03710576711949
 21
216.0358983848623
 31
0.0
  0
LINE
  5
E7C1
330
18
100
AcDbEntity
  8
center
 48
0.2
100
AcDbLine
 10
60.43166134608231
 20
212.3439999999999
 30
0.0
 11
45.43902955576629
 21
220.9999999999999
 31
0.0
  0
CIRCLE
  5
E7C2
330
18
100
AcDbEntity
  8
bowle
 48
0.2
100
AcDbCircle
 10
52.36723278604165
 20
217.0
 30
0.0
 40
3.199999999999988
  0
CIRCLE
  5
E7C3
330
18
100
AcDbEntity
  8
bowle
 48
0.2
100
AcDbCircle
 10
52.36723278604165
 20
217.0
 30
0.0
 40
3.699999999999988
  0
CIRCLE
  5
E7C4
330
18
100
AcDbEntity
  8
contour
100
AcDbCircle
 10
112.222350552557
 20
232.6721050646231
 30
0.0
 40
2.458500000000015
  0
CIRCLE
  5
E7C5
330
18
100
AcDbEntity
  8
bowle
 48
0.2
100
AcDbCircle
 10
112.222350552557
 20
232.6721050646231
 30
0.0
 40
5.0
  0
CIRCLE
  5
E7C6
330
18
100
AcDbEntity
  8
contour
100
AcDbCircle
 10
68.72235055255686
 20
232.672105064623
 30
0.0
 40
2.458500000000014
  0
CIRCLE
  5
E7C7
330
18
100
AcDbEntity
  8
bowle
 48
0.2
100
AcDbCircle
 10
68.72235055255686
 20
232.672105064623
 30
0.0
 40
4.999999999999999
  0
CIRCLE
  5
E7C8
330
18
100
AcDbEntity
  8
contour
100
AcDbCircle
 10
46.97235055255691
 20
194.9999999999998
 30
0.0
 40
2.458500000000015
  0
CIRCLE
  5
E7C9
330
18
100
AcDbEntity
  8
bowle
 48
0.2
100
AcDbCircle
 10
46.97235055255691
 20
194.9999999999998
 30
0.0
 40
5.0
  0
CIRCLE
  5
E7CA
330
18
100
AcDbEntity
  8
contour
100
AcDbCircle
 10
68.72235055255703
 20
157.3278949353767
 30
0.0
 40
2.458500000000015
  0
CIRCLE
  5
E7CB
330
18
100
AcDbEntity
  8
bowle
 48
0.2
100
AcDbCircle
 10
68.72235055255703
 20
157.3278949353767
 30
0.0
 40
5.0
  0
CIRCLE
  5
E7CC
330
18
100
AcDbEntity
  8
contour
100
AcDbCircle
 10
112.222350552557
 20
157.3278949353769
 30
0.0
 40
2.458500000000015
  0
CIRCLE
  5
E7CD
330
18
100
AcDbEntity
  8
bowle
 48
0.2
100
AcDbCircle
 10
112.222350552557
 20
157.3278949353769
 30
0.0
 40
5.0
  0
ARC
  5
E7CE
330
18
100
AcDbEntity
  8
contour
 62
     4
100
AcDbCircle
 10
112.222350552557
 20
232.6721050646231
 30
0.0
 40
3.0
100
AcDbArc
 50
168.4630409671834
 51
101.5369590328181
  0
ARC
  5
E7CF
330
18
100
AcDbEntity
  8
contour
 62
     4
100
AcDbCircle
 10
68.72235055255686
 20
232.672105064623
 30
0.0
 40
3.0
100
AcDbArc
 50
168.4630409671834
 51
101.5369590328181
  0
ARC
  5
E7D0
330
18
100
AcDbEntity
  8
contour
 62
     4
100
AcDbCircle
 10
46.97235055255691
 20
194.9999999999998
 30
0.0
 40
3.0
100
AcDbArc
 50
168.4630409671834
 51
101.5369590328181
  0
ARC
  5
E7D1
330
18
100
AcDbEntity
  8
contour
 62
     4
100
AcDbCircle
 10
68.72235055255703
 20
157.3278949353767
 30
0.0
 40
3.0
100
AcDbArc
 50
168.4630409671834
 51
101.5369590328181
  0
ARC
  5
E7D2
330
18
100
AcDbEntity
  8
contour
 62
     4
100
AcDbCircle
 10
112.222350552557
 20
157.3278949353769
 30
0.0
 40
3.0
100
AcDbArc
 50
168.4630409671834
 51
101.5369590328181
  0
LINE
  5
E7D3
330
18
100
AcDbEntity
  8
center
 48
0.2
100
AcDbLine
 10
73.12835055255693
 20
225.0406892064746
 30
0.0
 11
64.47235055255686
 21
240.0333209967907
 31
0.0
  0
LINE
  5
E7D4
330
18
100
AcDbEntity
  8
bowle
 48
0.2
100
AcDbLine
 10
50.03710576711938
 20
167.0358983848622
 30
0.0
 11
49.7546145760877
 21
165.9816269072412
 31
0.0
  0
LINE
  5
E7D5
330
18
100
AcDbEntity
  8
bowle
 48
0.2
100
AcDbLine
 10
50.03710576711938
 20
167.0358983848622
 30
0.0
 11
55.83133440117939
 21
170.3811978464831
 31
0.0
  0
LINE
  5
E7D6
330
18
100
AcDbEntity
  8
bowle
 48
0.2
100
AcDbLine
 10
55.83133440117961
 20
175.0000000000001
 30
0.0
 11
51.83133440117939
 21
177.3094010767585
 31
0.0
  0
LINE
  5
E7D7
330
18
100
AcDbEntity
  8
bowle
 48
0.2
100
AcDbLine
 10
51.83133440117939
 20
177.3094010767585
 30
0.0
 11
46.03710576711939
 21
173.9641016151378
 31
0.0
  0
LINE
  5
E7D8
330
18
100
AcDbEntity
  8
bowle
 48
0.2
100
AcDbLine
 10
55.83133440117961
 20
175.0000000000001
 30
0.0
 11
55.83133440117939
 21
170.3811978464831
 31
0.0
  0
LINE
  5
E7D9
330
18
100
AcDbEntity
  8
bowle
 48
0.2
100
AcDbLine
 10
55.83133440117933
 20
170.3811978464831
 30
0.0
 11
51.83133440117939
 21
177.3094010767585
 31
0.0
  0
LINE
  5
E7DA
330
18
100
AcDbEntity
  8
bowle
 48
0.2
100
AcDbLine
 10
46.03710576711939
 20
173.9641016151378
 30
0.0
 11
44.98283428949849
 21
174.2465928061695
 31
0.0
  0
LINE
  5
E7DB
330
18
100
AcDbEntity
  8
bowle
 48
0.2
100
AcDbLine
 10
46.03710576711939
 20
173.9641016151378
 30
0.0
 11
50.03710576711938
 21
167.0358983848622
 31
0.0
  0
LINE
  5
E7DC
330
18
100
AcDbEntity
  8
center
 48
0.2
100
AcDbLine
 10
60.43166134608231
 20
177.6559999999999
 30
0.0
 11
45.43902955576624
 21
169.0
 31
0.0
  0
CIRCLE
  5
E7DD
330
18
100
AcDbEntity
  8
bowle
 48
0.2
100
AcDbCircle
 10
52.36723278604159
 20
172.9999999999999
 30
0.0
 40
3.199999999999988
  0
CIRCLE
  5
E7DE
330
18
100
AcDbEntity
  8
bowle
 48
0.2
100
AcDbCircle
 10
52.36723278604159
 20
172.9999999999999
 30
0.0
 40
3.699999999999988
  0
LINE
  5
E7DF
330
18
100
AcDbEntity
  8
bowle
 48
0.2
100
AcDbLine
 10
94.47235055255687
 20
145.9999999999999
 30
0.0
 11
95.24413083914618
 21
145.2282197134107
 31
0.0
  0
LINE
  5
E7E0
330
18
100
AcDbEntity
  8
bowle
 48
0.2
100
AcDbLine
 10
94.47235055255687
 20
145.9999999999999
 30
0.0
 11
94.4723505525568
 21
152.6905989232414
 31
0.0
  0
LINE
  5
E7E1
330
18
100
AcDbEntity
  8
bowle
 48
0.2
100
AcDbLine
 10
90.47235055255686
 20
155.0000000000001
 30
0.0
 11
86.47235055255686
 21
152.6905989232414
 31
0.0
  0
LINE
  5
E7E2
330
18
100
AcDbEntity
  8
bowle
 48
0.2
100
AcDbLine
 10
86.47235055255686
 20
152.6905989232414
 30
0.0
 11
86.47235055255681
 21
145.9999999999999
 31
0.0
  0
LINE
  5
E7E3
330
18
100
AcDbEntity
  8
bowle
 48
0.2
100
AcDbLine
 10
90.47235055255686
 20
155.0000000000001
 30
0.0
 11
94.4723505525568
 21
152.6905989232414
 31
0.0
  0
LINE
  5
E7E4
330
18
100
AcDbEntity
  8
bowle
 48
0.2
100
AcDbLine
 10
94.47235055255674
 20
152.6905989232414
 30
0.0
 11
86.47235055255686
 21
152.6905989232414
 31
0.0
  0
LINE
  5
E7E5
330
18
100
AcDbEntity
  8
bowle
 48
0.2
100
AcDbLine
 10
86.47235055255681
 20
145.9999999999999
 30
0.0
 11
85.7005702659676
 21
145.2282197134107
 31
0.0
  0
LINE
  5
E7E6
330
18
100
AcDbEntity
  8
bowle
 48
0.2
100
AcDbLine
 10
86.47235055255681
 20
145.9999999999999
 30
0.0
 11
94.47235055255687
 21
145.9999999999999
 31
0.0
  0
CIRCLE
  5
E7E7
330
18
100
AcDbEntity
  8
bowle
 48
0.2
100
AcDbCircle
 10
90.47235055255686
 20
150.9999999999999
 30
0.0
 40
3.199999999999988
  0
CIRCLE
  5
E7E8
330
18
100
AcDbEntity
  8
bowle
 48
0.2
100
AcDbCircle
 10
90.47235055255686
 20
150.9999999999999
 30
0.0
 40
3.699999999999988
  0
LINE
  5
E7EA
330
18
100
AcDbEntity
  8
bowle
 48
0.2
100
AcDbLine
 10
134.9075953379944
 20
173.9641016151376
 30
0.0
 11
135.9618668156154
 21
174.2465928061693
 31
0.0
  0
LINE
  5
E7EB
330
18
100
AcDbEntity
  8
bowle
 48
0.2
100
AcDbLine
 10
134.9075953379944
 20
173.9641016151376
 30
0.0
 11
129.1133667039344
 21
177.3094010767583
 31
0.0
  0
LINE
  5
E7EC
330
18
100
AcDbEntity
  8
bowle
 48
0.2
100
AcDbLine
 10
125.1133667039342
 20
174.9999999999999
 30
0.0
 11
125.1133667039345
 21
170.3811978464828
 31
0.0
  0
LINE
  5
E7ED
330
18
100
AcDbEntity
  8
bowle
 48
0.2
100
AcDbLine
 10
125.1133667039345
 20
170.3811978464828
 30
0.0
 11
130.9075953379944
 21
167.035898384862
 31
0.0
  0
LINE
  5
E7EE
330
18
100
AcDbEntity
  8
bowle
 48
0.2
100
AcDbLine
 10
125.1133667039342
 20
174.9999999999999
 30
0.0
 11
129.1133667039344
 21
177.3094010767583
 31
0.0
  0
LINE
  5
E7EF
330
18
100
AcDbEntity
  8
bowle
 48
0.2
100
AcDbLine
 10
129.1133667039344
 20
177.3094010767582
 30
0.0
 11
125.1133667039345
 21
170.3811978464828
 31
0.0
  0
LINE
  5
E7F0
330
18
100
AcDbEntity
  8
bowle
 48
0.2
100
AcDbLine
 10
130.9075953379944
 20
167.035898384862
 30
0.0
 11
131.1900865290261
 21
165.9816269072411
 31
0.0
  0
LINE
  5
E7F1
330
18
100
AcDbEntity
  8
bowle
 48
0.2
100
AcDbLine
 10
130.9075953379944
 20
167.035898384862
 30
0.0
 11
134.9075953379944
 21
173.9641016151376
 31
0.0
  0
LINE
  5
E7F2
330
18
100
AcDbEntity
  8
center
 48
0.2
100
AcDbLine
 10
120.5130397590316
 20
177.6559999999999
 30
0.0
 11
135.5056715493476
 21
168.9999999999999
 31
0.0
  0
CIRCLE
  5
E7F3
330
18
100
AcDbEntity
  8
bowle
 48
0.2
100
AcDbCircle
 10
128.5774683190722
 20
172.9999999999998
 30
0.0
 40
3.199999999999988
  0
CIRCLE
  5
E7F4
330
18
100
AcDbEntity
  8
bowle
 48
0.2
100
AcDbCircle
 10
128.5774683190722
 20
172.9999999999998
 30
0.0
 40
3.699999999999988
  0
LINE
  5
E7F5
330
18
100
AcDbEntity
  8
bowle
 48
0.2
100
AcDbLine
 10
130.9075953379945
 20
222.9641016151375
 30
0.0
 11
131.1900865290262
 21
224.0183730927585
 31
0.0
  0
LINE
  5
E7F6
330
18
100
AcDbEntity
  8
bowle
 48
0.2
100
AcDbLine
 10
130.9075953379945
 20
222.9641016151375
 30
0.0
 11
125.1133667039345
 21
219.6188021535168
 31
0.0
  0
LINE
  5
E7F7
330
18
100
AcDbEntity
  8
bowle
 48
0.2
100
AcDbLine
 10
125.1133667039344
 20
214.9999999999997
 30
0.0
 11
129.1133667039346
 21
212.6905989232413
 31
0.0
  0
LINE
  5
E7F8
330
18
100
AcDbEntity
  8
bowle
 48
0.2
100
AcDbLine
 10
129.1133667039346
 20
212.6905989232413
 30
0.0
 11
134.9075953379945
 21
216.035898384862
 31
0.0
  0
LINE
  5
E7F9
330
18
100
AcDbEntity
  8
bowle
 48
0.2
100
AcDbLine
 10
125.1133667039344
 20
214.9999999999997
 30
0.0
 11
125.1133667039345
 21
219.6188021535168
 31
0.0
  0
LINE
  5
E7FA
330
18
100
AcDbEntity
  8
bowle
 48
0.2
100
AcDbLine
 10
125.1133667039346
 20
219.6188021535168
 30
0.0
 11
129.1133667039346
 21
212.6905989232413
 31
0.0
  0
LINE
  5
E7FB
330
18
100
AcDbEntity
  8
bowle
 48
0.2
100
AcDbLine
 10
134.9075953379945
 20
216.035898384862
 30
0.0
 11
135.9618668156155
 21
215.7534071938303
 31
0.0
  0
LINE
  5
E7FC
330
18
100
AcDbEntity
  8
bowle
 48
0.2
100
AcDbLine
 10
134.9075953379945
 20
216.035898384862
 30
0.0
 11
130.9075953379945
 21
222.9641016151375
 31
0.0
  0
LINE
  5
E7FD
330
18
100
AcDbEntity
  8
center
 48
0.2
100
AcDbLine
 10
120.5130397590316
 20
212.3439999999998
 30
0.0
 11
135.5056715493477
 21
220.9999999999997
 31
0.0
  0
CIRCLE
  5
E7FE
330
18
100
AcDbEntity
  8
bowle
 48
0.2
100
AcDbCircle
 10
128.5774683190723
 20
216.9999999999998
 30
0.0
 40
3.199999999999988
  0
CIRCLE
  5
E7FF
330
18
100
AcDbEntity
  8
bowle
 48
0.2
100
AcDbCircle
 10
128.5774683190723
 20
216.9999999999998
 30
0.0
 40
3.699999999999988
  0
LINE
  5
E800
330
18
100
AcDbEntity
  8
bowle
 48
0.2
100
AcDbLine
 10
86.47235055255709
 20
244.0
 30
0.0
 11
85.70057026596776
 21
244.7717802865893
 31
0.0
  0
LINE
  5
E801
330
18
100
AcDbEntity
  8
bowle
 48
0.2
100
AcDbLine
 10
86.47235055255709
 20
244.0
 30
0.0
 11
86.47235055255709
 21
237.3094010767584
 31
0.0
  0
LINE
  5
E802
330
18
100
AcDbEntity
  8
bowle
 48
0.2
100
AcDbLine
 10
90.47235055255702
 20
234.9999999999998
 30
0.0
 11
94.47235055255708
 21
237.3094010767585
 31
0.0
  0
LINE
  5
E803
330
18
100
AcDbEntity
  8
bowle
 48
0.2
100
AcDbLine
 10
94.47235055255708
 20
237.3094010767585
 30
0.0
 11
94.47235055255708
 21
244.0
 31
0.0
  0
LINE
  5
E804
330
18
100
AcDbEntity
  8
bowle
 48
0.2
100
AcDbLine
 10
90.47235055255702
 20
234.9999999999998
 30
0.0
 11
86.47235055255709
 21
237.3094010767584
 31
0.0
  0
LINE
  5
E805
330
18
100
AcDbEntity
  8
bowle
 48
0.2
100
AcDbLine
 10
86.47235055255709
 20
237.3094010767585
 30
0.0
 11
94.47235055255708
 21
237.3094010767585
 31
0.0
  0
LINE
  5
E806
330
18
100
AcDbEntity
  8
bowle
 48
0.2
100
AcDbLine
 10
94.47235055255708
 20
244.0
 30
0.0
 11
95.24413083914636
 21
244.7717802865892
 31
0.0
  0
LINE
  5
E807
330
18
100
AcDbEntity
  8
bowle
 48
0.2
100
AcDbLine
 10
94.47235055255708
 20
244.0
 30
0.0
 11
86.47235055255709
 21
244.0
 31
0.0
  0
CIRCLE
  5
E808
330
18
100
AcDbEntity
  8
bowle
 48
0.2
100
AcDbCircle
 10
90.47235055255709
 20
239.0
 30
0.0
 40
3.199999999999988
  0
CIRCLE
  5
E809
330
18
100
AcDbEntity
  8
bowle
 48
0.2
100
AcDbCircle
 10
90.47235055255709
 20
239.0
 30
0.0
 40
3.699999999999988
  0
LINE
  5
E80A
330
18
100
AcDbEntity
  8
center
 48
0.2
100
AcDbLine
 10
107.816350552557
 20
225.0406892064746
 30
0.0
 11
116.4723505525571
 21
240.0333209967907
 31
0.0
  0
LINE
  5
E80B
330
18
100
AcDbEntity
  8
center
 48
0.2
100
AcDbLine
 10
73.12835055255693
 20
164.9593107935254
 30
0.0
 11
64.47235055255686
 21
149.9666790032092
 31
0.0
  0
LINE
  5
E80C
330
18
100
AcDbEntity
  8
center
 48
0.2
100
AcDbLine
 10
107.816350552557
 20
164.9593107935254
 30
0.0
 11
116.4723505525571
 21
149.9666790032092
 31
0.0
  0
LINE
  5
E80D
330
18
100
AcDbEntity
  8
contour
100
AcDbLine
 10
54.05485055255685
 20
95.80037360748201
 30
0.0
 11
54.05485055255685
 21
87.95037360748187
 31
0.0
  0
LINE
  5
E80E
330
18
100
AcDbEntity
  8
contour
100
AcDbLine
 10
54.05485055255685
 20
95.80037360748205
 30
0.0
 11
52.05485055255684
 21
97.80037360748204
 31
0.0
  0
LINE
  5
E80F
330
18
100
AcDbEntity
  8
contour
100
AcDbLine
 10
54.05485055255685
 20
87.95037360748187
 30
0.0
 11
52.05485055255684
 21
85.95037360748188
 31
0.0
  0
LINE
  5
E810
330
18
100
AcDbEntity
  8
contour
 62
     4
100
AcDbLine
 10
127.9723505525568
 20
96.88287360748203
 30
0.0
 11
127.9723505525568
 21
86.86787360748189
 31
0.0
  0
LINE
  5
E811
330
18
100
AcDbEntity
  8
contour
100
AcDbLine
 10
126.8898505525569
 20
94.65037360748201
 30
0.0
 11
126.8898505525569
 21
87.95037360748187
 31
0.0
  0
LINE
  5
E812
330
18
100
AcDbEntity
  8
contour
100
AcDbLine
 10
126.8898505525569
 20
95.80037360748205
 30
0.0
 11
128.8898505525569
 21
97.80037360748204
 31
0.0
  0
LINE
  5
E813
330
18
100
AcDbEntity
  8
contour
100
AcDbLine
 10
126.8898505525569
 20
87.95037360748187
 30
0.0
 11
128.8898505525569
 21
85.95037360748188
 31
0.0
  0
LINE
  5
E814
330
18
100
AcDbEntity
  8
contour
100
AcDbLine
 10
126.8898505525569
 20
102.800373607482
 30
0.0
 11
128.8898505525569
 21
100.800373607482
 31
0.0
  0
LINE
  5
E815
330
18
100
AcDbEntity
  8
contour
100
AcDbLine
 10
126.8898505525569
 20
111.9503736074819
 30
0.0
 11
128.8898505525569
 21
113.9503736074819
 31
0.0
  0
LINE
  5
E816
330
18
100
AcDbEntity
  8
contour
 62
     4
100
AcDbLine
 10
127.9723505525568
 20
113.0328736074819
 30
0.0
 11
127.9723505525568
 21
101.717873607482
 31
0.0
  0
LINE
  5
E817
330
18
100
AcDbEntity
  8
contour
 62
     4
100
AcDbLine
 10
127.9723505525568
 20
96.88287360748203
 30
0.0
 11
127.9723505525568
 21
86.86787360748189
 31
0.0
  0
LINE
  5
E818
330
18
100
AcDbEntity
  8
contour
100
AcDbLine
 10
126.8898505525569
 20
111.9503736074819
 30
0.0
 11
126.8898505525569
 21
102.800373607482
 31
0.0
  0
LINE
  5
E819
330
18
100
AcDbEntity
  8
contour
100
AcDbLine
 10
126.8898505525569
 20
95.80037360748201
 30
0.0
 11
126.8898505525569
 21
89.10037360748189
 31
0.0
  0
LINE
  5
E81A
330
18
100
AcDbEntity
  8
contour
100
AcDbLine
 10
126.8898505525569
 20
95.80037360748205
 30
0.0
 11
128.8898505525569
 21
97.80037360748204
 31
0.0
  0
LINE
  5
E81B
330
18
100
AcDbEntity
  8
contour
100
AcDbLine
 10
126.8898505525569
 20
87.95037360748187
 30
0.0
 11
128.8898505525569
 21
85.95037360748188
 31
0.0
  0
LINE
  5
E81C
330
18
100
AcDbEntity
  8
contour
100
AcDbLine
 10
54.05485055255685
 20
95.80037360748201
 30
0.0
 11
126.8898505525569
 21
95.80037360748201
 31
0.0
  0
LINE
  5
E81D
330
18
100
AcDbEntity
  8
contour
100
AcDbLine
 10
126.8898505525569
 20
87.95037360748187
 30
0.0
 11
54.0548505525569
 21
87.95037360748187
 31
0.0
  0
CIRCLE
  5
E81E
330
18
100
AcDbEntity
  8
contour
100
AcDbCircle
 10
90.47235055255697
 20
195.0
 30
0.0
 40
36.41750000000013
  0
ARC
  5
E81F
330
18
100
AcDbEntity
  8
contour
 62
     4
100
AcDbCircle
 10
90.47235055255697
 20
195.0
 30
0.0
 40
37.50000000000011
100
AcDbArc
 50
168.4630409671848
 51
101.5369590328148
  0
CIRCLE
  5
E820
330
18
100
AcDbEntity
  8
contour
100
AcDbCircle
 10
90.47235055255697
 20
195.0
 30
0.0
 40
38.41750000000013
  0
LEADER
  5
E826
330
18
100
AcDbEntity
  8
mark
100
AcDbLeader
  3
STANDARD
 76
     2
 10
127.8898505525569
 20
86.95037360748187
 30
0.0
 10
120.5225404039183
 20
79.58306345884335
 30
0.0
211
0.7071067811865476
221
0.7071067811865475
231
0.0
1001
ACAD
1000
DSTYLE
1002
{
1070
   147
1040
0.85
1070
    77
1070
     0
1002
}
  0
MTEXT
  5
E827
330
18
100
AcDbEntity
  8
mark
 62
     3
100
AcDbMText
 10
120.6218670580501
 20
82.83549526221241
 30
0.0
 40
2.5
 41
0.0
 71
     5
 72
     1
  1
C2
 11
0.7071067811865476
 21
0.7071067811865475
 31
0.0
 73
     1
 44
1.0
1001
ACAD
1000
ACAD_MTEXT_DEFINED_HEIGHT_BEGIN
1070
    46
1040
0.0
1000
ACAD_MTEXT_DEFINED_HEIGHT_END
  0
DIMENSION
  5
E828
330
18
100
AcDbEntity
  8
mark
100
AcDbDimension
  2
*D25
 10
127.9723505525568
 20
73.66978381270815
 30
0.0
 11
90.47235055255686
 21
75.76978381270814
 31
0.0
 70
    32
  1
M<>x2.0P
 71
     5
 42
75.0
  3
STANDARD
100
AcDbAlignedDimension
 13
52.97235055255686
 23
86.86787360748189
 33
0.0
 14
127.9723505525568
 24
86.86787360748189
 34
0.0
100
AcDbRotatedDimension
  0
DIMENSION
  5
E835
330
18
100
AcDbEntity
  8
mark
100
AcDbDimension
  2
*D26
 10
149.2685862043217
 20
96.60037360748194
 30
0.0
 11
147.1685862043217
 21
105.2753736074819
 31
0.0
 70
    32
 71
     5
 42
17.34999999999996
  3
STANDARD
100
AcDbAlignedDimension
 13
139.4723505525568
 23
113.9503736074819
 33
0.0
 14
139.4723505525568
 24
96.60037360748194
 34
0.0
 50
90.0
100
AcDbRotatedDimension
  0
DIMENSION
  5
E842
330
18
100
AcDbEntity
  8
mark
100
AcDbDimension
  2
*D27
 10
149.2685862043217
 20
94.60037360748192
 30
0.0
 11
149.2685862043217
 21
95.60037360748195
 31
0.0
 70
   160
 71
     5
 42
2.000000000000028
  3
STANDARD
100
AcDbAlignedDimension
 13
139.4723505525568
 23
96.60037360748194
 33
0.0
 14
139.4723505525568
 24
94.60037360748192
 34
0.0
 50
90.0
100
AcDbRotatedDimension
  0
DIMENSION
  5
E85C
330
18
100
AcDbEntity
  8
mark
100
AcDbDimension
  2
*D28
 10
158.8423840042623
 20
113.9503736074819
 30
0.0
 11
156.7423840042623
 21
99.95037360748192
 31
0.0
 70
    32
  1
<>%%p0.2
 71
     5
 42
28.0
  3
STANDARD
100
AcDbAlignedDimension
 13
139.4723505525569
 23
85.95037360748191
 33
0.0
 14
139.4723505525568
 24
113.9503736074819
 34
0.0
 50
90.0
100
AcDbRotatedDimension
  0
TOLERANCE
  5
E872
330
18
100
AcDbEntity
  8
mark
100
AcDbFcf
  3
STANDARD
 10
163.8423840042623
 20
120.7427612686945
 30
0.0
  1
{\Fgdt;h}%%v0.005%%v%%vA%%v%%v
  0
LINE
  5
E873
330
18
100
AcDbEntity
  8
mark
100
AcDbLine
 10
158.8423840042623
 20
120.7427612686945
 30
0.0
 11
163.8423840042623
 21
120.7427612686945
 31
0.0
  0
LINE
  5
E874
330
18
100
AcDbEntity
  8
mark
100
AcDbLine
 10
158.8423840042623
 20
113.9503736074819
 30
0.0
 11
158.8423840042623
 21
120.7427612686945
 31
0.0
  0
HATCH
  5
E875
330
18
100
AcDbEntity
  8
mark
100
AcDbHatch
 10
0.0
 20
0.0
 30
0.0
210
0.0
220
0.0
230
1.0
  2
SOLID
 70
     1
 71
     0
 91
        1
 92
        7
 72
     0
 73
     1
 93
        3
 10
55.47235055255675
 20
62.81978381270812
 10
52.97235055255686
 20
65.31978381270821
 10
52.97235055255686
 20
60.31978381270821
 97
        0
 75
     0
 76
     1
 47
0.0567731388354328
 98
        1
 10
54.51408875492041
 20
62.31173351508499
450
        0
451
        0
460
0.0
461
0.0
452
        1
462
1.0
453
        2
463
0.0
 63
     5
421
      255
463
1.0
 63
     7
421
 16777215
470
LINEAR
1001
ACAD
1010
0.0
1020
0.0
1030
0.0
  0
LINE
  5
E876
330
18
100
AcDbEntity
  8
mark
100
AcDbLine
 10
52.97235055255686
 20
72.81978381270815
 30
0.0
 11
52.97235055255686
 21
60.31978381270818
 31
0.0
  0
LINE
  5
E877
330
18
100
AcDbEntity
  8
mark
100
AcDbLine
 10
55.47235055255675
 20
62.81978381270812
 30
0.0
 11
62.97235055255686
 21
62.81978381270815
 31
0.0
  0
LINE
  5
E878
330
18
100
AcDbEntity
  8
mark
100
AcDbLine
 10
52.97235055255686
 20
65.31978381270815
 30
0.0
 11
55.47235055255675
 21
62.81978381270812
 31
0.0
  0
LINE
  5
E879
330
18
100
AcDbEntity
  8
mark
100
AcDbLine
 10
52.97235055255686
 20
60.31978381270818
 30
0.0
 11
55.47235055255675
 21
62.81978381270812
 31
0.0
  0
TOLERANCE
  5
E87A
330
18
100
AcDbEntity
  8
mark
100
AcDbFcf
  3
STANDARD
 10
62.97235055255686
 20
62.81978381270815
 30
0.0
  1
%%v%%v%%vA%%v%%v
  0
MTEXT
  5
E87B
330
18
100
AcDbEntity
  8
dim
100
AcDbMText
 10
18.55989637475756
 20
83.1248992063471
 30
0.0
 40
2.5
 41
54.08337224291063
 71
     1
 72
     5
  1
6-%%C6.4{\Ftxt,bigfont|c128;深さ}6
 73
     1
 44
1.0
1001
ACAD
1000
ACAD_MTEXT_DEFINED_HEIGHT_BEGIN
1070
    46
1040
0.0
1000
ACAD_MTEXT_DEFINED_HEIGHT_END
  0
LEADER
  5
E87C
330
18
100
AcDbEntity
  8
mark
100
AcDbLeader
  3
STANDARD
 76
     3
 10
46.47235055255686
 20
85.9503736074819
 30
0.0
 10
40.10504040391833
 20
79.58306345884337
 30
0.0
 10
18.58640054759559
 20
79.58306345884337
 30
0.0
1001
ACAD
1000
DSTYLE
1002
{
1070
   147
1040
0.85
1070
    77
1070
     0
1002
}
  0
MTEXT
  5
E87D
330
18
100
AcDbEntity
  8
dim
100
AcDbMText
 10
14.49799916955848
 20
102.3748992063471
 30
0.0
 40
2.5
 41
54.08337224291063
 71
     1
 72
     5
  1
6-%%C8{\Ftxt,bigfont|c128;深さ}10
 73
     1
 44
1.0
1001
ACAD
1000
ACAD_MTEXT_DEFINED_HEIGHT_BEGIN
1070
    46
1040
0.0
1000
ACAD_MTEXT_DEFINED_HEIGHT_END
  0
LEADER
  5
E87E
330
18
100
AcDbEntity
  8
mark
100
AcDbLeader
  3
STANDARD
 76
     3
 10
40.47235055255685
 20
105.2003736074819
 30
0.0
 10
34.1050404039184
 20
98.8330634588434
 30
0.0
 10
14.32752368284534
 20
98.8330634588434
 30
0.0
1001
ACAD
1000
DSTYLE
1002
{
1070
   147
1040
0.85
1070
    77
1070
     0
1002
}
  0
DIMENSION
  5
E87F
330
18
100
AcDbEntity
  8
mark
100
AcDbDimension
  2
*D29
 10
140.4723505525568
 20
120.7427612686945
 30
0.0
 11
90.47235055255686
 21
122.8427612686945
 31
0.0
 70
    32
  1
%%c<>
 71
     5
 42
100.0
  3
STANDARD
100
AcDbAlignedDimension
 13
40.47235055255685
 23
112.9503736074819
 33
0.0
 14
140.4723505525568
 24
112.9503736074819
 34
0.0
100
AcDbRotatedDimension
  0
MTEXT
  5
E88C
330
18
100
AcDbEntity
  8
mark
 62
     3
100
AcDbMText
 10
96.42740418641251
 20
122.9820773738474
 30
0.0
 40
1.7
 41
0.0
 71
     5
 72
     1
  1
\A1;{\H0.7x;\S+0^ -0.2;}
 73
     1
 44
1.0
1001
ACAD
1000
ACAD_MTEXT_DEFINED_HEIGHT_BEGIN
1070
    46
1040
0.0
1000
ACAD_MTEXT_DEFINED_HEIGHT_END
  0
DIMENSION
  5
E88D
330
18
100
AcDbEntity
  8
mark
100
AcDbDimension
  2
*D30
 10
47.55192882932838
 20
187.9227548367878
 30
0.0
 11
152.5241605308758
 21
205.2318629315785
 31
0.0
 70
   163
  1
P.C.D 87
 71
     5
 42
86.99999999999997
  3
STANDARD
100
AcDbDiametricDimension
 15
133.3927722757855
 25
202.0772451632122
 35
0.0
 40
0.0
1001
ACAD
1000
DSTYLE
1002
{
1070
   288
1070
     1
1002
}
  0
ARC
  5
E899
330
18
100
AcDbEntity
  8
center
 48
0.3
100
AcDbCircle
 10
90.47235055255697
 20
195.0
 30
0.0
 40
44.0
100
AcDbArc
 50
82.5723922497354
 51
97.42760775026461
  0
ARC
  5
E89B
330
18
100
AcDbEntity
  8
center
 48
0.3
100
AcDbCircle
 10
90.47235055255697
 20
195.0
 30
0.0
 40
44.0
100
AcDbArc
 50
142.5723922497348
 51
157.4276077502646
  0
ARC
  5
E89C
330
18
100
AcDbEntity
  8
center
 48
0.3
100
AcDbCircle
 10
90.47235055255697
 20
195.0
 30
0.0
 40
43.99999999999999
100
AcDbArc
 50
198.6525252569862
 51
217.4276077502652
  0
ARC
  5
E89D
330
18
100
AcDbEntity
  8
center
 48
0.3
100
AcDbCircle
 10
90.47235055255697
 20
195.0
 30
0.0
 40
44.0
100
AcDbArc
 50
262.5723922497337
 51
277.4276077502662
  0
ARC
  5
E89E
330
18
100
AcDbEntity
  8
center
 48
0.3
100
AcDbCircle
 10
90.47235055255697
 20
195.0
 30
0.0
 40
44.0
100
AcDbArc
 50
322.5723922497348
 51
337.4276077502665
  0
ARC
  5
E89F
330
18
100
AcDbEntity
  8
center
 48
0.3
100
AcDbCircle
 10
90.47235055255697
 20
195.0
 30
0.0
 40
44.0
100
AcDbArc
 50
18.65252525698603
 51
37.42760775026502
  0
DIMENSION
  5
E8A2
330
18
100
AcDbEntity
  8
mark
100
AcDbDimension
  2
*D31
 10
49.48790157776824
 20
178.9914103609048
 30
0.0
 11
149.4137980525365
 21
218.0226212469484
 31
0.0
 70
   163
  1
P.C.D 88
 71
     5
 42
88.00000000000002
  3
STANDARD
100
AcDbDiametricDimension
 15
131.4567995273456
 25
211.0085896390951
 35
0.0
 40
0.0
1001
ACAD
1000
DSTYLE
1002
{
1070
   288
1070
     1
1002
}
  0
MTEXT
  5
E8AE
330
18
100
AcDbEntity
  8
dim
100
AcDbMText
 10
152.7602247154019
 20
72.96490480454122
 30
0.0
 40
5.0
 41
8.636702473284913
 71
     1
 72
     5
  1
2
 73
     1
 44
1.0
  0
LEADER
  5
E8AF
330
18
100
AcDbEntity
  8
mark
100
AcDbLeader
  3
STANDARD
 76
     2
 10
133.9723505525568
 20
85.95037360748191
 30
0.0
 10
151.6664671625973
 20
71.10324688598911
 30
0.0
1001
ACAD
1000
DSTYLE
1002
{
1070
   147
1040
0.85
1070
    77
1070
     0
1002
}
  0
MTEXT
  5
E8B1
330
18
100
AcDbEntity
  8
dim
100
AcDbMText
 10
153.0996237370325
 20
173.7664910529546
 30
0.0
 40
5.0
 41
8.636702473284913
 71
     1
 72
     5
  1
1
 73
     1
 44
1.0
1001
ACAD
1000
ACAD_MTEXT_DEFINED_HEIGHT_BEGIN
1070
    46
1040
0.0
1000
ACAD_MTEXT_DEFINED_HEIGHT_END
  0
LEADER
  5
E8B2
330
18
100
AcDbEntity
  8
mark
100
AcDbLeader
  3
STANDARD
 76
     2
 10
138.7686418670103
 20
182.0590477448741
 30
0.0
 10
151.6664671625973
 20
171.236487296358
 30
0.0
1001
ACAD
1000
DSTYLE
1002
{
1070
   147
1040
0.85
1070
    77
1070
     0
1002
}
  0
DIMENSION
  5
E8B4
330
18
100
AcDbEntity
  8
mark
100
AcDbDimension
  2
*D32
 10
30.41424904237573
 20
105.4503736074818
 30
0.0
 11
28.31424904237571
 21
109.7003736074819
 31
0.0
 70
    32
 71
     5
 42
8.500000000000028
  3
STANDARD
100
AcDbAlignedDimension
 13
41.47235055255691
 23
113.9503736074819
 33
0.0
 14
38.47235055255698
 24
105.4503736074818
 34
0.0
 50
90.0
100
AcDbRotatedDimension
  0
HATCH
  5
E992
330
18
100
AcDbEntity
  8
section
100
AcDbHatch
 10
0.0
 20
0.0
 30
0.0
210
0.0
220
0.0
230
1.0
  2
ANSI31
 70
     0
 71
     0
 91
       12
 92
        7
 72
     1
 73
     1
 93
       28
 10
52.97235055255685
 20
113.0328736074819
 42
0.0
 10
52.05485055255692
 20
113.9503736074818
 42
0.0
 10
41.47235055255686
 20
113.9503736074818
 42
0.4142135623730951
 10
40.47235055255685
 20
112.9503736074818
 42
0.0
 10
40.47235055255686
 20
110.4503736074819
 42
0.0
 10
41.47235055255687
 20
109.4503736074818
 42
0.0
 10
48.16294947579837
 20
109.4503736074817
 42
0.0
 10
50.47235055255704
 20
105.4503736074818
 42
0.0
 10
48.16294947579848
 20
101.4503736074818
 42
0.0
 10
41.47235055255689
 20
101.4503736074818
 42
0.0
 10
40.47235055255685
 20
100.4503736074817
 42
0.0
 10
40.47235055255685
 20
97.60037360748192
 42
0.4142135623730951
 10
41.47235055255686
 20
96.60037360748191
 42
0.0
 10
50.72235055255687
 20
96.60037360748191
 42
0.0
 10
50.72235055255687
 20
94.6003736074819
 42
0.0
 10
46.47235055255686
 20
94.60037360748193
 42
0.0
 10
46.47235055255687
 20
91.95037360748189
 42
0.0
 10
49.67235055255684
 20
90.10285274607506
 42
0.0
 10
49.67235055255696
 20
86.4503736074818
 42
0.0
 10
50.17235055255689
 20
85.95037360748186
 42
0.0
 10
52.05485055255682
 20
85.95037360748186
 42
0.0
 10
52.97235055255686
 20
86.86787360748189
 42
0.0
 10
52.97235055255685
 20
96.88287360748203
 42
0.0
 10
52.0548505525569
 20
97.80037360748199
 42
0.0
 10
43.22235055255686
 20
97.80037360748199
 42
0.0
 10
43.22235055255687
 20
100.800373607482
 42
0.0
 10
52.05485055255685
 20
100.800373607482
 42
0.0
 10
52.97235055255685
 20
101.717873607482
 42
0.0
 97
        0
 92
        7
 72
     0
 73
     1
 93
        4
 10
54.05485055255685
 20
111.9503736074819
 10
52.97235055255685
 20
113.0328736074819
 10
52.97235055255685
 20
101.717873607482
 10
54.05485055255683
 20
102.8003736074819
 97
        0
 92
        7
 72
     0
 73
     1
 93
        4
 10
54.05485055255685
 20
95.80037360748205
 10
52.97235055255685
 20
96.88287360748203
 10
52.97235055255686
 20
86.86787360748189
 10
54.05485055255685
 20
87.95037360748189
 97
        0
 92
        7
 72
     1
 73
     1
 93
        9
 10
46.47235055255686
 20
91.95037360748187
 42
0.0
 10
46.47235055255686
 20
94.6003736074819
 42
0.0
 10
41.47235055255686
 20
94.60037360748193
 42
0.4142135623730951
 10
40.47235055255685
 20
93.60037360748194
 42
0.0
 10
40.47235055255685
 20
86.95037360748193
 42
0.4142135623731117
 10
41.47235055255686
 20
85.95037360748188
 42
0.0
 10
42.77235055255681
 20
85.95037360748186
 42
0.0
 10
43.27235055255687
 20
86.45037360748194
 42
0.0
 10
43.27235055255693
 20
90.10285274607502
 42
0.0
 97
        0
 92
        7
 72
     0
 73
     1
 93
        4
 10
127.9723505525569
 20
113.0328736074819
 10
126.8898505525569
 20
111.9503736074819
 10
126.8898505525569
 20
102.8003736074819
 10
127.9723505525568
 20
101.717873607482
 97
        0
 92
        7
 72
     0
 73
     1
 93
        7
 10
130.9723505525568
 20
110.9503736074819
 10
130.9723505525568
 20
113.9503736074819
 10
128.8898505525569
 20
113.9503736074819
 10
127.9723505525568
 20
113.0328736074818
 10
127.9723505525568
 20
101.717873607482
 10
128.889850552557
 20
100.8003736074819
 10
130.9723505525568
 20
100.8003736074819
 97
        0
 92
        7
 72
     1
 73
     1
 93
       11
 10
140.4723505525568
 20
112.9503736074819
 42
0.4142135623730951
 10
139.4723505525568
 20
113.9503736074819
 42
0.0
 10
136.9723505525568
 20
113.9503736074819
 42
0.0
 10
136.9723505525568
 20
110.9503736074819
 42
0.0
 10
136.9723505525568
 20
100.8003736074819
 42
0.0
 10
137.7223505525568
 20
100.8003736074819
 42
0.0
 10
137.7223505525568
 20
97.80037360748186
 42
0.0
 10
136.9723505525568
 20
97.8003736074819
 42
0.0
 10
136.9723505525568
 20
96.60037360748187
 42
0.0
 10
139.4723505525568
 20
96.60037360748194
 42
0.4142135623730951
 10
140.4723505525568
 20
97.60037360748194
 42
0.0
 97
        0
 92
        7
 72
     0
 73
     1
 93
        5
 10
127.9723505525568
 20
96.88287360748205
 10
126.8898505525569
 20
95.80037360748205
 10
126.8898505525569
 20
89.10037360748189
 10
126.8898505525569
 20
87.95037360748187
 10
127.9723505525568
 20
86.86787360748187
 97
        0
 92
        7
 72
     0
 73
     1
 93
       13
 10
130.9723505525568
 20
94.60037360748193
 10
130.2223505525568
 20
94.60037360748193
 10
130.2223505525569
 20
96.60037360748193
 10
130.9723505525568
 20
96.60037360748194
 10
130.9723505525568
 20
97.80037360748201
 10
128.8898505525568
 20
97.80037360748199
 10
127.9723505525568
 20
96.88287360748201
 10
127.9723505525568
 20
86.86787360748192
 10
128.8898505525568
 20
85.95037360748188
 10
128.9723505525568
 20
85.9503736074819
 10
128.9723505525568
 20
86.3503736074819
 10
128.9723505525568
 20
91.95037360748193
 10
130.9723505525569
 20
91.95037360748193
 97
        0
 92
        7
 72
     1
 73
     1
 93
        9
 10
140.4723505525568
 20
93.60037360748192
 42
0.4142135623730951
 10
139.4723505525568
 20
94.60037360748192
 42
0.0
 10
136.9723505525569
 20
94.60037360748193
 42
0.0
 10
136.9723505525568
 20
91.95037360748189
 42
0.0
 10
138.9723505525568
 20
91.95037360748187
 42
0.0
 10
138.9723505525568
 20
86.3503736074819
 42
0.0
 10
138.9723505525568
 20
85.9503736074819
 42
0.0
 10
139.4723505525569
 20
85.95037360748191
 42
0.4142135623730992
 10
140.4723505525569
 20
86.95037360748193
 42
0.0
 97
        0
 92
        7
 72
     0
 73
     1
 93
        4
 10
131.5138505525568
 20
113.9503736074819
 10
130.9723505525568
 20
113.9503736074819
 10
130.9723505525568
 20
110.9503736074819
 10
131.5138505525568
 20
111.4918736074819
 97
        0
 92
        7
 72
     0
 73
     1
 93
        4
 10
136.9723505525568
 20
113.9503736074819
 10
136.4308505525568
 20
113.9503736074819
 10
136.4308505525569
 20
111.4918736074818
 10
136.9723505525569
 20
110.9503736074819
 97
        0
 75
     0
 76
     1
 52
0.0
 41
0.7
 77
     0
 78
     1
 53
45.0
 43
-4.527649447443081
 44
0.0
 45
-1.571544821187101
 46
1.571544821187101
 79
     0
 47
0.0345568841439591
 98
       12
 10
48.35647630081609
 20
111.0948573371132
 10
53.85090822257814
 20
107.4340425536405
 10
53.71002490091621
 20
92.5091838052765
 10
43.42557581064363
 20
91.66438034294868
 10
127.0546978271962
 20
108.9905596174595
 10
128.8861745160974
 20
109.9761632169461
 10
137.3391459899397
 20
109.4129613486235
 10
127.4773459371237
 20
92.51689474144246
 10
129.7314716634818
 20
93.5024990007729
 10
139.3115060005028
 20
92.51689474144246
 10
131.1954817308625
 20
112.4697853513968
 10
136.8315464177946
 20
112.9190249147254
1001
ACAD
1010
0.0
1020
0.0
1030
0.0
  0
ENDSEC
  0
SECTION
  2
OBJECTS
  0
DICTIONARY
  5
C
330
0
100
AcDbDictionary
281
     1
  3
ACAD_COLOR
350
7873
  3
ACAD_GROUP
350
D
  3
ACAD_LAYOUT
350
5CF3
  3
ACAD_MATERIAL
350
7872
  3
ACAD_MLINESTYLE
350
1B
  3
ACAD_PLOTSETTINGS
350
5CF4
  3
ACAD_PLOTSTYLENAME
350
5CF1
  3
ACAD_TABLESTYLE
350
7874
  3
AcadDim
350
D9D9
  3
ACDBVARIABLEDICTIONARY
350
45D
  0
DICTIONARY
  5
7BFE
330
2
100
AcDbDictionary
280
     1
281
     1
  3
ACAD_LAYERFILTERS
360
7C00
  3
ACLYDICTIONARY
360
7BFF
  0
DICTIONARY
  5
45F
330
18
100
AcDbDictionary
280
     1
281
     1
  3
ACAD_LAYOUTSELFREF
360
5D8B
  3
ACAD_SORTENTS
360
460
  0
DICTIONARY
  5
5D89
330
15
100
AcDbDictionary
280
     1
281
     1
  3
ACAD_LAYOUTSELFREF
360
5D8A
  0
DICTIONARY
  5
7C0B
330
7C0A
100
AcDbDictionary
280
     1
281
     1
  3
AcDbBlockTableRecordData
360
7C0C
  0
DICTIONARY
  5
8E73
330
8E72
100
AcDbDictionary
280
     1
281
     1
  3
AcDbBlockTableRecordData
360
8E74
  0
DICTIONARY
  5
9D16
330
9D15
100
AcDbDictionary
280
     1
281
     1
  3
AcDbBlockTableRecordData
360
9D17
  0
DICTIONARY
  5
A519
330
A518
100
AcDbDictionary
280
     1
281
     1
  3
AcDbBlockTableRecordData
360
A51A
  0
DICTIONARY
  5
A628
330
A627
100
AcDbDictionary
280
     1
281
     1
  3
AcDbBlockTableRecordData
360
A629
  0
DICTIONARY
  5
DEF8
330
DEF7
100
AcDbDictionary
280
     1
281
     1
  3
AcDbBlockTableRecordData
360
DEF9
  0
DICTIONARY
  5
E6A1
330
E6A0
100
AcDbDictionary
280
     1
281
     1
  3
AcDbBlockTableRecordData
360
E6A2
  0
DICTIONARY
  5
7873
102
{ACAD_REACTORS
330
C
102
}
330
C
100
AcDbDictionary
281
     1
  0
DICTIONARY
  5
D
102
{ACAD_REACTORS
330
C
102
}
330
C
100
AcDbDictionary
281
     1
  0
DICTIONARY
  5
5CF3
102
{ACAD_REACTORS
330
C
102
}
330
C
100
AcDbDictionary
281
     1
  3
Model
350
5CF5
  3
配置1
350
5CF6
  0
DICTIONARY
  5
7872
102
{ACAD_REACTORS
330
C
102
}
330
C
100
AcDbDictionary
281
     1
  0
DICTIONARY
  5
1B
102
{ACAD_REACTORS
330
C
102
}
330
C
100
AcDbDictionary
281
     1
  3
STANDARD
350
1C
  0
DICTIONARY
  5
5CF4
102
{ACAD_REACTORS
330
C
102
}
330
C
100
AcDbDictionary
281
     1
  0
ACDBDICTIONARYWDFLT
  5
5CF1
102
{ACAD_REACTORS
330
C
102
}
330
C
100
AcDbDictionary
281
     1
  3
Normal
350
5CF2
100
AcDbDictionaryWithDefault
340
5CF2
  0
DICTIONARY
  5
7874
102
{ACAD_REACTORS
330
C
102
}
330
C
100
AcDbDictionary
281
     1
  3
Standard
350
7875
  0
XRECORD
  5
D9D9
102
{ACAD_REACTORS
330
C
102
}
330
C
100
AcDbXrecord
280
     1
 90
   990106
  3

 60
     0
 61
     0
 62
     1
 63
     3
 64
     0
 65
     0
 66
     0
 67
     3
 68
     1
 69
     0
 70
     0
 71
     0
 72
     0
 40
0.0
170
     0
  0
DICTIONARY
  5
45D
102
{ACAD_REACTORS
330
C
102
}
330
C
100
AcDbDictionary
281
     1
  3
CTABLESTYLE
350
7880
  3
SORTENTS
350
45E
  0
DICTIONARY
  5
7C00
102
{ACAD_REACTORS
330
7BFE
102
}
330
7BFE
100
AcDbDictionary
281
     1
  0
DICTIONARY
  5
7BFF
102
{ACAD_REACTORS
330
7BFE
102
}
330
7BFE
100
AcDbDictionary
281
     1
1001
ACAD
1000
<All
  0
XRECORD
  5
5D8B
102
{ACAD_REACTORS
330
45F
102
}
330
45F
100
AcDbXrecord
280
     1
340
18
  0
SORTENTSTABLE
  5
460
102
{ACAD_REACTORS
330
45F
102
}
330
45F
100
AcDbSortentsTable
330
18
331
AF81
  5
AF81
331
E780
  5
E781
331
C0
  5
CB
331
AF4A
  5
AF4A
331
AF89
  5
AF89
331
E788
  5
E789
331
E7C7
  5
E7C8
331
AF52
  5
AF52
331
E790
  5
E791
331
E7CF
  5
E7D0
331
AF5A
  5
AF5A
331
E798
  5
E799
331
E7D7
  5
E7D8
331
E7DD
  5
E7DE
331
E81C
  5
E820
331
E8A2
  5
E8AE
331
E7E5
  5
E7E7
331
E7ED
  5
E7EF
331
E873
  5
E877
331
E8B2
  5
E8B4
331
E7F5
  5
E7F7
331
AF62
  5
AF62
331
E7A0
  5
E7A1
331
AF6A
  5
AF6A
331
E7A8
  5
E7A9
331
AF72
  5
AF72
331
E7B0
  5
E7B1
331
AF7A
  5
AF7A
331
E779
  5
E77A
331
E7B8
  5
E7B9
331
E87B
  5
E87F
331
E7FD
  5
E7FF
331
E805
  5
E808
331
E80D
  5
E811
331
E992
  5
E774
331
E815
  5
E819
331
AF82
  5
AF82
331
E781
  5
E782
331
E7C0
  5
E7C1
331
AF4B
  5
AF4B
331
AF8A
  5
AF8A
331
E789
  5
E78A
331
E7C8
  5
E7C9
331
AF53
  5
AF53
331
E791
  5
E792
331
E7D0
  5
E7D1
331
AF5B
  5
AF5B
331
E799
  5
E79A
331
E85C
  5
E875
331
E89B
  5
E89E
331
E7DE
  5
E7E0
331
E81D
  5
E826
331
E7E6
  5
E7E8
331
E7EE
  5
E7F0
331
E7F6
  5
E7F8
331
E835
  5
E873
331
E874
  5
E878
331
AF63
  5
AF63
331
E7A1
  5
E7A2
331
AF6B
  5
AF6B
331
E7A9
  5
E7AA
331
AF73
  5
AF73
331
E7B1
  5
E7B2
331
AF7B
  5
AF7B
331
E77A
  5
E77B
331
E7B9
  5
E7BA
331
E87C
  5
E88C
331
E7FE
  5
E801
331
E806
  5
E809
331
E88C
  5
E89B
331
E80E
  5
E812
331
E816
  5
E81A
331
AF44
  5
AF44
331
AF83
  5
AF83
331
AF4C
  5
AF4C
331
AF8B
  5
AF8B
331
E782
  5
E783
331
E7C1
  5
E7C2
331
AF54
  5
AF54
331
E78A
  5
E78B
331
E7C9
  5
E7CA
331
AF5C
  5
AF5C
331
E792
  5
E793
331
E7D1
  5
E7D2
331
E79A
  5
E79B
331
E89C
  5
E89F
331
E7DF
  5
E7E1
331
E81E
  5
E827
331
E7E7
  5
E7EA
331
E826
  5
E842
331
E7EF
  5
E7F1
331
E875
  5
E879
331
E8B4
  5
E90E
331
E7F7
  5
E7F9
331
AF64
  5
AF64
331
AF6C
  5
AF6C
331
E7A2
  5
E7A3
331
AF74
  5
AF74
331
E7AA
  5
E7AB
331
AF7C
  5
AF7C
331
E7B2
  5
E7B3
331
E77B
  5
E77C
331
E7BA
  5
E7BB
331
E87D
  5
E88D
331
E7FF
  5
E802
331
E807
  5
E80B
331
E88D
  5
E89C
331
E80F
  5
E813
331
E817
  5
E81B
331
AF45
  5
AF45
331
AF84
  5
AF84
331
AF4D
  5
AF4D
331
AF8C
  5
AF8C
331
E783
  5
E784
331
E7C2
  5
E7C3
331
AF55
  5
AF55
331
E78B
  5
E78C
331
E7CA
  5
E7CB
331
AF5D
  5
AF5D
331
E793
  5
E794
331
E7D2
  5
E7D3
331
E79B
  5
E79C
331
E7D8
  5
E7D9
331
E89D
  5
E8A0
331
E7E0
  5
E7E2
331
E81F
  5
E828
331
E7E8
  5
E7EB
331
E827
  5
E85C
331
E7F0
  5
E7F2
331
E876
  5
E87A
331
AF65
  5
AF65
331
AF6D
  5
AF6D
331
E7A3
  5
E7A4
331
AF75
  5
AF75
331
E7AB
  5
E7AC
331
AF7D
  5
AF7D
331
E774
  5
E775
331
E7B3
  5
E7B4
331
E77C
  5
E77D
331
E7BB
  5
E7BC
331
E7F8
  5
E7FA
331
E87E
  5
E899
331
E800
  5
E803
331
E808
  5
E80C
331
E810
  5
E814
331
AF46
  5
AF46
331
AF85
  5
AF85
331
AF4E
  5
AF4E
331
AF8D
  5
AF8D
331
E784
  5
E785
331
E7C3
  5
E7C4
331
AF56
  5
AF56
331
E78C
  5
E78D
331
E7CB
  5
E7CC
331
AF5E
  5
AF5E
331
E794
  5
E795
331
E7D3
  5
E7D4
331
E79C
  5
E79D
331
E7D9
  5
E7DA
331
E818
  5
E81C
331
E89E
  5
E8A1
331
E7E1
  5
E7E3
331
E820
  5
E835
331
E828
  5
E872
331
E8AE
  5
E8AF
331
E7F1
  5
E7F3
331
E877
  5
E87B
331
AF66
  5
AF66
331
AF6E
  5
AF6E
331
E7A4
  5
E7A5
331
AF76
  5
AF76
331
E7AC
  5
E7AD
331
AF7E
  5
AF7E
331
E775
  5
E776
331
E7B4
  5
E7B5
331
E77D
  5
E77E
331
E7BC
  5
E7BD
331
E7F9
  5
E7FB
331
E87F
  5
E89A
331
E801
  5
E804
331
E809
  5
E80D
331
E811
  5
E815
331
AF47
  5
AF47
331
AF86
  5
AF86
331
AF8E
  5
AF8E
331
AF4F
  5
AF4F
331
E785
  5
E786
331
E7C4
  5
E7C5
331
AF57
  5
AF57
331
E78D
  5
E78E
331
E7CC
  5
E7CD
331
AF5F
  5
AF5F
331
E795
  5
E796
331
E7D4
  5
E7D5
331
E79D
  5
E79E
331
E7DA
  5
E7DB
331
E819
  5
E81D
331
E89F
  5
E8A2
331
E7E2
  5
E7E4
331
E7EA
  5
E7EC
331
E8AF
  5
E8B1
331
E7F2
  5
E7F4
331
AF67
  5
AF67
331
AF6F
  5
AF6F
331
E7A5
  5
E7A6
331
AF77
  5
AF77
331
E7AD
  5
E7AE
331
AF7F
  5
AF7F
331
E776
  5
E777
331
E7B5
  5
E7B6
331
E77E
  5
E77F
331
E7BD
  5
E7BE
331
E878
  5
E87C
331
E7FA
  5
E7FC
331
E802
  5
E805
331
E80A
  5
E80E
331
E812
  5
E816
331
AF48
  5
AF48
331
AF87
  5
AF87
331
AF50
  5
AF50
331
AF8F
  5
AF8F
331
E786
  5
E787
331
E7C5
  5
E7C6
331
AF58
  5
AF58
331
E78E
  5
E78F
331
E7CD
  5
E7CE
331
E796
  5
E797
331
E7D5
  5
E7D6
331
E79E
  5
E79F
331
E7DB
  5
E7DC
331
E81A
  5
E81E
331
E7E3
  5
E7E5
331
E7EB
  5
E7ED
331
E7F3
  5
E7F5
331
AF60
  5
AF60
331
AF68
  5
AF68
331
AF70
  5
AF70
331
E7A6
  5
E7A7
331
AF78
  5
AF78
331
E7AE
  5
E7AF
331
E777
  5
E778
331
E7B6
  5
E7B7
331
E77F
  5
E780
331
E7BE
  5
E7BF
331
E842
  5
E874
331
E879
  5
E87D
331
E7FB
  5
E7FD
331
E803
  5
E806
331
E80B
  5
E80F
331
E813
  5
E817
331
AF80
  5
AF80
331
AF49
  5
AF49
331
AF88
  5
AF88
331
AF51
  5
AF51
331
AFC8
  5
AFC8
331
E787
  5
E788
331
E7C6
  5
E7C7
331
AF59
  5
AF59
331
E78F
  5
E790
331
E7CE
  5
E7CF
331
E797
  5
E798
331
E7D6
  5
E7D7
331
E79F
  5
E7A0
331
E899
  5
E89D
331
E7DC
  5
E7DD
331
E81B
  5
E81F
331
E7E4
  5
E7E6
331
E7EC
  5
E7EE
331
E872
  5
E876
331
E8B1
  5
E8B2
331
E7F4
  5
E7F6
331
AF61
  5
AF61
331
AF69
  5
AF69
331
AF71
  5
AF71
331
E7A7
  5
E7A8
331
AF79
  5
AF79
331
E7AF
  5
E7B0
331
E778
  5
E779
331
E7B7
  5
E7B8
331
E7BF
  5
E7C0
331
E87A
  5
E87E
331
E7FC
  5
E7FE
331
E804
  5
E807
331
E80C
  5
E810
331
E814
  5
E818
  0
XRECORD
  5
5D8A
102
{ACAD_REACTORS
330
5D89
102
}
330
5D89
100
AcDbXrecord
280
     1
340
15
  0
DICTIONARY
  5
7C0C
102
{ACAD_REACTORS
330
7C0B
102
}
330
7C0B
100
AcDbDictionary
280
     1
281
     1
  3
Edit
360
7C0D
  0
DICTIONARY
  5
8E74
102
{ACAD_REACTORS
330
8E73
102
}
330
8E73
100
AcDbDictionary
280
     1
281
     1
  3
Edit
360
8E75
  0
DICTIONARY
  5
9D17
102
{ACAD_REACTORS
330
9D16
102
}
330
9D16
100
AcDbDictionary
280
     1
281
     1
  3
Edit
360
9D18
  0
DICTIONARY
  5
A51A
102
{ACAD_REACTORS
330
A519
102
}
330
A519
100
AcDbDictionary
280
     1
281
     1
  3
Edit
360
A51B
  0
DICTIONARY
  5
A629
102
{ACAD_REACTORS
330
A628
102
}
330
A628
100
AcDbDictionary
280
     1
281
     1
  3
Edit
360
A62A
  0
DICTIONARY
  5
DEF9
102
{ACAD_REACTORS
330
DEF8
102
}
330
DEF8
100
AcDbDictionary
280
     1
281
     1
  3
Edit
360
DEFA
  0
DICTIONARY
  5
E6A2
102
{ACAD_REACTORS
330
E6A1
102
}
330
E6A1
100
AcDbDictionary
280
     1
281
     1
  3
Edit
360
E6A3
  0
LAYOUT
  5
5CF5
102
{ACAD_REACTORS
330
5CF3
102
}
330
5CF3
100
AcDbPlotSettings
  1

  2
Microsoft Office Document Image Writer
  4
A4
  6

 40
3.174999952316284
 41
3.174999952316284
 42
3.175003051757812
 43
3.17498779296875
 44
210.0579986572266
 45
297.0530090332031
 46
6.853997826576232
 47
5.351510643959045
 48
0.0
 49
0.0
140
190.0
141
280.0
142
1.0
143
1.0
 70
 11940
 72
     1
 73
     0
 74
     4
  7
LIN.ctb
 75
     0
147
1.02454228741782
 76
     0
 77
     2
 78
   300
148
0.0
149
0.0
100
AcDbLayout
  1
Model
 70
     1
 71
     0
 10
0.0
 20
0.0
 11
12.0
 21
9.0
 12
0.0
 22
0.0
 32
0.0
 14
0.0
 24
0.0
 34
0.0
 15
0.0
 25
0.0
 35
0.0
146
0.0
 13
0.0
 23
0.0
 33
0.0
 16
1.0
 26
0.0
 36
0.0
 17
0.0
 27
1.0
 37
0.0
 76
     0
330
18
1001
ACAD_PSEXT
1000
Microsoft Office Document Image Writer
1000
Microsoft Office Document Image Writer Driver
1000
Microsoft Document Imaging Writer Port:
1000

1070
     0
  0
LAYOUT
  5
5CF6
102
{ACAD_REACTORS
330
5CF3
102
}
330
5CF3
100
AcDbPlotSettings
  1

  2
EPSON STYLUS COLOR 440
  4

  6

 40
0.0
 41
0.0
 42
0.0
 43
0.0
 44
0.0
 45
0.0
 46
0.0
 47
0.0
 48
0.0
 49
0.0
140
0.0
141
0.0
142
1.0
143
1.0
 70
   688
 72
     0
 73
     0
 74
     5
  7
LIN.ctb
 75
    16
147
1.0
 76
     0
 77
     2
 78
   300
148
0.0
149
0.0
100
AcDbLayout
  1
ｰtｸm1
 70
     1
 71
     1
 10
0.0
 20
0.0
 11
420.0
 21
297.0
 12
0.0
 22
0.0
 32
0.0
 14
1.000000000000000E+20
 24
1.000000000000000E+20
 34
1.000000000000000E+20
 15
-1.000000000000000E+20
 25
-1.000000000000000E+20
 35
-1.000000000000000E+20
146
0.0
 13
0.0
 23
0.0
 33
0.0
 16
1.0
 26
0.0
 36
0.0
 17
0.0
 27
1.0
 37
0.0
 76
     0
330
15
  0
MLINESTYLE
  5
1C
102
{ACAD_REACTORS
330
1B
102
}
330
1B
100
AcDbMlineStyle
  2
STANDARD
 70
     0
  3

 62
   256
 51
90.0
 52
90.0
 71
     2
 49
0.5
 62
   256
  6
BYLAYER
 49
-0.5
 62
   256
  6
BYLAYER
  0
ACDBPLACEHOLDER
  5
5CF2
102
{ACAD_REACTORS
330
5CF1
102
}
330
5CF1
  0
TABLESTYLE
  5
7875
102
{ACAD_REACTORS
330
7874
102
}
330
7874
100
AcDbTableStyle
  3
Standard
 70
     0
 71
     8
 40
1.5
 41
1.5
280
     0
281
     0
  7
STANDARD
140
4.5
170
     2
 62
     0
 63
     7
283
     0
274
    -2
284
     1
 64
     0
275
    -2
285
     1
 65
     0
276
    -2
286
     1
 66
     0
277
    -2
287
     1
 67
     0
278
    -2
288
     1
 68
     0
279
    -2
289
     1
 69
     0
  7
STANDARD
140
6.0
170
     5
 62
     0
 63
     7
283
     0
274
    -2
284
     1
 64
     0
275
    -2
285
     1
 65
     0
276
    -2
286
     1
 66
     0
277
    -2
287
     1
 67
     0
278
    -2
288
     1
 68
     0
279
    -2
289
     1
 69
     0
  7
STANDARD
140
4.5
170
     5
 62
     0
 63
     7
283
     0
274
    -2
284
     1
 64
     0
275
    -2
285
     1
 65
     0
276
    -2
286
     1
 66
     0
277
    -2
287
     1
 67
     0
278
    -2
288
     1
 68
     0
279
    -2
289
     1
 69
     0
  0
DICTIONARYVAR
  5
7880
102
{ACAD_REACTORS
330
45D
102
}
330
45D
100
DictionaryVariables
280
     0
  1
STANDARD
  0
DICTIONARYVAR
  5
45E
102
{ACAD_REACTORS
330
45D
102
}
330
45D
100
DictionaryVariables
280
     0
  1
127
  0
XRECORD
  5
7C0D
102
{ACAD_REACTORS
330
7C0C
102
}
330
7C0C
100
AcDbXrecord
280
     1
1070
     0
1070
     1
1070
     1
  0
XRECORD
  5
8E75
102
{ACAD_REACTORS
330
8E74
102
}
330
8E74
100
AcDbXrecord
280
     1
1070
     0
1070
     1
1070
     1
  0
XRECORD
  5
9D18
102
{ACAD_REACTORS
330
9D17
102
}
330
9D17
100
AcDbXrecord
280
     1
1070
     0
1070
     1
1070
     1
  0
XRECORD
  5
A51B
102
{ACAD_REACTORS
330
A51A
102
}
330
A51A
100
AcDbXrecord
280
     1
1070
     0
1070
     1
1070
     1
  0
XRECORD
  5
A62A
102
{ACAD_REACTORS
330
A629
102
}
330
A629
100
AcDbXrecord
280
     1
1070
     0
1070
     1
1070
     1
  0
XRECORD
  5
DEFA
102
{ACAD_REACTORS
330
DEF9
102
}
330
DEF9
100
AcDbXrecord
280
     1
1070
     0
1070
     1
1070
     1
  0
XRECORD
  5
E6A3
102
{ACAD_REACTORS
330
E6A2
102
}
330
E6A2
100
AcDbXrecord
280
     1
1070
     0
1070
     1
1070
     1
  0
ENDSEC
  0
EOF
