  0
SECTION
  2
HEADER
  9
$ACADVER
  1
AC1018
  9
$ACADMAINTVER
 70
    76
  9
$DWGCODEPAGE
  3
ANSI_932
  9
$INSBASE
 10
0.0
 20
0.0
 30
0.0
  9
$EXTMIN
 10
0.0
 20
0.0
 30
0.0
  9
$EXTMAX
 10
190.0
 20
280.0
 30
0.0
  9
$LIMMIN
 10
0.0
 20
0.0
  9
$LIMMAX
 10
420.0
 20
297.0
  9
$ORTHOMODE
 70
     0
  9
$REGENMODE
 70
     1
  9
$FILLMODE
 70
     1
  9
$QTEXTMODE
 70
     0
  9
$MIRRTEXT
 70
     1
  9
$LTSCALE
 40
1.0
  9
$ATTMODE
 70
     1
  9
$TEXTSIZE
 40
1.25
  9
$TRACEWID
 40
1.0
  9
$TEXTSTYLE
  7
TXT
  9
$CLAYER
  8
section
  9
$CELTYPE
  6
BYLAYER
  9
$CECOLOR
 62
   256
  9
$CELTSCALE
 40
1.0
  9
$DISPSILH
 70
     0
  9
$DIMSCALE
 40
1.0
  9
$DIMASZ
 40
2.5
  9
$DIMEXO
 40
0.8
  9
$DIMDLI
 40
0.38
  9
$DIMRND
 40
0.0
  9
$DIMDLE
 40
0.0
  9
$DIMEXE
 40
0.8
  9
$DIMTP
 40
0.0
  9
$DIMTM
 40
0.0
  9
$DIMTXT
 40
2.5
  9
$DIMCEN
 40
0.09
  9
$DIMTSZ
 40
0.0
  9
$DIMTOL
 70
     0
  9
$DIMLIM
 70
     0
  9
$DIMTIH
 70
     0
  9
$DIMTOH
 70
     0
  9
$DIMSE1
 70
     0
  9
$DIMSE2
 70
     0
  9
$DIMTAD
 70
     3
  9
$DIMZIN
 70
     8
  9
$DIMBLK
  1
Open30
  9
$DIMASO
 70
     1
  9
$DIMSHO
 70
     1
  9
$DIMPOST
  1

  9
$DIMAPOST
  1

  9
$DIMALT
 70
     0
  9
$DIMALTD
 70
     2
  9
$DIMALTF
 40
25.4
  9
$DIMLFAC
 40
1.0
  9
$DIMTOFL
 70
     1
  9
$DIMTVP
 40
0.0
  9
$DIMTIX
 70
     0
  9
$DIMSOXD
 70
     0
  9
$DIMSAH
 70
     0
  9
$DIMBLK1
  1

  9
$DIMBLK2
  1

  9
$DIMSTYLE
  2
STANDARD
  9
$DIMCLRD
 70
   256
  9
$DIMCLRE
 70
   256
  9
$DIMCLRT
 70
     3
  9
$DIMTFAC
 40
1.0
  9
$DIMGAP
 40
0.8
  9
$DIMJUST
 70
     0
  9
$DIMSD1
 70
     0
  9
$DIMSD2
 70
     0
  9
$DIMTOLJ
 70
     1
  9
$DIMTZIN
 70
     0
  9
$DIMALTZ
 70
     0
  9
$DIMALTTZ
 70
     0
  9
$DIMUPT
 70
     0
  9
$DIMDEC
 70
     2
  9
$DIMTDEC
 70
     2
  9
$DIMALTU
 70
     2
  9
$DIMALTTD
 70
     2
  9
$DIMTXSTY
  7
STANDARD
  9
$DIMAUNIT
 70
     0
  9
$DIMADEC
 70
     2
  9
$DIMALTRND
 40
0.0
  9
$DIMAZIN
 70
     2
  9
$DIMDSEP
 70
    46
  9
$DIMATFIT
 70
     3
  9
$DIMFRAC
 70
     0
  9
$DIMLDRBLK
  1
Open30
  9
$DIMLUNIT
 70
     2
  9
$DIMLWD
 70
    -2
  9
$DIMLWE
 70
    -2
  9
$DIMTMOVE
 70
     0
  9
$LUNITS
 70
     2
  9
$LUPREC
 70
     2
  9
$SKETCHINC
 40
1.0
  9
$FILLETRAD
 40
1.0
  9
$AUNITS
 70
     0
  9
$AUPREC
 70
     2
  9
$MENU
  1
.
  9
$ELEVATION
 40
0.0
  9
$PELEVATION
 40
0.0
  9
$THICKNESS
 40
0.0
  9
$LIMCHECK
 70
     0
  9
$CHAMFERA
 40
0.9
  9
$CHAMFERB
 40
0.9
  9
$CHAMFERC
 40
1.75
  9
$CHAMFERD
 40
0.0174532925199433
  9
$SKPOLY
 70
     0
  9
$TDCREATE
 40
2451555.620234838
  9
$TDUCREATE
 40
2451555.245234838
  9
$TDUPDATE
 40
2455846.621776169
  9
$TDUUPDATE
 40
2455846.246776169
  9
$TDINDWG
 40
2.6854542708
  9
$TDUSRTIMER
 40
2.6854542708
  9
$USRTIMER
 70
     1
  9
$ANGBASE
 50
0.0
  9
$ANGDIR
 70
     0
  9
$PDMODE
 70
     0
  9
$PDSIZE
 40
0.0
  9
$PLINEWID
 40
0.0
  9
$SPLFRAME
 70
     0
  9
$SPLINETYPE
 70
     6
  9
$SPLINESEGS
 70
     8
  9
$HANDSEED
  5
AD7A
  9
$SURFTAB1
 70
     6
  9
$SURFTAB2
 70
     6
  9
$SURFTYPE
 70
     6
  9
$SURFU
 70
     6
  9
$SURFV
 70
     6
  9
$UCSBASE
  2

  9
$UCSNAME
  2

  9
$UCSORG
 10
0.0
 20
0.0
 30
0.0
  9
$UCSXDIR
 10
1.0
 20
0.0
 30
0.0
  9
$UCSYDIR
 10
0.0
 20
1.0
 30
0.0
  9
$UCSORTHOREF
  2

  9
$UCSORTHOVIEW
 70
     1
  9
$UCSORGTOP
 10
0.0
 20
0.0
 30
0.0
  9
$UCSORGBOTTOM
 10
0.0
 20
0.0
 30
0.0
  9
$UCSORGLEFT
 10
0.0
 20
0.0
 30
0.0
  9
$UCSORGRIGHT
 10
0.0
 20
0.0
 30
0.0
  9
$UCSORGFRONT
 10
0.0
 20
0.0
 30
0.0
  9
$UCSORGBACK
 10
0.0
 20
0.0
 30
0.0
  9
$PUCSBASE
  2

  9
$PUCSNAME
  2

  9
$PUCSORG
 10
0.0
 20
0.0
 30
0.0
  9
$PUCSXDIR
 10
1.0
 20
0.0
 30
0.0
  9
$PUCSYDIR
 10
0.0
 20
1.0
 30
0.0
  9
$PUCSORTHOREF
  2

  9
$PUCSORTHOVIEW
 70
     0
  9
$PUCSORGTOP
 10
0.0
 20
0.0
 30
0.0
  9
$PUCSORGBOTTOM
 10
0.0
 20
0.0
 30
0.0
  9
$PUCSORGLEFT
 10
0.0
 20
0.0
 30
0.0
  9
$PUCSORGRIGHT
 10
0.0
 20
0.0
 30
0.0
  9
$PUCSORGFRONT
 10
0.0
 20
0.0
 30
0.0
  9
$PUCSORGBACK
 10
0.0
 20
0.0
 30
0.0
  9
$USERI1
 70
     0
  9
$USERI2
 70
     0
  9
$USERI3
 70
     0
  9
$USERI4
 70
     0
  9
$USERI5
 70
     0
  9
$USERR1
 40
0.0
  9
$USERR2
 40
0.0
  9
$USERR3
 40
0.0
  9
$USERR4
 40
0.0
  9
$USERR5
 40
0.0
  9
$WORLDVIEW
 70
     1
  9
$SHADEDGE
 70
     3
  9
$SHADEDIF
 70
    70
  9
$TILEMODE
 70
     1
  9
$MAXACTVP
 70
    48
  9
$PINSBASE
 10
0.0
 20
0.0
 30
0.0
  9
$PLIMCHECK
 70
     0
  9
$PEXTMIN
 10
1.000000000000000E+20
 20
1.000000000000000E+20
 30
1.000000000000000E+20
  9
$PEXTMAX
 10
-1.000000000000000E+20
 20
-1.000000000000000E+20
 30
-1.000000000000000E+20
  9
$PLIMMIN
 10
0.0
 20
0.0
  9
$PLIMMAX
 10
420.0
 20
297.0
  9
$UNITMODE
 70
     0
  9
$VISRETAIN
 70
     1
  9
$PLINEGEN
 70
     0
  9
$PSLTSCALE
 70
     1
  9
$TREEDEPTH
 70
  3020
  9
$CMLSTYLE
  2
STANDARD
  9
$CMLJUST
 70
     0
  9
$CMLSCALE
 40
20.0
  9
$PROXYGRAPHICS
 70
     1
  9
$MEASUREMENT
 70
     1
  9
$CELWEIGHT
370
    -1
  9
$ENDCAPS
280
     0
  9
$JOINSTYLE
280
     0
  9
$LWDISPLAY
290
     0
  9
$INSUNITS
 70
     0
  9
$HYPERLINKBASE
  1

  9
$STYLESHEET
  1
monochrome.ctb
  9
$XEDIT
290
     1
  9
$CEPSNTYPE
380
     0
  9
$PSTYLEMODE
290
     1
  9
$FINGERPRINTGUID
  2
{1CF51E8A-A506-11D4-A7D9-AF69F5C20846}
  9
$VERSIONGUID
  2
{FB02DA02-9703-47EC-9BDF-2D8A0327E255}
  9
$EXTNAMES
290
     1
  9
$PSVPSCALE
 40
0.0
  9
$OLESTARTUP
290
     0
  9
$SORTENTS
280
   127
  9
$INDEXCTL
280
     0
  9
$HIDETEXT
280
     0
  9
$XCLIPFRAME
290
     0
  9
$HALOGAP
280
     0
  9
$OBSCOLOR
 70
   257
  9
$OBSLTYPE
280
     0
  9
$INTERSECTIONDISPLAY
280
     0
  9
$INTERSECTIONCOLOR
 70
   257
  9
$DIMASSOC
280
     1
  9
$PROJECTNAME
  1

  0
ENDSEC
  0
SECTION
  2
CLASSES
  0
CLASS
  1
DICTIONARYVAR
  2
AcDbDictionaryVar
  3
ObjectDBX Classes
 90
        0
 91
        2
280
     0
281
     0
  0
CLASS
  1
SORTENTSTABLE
  2
AcDbSortentsTable
  3
ObjectDBX Classes
 90
        0
 91
        1
280
     0
281
     0
  0
CLASS
  1
ACDBDICTIONARYWDFLT
  2
AcDbDictionaryWithDefault
  3
ObjectDBX Classes
 90
        0
 91
        1
280
     0
281
     0
  0
CLASS
  1
TABLESTYLE
  2
AcDbTableStyle
  3
ObjectDBX Classes
 90
     2047
 91
        1
280
     0
281
     0
  0
ENDSEC
  0
SECTION
  2
TABLES
  0
TABLE
  2
VPORT
  5
8
330
0
100
AcDbSymbolTable
 70
     2
  0
VPORT
  5
AD79
330
8
100
AcDbSymbolTableRecord
100
AcDbViewportTableRecord
  2
*Active
 70
     0
 10
0.0
 20
0.0
 11
1.0
 21
1.0
 12
245.9814972708542
 22
140.0033275128401
 13
0.0
 23
0.0
 14
10.0
 24
10.0
 15
10.0
 25
10.0
 16
0.0
 26
0.0
 36
1.0
 17
0.0
 27
0.0
 37
0.0
 40
283.4212466735652
 41
2.47104247104247
 42
50.0
 43
0.0
 44
0.0
 50
0.0
 51
0.0
 71
     0
 72
 20000
 73
     1
 74
     1
 75
     0
 76
     0
 77
     0
 78
     0
281
     0
 65
     1
110
0.0
120
0.0
130
0.0
111
1.0
121
0.0
131
0.0
112
0.0
122
1.0
132
0.0
 79
     1
146
0.0
  0
ENDTAB
  0
TABLE
  2
LTYPE
  5
5
330
0
100
AcDbSymbolTable
 70
     7
  0
LTYPE
  5
12
330
5
100
AcDbSymbolTableRecord
100
AcDbLinetypeTableRecord
  2
BYBLOCK
 70
     0
  3

 72
    65
 73
     0
 40
0.0
  0
LTYPE
  5
13
330
5
100
AcDbSymbolTableRecord
100
AcDbLinetypeTableRecord
  2
BYLAYER
 70
     0
  3

 72
    65
 73
     0
 40
0.0
  0
LTYPE
  5
14
330
5
100
AcDbSymbolTableRecord
100
AcDbLinetypeTableRecord
  2
CONTINUOUS
 70
     0
  3
Solid line
 72
    65
 73
     0
 40
0.0
  0
LTYPE
  5
9D
330
5
100
AcDbSymbolTableRecord
100
AcDbLinetypeTableRecord
  2
CENTERX2
 70
     0
  3
Center (2x) ________  __  ________  __  _____
 72
    65
 73
     4
 40
101.6
 49
63.5
 74
     0
 49
-12.7
 74
     0
 49
12.7
 74
     0
 49
-12.7
 74
     0
  0
LTYPE
  5
A1
330
5
100
AcDbSymbolTableRecord
100
AcDbLinetypeTableRecord
  2
DASHED
 70
     0
  3
Dashed __ __ __ __ __ __ __ __ __ __ __ __ __ _
 72
    65
 73
     2
 40
19.05
 49
12.7
 74
     0
 49
-6.349999999999999
 74
     0
  0
LTYPE
  5
A2
330
5
100
AcDbSymbolTableRecord
100
AcDbLinetypeTableRecord
  2
DASHED2
 70
     0
  3
Dashed (.5x) _ _ _ _ _ _ _ _ _ _ _ _ _ _ _ _ _
 72
    65
 73
     2
 40
9.524999999999998
 49
6.349999999999999
 74
     0
 49
-3.174999999999999
 74
     0
  0
LTYPE
  5
A5
330
5
100
AcDbSymbolTableRecord
100
AcDbLinetypeTableRecord
  2
DIVIDE2
 70
     0
  3
Divide (.5x) __..__..__..__..__..__..__..__.._
 72
    65
 73
     6
 40
15.875
 49
6.349999999999999
 74
     0
 49
-3.174999999999999
 74
     0
 49
0.0
 74
     0
 49
-3.174999999999999
 74
     0
 49
0.0
 74
     0
 49
-3.174999999999999
 74
     0
  0
LTYPE
  5
650B
330
5
100
AcDbSymbolTableRecord
100
AcDbLinetypeTableRecord
  2
CENTER
 70
     0
  3
Center ____ _ ____ _ ____ _ ____ _ ____ _ ____
 72
    65
 73
     4
 40
50.8
 49
31.75
 74
     0
 49
-6.349999999999999
 74
     0
 49
6.349999999999999
 74
     0
 49
-6.349999999999999
 74
     0
  0
LTYPE
  5
650C
330
5
100
AcDbSymbolTableRecord
100
AcDbLinetypeTableRecord
  2
HIDDEN
 70
     0
  3
Hidden __ __ __ __ __ __ __ __ __ __ __ __ __ _
 72
    65
 73
     2
 40
9.524999999999998
 49
6.349999999999999
 74
     0
 49
-3.174999999999999
 74
     0
  0
ENDTAB
  0
TABLE
  2
LAYER
  5
2
102
{ACAD_XDICTIONARY
360
7BFE
102
}
330
0
100
AcDbSymbolTable
 70
     9
  0
LAYER
  5
E
330
2
100
AcDbSymbolTableRecord
100
AcDbLayerTableRecord
  2
0
 70
     0
 62
     7
  6
CONTINUOUS
370
    -3
390
5CF2
  0
LAYER
  5
B9
330
2
100
AcDbSymbolTableRecord
100
AcDbLayerTableRecord
  2
dim
 70
     0
 62
     3
  6
CONTINUOUS
370
    -3
390
5CF2
  0
LAYER
  5
F2
330
2
100
AcDbSymbolTableRecord
100
AcDbLayerTableRecord
  2
DEFPOINTS
 70
     0
 62
     4
  6
CONTINUOUS
290
     0
370
    -3
390
5CF2
  0
LAYER
  5
5F8B
330
2
100
AcDbSymbolTableRecord
100
AcDbLayerTableRecord
  2
mark
 70
     0
 62
     6
  6
CONTINUOUS
370
    -3
390
5CF2
  0
LAYER
  5
644E
330
2
100
AcDbSymbolTableRecord
100
AcDbLayerTableRecord
  2
frame
 70
     0
 62
     9
  6
CONTINUOUS
370
    -3
390
5CF2
  0
LAYER
  5
650D
330
2
100
AcDbSymbolTableRecord
100
AcDbLayerTableRecord
  2
center
 70
     0
 62
     1
  6
CENTER
370
    -3
390
5CF2
  0
LAYER
  5
650E
330
2
100
AcDbSymbolTableRecord
100
AcDbLayerTableRecord
  2
bowle
 70
     0
 62
     4
  6
HIDDEN
370
    -3
390
5CF2
  0
LAYER
  5
650F
330
2
100
AcDbSymbolTableRecord
100
AcDbLayerTableRecord
  2
contour
 70
     0
 62
     2
  6
CONTINUOUS
370
    -3
390
5CF2
  0
LAYER
  5
6510
330
2
100
AcDbSymbolTableRecord
100
AcDbLayerTableRecord
  2
section
 70
     0
 62
     5
  6
CONTINUOUS
370
    -3
390
5CF2
  0
ENDTAB
  0
TABLE
  2
STYLE
  5
3
330
0
100
AcDbSymbolTable
 70
     5
  0
STYLE
  5
F
330
3
100
AcDbSymbolTableRecord
100
AcDbTextStyleTableRecord
  2
STANDARD
 70
     0
 40
0.0
 41
1.0
 50
0.0
 71
     0
 42
2.5
  3
txt
  4

  0
STYLE
  5
BE
330
3
100
AcDbSymbolTableRecord
100
AcDbTextStyleTableRecord
  2
ISOCP3
 70
     0
 40
0.0
 41
1.0
 50
0.0
 71
     0
 42
2.5
  3
isocp3.shx
  4

  0
STYLE
  5
2A37
330
3
100
AcDbSymbolTableRecord
100
AcDbTextStyleTableRecord
  2
TXT
 70
     0
 40
0.0
 41
1.0
 50
0.0
 71
     0
 42
1.25
  3
txt.shx
  4
bigfont.shx
  0
STYLE
  5
5DCB
330
3
100
AcDbSymbolTableRecord
100
AcDbTextStyleTableRecord
  2
LKK
 70
     0
 40
50.0
 41
1.5
 50
0.0
 71
     0
 42
50.0
  3
MS PGothic.ttf
  4

1001
ACAD
1000
MS PGothic
1071
    32818
  0
STYLE
  5
5DCC
330
3
100
AcDbSymbolTableRecord
100
AcDbTextStyleTableRecord
  2
JL
 70
     0
 40
10.0
 41
0.5
 50
0.0
 71
     0
 42
5.0
  3
MS Mincho.ttf
  4

1001
ACAD
1000
MS Mincho
1071
    32785
  0
ENDTAB
  0
TABLE
  2
VIEW
  5
6
330
0
100
AcDbSymbolTable
 70
     0
  0
ENDTAB
  0
TABLE
  2
UCS
  5
7
330
0
100
AcDbSymbolTable
 70
     0
  0
ENDTAB
  0
TABLE
  2
APPID
  5
9
330
0
100
AcDbSymbolTable
 70
    12
  0
APPID
  5
10
330
9
100
AcDbSymbolTableRecord
100
AcDbRegAppTableRecord
  2
ACAD
 70
     0
  0
APPID
  5
7C91
330
9
100
AcDbSymbolTableRecord
100
AcDbRegAppTableRecord
  2
ACAD_DSTYLE_DIMEXT_LENGTH
 70
     0
  0
APPID
  5
7C92
330
9
100
AcDbSymbolTableRecord
100
AcDbRegAppTableRecord
  2
ACAD_DSTYLE_DIMEXT_ENABLED
 70
     0
  0
APPID
  5
7C93
330
9
100
AcDbSymbolTableRecord
100
AcDbRegAppTableRecord
  2
ACAD_DSTYLE_DIMJOGGED_JOGANGLE_SYMBOL
 70
     0
  0
APPID
  5
7C94
330
9
100
AcDbSymbolTableRecord
100
AcDbRegAppTableRecord
  2
ACAD_DSTYLE_DIMARC_LENGTH_SYMBOL
 70
     0
  0
APPID
  5
7F1C
330
9
100
AcDbSymbolTableRecord
100
AcDbRegAppTableRecord
  2
ACAD_EXEMPT_FROM_CAD_STANDARDS
 70
     0
  0
APPID
  5
7F49
330
9
100
AcDbSymbolTableRecord
100
AcDbRegAppTableRecord
  2
ACAD_DSTYLE_DIMTEXT_FILL
 70
     0
  0
APPID
  5
7F4C
330
9
100
AcDbSymbolTableRecord
100
AcDbRegAppTableRecord
  2
ACAD_DSTYLE_DIM_LINETYPE
 70
     0
  0
APPID
  5
7F4D
330
9
100
AcDbSymbolTableRecord
100
AcDbRegAppTableRecord
  2
ACAD_DSTYLE_DIM_EXT1_LINETYPE
 70
     0
  0
APPID
  5
7F4E
330
9
100
AcDbSymbolTableRecord
100
AcDbRegAppTableRecord
  2
ACAD_DSTYLE_DIM_EXT2_LINETYPE
 70
     0
  0
APPID
  5
8C73
330
9
100
AcDbSymbolTableRecord
100
AcDbRegAppTableRecord
  2
ACAD_PSEXT
 70
     0
  0
APPID
  5
A701
330
9
100
AcDbSymbolTableRecord
100
AcDbRegAppTableRecord
  2
PE_URL
 70
     0
  0
ENDTAB
  0
TABLE
  2
DIMSTYLE
  5
A
330
0
100
AcDbSymbolTable
 70
     1
100
AcDbDimStyleTable
 71
     1
340
1D
  0
DIMSTYLE
105
1D
102
{ACAD_REACTORS
330
AB11
330
AB25
330
AB31
330
AB3E
330
AB4B
330
AB65
330
AB72
330
AB80
330
AB8D
102
}
330
A
100
AcDbSymbolTableRecord
100
AcDbDimStyleTableRecord
  2
STANDARD
 70
     0
 41
2.5
 42
0.8
 44
0.8
 73
     0
 74
     0
 77
     3
 78
     8
 79
     2
140
2.5
147
0.8
172
     1
176
   256
177
   256
178
     3
179
     2
271
     2
272
     2
340
F
341
7C04
342
7C04
1001
ACAD_DSTYLE_DIMEXT_LENGTH
1070
   378
1040
0.18
1001
ACAD_DSTYLE_DIMEXT_ENABLED
1070
   383
1070
     0
1001
ACAD_DSTYLE_DIMARC_LENGTH_SYMBOL
1070
   379
1070
     0
1001
ACAD_DSTYLE_DIMJOGGED_JOGANGLE_SYMBOL
1070
   384
1040
1.570796326794896
  0
ENDTAB
  0
TABLE
  2
BLOCK_RECORD
  5
1
330
0
100
AcDbSymbolTable
 70
    17
  0
BLOCK_RECORD
  5
18
102
{ACAD_XDICTIONARY
360
45F
102
}
330
1
100
AcDbSymbolTableRecord
100
AcDbBlockTableRecord
  2
*MODEL_SPACE
340
5CF5
  0
BLOCK_RECORD
  5
15
102
{ACAD_XDICTIONARY
360
5D89
102
}
330
1
100
AcDbSymbolTableRecord
100
AcDbBlockTableRecord
  2
*PAPER_SPACE
340
5CF6
  0
BLOCK_RECORD
  5
639D
330
1
100
AcDbSymbolTableRecord
100
AcDbBlockTableRecord
  2
A$C255C26A2
340
0
  0
BLOCK_RECORD
  5
7C04
330
1
100
AcDbSymbolTableRecord
100
AcDbBlockTableRecord
  2
_Open30
340
0
102
{BLKREFS
331
ABF2
331
ABF3
331
ABFA
331
ABFB
331
AC01
331
AC02
331
AC0A
331
AC0B
331
AC15
331
AC16
331
AC1E
331
AC1F
331
AC27
331
AC28
331
AC30
331
AC31
331
AC39
102
}
  0
BLOCK_RECORD
  5
7C0A
102
{ACAD_XDICTIONARY
360
7C0B
102
}
330
1
100
AcDbSymbolTableRecord
100
AcDbBlockTableRecord
  2
A
340
0
310
2800000020000000200000000100080000000000000400000000000000000000000000000000000000000000000080000080000000808000800000008000800080800000C0C0C000C0DCC000F0CAA6000020400000206000002080000020A0000020C0000020E00000400000004020000040400000406000004080000040A0
310
000040C0000040E00000600000006020000060400000606000006080000060A0000060C0000060E00000800000008020000080400000806000008080000080A0000080C0000080E00000A0000000A0200000A0400000A0600000A0800000A0A00000A0C00000A0E00000C0000000C0200000C0400000C0600000C0800000C0
310
A00000C0C00000C0E00000E0000000E0200000E0400000E0600000E0800000E0A00000E0C00000E0E00040000000400020004000400040006000400080004000A0004000C0004000E00040200000402020004020400040206000402080004020A0004020C0004020E000404000004040200040404000404060004040800040
310
40A0004040C0004040E00040600000406020004060400040606000406080004060A0004060C0004060E00040800000408020004080400040806000408080004080A0004080C0004080E00040A0000040A0200040A0400040A0600040A0800040A0A00040A0C00040A0E00040C0000040C0200040C0400040C0600040C08000
310
40C0A00040C0C00040C0E00040E0000040E0200040E0400040E0600040E0800040E0A00040E0C00040E0E00080000000800020008000400080006000800080008000A0008000C0008000E00080200000802020008020400080206000802080008020A0008020C0008020E00080400000804020008040400080406000804080
310
008040A0008040C0008040E00080600000806020008060400080606000806080008060A0008060C0008060E00080800000808020008080400080806000808080008080A0008080C0008080E00080A0000080A0200080A0400080A0600080A0800080A0A00080A0C00080A0E00080C0000080C0200080C0400080C0600080C0
310
800080C0A00080C0C00080C0E00080E0000080E0200080E0400080E0600080E0800080E0A00080E0C00080E0E000C0000000C0002000C0004000C0006000C0008000C000A000C000C000C000E000C0200000C0202000C0204000C0206000C0208000C020A000C020C000C020E000C0400000C0402000C0404000C0406000C0
310
408000C040A000C040C000C040E000C0600000C0602000C0604000C0606000C0608000C060A000C060C000C060E000C0800000C0802000C0804000C0806000C0808000C080A000C080C000C080E000C0A00000C0A02000C0A04000C0A06000C0A08000C0A0A000C0A0C000C0A0E000C0C00000C0C02000C0C04000C0C06000
310
C0C08000C0C0A000F0FBFF00A4A0A000808080000000FF0000FF000000FFFF00FF000000FF00FF00FFFF0000FFFFFF0000000000000000000000000000000000000000000000000000000000000000000000000000000000000000000000000000000000000000000000000000000000000000000000000000000000000000
310
00000000000000000000000000000000000000000000000000000000000000000000000000000000000000000000000000000000000000000000000000000000000000000000000000000000000000000000000000000000000000000000000000000000000000000000000000000000000000000000000000000000000000
310
00000000000000000000000000000000000000000000000000000000000000000000000000000000000000000000000000000000000000000000000000000000000000000000000000000000000000000000000000000000000000000000000000000000000000000000000000000000000000000000000000000000000000
310
000000000000FDFDFDFDFDFDFDFDFDFDFDFD0000FD0000000000000000000000000000000000FD0000FA0000000000FA00FD0000FDFD00000000000000000000000000000000FD0000FA0000000000FA00FD0000FDFDFD000000000000000000000000000000FD0000FA0000000000FA00FD0000FDFDFDFD00000000000000
310
00000000000000FD0000FAFAFAFAFAFAFA00FD0000FDFDFDFDFD00000000000000000000000000FD000000FA00000000FA00FD0000FDFDFDFDFDFDFDFDFDFDFDFDFDFDFDFDFDFDFD000000FA000000FA0000FD0000FDFDFDFDFD00000000000000000000000000FD00000000FA0000FA0000FD0000FDFDFDFD000000000000
310
0000000000000000FD00000000FA00FA000000FD0000FDFD00000000000000000000000000000000FD0000000000FAFA000000FD0000FD0000000000000000000000000000000000FD0000000000FA00000000FD0000000000000000000000000000000000000000FDFDFDFDFDFDFDFDFDFDFDFD0000000000000000000000
310
00000000000000000000000000000000000000000000000000000000000000000000000000000000000000000000000000000000000000000000000000000000000000000000000000000000000000000000000000000000000000000000000000000000000000000000000000000000000000000000000000000000000000
310
00000000000000000000000000000000000000000000000000000000000000000000000000000000000000000000000000000000000000000000000000000000000000000000000000000000000000000000000000000000000000000000000000000000000000000000000000000000000000000000000000000000000000
310
0000000000000000000000000000000000000000000000000000000000000000000000000000000000000000000000000000000000000000
  0
BLOCK_RECORD
  5
8E72
102
{ACAD_XDICTIONARY
360
8E73
102
}
330
1
100
AcDbSymbolTableRecord
100
AcDbBlockTableRecord
  2
LS
340
0
310
2800000020000000200000000100080000000000000400000000000000000000000000000000000000000000000080000080000000808000800000008000800080800000C0C0C000C0DCC000F0CAA6000020400000206000002080000020A0000020C0000020E00000400000004020000040400000406000004080000040A0
310
000040C0000040E00000600000006020000060400000606000006080000060A0000060C0000060E00000800000008020000080400000806000008080000080A0000080C0000080E00000A0000000A0200000A0400000A0600000A0800000A0A00000A0C00000A0E00000C0000000C0200000C0400000C0600000C0800000C0
310
A00000C0C00000C0E00000E0000000E0200000E0400000E0600000E0800000E0A00000E0C00000E0E00040000000400020004000400040006000400080004000A0004000C0004000E00040200000402020004020400040206000402080004020A0004020C0004020E000404000004040200040404000404060004040800040
310
40A0004040C0004040E00040600000406020004060400040606000406080004060A0004060C0004060E00040800000408020004080400040806000408080004080A0004080C0004080E00040A0000040A0200040A0400040A0600040A0800040A0A00040A0C00040A0E00040C0000040C0200040C0400040C0600040C08000
310
40C0A00040C0C00040C0E00040E0000040E0200040E0400040E0600040E0800040E0A00040E0C00040E0E00080000000800020008000400080006000800080008000A0008000C0008000E00080200000802020008020400080206000802080008020A0008020C0008020E00080400000804020008040400080406000804080
310
008040A0008040C0008040E00080600000806020008060400080606000806080008060A0008060C0008060E00080800000808020008080400080806000808080008080A0008080C0008080E00080A0000080A0200080A0400080A0600080A0800080A0A00080A0C00080A0E00080C0000080C0200080C0400080C0600080C0
310
800080C0A00080C0C00080C0E00080E0000080E0200080E0400080E0600080E0800080E0A00080E0C00080E0E000C0000000C0002000C0004000C0006000C0008000C000A000C000C000C000E000C0200000C0202000C0204000C0206000C0208000C020A000C020C000C020E000C0400000C0402000C0404000C0406000C0
310
408000C040A000C040C000C040E000C0600000C0602000C0604000C0606000C0608000C060A000C060C000C060E000C0800000C0802000C0804000C0806000C0808000C080A000C080C000C080E000C0A00000C0A02000C0A04000C0A06000C0A08000C0A0A000C0A0C000C0A0E000C0C00000C0C02000C0C04000C0C06000
310
C0C08000C0C0A000F0FBFF00A4A0A000808080000000FF0000FF000000FFFF00FF000000FF00FF00FFFF0000FFFFFF00000000000000000000000000000000000000000000000000000000000000000000000000000000000000FBFBFEFBFEFBFBFEFBFEFBFB00000000000000000000000000000000000000FBFBFBFEFBFE
310
FBFBFEFBFEFBFBFB000000000000000000000000000000000000FB0000FE00FE0000FE00FE0000FB000000000000000000000000000000000000FB0000FE00FE0000FE00FE0000FB000000000000000000000000000000000000FB0000FEFEFEFEFEFEFEFE0000FB000000000000000000000000000000000000FB000000FE
310
FE0000FEFE000000FB000000000000000000000000000000000000FB0000000000FEFE0000000000FB000000000000000000000000000000000000FBFBFBFEFBFBFBFBFBFBFEFBFBFB000000000000000000000000000000000000000000FBFE0000000000FE000000000000000000000000000000000000000000000000FB
310
FBFBFBFBFBFEFB000000000000000000000000000000000000000000000000FBFE00000000FEFB000000000000000000000000000000000000000000000000FBFE00000000FEFB000000000000000000000000000000000000000000000000FBFE00000000FEFB000000000000000000000000000000000000000000000000
310
FBFE00000000FEFB000000000000000000000000000000000000000000000000FBFE00000000FEFB000000000000000000000000000000000000000000000000FBFE00000000FEFB000000000000000000000000000000000000000000000000FBFE00000000FEFB0000000000000000000000000000000000000000000000
310
00FBFE00000000FEFB000000000000000000000000000000000000000000000000FBFE00000000FEFB000000000000000000000000000000000000000000000000FBFE00000000FEFB000000000000000000000000000000000000000000000000FBFE00000000FEFB00000000000000000000000000000000000000000000
310
0000FBFE00000000FEFB000000000000000000000000000000000000000000000000FBFE00000000FEFB000000000000000000000000000000000000000000000000FBFE00000000FEFB000000000000000000000000000000000000000000000000FBFE00000000FEFB000000000000000000000000000000000000000000
310
000000FBFE00000000FEFB000000000000000000000000000000000000000000000000FBFE00000000FEFB000000000000000000000000000000000000000000000000FBFEFBFBFBFBFEFB00000000000000000000000000000000000000000000000000FE00000000FEFB0000000000000000000000000000000000000000
310
0000000000FBFBFBFBFBFB000000000000000000000000000000000000000000000000000000000000000000000000000000000000000000
  0
BLOCK_RECORD
  5
9D15
102
{ACAD_XDICTIONARY
360
9D16
102
}
330
1
100
AcDbSymbolTableRecord
100
AcDbBlockTableRecord
  2
LS2
340
0
310
2800000020000000200000000100080000000000000400000000000000000000000000000000000000000000000080000080000000808000800000008000800080800000C0C0C000C0DCC000F0CAA6000020400000206000002080000020A0000020C0000020E00000400000004020000040400000406000004080000040A0
310
000040C0000040E00000600000006020000060400000606000006080000060A0000060C0000060E00000800000008020000080400000806000008080000080A0000080C0000080E00000A0000000A0200000A0400000A0600000A0800000A0A00000A0C00000A0E00000C0000000C0200000C0400000C0600000C0800000C0
310
A00000C0C00000C0E00000E0000000E0200000E0400000E0600000E0800000E0A00000E0C00000E0E00040000000400020004000400040006000400080004000A0004000C0004000E00040200000402020004020400040206000402080004020A0004020C0004020E000404000004040200040404000404060004040800040
310
40A0004040C0004040E00040600000406020004060400040606000406080004060A0004060C0004060E00040800000408020004080400040806000408080004080A0004080C0004080E00040A0000040A0200040A0400040A0600040A0800040A0A00040A0C00040A0E00040C0000040C0200040C0400040C0600040C08000
310
40C0A00040C0C00040C0E00040E0000040E0200040E0400040E0600040E0800040E0A00040E0C00040E0E00080000000800020008000400080006000800080008000A0008000C0008000E00080200000802020008020400080206000802080008020A0008020C0008020E00080400000804020008040400080406000804080
310
008040A0008040C0008040E00080600000806020008060400080606000806080008060A0008060C0008060E00080800000808020008080400080806000808080008080A0008080C0008080E00080A0000080A0200080A0400080A0600080A0800080A0A00080A0C00080A0E00080C0000080C0200080C0400080C0600080C0
310
800080C0A00080C0C00080C0E00080E0000080E0200080E0400080E0600080E0800080E0A00080E0C00080E0E000C0000000C0002000C0004000C0006000C0008000C000A000C000C000C000E000C0200000C0202000C0204000C0206000C0208000C020A000C020C000C020E000C0400000C0402000C0404000C0406000C0
310
408000C040A000C040C000C040E000C0600000C0602000C0604000C0606000C0608000C060A000C060C000C060E000C0800000C0802000C0804000C0806000C0808000C080A000C080C000C080E000C0A00000C0A02000C0A04000C0A06000C0A08000C0A0A000C0A0C000C0A0E000C0C00000C0C02000C0C04000C0C06000
310
C0C08000C0C0A000F0FBFF00A4A0A000808080000000FF0000FF000000FFFF00FF000000FF00FF00FFFF0000FFFFFF0000000000000000000000000000000000000000000000000000000000000000000000000000000000000000FBFBFEFEFBFBFEFEFBFB00000000000000000000000000000000000000000000FBFBFEFE
310
FBFBFEFEFBFB00000000000000000000000000000000000000000000FB00FEFE0000FEFE00FB00000000000000000000000000000000000000000000FB00FEFE0000FEFE00FB00000000000000000000000000000000000000000000FB00FEFEFEFEFEFE00FB00000000000000000000000000000000000000000000FB0000
310
FEFEFE000000FB00000000000000000000000000000000000000000000FBFBFEFBFBFBFBFEFBFB000000000000000000000000000000000000000000000000FBFBFBFBFBFE0000000000000000000000000000000000000000000000000000FE00000000FE0000000000000000000000000000000000000000000000000000
310
FE00000000FE0000000000000000000000000000000000000000000000000000FE00000000FE0000000000000000000000000000000000000000000000000000FE00000000FE0000000000000000000000000000000000000000000000000000FE00000000FE00000000000000000000000000000000000000000000000000
310
00FE00000000FE0000000000000000000000000000000000000000000000000000FE00000000FE0000000000000000000000000000000000000000000000000000FE00000000FE0000000000000000000000000000000000000000000000000000FE00000000FE000000000000000000000000000000000000000000000000
310
0000FE00000000FE0000000000000000000000000000000000000000000000000000FE00000000FE0000000000000000000000000000000000000000000000000000FE00000000FE0000000000000000000000000000000000000000000000000000FE00000000FE0000000000000000000000000000000000000000000000
310
000000FE00000000FE0000000000000000000000000000000000000000000000000000FE00000000FE0000000000000000000000000000000000000000000000000000FE00000000FE0000000000000000000000000000000000000000000000000000FE00000000FE00000000000000000000000000000000000000000000
310
00000000FE00000000FE0000000000000000000000000000000000000000000000000000FE00000000FE0000000000000000000000000000000000000000000000000000FEFBFBFBFBFE0000000000000000000000000000000000000000000000000000FEFB000000FE000000000000000000000000000000000000000000
310
000000000000FBFBFBFB00000000000000000000000000000000000000000000000000000000000000000000000000000000000000000000
  0
BLOCK_RECORD
  5
A518
102
{ACAD_XDICTIONARY
360
A519
102
}
330
1
100
AcDbSymbolTableRecord
100
AcDbBlockTableRecord
  2
LS3
340
0
310
2800000020000000200000000100080000000000000400000000000000000000000000000000000000000000000080000080000000808000800000008000800080800000C0C0C000C0DCC000F0CAA6000020400000206000002080000020A0000020C0000020E00000400000004020000040400000406000004080000040A0
310
000040C0000040E00000600000006020000060400000606000006080000060A0000060C0000060E00000800000008020000080400000806000008080000080A0000080C0000080E00000A0000000A0200000A0400000A0600000A0800000A0A00000A0C00000A0E00000C0000000C0200000C0400000C0600000C0800000C0
310
A00000C0C00000C0E00000E0000000E0200000E0400000E0600000E0800000E0A00000E0C00000E0E00040000000400020004000400040006000400080004000A0004000C0004000E00040200000402020004020400040206000402080004020A0004020C0004020E000404000004040200040404000404060004040800040
310
40A0004040C0004040E00040600000406020004060400040606000406080004060A0004060C0004060E00040800000408020004080400040806000408080004080A0004080C0004080E00040A0000040A0200040A0400040A0600040A0800040A0A00040A0C00040A0E00040C0000040C0200040C0400040C0600040C08000
310
40C0A00040C0C00040C0E00040E0000040E0200040E0400040E0600040E0800040E0A00040E0C00040E0E00080000000800020008000400080006000800080008000A0008000C0008000E00080200000802020008020400080206000802080008020A0008020C0008020E00080400000804020008040400080406000804080
310
008040A0008040C0008040E00080600000806020008060400080606000806080008060A0008060C0008060E00080800000808020008080400080806000808080008080A0008080C0008080E00080A0000080A0200080A0400080A0600080A0800080A0A00080A0C00080A0E00080C0000080C0200080C0400080C0600080C0
310
800080C0A00080C0C00080C0E00080E0000080E0200080E0400080E0600080E0800080E0A00080E0C00080E0E000C0000000C0002000C0004000C0006000C0008000C000A000C000C000C000E000C0200000C0202000C0204000C0206000C0208000C020A000C020C000C020E000C0400000C0402000C0404000C0406000C0
310
408000C040A000C040C000C040E000C0600000C0602000C0604000C0606000C0608000C060A000C060C000C060E000C0800000C0802000C0804000C0806000C0808000C080A000C080C000C080E000C0A00000C0A02000C0A04000C0A06000C0A08000C0A0A000C0A0C000C0A0E000C0C00000C0C02000C0C04000C0C06000
310
C0C08000C0C0A000F0FBFF00A4A0A000808080000000FF0000FF000000FFFF00FF000000FF00FF00FFFF0000FFFFFF0000000000000000000000000000000000000000000000000000000000000000000000000000000000000000FBFBFEFEFBFBFEFEFBFB00000000000000000000000000000000000000000000FBFBFEFE
310
FBFBFEFEFBFB00000000000000000000000000000000000000000000FB00FEFE0000FEFE00FB00000000000000000000000000000000000000000000FB00FEFEFEFEFEFE00FB00000000000000000000000000000000000000000000FB0000FEFE00FE0000FB00000000000000000000000000000000000000000000FB0000
310
0000FE000000FB00000000000000000000000000000000000000000000FBFBFEFBFBFBFBFBFBFB000000000000000000000000000000000000000000000000FE00000000FE0000000000000000000000000000000000000000000000000000FE00000000FE0000000000000000000000000000000000000000000000000000
310
FE00000000FE0000000000000000000000000000000000000000000000000000FE00000000FE0000000000000000000000000000000000000000000000000000FE00000000FE0000000000000000000000000000000000000000000000000000FE00000000FE00000000000000000000000000000000000000000000000000
310
00FE00000000FE0000000000000000000000000000000000000000000000000000FE00000000FE0000000000000000000000000000000000000000000000000000FE00000000FE0000000000000000000000000000000000000000000000000000FE00000000FE000000000000000000000000000000000000000000000000
310
0000FE00000000FE0000000000000000000000000000000000000000000000000000FE00000000FE0000000000000000000000000000000000000000000000000000FE00000000FE0000000000000000000000000000000000000000000000000000FE00000000FE0000000000000000000000000000000000000000000000
310
000000FE00000000FE0000000000000000000000000000000000000000000000000000FE00000000FE0000000000000000000000000000000000000000000000000000FE00000000FE0000000000000000000000000000000000000000000000000000FE00000000FE00000000000000000000000000000000000000000000
310
00000000FE00000000FE0000000000000000000000000000000000000000000000000000FE00000000FE0000000000000000000000000000000000000000000000000000FE00000000FE0000000000000000000000000000000000000000000000000000FEFBFBFBFBFE000000000000000000000000000000000000000000
310
000000000000FBFBFBFB00000000000000000000000000000000000000000000000000000000000000000000000000000000000000000000
  0
BLOCK_RECORD
  5
A627
102
{ACAD_XDICTIONARY
360
A628
102
}
330
1
100
AcDbSymbolTableRecord
100
AcDbBlockTableRecord
  2
LS4
340
0
310
2800000020000000200000000100080000000000000400000000000000000000000000000000000000000000000080000080000000808000800000008000800080800000C0C0C000C0DCC000F0CAA6000020400000206000002080000020A0000020C0000020E00000400000004020000040400000406000004080000040A0
310
000040C0000040E00000600000006020000060400000606000006080000060A0000060C0000060E00000800000008020000080400000806000008080000080A0000080C0000080E00000A0000000A0200000A0400000A0600000A0800000A0A00000A0C00000A0E00000C0000000C0200000C0400000C0600000C0800000C0
310
A00000C0C00000C0E00000E0000000E0200000E0400000E0600000E0800000E0A00000E0C00000E0E00040000000400020004000400040006000400080004000A0004000C0004000E00040200000402020004020400040206000402080004020A0004020C0004020E000404000004040200040404000404060004040800040
310
40A0004040C0004040E00040600000406020004060400040606000406080004060A0004060C0004060E00040800000408020004080400040806000408080004080A0004080C0004080E00040A0000040A0200040A0400040A0600040A0800040A0A00040A0C00040A0E00040C0000040C0200040C0400040C0600040C08000
310
40C0A00040C0C00040C0E00040E0000040E0200040E0400040E0600040E0800040E0A00040E0C00040E0E00080000000800020008000400080006000800080008000A0008000C0008000E00080200000802020008020400080206000802080008020A0008020C0008020E00080400000804020008040400080406000804080
310
008040A0008040C0008040E00080600000806020008060400080606000806080008060A0008060C0008060E00080800000808020008080400080806000808080008080A0008080C0008080E00080A0000080A0200080A0400080A0600080A0800080A0A00080A0C00080A0E00080C0000080C0200080C0400080C0600080C0
310
800080C0A00080C0C00080C0E00080E0000080E0200080E0400080E0600080E0800080E0A00080E0C00080E0E000C0000000C0002000C0004000C0006000C0008000C000A000C000C000C000E000C0200000C0202000C0204000C0206000C0208000C020A000C020C000C020E000C0400000C0402000C0404000C0406000C0
310
408000C040A000C040C000C040E000C0600000C0602000C0604000C0606000C0608000C060A000C060C000C060E000C0800000C0802000C0804000C0806000C0808000C080A000C080C000C080E000C0A00000C0A02000C0A04000C0A06000C0A08000C0A0A000C0A0C000C0A0E000C0C00000C0C02000C0C04000C0C06000
310
C0C08000C0C0A000F0FBFF00A4A0A000808080000000FF0000FF000000FFFF00FF000000FF00FF00FFFF0000FFFFFF0000000000000000000000000000000000000000000000000000000000000000000000000000000000000000FBFBFEFEFBFBFEFEFBFB000000000000000000000000000000000000000000FBFBFBFEFE
310
FBFBFEFEFBFBFB0000000000000000000000000000000000000000FB0000FEFE0000FEFE0000FB0000000000000000000000000000000000000000FB0000FEFEFEFEFEFE0000FB0000000000000000000000000000000000000000FB000000FEFE00FE000000FB0000000000000000000000000000000000000000FB000000
310
0000FE00000000FB0000000000000000000000000000000000000000FB00000000000000000000FB0000000000000000000000000000000000000000FBFBFEFEFBFBFBFBFBFBFBFB00000000000000000000000000000000000000000000FBFE00000000FEFB000000000000000000000000000000000000000000000000FB
310
FE00000000FEFB000000000000000000000000000000000000000000000000FBFE00000000FEFB000000000000000000000000000000000000000000000000FBFE00000000FEFB000000000000000000000000000000000000000000000000FBFE00000000FEFB000000000000000000000000000000000000000000000000
310
FBFE00000000FEFB000000000000000000000000000000000000000000000000FBFE00000000FEFB000000000000000000000000000000000000000000000000FBFE00000000FEFB000000000000000000000000000000000000000000000000FBFE00000000FEFB0000000000000000000000000000000000000000000000
310
00FBFE00000000FEFB000000000000000000000000000000000000000000000000FBFE00000000FEFB000000000000000000000000000000000000000000000000FBFE00000000FEFB000000000000000000000000000000000000000000000000FBFE00000000FEFB00000000000000000000000000000000000000000000
310
0000FBFE00000000FEFB000000000000000000000000000000000000000000000000FBFE00000000FEFB000000000000000000000000000000000000000000000000FBFE00000000FEFB000000000000000000000000000000000000000000000000FBFE00000000FEFB000000000000000000000000000000000000000000
310
000000FBFE00000000FEFB000000000000000000000000000000000000000000000000FBFE00000000FEFB000000000000000000000000000000000000000000000000FBFEFBFBFBFBFEFB00000000000000000000000000000000000000000000000000FE00000000FE000000000000000000000000000000000000000000
310
000000000000FBFBFBFB00000000000000000000000000000000000000000000000000000000000000000000000000000000000000000000
  0
BLOCK_RECORD
  5
A6FB
102
{ACAD_XDICTIONARY
360
A6FC
102
}
330
1
100
AcDbSymbolTableRecord
100
AcDbBlockTableRecord
  2
LS5
340
0
310
2800000020000000200000000100080000000000000400000000000000000000000000000000000000000000000080000080000000808000800000008000800080800000C0C0C000C0DCC000F0CAA6000020400000206000002080000020A0000020C0000020E00000400000004020000040400000406000004080000040A0
310
000040C0000040E00000600000006020000060400000606000006080000060A0000060C0000060E00000800000008020000080400000806000008080000080A0000080C0000080E00000A0000000A0200000A0400000A0600000A0800000A0A00000A0C00000A0E00000C0000000C0200000C0400000C0600000C0800000C0
310
A00000C0C00000C0E00000E0000000E0200000E0400000E0600000E0800000E0A00000E0C00000E0E00040000000400020004000400040006000400080004000A0004000C0004000E00040200000402020004020400040206000402080004020A0004020C0004020E000404000004040200040404000404060004040800040
310
40A0004040C0004040E00040600000406020004060400040606000406080004060A0004060C0004060E00040800000408020004080400040806000408080004080A0004080C0004080E00040A0000040A0200040A0400040A0600040A0800040A0A00040A0C00040A0E00040C0000040C0200040C0400040C0600040C08000
310
40C0A00040C0C00040C0E00040E0000040E0200040E0400040E0600040E0800040E0A00040E0C00040E0E00080000000800020008000400080006000800080008000A0008000C0008000E00080200000802020008020400080206000802080008020A0008020C0008020E00080400000804020008040400080406000804080
310
008040A0008040C0008040E00080600000806020008060400080606000806080008060A0008060C0008060E00080800000808020008080400080806000808080008080A0008080C0008080E00080A0000080A0200080A0400080A0600080A0800080A0A00080A0C00080A0E00080C0000080C0200080C0400080C0600080C0
310
800080C0A00080C0C00080C0E00080E0000080E0200080E0400080E0600080E0800080E0A00080E0C00080E0E000C0000000C0002000C0004000C0006000C0008000C000A000C000C000C000E000C0200000C0202000C0204000C0206000C0208000C020A000C020C000C020E000C0400000C0402000C0404000C0406000C0
310
408000C040A000C040C000C040E000C0600000C0602000C0604000C0606000C0608000C060A000C060C000C060E000C0800000C0802000C0804000C0806000C0808000C080A000C080C000C080E000C0A00000C0A02000C0A04000C0A06000C0A08000C0A0A000C0A0C000C0A0E000C0C00000C0C02000C0C04000C0C06000
310
C0C08000C0C0A000F0FBFF00A4A0A000808080000000FF0000FF000000FFFF00FF000000FF00FF00FFFF0000FFFFFF0000000000000000000000000000000000000000000000000000000000000000000000000000000000000000FBFBFEFEFBFBFEFEFBFB00000000000000000000000000000000000000000000FBFBFEFE
310
FBFBFEFEFBFB00000000000000000000000000000000000000000000FB00FEFE0000FEFE00FB00000000000000000000000000000000000000000000FB00FEFEFEFEFEFE00FB00000000000000000000000000000000000000000000FB0000FE00FEFE0000FB00000000000000000000000000000000000000000000FB0000
310
00FE00000000FB00000000000000000000000000000000000000000000FBFBFEFBFBFBFBFEFBFB000000000000000000000000000000000000000000000000FEFBFBFBFBFB0000000000000000000000000000000000000000000000000000FE00000000FE0000000000000000000000000000000000000000000000000000
310
FE00000000FE0000000000000000000000000000000000000000000000000000FE00000000FE0000000000000000000000000000000000000000000000000000FE00000000FE0000000000000000000000000000000000000000000000000000FE00000000FE00000000000000000000000000000000000000000000000000
310
00FE00000000FE0000000000000000000000000000000000000000000000000000FE00000000FE0000000000000000000000000000000000000000000000000000FE00000000FE0000000000000000000000000000000000000000000000000000FE00000000FE000000000000000000000000000000000000000000000000
310
0000FE00000000FE0000000000000000000000000000000000000000000000000000FE00000000FE0000000000000000000000000000000000000000000000000000FE00000000FE0000000000000000000000000000000000000000000000000000FE00000000FE0000000000000000000000000000000000000000000000
310
000000FE00000000FE0000000000000000000000000000000000000000000000000000FE00000000FE0000000000000000000000000000000000000000000000000000FE00000000FE0000000000000000000000000000000000000000000000000000FE00000000FE00000000000000000000000000000000000000000000
310
00000000FE00000000FE0000000000000000000000000000000000000000000000000000FE00000000FE0000000000000000000000000000000000000000000000000000FE00000000FE0000000000000000000000000000000000000000000000000000FEFBFBFBFBFE000000000000000000000000000000000000000000
310
000000000000FBFBFBFB00000000000000000000000000000000000000000000000000000000000000000000000000000000000000000000
102
{BLKREFS
331
A71B
102
}
1001
PE_URL
1000
S5
1002
{
1000
S5
1002
{
1071
2081726645
1002
}
1002
}
  0
BLOCK_RECORD
  5
AB12
330
1
100
AcDbSymbolTableRecord
100
AcDbBlockTableRecord
  2
*D8
340
0
  0
BLOCK_RECORD
  5
AB26
330
1
100
AcDbSymbolTableRecord
100
AcDbBlockTableRecord
  2
*D9
340
0
  0
BLOCK_RECORD
  5
AB32
330
1
100
AcDbSymbolTableRecord
100
AcDbBlockTableRecord
  2
*D10
340
0
  0
BLOCK_RECORD
  5
AB3F
330
1
100
AcDbSymbolTableRecord
100
AcDbBlockTableRecord
  2
*D11
340
0
  0
BLOCK_RECORD
  5
AB4C
330
1
100
AcDbSymbolTableRecord
100
AcDbBlockTableRecord
  2
*D12
340
0
  0
BLOCK_RECORD
  5
AB66
330
1
100
AcDbSymbolTableRecord
100
AcDbBlockTableRecord
  2
*D13
340
0
  0
BLOCK_RECORD
  5
AB73
330
1
100
AcDbSymbolTableRecord
100
AcDbBlockTableRecord
  2
*D14
340
0
  0
BLOCK_RECORD
  5
AB81
330
1
100
AcDbSymbolTableRecord
100
AcDbBlockTableRecord
  2
*D15
340
0
  0
BLOCK_RECORD
  5
AB8E
330
1
100
AcDbSymbolTableRecord
100
AcDbBlockTableRecord
  2
*D16
340
0
  0
ENDTAB
  0
ENDSEC
  0
SECTION
  2
BLOCKS
  0
BLOCK
  5
19
330
18
100
AcDbEntity
  8
0
100
AcDbBlockBegin
  2
*MODEL_SPACE
 70
     0
 10
0.0
 20
0.0
 30
0.0
  3
*MODEL_SPACE
  1

  0
ENDBLK
  5
1A
330
18
100
AcDbEntity
  8
0
100
AcDbBlockEnd
  0
BLOCK
  5
16
330
15
100
AcDbEntity
 67
     1
  8
0
100
AcDbBlockBegin
  2
*PAPER_SPACE
 70
     0
 10
0.0
 20
0.0
 30
0.0
  3
*PAPER_SPACE
  1

  0
ENDBLK
  5
17
330
15
100
AcDbEntity
 67
     1
  8
0
100
AcDbBlockEnd
  0
BLOCK
  5
63A1
330
639D
100
AcDbEntity
  8
0
100
AcDbBlockBegin
  2
A$C255C26A2
 70
     0
 10
0.0
 20
0.0
 30
0.0
  3
A$C255C26A2
  1

  0
LWPOLYLINE
  5
639E
330
639D
100
AcDbEntity
  8
0
100
AcDbPolyline
 90
        3
 70
     1
 43
0.0
 10
7.014806023851633
 20
0.0000006939811783
 10
5.611844869720698
 20
2.430000693981241
 10
8.417767177982568
 20
2.430000693981241
  0
LWPOLYLINE
  5
639F
330
639D
100
AcDbEntity
  8
0
100
AcDbPolyline
 90
        3
 70
     1
 43
0.0
 10
4.20888371558999
 20
0.0000006939811783
 10
2.805922561459283
 20
2.430000693981241
 10
5.611844869720698
 20
2.430000693981241
  0
LWPOLYLINE
  5
63A0
330
639D
100
AcDbEntity
  8
0
100
AcDbPolyline
 90
        3
 70
     1
 43
0.0
 10
1.402961407328348
 20
0.0000006939811783
 10
0.0000002531974133
 20
2.430000693981241
 10
2.805922561459283
 20
2.430000693981241
  0
ENDBLK
  5
63A2
330
639D
100
AcDbEntity
  8
0
100
AcDbBlockEnd
  0
BLOCK
  5
7C05
330
7C04
100
AcDbEntity
  8
0
100
AcDbBlockBegin
  2
_Open30
 70
     0
 10
0.0
 20
0.0
 30
0.0
  3
_Open30
  1

  0
LINE
  5
7C06
330
7C04
100
AcDbEntity
  8
0
  6
ByBlock
 62
     0
370
    -2
100
AcDbLine
 10
-1.0
 20
0.26794919
 30
0.0
 11
0.0
 21
0.0
 31
0.0
  0
LINE
  5
7C07
330
7C04
100
AcDbEntity
  8
0
  6
ByBlock
 62
     0
370
    -2
100
AcDbLine
 10
0.0
 20
0.0
 30
0.0
 11
-1.0
 21
-0.26794919
 31
0.0
  0
LINE
  5
7C08
330
7C04
100
AcDbEntity
  8
0
  6
ByBlock
 62
     0
370
    -2
100
AcDbLine
 10
0.0
 20
0.0
 30
0.0
 11
-1.0
 21
0.0
 31
0.0
  0
ENDBLK
  5
7C09
330
7C04
100
AcDbEntity
  8
0
100
AcDbBlockEnd
  0
BLOCK
  5
7C0E
330
7C0A
100
AcDbEntity
  8
0
100
AcDbBlockBegin
  2
A
 70
     0
 10
0.0
 20
0.0
 30
0.0
  3
A
  1

  0
MTEXT
  5
7C0F
330
7C0A
100
AcDbEntity
  8
mark
 62
     3
100
AcDbMText
 10
10.65641897020822
 20
-5.596245361730467
 30
0.0
 40
2.5
 41
0.0
 71
     5
 72
     1
  1
A
 73
     1
 44
1.0
1001
ACAD
1000
ACAD_MTEXT_DEFINED_HEIGHT_BEGIN
1070
    46
1040
0.0
1000
ACAD_MTEXT_DEFINED_HEIGHT_END
  0
LWPOLYLINE
  5
7C10
330
7C0A
100
AcDbEntity
  8
mark
100
AcDbPolyline
 90
        4
 70
     1
 43
0.0
 10
9.07926800414657
 20
-7.141145101782569
 10
12.07926800414657
 20
-7.141145101782569
 10
12.07926800414657
 20
-4.141145101782569
 10
9.07926800414657
 20
-4.141145101782569
  0
HATCH
  5
7C11
330
7C0A
100
AcDbEntity
  8
mark
100
AcDbHatch
 10
0.0
 20
0.0
 30
0.0
210
0.0
220
0.0
230
1.0
  2
SOLID
 70
     1
 71
     0
 91
        1
 92
        7
 72
     0
 73
     1
 93
        3
 10
5.32926800414657
 20
-5.641145101782569
 10
4.07926800414657
 20
-4.391145101782541
 10
4.07926800414657
 20
-6.891145101782541
 97
        0
 75
     0
 76
     1
 47
0.0398277943677868
 98
        1
 10
4.589689734415287
 20
-5.732163331855076
450
        0
451
        0
460
0.0
461
0.0
452
        1
462
1.0
453
        2
463
0.0
 63
     5
421
      255
463
1.0
 63
     7
421
 16777215
470
LINEAR
1001
ACAD
1010
0.0
1020
0.0
1030
0.0
  0
LINE
  5
7C12
330
7C0A
100
AcDbEntity
  8
mark
100
AcDbLine
 10
5.32926800414657
 20
-5.641145101782569
 30
0.0
 11
9.07926800414657
 21
-5.641145101782569
 31
0.0
  0
LINE
  5
7C13
330
7C0A
100
AcDbEntity
  8
mark
100
AcDbLine
 10
5.32926800414657
 20
-5.641145101782569
 30
0.0
 11
4.07926800414657
 21
-4.391145101782569
 31
0.0
  0
LINE
  5
7C14
330
7C0A
100
AcDbEntity
  8
mark
100
AcDbLine
 10
5.32926800414657
 20
-5.641145101782569
 30
0.0
 11
4.07926800414657
 21
-6.891145101782569
 31
0.0
  0
ENDBLK
  5
7C15
330
7C0A
100
AcDbEntity
  8
0
100
AcDbBlockEnd
  0
BLOCK
  5
8E76
330
8E72
100
AcDbEntity
  8
0
100
AcDbBlockBegin
  2
LS
 70
     0
 10
0.0
 20
0.0
 30
0.0
  3
LS
  1

  0
LINE
  5
8E78
330
8E72
100
AcDbEntity
  8
contour
100
AcDbLine
 10
310.7457309951603
 20
181.0160360664828
 30
0.0
 11
310.7457309951603
 21
184.7160360664827
 31
0.0
  0
LINE
  5
8E79
330
8E72
100
AcDbEntity
  8
contour
100
AcDbLine
 10
310.7457309951603
 20
184.7160360664827
 30
0.0
 11
303.7457309951603
 21
184.7160360664827
 31
0.0
  0
LINE
  5
8E7A
330
8E72
100
AcDbEntity
  8
contour
100
AcDbLine
 10
308.4457309951603
 20
196.7160360664827
 30
0.0
 11
306.0457309951603
 21
196.7160360664826
 31
0.0
  0
LINE
  5
8E7B
330
8E72
100
AcDbEntity
  8
contour
100
AcDbLine
 10
309.2457309951603
 20
195.9160360664826
 30
0.0
 11
308.4457309951603
 21
196.7160360664826
 31
0.0
  0
LINE
  5
8E7C
330
8E72
100
AcDbEntity
  8
contour
100
AcDbLine
 10
303.7457309951603
 20
184.7160360664827
 30
0.0
 11
303.7457309951603
 21
181.0160360664827
 31
0.0
  0
LINE
  5
8E7D
330
8E72
100
AcDbEntity
  8
contour
100
AcDbLine
 10
304.0457309951603
 20
180.7160360664827
 30
0.0
 11
310.4457309951603
 21
180.7160360664828
 31
0.0
  0
LINE
  5
8E7E
330
8E72
100
AcDbEntity
  8
contour
100
AcDbLine
 10
310.7457309951603
 20
181.0160360664828
 30
0.0
 11
310.4457309951603
 21
180.7160360664828
 31
0.0
  0
LINE
  5
8E7F
330
8E72
100
AcDbEntity
  8
contour
100
AcDbLine
 10
303.7457309951603
 20
181.0160360664827
 30
0.0
 11
304.0457309951603
 21
180.7160360664827
 31
0.0
  0
LINE
  5
8E80
330
8E72
100
AcDbEntity
  8
contour
100
AcDbLine
 10
309.2457309951603
 20
184.7160360664826
 30
0.0
 11
309.2457309951603
 21
195.9160360664827
 31
0.0
  0
LINE
  5
8E81
330
8E72
100
AcDbEntity
  8
contour
100
AcDbLine
 10
305.2457309951603
 20
184.7160360664826
 30
0.0
 11
305.2457309951603
 21
195.9160360664827
 31
0.0
  0
LINE
  5
8E82
330
8E72
100
AcDbEntity
  8
contour
100
AcDbLine
 10
306.0457309951603
 20
196.7160360664826
 30
0.0
 11
305.2457309951603
 21
195.9160360664826
 31
0.0
  0
LINE
  5
8E83
330
8E72
100
AcDbEntity
  8
contour
100
AcDbLine
 10
309.2457309951603
 20
195.9160360664827
 30
0.0
 11
305.2457309951603
 21
195.9160360664827
 31
0.0
  0
LINE
  5
8E84
330
8E72
100
AcDbEntity
  8
contour
 62
     4
100
AcDbLine
 10
308.8667309951603
 20
185.3724833225513
 30
0.0
 11
308.8667309951603
 21
196.2950360664826
 31
0.0
  0
LINE
  5
8E85
330
8E72
100
AcDbEntity
  8
contour
 62
     4
100
AcDbLine
 10
305.6247309951603
 20
185.3724833225513
 30
0.0
 11
305.6247309951603
 21
196.2950360664826
 31
0.0
  0
LINE
  5
8E86
330
8E72
100
AcDbEntity
  8
contour
100
AcDbLine
 10
310.7457309951603
 20
181.0160360664828
 30
0.0
 11
303.7457309951603
 21
181.0160360664828
 31
0.0
  0
LINE
  5
8E87
330
8E72
100
AcDbEntity
  8
bowle
 48
0.1
100
AcDbLine
 10
308.1117563989447
 20
180.7160360664827
 30
0.0
 11
308.1117563989447
 21
182.9160360664827
 31
0.0
  0
LINE
  5
8E88
330
8E72
100
AcDbEntity
  8
bowle
 48
0.1
100
AcDbLine
 10
308.9777818027293
 20
180.7160360664827
 30
0.0
 11
308.9777818027293
 21
182.9160360664827
 31
0.0
  0
LINE
  5
8E89
330
8E72
100
AcDbEntity
  8
bowle
 48
0.1
100
AcDbLine
 10
306.3797055913759
 20
180.7160360664827
 30
0.0
 11
306.3797055913759
 21
182.9160360664826
 31
0.0
  0
LINE
  5
8E8A
330
8E72
100
AcDbEntity
  8
bowle
 48
0.1
100
AcDbLine
 10
305.5136801875914
 20
180.7160360664827
 30
0.0
 11
305.5136801875914
 21
182.9160360664826
 31
0.0
  0
LINE
  5
8E8B
330
8E72
100
AcDbEntity
  8
bowle
 48
0.1
100
AcDbLine
 10
308.9777818027292
 20
182.9160360664827
 30
0.0
 11
305.5136801875914
 21
182.9160360664827
 31
0.0
  0
LINE
  5
8E8C
330
8E72
100
AcDbEntity
  8
bowle
 48
0.1
100
AcDbLine
 10
305.5136801875914
 20
182.9160360664826
 30
0.0
 11
307.2457309951603
 21
183.9160360664826
 31
0.0
  0
LINE
  5
8E8D
330
8E72
100
AcDbEntity
  8
bowle
 48
0.1
100
AcDbLine
 10
308.9777818027292
 20
182.9160360664826
 30
0.0
 11
307.2457309951603
 21
183.9160360664826
 31
0.0
  0
LINE
  5
8E8E
330
8E72
100
AcDbEntity
  8
contour
 62
     4
100
AcDbLine
 10
305.6247309951603
 20
185.3724833225513
 30
0.0
 11
305.2457309951603
 21
184.7160360664826
 31
0.0
  0
LINE
  5
8E8F
330
8E72
100
AcDbEntity
  8
contour
100
AcDbLine
 10
305.2457309951603
 20
185.3724833225513
 30
0.0
 11
309.2457309951603
 21
185.3724833225513
 31
0.0
  0
LINE
  5
8E90
330
8E72
100
AcDbEntity
  8
contour
 62
     4
100
AcDbLine
 10
309.2457309951603
 20
184.7160360664827
 30
0.0
 11
308.8667309951603
 21
185.3724833225513
 31
0.0
  0
ENDBLK
  5
8E77
330
8E72
100
AcDbEntity
  8
0
100
AcDbBlockEnd
  0
BLOCK
  5
9D19
330
9D15
100
AcDbEntity
  8
0
100
AcDbBlockBegin
  2
LS2
 70
     0
 10
0.0
 20
0.0
 30
0.0
  3
LS2
  1

  0
LINE
  5
9D1B
330
9D15
100
AcDbEntity
  8
contour
100
AcDbLine
 10
143.2797554375081
 20
0.0655328110734672
 30
0.0
 11
143.2797554375081
 21
3.765532811073398
 31
0.0
  0
LINE
  5
9D1C
330
9D15
100
AcDbEntity
  8
contour
100
AcDbLine
 10
143.2797554375081
 20
3.765532811073398
 30
0.0
 11
136.2797554375081
 21
3.765532811073398
 31
0.0
  0
LINE
  5
9D1D
330
9D15
100
AcDbEntity
  8
contour
100
AcDbLine
 10
140.979755437508
 20
19.7655328110734
 30
0.0
 11
138.5797554375081
 21
19.76553281107334
 31
0.0
  0
LINE
  5
9D1E
330
9D15
100
AcDbEntity
  8
contour
100
AcDbLine
 10
141.7797554375081
 20
18.96553281107333
 30
0.0
 11
140.9797554375081
 21
19.76553281107334
 31
0.0
  0
LINE
  5
9D1F
330
9D15
100
AcDbEntity
  8
contour
100
AcDbLine
 10
136.2797554375081
 20
3.765532811073398
 30
0.0
 11
136.2797554375081
 21
0.0655328110733535
 31
0.0
  0
LINE
  5
9D20
330
9D15
100
AcDbEntity
  8
contour
100
AcDbLine
 10
136.5797554375081
 20
-0.2344671889266578
 30
0.0
 11
142.9797554375081
 21
-0.2344671889265442
 31
0.0
  0
LINE
  5
9D21
330
9D15
100
AcDbEntity
  8
contour
100
AcDbLine
 10
143.2797554375081
 20
0.0655328110734672
 30
0.0
 11
142.9797554375081
 21
-0.2344671889265442
 31
0.0
  0
LINE
  5
9D22
330
9D15
100
AcDbEntity
  8
contour
100
AcDbLine
 10
136.2797554375081
 20
0.0655328110733535
 30
0.0
 11
136.5797554375081
 21
-0.2344671889266578
 31
0.0
  0
LINE
  5
9D23
330
9D15
100
AcDbEntity
  8
contour
100
AcDbLine
 10
141.7797554375081
 20
3.765532811073342
 30
0.0
 11
141.7797554375081
 21
18.96553281107339
 31
0.0
  0
LINE
  5
9D24
330
9D15
100
AcDbEntity
  8
contour
100
AcDbLine
 10
137.7797554375081
 20
3.765532811073342
 30
0.0
 11
137.7797554375081
 21
18.96553281107339
 31
0.0
  0
LINE
  5
9D25
330
9D15
100
AcDbEntity
  8
contour
100
AcDbLine
 10
138.5797554375081
 20
19.76553281107334
 30
0.0
 11
137.7797554375081
 21
18.96553281107333
 31
0.0
  0
LINE
  5
9D26
330
9D15
100
AcDbEntity
  8
contour
100
AcDbLine
 10
141.7797554375081
 20
18.96553281107339
 30
0.0
 11
137.7797554375081
 21
18.96553281107339
 31
0.0
  0
LINE
  5
9D27
330
9D15
100
AcDbEntity
  8
contour
 62
     4
100
AcDbLine
 10
141.400755437508
 20
4.42198006714193
 30
0.0
 11
141.4007554375081
 21
19.34453281107327
 31
0.0
  0
LINE
  5
9D28
330
9D15
100
AcDbEntity
  8
contour
 62
     4
100
AcDbLine
 10
138.1587554375081
 20
4.42198006714193
 30
0.0
 11
138.1587554375081
 21
19.34453281107336
 31
0.0
  0
LINE
  5
9D29
330
9D15
100
AcDbEntity
  8
contour
100
AcDbLine
 10
143.2797554375081
 20
0.0655328110734672
 30
0.0
 11
136.2797554375081
 21
0.0655328110735241
 31
0.0
  0
LINE
  5
9D2A
330
9D15
100
AcDbEntity
  8
bowle
 48
0.1
100
AcDbLine
 10
140.6457808412925
 20
-0.234467188926601
 30
0.0
 11
140.6457808412925
 21
1.965532811073387
 31
0.0
  0
LINE
  5
9D2B
330
9D15
100
AcDbEntity
  8
bowle
 48
0.1
100
AcDbLine
 10
141.511806245077
 20
-0.2344671889266578
 30
0.0
 11
141.511806245077
 21
1.965532811073387
 31
0.0
  0
LINE
  5
9D2C
330
9D15
100
AcDbEntity
  8
bowle
 48
0.1
100
AcDbLine
 10
138.9137300337237
 20
-0.234467188926601
 30
0.0
 11
138.9137300337237
 21
1.96553281107333
 31
0.0
  0
LINE
  5
9D2D
330
9D15
100
AcDbEntity
  8
bowle
 48
0.1
100
AcDbLine
 10
138.0477046299392
 20
-0.2344671889266578
 30
0.0
 11
138.0477046299391
 21
1.96553281107333
 31
0.0
  0
LINE
  5
9D2E
330
9D15
100
AcDbEntity
  8
bowle
 48
0.1
100
AcDbLine
 10
141.511806245077
 20
1.965532811073387
 30
0.0
 11
138.0477046299391
 21
1.965532811073387
 31
0.0
  0
LINE
  5
9D2F
330
9D15
100
AcDbEntity
  8
bowle
 48
0.1
100
AcDbLine
 10
138.0477046299391
 20
1.96553281107333
 30
0.0
 11
139.779755437508
 21
2.96553281107333
 31
0.0
  0
LINE
  5
9D30
330
9D15
100
AcDbEntity
  8
bowle
 48
0.1
100
AcDbLine
 10
141.511806245077
 20
1.96553281107333
 30
0.0
 11
139.779755437508
 21
2.96553281107333
 31
0.0
  0
LINE
  5
9D31
330
9D15
100
AcDbEntity
  8
contour
 62
     4
100
AcDbLine
 10
138.1587554375081
 20
4.421980067141987
 30
0.0
 11
137.7797554375081
 21
3.765532811073342
 31
0.0
  0
LINE
  5
9D32
330
9D15
100
AcDbEntity
  8
contour
100
AcDbLine
 10
137.7797554375081
 20
4.42198006714193
 30
0.0
 11
141.7797554375081
 21
4.42198006714193
 31
0.0
  0
LINE
  5
9D33
330
9D15
100
AcDbEntity
  8
contour
 62
     4
100
AcDbLine
 10
141.7797554375081
 20
3.765532811073398
 30
0.0
 11
141.400755437508
 21
4.42198006714193
 31
0.0
  0
ENDBLK
  5
9D1A
330
9D15
100
AcDbEntity
  8
0
100
AcDbBlockEnd
  0
BLOCK
  5
A51C
330
A518
100
AcDbEntity
  8
0
100
AcDbBlockBegin
  2
LS3
 70
     0
 10
0.0
 20
0.0
 30
0.0
  3
LS3
  1

  0
LINE
  5
A51E
330
A518
100
AcDbEntity
  8
contour
100
AcDbLine
 10
329.8877449821333
 20
4.477662871771769
 30
0.0
 11
329.8877449821333
 21
8.177662871771701
 31
0.0
  0
LINE
  5
A51F
330
A518
100
AcDbEntity
  8
contour
100
AcDbLine
 10
329.8877449821333
 20
8.177662871771701
 30
0.0
 11
336.8877449821333
 21
8.177662871771701
 31
0.0
  0
LINE
  5
A520
330
A518
100
AcDbEntity
  8
contour
100
AcDbLine
 10
332.1877449821334
 20
26.1776628717717
 30
0.0
 11
334.5877449821334
 21
26.17766287177165
 31
0.0
  0
LINE
  5
A521
330
A518
100
AcDbEntity
  8
contour
100
AcDbLine
 10
331.3877449821333
 20
25.37766287177163
 30
0.0
 11
332.1877449821334
 21
26.17766287177165
 31
0.0
  0
LINE
  5
A522
330
A518
100
AcDbEntity
  8
contour
100
AcDbLine
 10
336.8877449821333
 20
8.177662871771701
 30
0.0
 11
336.8877449821333
 21
4.477662871771656
 31
0.0
  0
LINE
  5
A523
330
A518
100
AcDbEntity
  8
contour
100
AcDbLine
 10
336.5877449821334
 20
4.177662871771644
 30
0.0
 11
330.1877449821334
 21
4.177662871771758
 31
0.0
  0
LINE
  5
A524
330
A518
100
AcDbEntity
  8
contour
100
AcDbLine
 10
329.8877449821333
 20
4.477662871771769
 30
0.0
 11
330.1877449821334
 21
4.177662871771758
 31
0.0
  0
LINE
  5
A525
330
A518
100
AcDbEntity
  8
contour
100
AcDbLine
 10
336.8877449821333
 20
4.477662871771656
 30
0.0
 11
336.5877449821334
 21
4.177662871771644
 31
0.0
  0
LINE
  5
A526
330
A518
100
AcDbEntity
  8
contour
100
AcDbLine
 10
331.3877449821333
 20
8.177662871771644
 30
0.0
 11
331.3877449821334
 21
25.37766287177168
 31
0.0
  0
LINE
  5
A527
330
A518
100
AcDbEntity
  8
contour
100
AcDbLine
 10
335.3877449821333
 20
8.177662871771644
 30
0.0
 11
335.3877449821333
 21
25.37766287177166
 31
0.0
  0
LINE
  5
A528
330
A518
100
AcDbEntity
  8
contour
100
AcDbLine
 10
334.5877449821334
 20
26.17766287177165
 30
0.0
 11
335.3877449821333
 21
25.37766287177163
 31
0.0
  0
LINE
  5
A529
330
A518
100
AcDbEntity
  8
contour
100
AcDbLine
 10
331.3877449821333
 20
25.37766287177169
 30
0.0
 11
335.3877449821333
 21
25.37766287177169
 31
0.0
  0
LINE
  5
A52A
330
A518
100
AcDbEntity
  8
contour
 62
     4
100
AcDbLine
 10
331.7667449821333
 20
8.834110127840233
 30
0.0
 11
331.7667449821333
 21
25.75666287177167
 31
0.0
  0
LINE
  5
A52B
330
A518
100
AcDbEntity
  8
contour
 62
     4
100
AcDbLine
 10
335.0087449821333
 20
8.834110127840233
 30
0.0
 11
335.0087449821334
 21
25.75666287177161
 31
0.0
  0
LINE
  5
A52C
330
A518
100
AcDbEntity
  8
contour
100
AcDbLine
 10
329.8877449821333
 20
4.477662871771769
 30
0.0
 11
336.8877449821333
 21
4.477662871771826
 31
0.0
  0
LINE
  5
A52D
330
A518
100
AcDbEntity
  8
bowle
 48
0.1
100
AcDbLine
 10
332.5217195783489
 20
4.177662871771701
 30
0.0
 11
332.5217195783489
 21
6.37766287177169
 31
0.0
  0
LINE
  5
A52E
330
A518
100
AcDbEntity
  8
bowle
 48
0.1
100
AcDbLine
 10
331.6556941745643
 20
4.177662871771644
 30
0.0
 11
331.6556941745643
 21
6.37766287177169
 31
0.0
  0
LINE
  5
A52F
330
A518
100
AcDbEntity
  8
bowle
 48
0.1
100
AcDbLine
 10
334.2537703859177
 20
4.177662871771701
 30
0.0
 11
334.2537703859177
 21
6.377662871771633
 31
0.0
  0
LINE
  5
A530
330
A518
100
AcDbEntity
  8
bowle
 48
0.1
100
AcDbLine
 10
335.1197957897023
 20
4.177662871771644
 30
0.0
 11
335.1197957897023
 21
6.377662871771633
 31
0.0
  0
LINE
  5
A531
330
A518
100
AcDbEntity
  8
bowle
 48
0.1
100
AcDbLine
 10
331.6556941745645
 20
6.37766287177169
 30
0.0
 11
335.1197957897023
 21
6.37766287177169
 31
0.0
  0
LINE
  5
A532
330
A518
100
AcDbEntity
  8
bowle
 48
0.1
100
AcDbLine
 10
335.1197957897023
 20
6.377662871771633
 30
0.0
 11
333.3877449821334
 21
7.377662871771633
 31
0.0
  0
LINE
  5
A533
330
A518
100
AcDbEntity
  8
bowle
 48
0.1
100
AcDbLine
 10
331.6556941745645
 20
6.377662871771633
 30
0.0
 11
333.3877449821334
 21
7.377662871771633
 31
0.0
  0
LINE
  5
A534
330
A518
100
AcDbEntity
  8
contour
 62
     4
100
AcDbLine
 10
335.0087449821333
 20
8.83411012784029
 30
0.0
 11
335.3877449821333
 21
8.177662871771644
 31
0.0
  0
LINE
  5
A535
330
A518
100
AcDbEntity
  8
contour
100
AcDbLine
 10
335.3877449821333
 20
8.834110127840233
 30
0.0
 11
331.3877449821333
 21
8.834110127840233
 31
0.0
  0
LINE
  5
A536
330
A518
100
AcDbEntity
  8
contour
 62
     4
100
AcDbLine
 10
331.3877449821333
 20
8.177662871771701
 30
0.0
 11
331.7667449821333
 21
8.834110127840233
 31
0.0
  0
ENDBLK
  5
A51D
330
A518
100
AcDbEntity
  8
0
100
AcDbBlockEnd
  0
BLOCK
  5
A62B
330
A627
100
AcDbEntity
  8
0
100
AcDbBlockBegin
  2
LS4
 70
     0
 10
0.0
 20
0.0
 30
0.0
  3
LS4
  1

  0
LINE
  5
A62D
330
A627
100
AcDbEntity
  8
contour
100
AcDbLine
 10
402.9074768226647
 20
108.9417821167274
 30
0.0
 11
410.8074768226646
 21
108.9417821167274
 31
0.0
  0
LINE
  5
A62E
330
A627
100
AcDbEntity
  8
contour
100
AcDbLine
 10
411.1074768226647
 20
109.2417821167273
 30
0.0
 11
411.1074768226647
 21
113.9417821167274
 31
0.0
  0
LINE
  5
A62F
330
A627
100
AcDbEntity
  8
contour
100
AcDbLine
 10
410.8074768226646
 20
108.9417821167274
 30
0.0
 11
411.1074768226647
 21
109.2417821167273
 31
0.0
  0
LINE
  5
A630
330
A627
100
AcDbEntity
  8
contour
100
AcDbLine
 10
411.1074768226647
 20
113.9417821167274
 30
0.0
 11
402.6074768226647
 21
113.9417821167274
 31
0.0
  0
LINE
  5
A631
330
A627
100
AcDbEntity
  8
contour
100
AcDbLine
 10
408.4574768226646
 20
131.9417821167274
 30
0.0
 11
405.2574768226646
 21
131.9417821167273
 31
0.0
  0
LINE
  5
A632
330
A627
100
AcDbEntity
  8
contour
100
AcDbLine
 10
409.3574768226646
 20
131.0417821167273
 30
0.0
 11
408.4574768226646
 21
131.9417821167274
 31
0.0
  0
LINE
  5
A633
330
A627
100
AcDbEntity
  8
contour
100
AcDbLine
 10
402.6074768226647
 20
113.9417821167274
 30
0.0
 11
402.6074768226647
 21
109.2417821167273
 31
0.0
  0
LINE
  5
A634
330
A627
100
AcDbEntity
  8
contour
100
AcDbLine
 10
402.9074768226647
 20
108.9417821167274
 30
0.0
 11
402.6074768226647
 21
109.2417821167273
 31
0.0
  0
LINE
  5
A635
330
A627
100
AcDbEntity
  8
contour
100
AcDbLine
 10
402.6074768226647
 20
109.2417821167273
 30
0.0
 11
411.1074768226647
 21
109.2417821167273
 31
0.0
  0
LINE
  5
A636
330
A627
100
AcDbEntity
  8
contour
100
AcDbLine
 10
404.3574768226647
 20
113.9417821167274
 30
0.0
 11
404.3574768226647
 21
131.0417821167273
 31
0.0
  0
LINE
  5
A637
330
A627
100
AcDbEntity
  8
contour
100
AcDbLine
 10
405.2574768226646
 20
131.9417821167273
 30
0.0
 11
404.3574768226647
 21
131.0417821167273
 31
0.0
  0
LINE
  5
A638
330
A627
100
AcDbEntity
  8
contour
100
AcDbLine
 10
409.3574768226647
 20
113.9417821167274
 30
0.0
 11
409.3574768226646
 21
131.0417821167273
 31
0.0
  0
LINE
  5
A639
330
A627
100
AcDbEntity
  8
contour
100
AcDbLine
 10
404.3574768226647
 20
131.0417821167273
 30
0.0
 11
409.3574768226646
 21
131.0417821167273
 31
0.0
  0
LINE
  5
A63A
330
A627
100
AcDbEntity
  8
contour
 62
     4
100
AcDbLine
 10
404.7904768226646
 20
114.6917601164047
 30
0.0
 11
404.7904768226647
 21
131.4747821167274
 31
0.0
  0
LINE
  5
A63B
330
A627
100
AcDbEntity
  8
contour
 62
     4
100
AcDbLine
 10
408.9244768226647
 20
114.6917601164048
 30
0.0
 11
408.9244768226647
 21
131.4747821167273
 31
0.0
  0
LINE
  5
A63C
330
A627
100
AcDbEntity
  8
contour
 62
     4
100
AcDbLine
 10
408.9244768226646
 20
114.6917601164048
 30
0.0
 11
409.3574768226647
 21
113.9417821167274
 31
0.0
  0
LINE
  5
A63D
330
A627
100
AcDbEntity
  8
contour
100
AcDbLine
 10
409.3574768226647
 20
114.6917601164048
 30
0.0
 11
404.3574768226647
 21
114.6917601164048
 31
0.0
  0
LINE
  5
A63E
330
A627
100
AcDbEntity
  8
contour
 62
     4
100
AcDbLine
 10
404.7904768226647
 20
114.6917601164048
 30
0.0
 11
404.3574768226647
 21
113.9417821167274
 31
0.0
  0
LINE
  5
A63F
330
A627
100
AcDbEntity
  8
bowle
 48
0.2
100
AcDbLine
 10
404.5480757459062
 20
108.9417821167274
 30
0.0
 11
404.5480757459062
 21
111.4417821167274
 31
0.0
  0
LINE
  5
A640
330
A627
100
AcDbEntity
  8
bowle
 48
0.2
100
AcDbLine
 10
409.1668778994232
 20
108.9417821167274
 30
0.0
 11
409.1668778994232
 21
111.4417821167274
 31
0.0
  0
LINE
  5
A641
330
A627
100
AcDbEntity
  8
bowle
 48
0.2
100
AcDbLine
 10
404.5480757459062
 20
111.4417821167274
 30
0.0
 11
409.1668778994232
 21
111.4417821167274
 31
0.0
  0
LINE
  5
A642
330
A627
100
AcDbEntity
  8
bowle
 48
0.2
100
AcDbLine
 10
405.7027762842854
 20
111.4417821167274
 30
0.0
 11
405.7027762842854
 21
108.9417821167274
 31
0.0
  0
LINE
  5
A643
330
A627
100
AcDbEntity
  8
bowle
 48
0.2
100
AcDbLine
 10
408.0121773610439
 20
111.4417821167274
 30
0.0
 11
408.0121773610439
 21
108.9417821167274
 31
0.0
  0
LINE
  5
A644
330
A627
100
AcDbEntity
  8
bowle
 48
0.2
100
AcDbLine
 10
409.1668778994232
 20
111.4417821167274
 30
0.0
 11
406.8574768226646
 21
112.7751154500606
 31
0.0
  0
LINE
  5
A645
330
A627
100
AcDbEntity
  8
bowle
 48
0.2
100
AcDbLine
 10
404.5480757459062
 20
111.4417821167274
 30
0.0
 11
406.8574768226646
 21
112.7751154500606
 31
0.0
  0
ENDBLK
  5
A62C
330
A627
100
AcDbEntity
  8
0
100
AcDbBlockEnd
  0
BLOCK
  5
A6FF
330
A6FB
100
AcDbEntity
  8
0
100
AcDbBlockBegin
  2
LS5
 70
     0
 10
0.0
 20
0.0
 30
0.0
  3
LS5
  1

  0
LINE
  5
A702
330
A6FB
100
AcDbEntity
  8
contour
100
AcDbLine
 10
332.051087530478
 20
128.9140801935821
 30
0.0
 11
339.951087530478
 21
128.9140801935821
 31
0.0
  0
LINE
  5
A703
330
A6FB
100
AcDbEntity
  8
contour
100
AcDbLine
 10
340.251087530478
 20
129.2140801935821
 30
0.0
 11
340.251087530478
 21
133.9140801935821
 31
0.0
  0
LINE
  5
A704
330
A6FB
100
AcDbEntity
  8
contour
100
AcDbLine
 10
339.951087530478
 20
128.9140801935821
 30
0.0
 11
340.251087530478
 21
129.2140801935821
 31
0.0
  0
LINE
  5
A705
330
A6FB
100
AcDbEntity
  8
contour
100
AcDbLine
 10
340.251087530478
 20
133.9140801935821
 30
0.0
 11
331.751087530478
 21
133.9140801935821
 31
0.0
  0
LINE
  5
A706
330
A6FB
100
AcDbEntity
  8
contour
100
AcDbLine
 10
337.6010875304779
 20
153.9140801935821
 30
0.0
 11
334.4010875304779
 21
153.9140801935821
 31
0.0
  0
LINE
  5
A707
330
A6FB
100
AcDbEntity
  8
contour
100
AcDbLine
 10
338.5010875304779
 20
153.0140801935821
 30
0.0
 11
337.6010875304779
 21
153.9140801935821
 31
0.0
  0
LINE
  5
A708
330
A6FB
100
AcDbEntity
  8
contour
100
AcDbLine
 10
331.751087530478
 20
133.9140801935821
 30
0.0
 11
331.751087530478
 21
129.2140801935821
 31
0.0
  0
LINE
  5
A709
330
A6FB
100
AcDbEntity
  8
contour
100
AcDbLine
 10
332.051087530478
 20
128.9140801935821
 30
0.0
 11
331.751087530478
 21
129.2140801935821
 31
0.0
  0
LINE
  5
A70A
330
A6FB
100
AcDbEntity
  8
contour
100
AcDbLine
 10
331.751087530478
 20
129.2140801935821
 30
0.0
 11
340.251087530478
 21
129.2140801935821
 31
0.0
  0
LINE
  5
A70B
330
A6FB
100
AcDbEntity
  8
contour
100
AcDbLine
 10
333.5010875304779
 20
133.9140801935821
 30
0.0
 11
333.5010875304779
 21
153.0140801935821
 31
0.0
  0
LINE
  5
A70C
330
A6FB
100
AcDbEntity
  8
contour
100
AcDbLine
 10
334.4010875304779
 20
153.9140801935821
 30
0.0
 11
333.5010875304779
 21
153.0140801935821
 31
0.0
  0
LINE
  5
A70D
330
A6FB
100
AcDbEntity
  8
contour
100
AcDbLine
 10
338.501087530478
 20
133.9140801935821
 30
0.0
 11
338.5010875304778
 21
153.0140801935821
 31
0.0
  0
LINE
  5
A70E
330
A6FB
100
AcDbEntity
  8
contour
100
AcDbLine
 10
333.5010875304779
 20
153.0140801935821
 30
0.0
 11
338.5010875304779
 21
153.0140801935821
 31
0.0
  0
LINE
  5
A70F
330
A6FB
100
AcDbEntity
  8
contour
 62
     4
100
AcDbLine
 10
333.9340875304779
 20
134.6640581932595
 30
0.0
 11
333.934087530478
 21
153.4470801935821
 31
0.0
  0
LINE
  5
A710
330
A6FB
100
AcDbEntity
  8
contour
 62
     4
100
AcDbLine
 10
338.068087530478
 20
134.6640581932595
 30
0.0
 11
338.068087530478
 21
153.4470801935821
 31
0.0
  0
LINE
  5
A711
330
A6FB
100
AcDbEntity
  8
contour
 62
     4
100
AcDbLine
 10
338.0680875304779
 20
134.6640581932595
 30
0.0
 11
338.501087530478
 21
133.9140801935821
 31
0.0
  0
LINE
  5
A712
330
A6FB
100
AcDbEntity
  8
contour
100
AcDbLine
 10
338.501087530478
 20
134.6640581932595
 30
0.0
 11
333.501087530478
 21
134.6640581932595
 31
0.0
  0
LINE
  5
A713
330
A6FB
100
AcDbEntity
  8
contour
 62
     4
100
AcDbLine
 10
333.934087530478
 20
134.6640581932595
 30
0.0
 11
333.5010875304779
 21
133.9140801935821
 31
0.0
  0
LINE
  5
A714
330
A6FB
100
AcDbEntity
  8
bowle
 48
0.2
100
AcDbLine
 10
333.6916864537195
 20
128.9140801935821
 30
0.0
 11
333.6916864537195
 21
131.4140801935821
 31
0.0
  0
LINE
  5
A715
330
A6FB
100
AcDbEntity
  8
bowle
 48
0.2
100
AcDbLine
 10
338.3104886072364
 20
128.9140801935821
 30
0.0
 11
338.3104886072364
 21
131.4140801935821
 31
0.0
  0
LINE
  5
A716
330
A6FB
100
AcDbEntity
  8
bowle
 48
0.2
100
AcDbLine
 10
333.6916864537195
 20
131.4140801935821
 30
0.0
 11
338.3104886072364
 21
131.4140801935821
 31
0.0
  0
LINE
  5
A717
330
A6FB
100
AcDbEntity
  8
bowle
 48
0.2
100
AcDbLine
 10
334.8463869920987
 20
131.4140801935821
 30
0.0
 11
334.8463869920986
 21
128.9140801935821
 31
0.0
  0
LINE
  5
A718
330
A6FB
100
AcDbEntity
  8
bowle
 48
0.2
100
AcDbLine
 10
337.1557880688572
 20
131.4140801935821
 30
0.0
 11
337.1557880688572
 21
128.9140801935821
 31
0.0
  0
LINE
  5
A719
330
A6FB
100
AcDbEntity
  8
bowle
 48
0.2
100
AcDbLine
 10
338.3104886072364
 20
131.4140801935821
 30
0.0
 11
336.0010875304779
 21
132.7474135269154
 31
0.0
  0
LINE
  5
A71A
330
A6FB
100
AcDbEntity
  8
bowle
 48
0.2
100
AcDbLine
 10
333.6916864537195
 20
131.4140801935821
 30
0.0
 11
336.0010875304779
 21
132.7474135269154
 31
0.0
  0
ENDBLK
  5
A700
330
A6FB
100
AcDbEntity
  8
0
100
AcDbBlockEnd
  0
BLOCK
  5
AB1B
330
AB12
100
AcDbEntity
  8
0
100
AcDbBlockBegin
  2
*D8
 70
     1
 10
0.0
 20
0.0
 30
0.0
  3
*D8
  1

  0
LINE
  5
ABEE
330
AB12
100
AcDbEntity
  8
mark
370
    -2
100
AcDbLine
 10
28.74967769553003
 20
218.9310808795426
 30
0.0
 11
54.62119210972582
 21
212.1317641759883
 31
0.0
  0
LINE
  5
ABEF
330
AB12
100
AcDbEntity
  8
mark
370
    -2
100
AcDbLine
 10
135.3788078902748
 20
190.9077802558734
 30
0.0
 11
137.7967005783152
 21
190.2723316355107
 31
0.0
  0
MTEXT
  5
ABF0
330
AB12
100
AcDbEntity
  8
mark
 62
     3
100
AcDbMText
 10
39.31305986188849
 20
218.2745229471626
 30
0.0
 40
2.5
 41
0.0
 71
     5
 72
     1
  1
\A1;P.C.D 78.5
 11
0.9671570752161509
 21
-0.2541794481450865
 31
0.0
 73
     1
 44
1.0
  0
LINE
  5
ABF1
330
AB12
100
AcDbEntity
  8
mark
370
    -2
100
AcDbLine
 10
132.9609152022344
 20
191.5432288762361
 30
0.0
 11
57.0390847977662
 21
211.4963155556256
 31
0.0
  0
INSERT
  5
ABF2
330
AB12
100
AcDbEntity
  8
mark
370
    -2
100
AcDbBlockReference
  2
_Open30
 10
132.9609152022344
 20
191.5432288762361
 30
0.0
 41
2.5
 42
2.5
 43
2.5
 50
165.2750309504694
  0
INSERT
  5
ABF3
330
AB12
100
AcDbEntity
  8
mark
370
    -2
100
AcDbBlockReference
  2
_Open30
 10
57.0390847977662
 20
211.4963155556256
 30
0.0
 41
2.5
 42
2.5
 43
2.5
 50
345.2750309504694
  0
POINT
  5
ABF4
330
AB12
100
AcDbEntity
  8
DEFPOINTS
 62
     0
100
AcDbPoint
 10
57.0390847977662
 20
211.4963155556256
 30
0.0
  0
POINT
  5
ABF5
330
AB12
100
AcDbEntity
  8
DEFPOINTS
 62
     0
100
AcDbPoint
 10
132.9609152022344
 20
191.5432288762361
 30
0.0
  0
ENDBLK
  5
AB1C
330
AB12
100
AcDbEntity
  8
0
100
AcDbBlockEnd
  0
BLOCK
  5
AB2F
330
AB26
100
AcDbEntity
  8
0
100
AcDbBlockBegin
  2
*D9
 70
     1
 10
0.0
 20
0.0
 30
0.0
  3
*D9
  1

  0
LINE
  5
ABF6
330
AB26
100
AcDbEntity
  8
mark
370
    -2
100
AcDbLine
 10
156.8760108292439
 20
218.3898757062167
 30
0.0
 11
134.5561558889845
 21
212.3045082482294
 31
0.0
  0
LINE
  5
ABF7
330
AB26
100
AcDbEntity
  8
mark
370
    -2
100
AcDbLine
 10
55.44384411101606
 20
190.735036183632
 30
0.0
 11
53.03188338607799
 21
190.077430328004
 31
0.0
  0
MTEXT
  5
ABF8
330
AB26
100
AcDbEntity
  8
mark
 62
     3
100
AcDbMText
 10
147.9270709666781
 20
218.0748310840431
 30
0.0
 40
2.5
 41
0.0
 71
     5
 72
     1
  1
\A1;P.C.D 77
 11
0.9647842899752296
 21
0.2630423422511894
 31
0.0
 73
     1
 44
1.0
  0
LINE
  5
ABF9
330
AB26
100
AcDbEntity
  8
mark
370
    -2
100
AcDbLine
 10
57.85580483595412
 20
191.39264203926
 30
0.0
 11
132.1441951640464
 21
211.6469023926014
 31
0.0
  0
INSERT
  5
ABFA
330
AB26
100
AcDbEntity
  8
mark
370
    -2
100
AcDbBlockReference
  2
_Open30
 10
57.85580483595412
 20
191.39264203926
 30
0.0
 41
2.5
 42
2.5
 43
2.5
 50
15.25066084677233
  0
INSERT
  5
ABFB
330
AB26
100
AcDbEntity
  8
mark
370
    -2
100
AcDbBlockReference
  2
_Open30
 10
132.1441951640464
 20
211.6469023926014
 30
0.0
 41
2.5
 42
2.5
 43
2.5
 50
195.2506608467723
  0
POINT
  5
ABFC
330
AB26
100
AcDbEntity
  8
DEFPOINTS
 62
     0
100
AcDbPoint
 10
132.1441951640464
 20
211.6469023926014
 30
0.0
  0
POINT
  5
ABFD
330
AB26
100
AcDbEntity
  8
DEFPOINTS
 62
     0
100
AcDbPoint
 10
57.85580483595412
 20
191.39264203926
 30
0.0
  0
ENDBLK
  5
AB30
330
AB26
100
AcDbEntity
  8
0
100
AcDbBlockEnd
  0
BLOCK
  5
AB3C
330
AB32
100
AcDbEntity
  8
0
100
AcDbBlockBegin
  2
*D10
 70
     1
 10
0.0
 20
0.0
 30
0.0
  3
*D10
  1

  0
LINE
  5
ABFE
330
AB32
100
AcDbEntity
  8
mark
370
    -2
100
AcDbLine
 10
48.20000000000006
 20
108.9189450693528
 30
0.0
 11
43.42230350705839
 21
108.9189450693528
 31
0.0
  0
LINE
  5
ABFF
330
AB32
100
AcDbEntity
  8
mark
370
    -2
100
AcDbLine
 10
51.20000000000011
 20
119.4189450693527
 30
0.0
 11
43.4223035070584
 21
119.4189450693527
 31
0.0
  0
LINE
  5
AC00
330
AB32
100
AcDbEntity
  8
mark
370
    -2
100
AcDbLine
 10
44.22230350705839
 20
111.4189450693528
 30
0.0
 11
44.2223035070584
 21
116.9189450693527
 31
0.0
  0
INSERT
  5
AC01
330
AB32
100
AcDbEntity
  8
mark
370
    -2
100
AcDbBlockReference
  2
_Open30
 10
44.22230350705839
 20
108.9189450693528
 30
0.0
 41
2.5
 42
2.5
 43
2.5
 50
270.0
  0
INSERT
  5
AC02
330
AB32
100
AcDbEntity
  8
mark
370
    -2
100
AcDbBlockReference
  2
_Open30
 10
44.2223035070584
 20
119.4189450693527
 30
0.0
 41
2.5
 42
2.5
 43
2.5
 50
90.0
  0
MTEXT
  5
AC03
330
AB32
100
AcDbEntity
  8
mark
 62
     3
100
AcDbMText
 10
42.17230350705838
 20
114.1689450693528
 30
0.0
 40
2.5
 41
0.0
 71
     5
 72
     1
  1
\A1;10.5
 11
0.0000000000000001
 21
1.0
 31
0.0
 73
     1
 44
1.0
  0
POINT
  5
AC04
330
AB32
100
AcDbEntity
  8
DEFPOINTS
 62
     0
100
AcDbPoint
 10
49.00000000000005
 20
108.9189450693528
 30
0.0
  0
POINT
  5
AC05
330
AB32
100
AcDbEntity
  8
DEFPOINTS
 62
     0
100
AcDbPoint
 10
52.00000000000011
 20
119.4189450693527
 30
0.0
  0
POINT
  5
AC06
330
AB32
100
AcDbEntity
  8
DEFPOINTS
 62
     0
100
AcDbPoint
 10
44.2223035070584
 20
119.4189450693527
 30
0.0
  0
ENDBLK
  5
AB3D
330
AB32
100
AcDbEntity
  8
0
100
AcDbBlockEnd
  0
BLOCK
  5
AB49
330
AB3F
100
AcDbEntity
  8
0
100
AcDbBlockBegin
  2
*D11
 70
     1
 10
0.0
 20
0.0
 30
0.0
  3
*D11
  1

  0
LINE
  5
AC07
330
AB3F
100
AcDbEntity
  8
mark
370
    -2
100
AcDbLine
 10
138.8000000000001
 20
119.4189450693527
 30
0.0
 11
146.6485835029429
 21
119.4189450693527
 31
0.0
  0
LINE
  5
AC08
330
AB3F
100
AcDbEntity
  8
mark
370
    -2
100
AcDbLine
 10
138.8000000000001
 20
99.91894506935279
 30
0.0
 11
146.6485835029429
 21
99.91894506935279
 31
0.0
  0
LINE
  5
AC09
330
AB3F
100
AcDbEntity
  8
mark
370
    -2
100
AcDbLine
 10
145.8485835029428
 20
116.9189450693527
 30
0.0
 11
145.8485835029428
 21
102.4189450693528
 31
0.0
  0
INSERT
  5
AC0A
330
AB3F
100
AcDbEntity
  8
mark
370
    -2
100
AcDbBlockReference
  2
_Open30
 10
145.8485835029428
 20
119.4189450693527
 30
0.0
 41
2.5
 42
2.5
 43
2.5
 50
90.0
  0
INSERT
  5
AC0B
330
AB3F
100
AcDbEntity
  8
mark
370
    -2
100
AcDbBlockReference
  2
_Open30
 10
145.8485835029428
 20
99.91894506935279
 30
0.0
 41
2.5
 42
2.5
 43
2.5
 50
270.0
  0
MTEXT
  5
AC0C
330
AB3F
100
AcDbEntity
  8
mark
 62
     3
100
AcDbMText
 10
143.7985835029428
 20
109.6689450693528
 30
0.0
 40
2.5
 41
0.0
 71
     5
 72
     1
  1
\A1;19.5
 11
0.0000000000000001
 21
1.0
 31
0.0
 73
     1
 44
1.0
  0
POINT
  5
AC0D
330
AB3F
100
AcDbEntity
  8
DEFPOINTS
 62
     0
100
AcDbPoint
 10
138.0
 20
119.4189450693527
 30
0.0
  0
POINT
  5
AC0E
330
AB3F
100
AcDbEntity
  8
DEFPOINTS
 62
     0
100
AcDbPoint
 10
138.0
 20
99.91894506935279
 30
0.0
  0
POINT
  5
AC0F
330
AB3F
100
AcDbEntity
  8
DEFPOINTS
 62
     0
100
AcDbPoint
 10
145.8485835029428
 20
99.91894506935279
 30
0.0
  0
ENDBLK
  5
AB4A
330
AB3F
100
AcDbEntity
  8
0
100
AcDbBlockEnd
  0
BLOCK
  5
AB58
330
AB4C
100
AcDbEntity
  8
0
100
AcDbBlockBegin
  2
*D12
 70
     1
 10
0.0
 20
0.0
 30
0.0
  3
*D12
  1

  0
LINE
  5
AC10
330
AB4C
100
AcDbEntity
  8
mark
370
    -2
100
AcDbLine
 10
138.8000000000001
 20
99.91894506935279
 30
0.0
 11
146.6485835029429
 21
99.91894506935279
 31
0.0
  0
LINE
  5
AC11
330
AB4C
100
AcDbEntity
  8
mark
370
    -2
100
AcDbLine
 10
138.8000000000001
 20
97.91894506935276
 30
0.0
 11
146.6485835029429
 21
97.91894506935276
 31
0.0
  0
LINE
  5
AC12
330
AB4C
100
AcDbEntity
  8
mark
370
    -2
100
AcDbLine
 10
145.8485835029429
 20
102.4189450693528
 30
0.0
 11
145.8485835029429
 21
104.9189450693528
 31
0.0
  0
LINE
  5
AC13
330
AB4C
100
AcDbEntity
  8
mark
370
    -2
100
AcDbLine
 10
145.8485835029429
 20
95.41894506935276
 30
0.0
 11
145.8485835029429
 21
92.91894506935276
 31
0.0
  0
LINE
  5
AC14
330
AB4C
100
AcDbEntity
  8
mark
370
    -2
100
AcDbLine
 10
145.8485835029429
 20
99.91894506935279
 30
0.0
 11
145.8485835029429
 21
97.91894506935276
 31
0.0
  0
INSERT
  5
AC15
330
AB4C
100
AcDbEntity
  8
mark
370
    -2
100
AcDbBlockReference
  2
_Open30
 10
145.8485835029429
 20
99.91894506935279
 30
0.0
 41
2.5
 42
2.5
 43
2.5
 50
270.0
  0
INSERT
  5
AC16
330
AB4C
100
AcDbEntity
  8
mark
370
    -2
100
AcDbBlockReference
  2
_Open30
 10
145.8485835029429
 20
97.91894506935276
 30
0.0
 41
2.5
 42
2.5
 43
2.5
 50
90.0
  0
MTEXT
  5
AC17
330
AB4C
100
AcDbEntity
  8
mark
 62
     3
100
AcDbMText
 10
143.7985835029428
 20
98.9189450693528
 30
0.0
 40
2.5
 41
0.0
 71
     5
 72
     1
  1
\A1;2
 11
0.0000000000000001
 21
1.0
 31
0.0
 73
     1
 44
1.0
  0
POINT
  5
AC18
330
AB4C
100
AcDbEntity
  8
DEFPOINTS
 62
     0
100
AcDbPoint
 10
138.0
 20
99.91894506935279
 30
0.0
  0
POINT
  5
AC19
330
AB4C
100
AcDbEntity
  8
DEFPOINTS
 62
     0
100
AcDbPoint
 10
138.0
 20
97.91894506935276
 30
0.0
  0
POINT
  5
AC1A
330
AB4C
100
AcDbEntity
  8
DEFPOINTS
 62
     0
100
AcDbPoint
 10
145.8485835029429
 20
97.91894506935276
 30
0.0
  0
ENDBLK
  5
AB59
330
AB4C
100
AcDbEntity
  8
0
100
AcDbBlockEnd
  0
BLOCK
  5
AB70
330
AB66
100
AcDbEntity
  8
0
100
AcDbBlockBegin
  2
*D13
 70
     1
 10
0.0
 20
0.0
 30
0.0
  3
*D13
  1

  0
LINE
  5
AC1B
330
AB66
100
AcDbEntity
  8
mark
370
    -2
100
AcDbLine
 10
138.8000000000001
 20
119.4189450693527
 30
0.0
 11
153.0534910668287
 21
119.4189450693527
 31
0.0
  0
LINE
  5
AC1C
330
AB66
100
AcDbEntity
  8
mark
370
    -2
100
AcDbLine
 10
138.8000000000001
 20
91.41894506935273
 30
0.0
 11
153.0534910668287
 21
91.41894506935273
 31
0.0
  0
LINE
  5
AC1D
330
AB66
100
AcDbEntity
  8
mark
370
    -2
100
AcDbLine
 10
152.2534910668287
 20
116.9189450693527
 30
0.0
 11
152.2534910668287
 21
93.91894506935273
 31
0.0
  0
INSERT
  5
AC1E
330
AB66
100
AcDbEntity
  8
mark
370
    -2
100
AcDbBlockReference
  2
_Open30
 10
152.2534910668287
 20
119.4189450693527
 30
0.0
 41
2.5
 42
2.5
 43
2.5
 50
90.0
  0
INSERT
  5
AC1F
330
AB66
100
AcDbEntity
  8
mark
370
    -2
100
AcDbBlockReference
  2
_Open30
 10
152.2534910668287
 20
91.41894506935273
 30
0.0
 41
2.5
 42
2.5
 43
2.5
 50
270.0
  0
MTEXT
  5
AC20
330
AB66
100
AcDbEntity
  8
mark
 62
     3
100
AcDbMText
 10
150.2034910668287
 20
105.4189450693527
 30
0.0
 40
2.5
 41
0.0
 71
     5
 72
     1
  1
\A1;28%%P0.2
 11
0.0000000000000001
 21
1.0
 31
0.0
 73
     1
 44
1.0
  0
POINT
  5
AC21
330
AB66
100
AcDbEntity
  8
DEFPOINTS
 62
     0
100
AcDbPoint
 10
138.0
 20
119.4189450693527
 30
0.0
  0
POINT
  5
AC22
330
AB66
100
AcDbEntity
  8
DEFPOINTS
 62
     0
100
AcDbPoint
 10
138.0000000000001
 20
91.41894506935273
 30
0.0
  0
POINT
  5
AC23
330
AB66
100
AcDbEntity
  8
DEFPOINTS
 62
     0
100
AcDbPoint
 10
152.2534910668287
 20
91.41894506935273
 30
0.0
  0
ENDBLK
  5
AB71
330
AB66
100
AcDbEntity
  8
0
100
AcDbBlockEnd
  0
BLOCK
  5
AB7D
330
AB73
100
AcDbEntity
  8
0
100
AcDbBlockBegin
  2
*D14
 70
     1
 10
0.0
 20
0.0
 30
0.0
  3
*D14
  1

  0
LINE
  5
AC24
330
AB73
100
AcDbEntity
  8
mark
370
    -2
100
AcDbLine
 10
51.00000000000012
 20
119.2189450693527
 30
0.0
 11
51.00000000000012
 21
127.6773189500618
 31
0.0
  0
LINE
  5
AC25
330
AB73
100
AcDbEntity
  8
mark
370
    -2
100
AcDbLine
 10
139.0
 20
119.2189450693527
 30
0.0
 11
139.0
 21
127.6773189500618
 31
0.0
  0
LINE
  5
AC26
330
AB73
100
AcDbEntity
  8
mark
370
    -2
100
AcDbLine
 10
53.50000000000012
 20
126.8773189500618
 30
0.0
 11
136.5
 21
126.8773189500618
 31
0.0
  0
INSERT
  5
AC27
330
AB73
100
AcDbEntity
  8
mark
370
    -2
100
AcDbBlockReference
  2
_Open30
 10
51.00000000000012
 20
126.8773189500618
 30
0.0
 41
2.5
 42
2.5
 43
2.5
 50
180.0
  0
INSERT
  5
AC28
330
AB73
100
AcDbEntity
  8
mark
370
    -2
100
AcDbBlockReference
  2
_Open30
 10
139.0
 20
126.8773189500618
 30
0.0
 41
2.5
 42
2.5
 43
2.5
  0
MTEXT
  5
AC29
330
AB73
100
AcDbEntity
  8
mark
 62
     3
100
AcDbMText
 10
95.00000000000008
 20
128.9273189500619
 30
0.0
 40
2.5
 41
0.0
 71
     5
 72
     1
  1
\A1;%%c88
 73
     1
 44
1.0
  0
POINT
  5
AC2A
330
AB73
100
AcDbEntity
  8
DEFPOINTS
 62
     0
100
AcDbPoint
 10
51.00000000000012
 20
118.4189450693528
 30
0.0
  0
POINT
  5
AC2B
330
AB73
100
AcDbEntity
  8
DEFPOINTS
 62
     0
100
AcDbPoint
 10
139.0
 20
118.4189450693527
 30
0.0
  0
POINT
  5
AC2C
330
AB73
100
AcDbEntity
  8
DEFPOINTS
 62
     0
100
AcDbPoint
 10
139.0
 20
126.8773189500618
 30
0.0
  0
ENDBLK
  5
AB7E
330
AB73
100
AcDbEntity
  8
0
100
AcDbBlockEnd
  0
BLOCK
  5
AB8B
330
AB81
100
AcDbEntity
  8
0
100
AcDbBlockBegin
  2
*D15
 70
     1
 10
0.0
 20
0.0
 30
0.0
  3
*D15
  1

  0
LINE
  5
AC2D
330
AB81
100
AcDbEntity
  8
mark
370
    -2
100
AcDbLine
 10
62.50000000000006
 20
91.30694506935281
 30
0.0
 11
62.50000000000006
 21
76.47212562983709
 31
0.0
  0
LINE
  5
AC2E
330
AB81
100
AcDbEntity
  8
mark
370
    -2
100
AcDbLine
 10
127.5
 20
91.30694506935286
 30
0.0
 11
127.5
 21
76.47212562983709
 31
0.0
  0
LINE
  5
AC2F
330
AB81
100
AcDbEntity
  8
mark
370
    -2
100
AcDbLine
 10
65.00000000000006
 20
77.27212562983709
 30
0.0
 11
125.0
 21
77.27212562983709
 31
0.0
  0
INSERT
  5
AC30
330
AB81
100
AcDbEntity
  8
mark
370
    -2
100
AcDbBlockReference
  2
_Open30
 10
62.50000000000006
 20
77.27212562983709
 30
0.0
 41
2.5
 42
2.5
 43
2.5
 50
180.0
  0
INSERT
  5
AC31
330
AB81
100
AcDbEntity
  8
mark
370
    -2
100
AcDbBlockReference
  2
_Open30
 10
127.5
 20
77.27212562983709
 30
0.0
 41
2.5
 42
2.5
 43
2.5
  0
MTEXT
  5
AC32
330
AB81
100
AcDbEntity
  8
mark
 62
     3
100
AcDbMText
 10
95.00000000000005
 20
79.32212562983709
 30
0.0
 40
2.5
 41
0.0
 71
     5
 72
     1
  1
\A1;M65X1.5P
 73
     1
 44
1.0
  0
POINT
  5
AC33
330
AB81
100
AcDbEntity
  8
DEFPOINTS
 62
     0
100
AcDbPoint
 10
62.50000000000006
 20
92.10694506935281
 30
0.0
  0
POINT
  5
AC34
330
AB81
100
AcDbEntity
  8
DEFPOINTS
 62
     0
100
AcDbPoint
 10
127.5
 20
92.10694506935286
 30
0.0
  0
POINT
  5
AC35
330
AB81
100
AcDbEntity
  8
DEFPOINTS
 62
     0
100
AcDbPoint
 10
127.5
 20
77.27212562983709
 30
0.0
  0
ENDBLK
  5
AB8C
330
AB81
100
AcDbEntity
  8
0
100
AcDbBlockEnd
  0
BLOCK
  5
AB95
330
AB8E
100
AcDbEntity
  8
0
100
AcDbBlockBegin
  2
*D16
 70
     1
 10
0.0
 20
0.0
 30
0.0
  3
*D16
  1

  0
LINE
  5
AC36
330
AB8E
100
AcDbEntity
  8
mark
370
    -2
100
AcDbLine
 10
44.26896585902611
 20
84.68791092838085
 30
0.0
 11
49.52512626584685
 21
89.94407133520011
 31
0.0
  0
MTEXT
  5
AC37
330
AB8E
100
AcDbEntity
  8
mark
 62
     3
100
AcDbMText
 10
44.56359368452095
 20
87.88167655674005
 30
0.0
 40
2.5
 41
0.0
 71
     5
 72
     1
  1
\A1;R1
 11
0.7071067811866472
 21
0.7071067811864479
 31
0.0
 73
     1
 44
1.0
  0
LINE
  5
AC38
330
AB8E
100
AcDbEntity
  8
mark
370
    -2
100
AcDbLine
 10
52.00000000000024
 20
92.41894506935278
 30
0.0
 11
51.29289321881348
 21
91.71183828816623
 31
0.0
  0
INSERT
  5
AC39
330
AB8E
100
AcDbEntity
  8
mark
370
    -2
100
AcDbBlockReference
  2
_Open30
 10
51.29289321881348
 20
91.71183828816623
 30
0.0
 41
2.5
 42
2.5
 43
2.5
 50
44.99999999999192
  0
POINT
  5
AC3A
330
AB8E
100
AcDbEntity
  8
DEFPOINTS
 62
     0
100
AcDbPoint
 10
51.29289321881348
 20
91.71183828816623
 30
0.0
  0
POINT
  5
AC3B
330
AB8E
100
AcDbEntity
  8
DEFPOINTS
 62
     0
100
AcDbPoint
 10
52.00000000000024
 20
92.41894506935278
 30
0.0
  0
ENDBLK
  5
AB96
330
AB8E
100
AcDbEntity
  8
0
100
AcDbBlockEnd
  0
ENDSEC
  0
SECTION
  2
ENTITIES
  0
MTEXT
  5
C0
330
18
100
AcDbEntity
  8
0
100
AcDbMText
 10
41.26970765600413
 20
233.6950877649332
 30
0.0
 40
2.5
 41
0.0
 71
     1
 72
     5
  1

  7
ISOCP3
 73
     1
 44
1.0
  0
LWPOLYLINE
  5
7D6C
330
18
100
AcDbEntity
  8
frame
100
AcDbPolyline
 90
        4
 70
     1
 43
0.0
 10
190.0
 20
280.0
 10
0.0
 20
280.0
 10
0.0
 20
0.0
 10
190.0
 20
0.0
  0
MTEXT
  5
7D6D
330
18
100
AcDbEntity
  8
0
100
AcDbMText
 10
17.09950368689175
 20
19.07605901616614
 30
0.0
 40
4.5
 41
0.0
 71
     1
 72
     5
  1
{\Ftxt,bigfont|c128;林彦旭}
  7
JL
 73
     1
 44
1.0
1001
ACAD
1000
ACAD_MTEXT_DEFINED_HEIGHT_BEGIN
1070
    46
1040
0.0
1000
ACAD_MTEXT_DEFINED_HEIGHT_END
  0
MTEXT
  5
7D6E
330
18
100
AcDbEntity
  8
0
100
AcDbMText
 10
77.95294729228851
 20
28.93578979870677
 30
0.0
 40
4.5
 41
0.0
 71
     1
 72
     5
  1
{\Ftxt,bigfont|c128;1 : 1}
  7
JL
 73
     1
 44
1.0
1001
ACAD
1000
ACAD_MTEXT_DEFINED_HEIGHT_BEGIN
1070
    46
1040
0.0
1000
ACAD_MTEXT_DEFINED_HEIGHT_END
  0
MTEXT
  5
7D6F
330
18
100
AcDbEntity
  8
0
 48
2.0
370
    25
100
AcDbMText
 10
140.2194500465656
 20
3.490021654633892
 30
0.0
 40
4.5
 41
0.0
 71
     5
 72
     1
  1
{\Ftxt,bigfont|c128;N L 4 0 2 8 6}
 73
     1
 44
1.0
1001
ACAD
1000
ACAD_MTEXT_DEFINED_HEIGHT_BEGIN
1070
    46
1040
0.0
1000
ACAD_MTEXT_DEFINED_HEIGHT_END
  0
MTEXT
  5
7D70
330
18
100
AcDbEntity
  8
0
 48
2.0
100
AcDbMText
 10
170.9328999644331
 20
21.76437127823692
 30
0.0
 40
4.318181818181822
 41
0.0
 71
     5
 72
     1
  1
\P{\Ftxt,bigfont|c128;MKR65X1.5P}
 73
     1
 44
1.0
1001
ACAD
1000
ACAD_MTEXT_DEFINED_HEIGHT_BEGIN
1070
    46
1040
0.0
1000
ACAD_MTEXT_DEFINED_HEIGHT_END
  0
MTEXT
  5
7D71
330
18
100
AcDbEntity
  8
0
100
AcDbMText
 10
15.3760677136774
 20
28.37740359834709
 30
0.0
 40
4.5
 41
0.0
 71
     1
 72
     5
  1
{\Ftxt,bigfont|c128;06.07.05}
  7
JL
 73
     1
 44
1.0
1001
ACAD
1000
ACAD_MTEXT_DEFINED_HEIGHT_BEGIN
1070
    46
1040
0.0
1000
ACAD_MTEXT_DEFINED_HEIGHT_END
  0
MTEXT
  5
7D73
330
18
100
AcDbEntity
  8
0
100
AcDbMText
 10
14.91235548326415
 20
9.242195050049303
 30
0.0
 40
6.0
 41
0.0
 71
     1
 72
     5
  1
\Ftxt.shx,bigfont.shx|c128;日機株式会社
  7
LKK
 73
     1
 44
1.0
  0
LINE
  5
7D74
330
18
100
AcDbEntity
  8
frame
100
AcDbLine
 10
0.0
 20
12.0
 30
0.0
 11
190.0
 21
12.00000000000005
 31
0.0
  0
LINE
  5
7D75
330
18
100
AcDbEntity
  8
frame
100
AcDbLine
 10
0.0
 20
22.0
 30
0.0
 11
92.12121212121223
 21
22.0
 31
0.0
  0
LINE
  5
7D76
330
18
100
AcDbEntity
  8
frame
100
AcDbLine
 10
0.0
 20
32.0
 30
0.0
 11
190.0
 21
32.0
 31
0.0
  0
LINE
  5
7D77
330
18
100
AcDbEntity
  8
frame
100
AcDbLine
 10
12.19077332493799
 20
32.0
 30
0.0
 11
12.19077332493799
 21
12.0
 31
0.0
  0
LINE
  5
7D78
330
18
100
AcDbEntity
  8
frame
100
AcDbLine
 10
30.70707070707067
 20
32.0
 30
0.0
 11
30.70707070707078
 21
12.0
 31
0.0
  0
MTEXT
  5
7D79
330
18
100
AcDbEntity
  8
0
100
AcDbMText
 10
2.830274784221955
 20
29.08190089582831
 30
0.0
 40
4.5
 41
0.0
 71
     1
 72
     5
  1
\Ftxt.shx,bigfont.shx|c128;日 付
  7
JL
 73
     1
 44
1.0
  0
MTEXT
  5
7D7A
330
18
100
AcDbEntity
  8
0
100
AcDbMText
 10
2.97063307743889
 20
19.52163842926637
 30
0.0
 40
4.5
 41
0.0
 71
     1
 72
     5
  1
\Ftxt.shx,bigfont.shx|c128;製 図
  7
JL
 73
     1
 44
1.0
  0
LINE
  5
7D7B
330
18
100
AcDbEntity
  8
0
 62
     7
370
    25
100
AcDbLine
 10
53.04580144287854
 20
23.81984609294597
 30
0.0
 11
53.04580144287854
 21
28.93622339589922
 31
0.0
  0
MTEXT
  5
7D7C
330
18
100
AcDbEntity
  8
0
100
AcDbMText
 10
64.00748852490835
 20
29.12242703792379
 30
0.0
 40
4.5
 41
0.0
 71
     1
 72
     5
  1
\Ftxt.shx,bigfont.shx|c128;尺 度
  7
JL
 73
     1
 44
1.0
  0
LINE
  5
7D7D
330
18
100
AcDbEntity
  8
frame
100
AcDbLine
 10
61.41414141414145
 20
32.0
 30
0.0
 11
61.41414141414145
 21
12.0
 31
0.0
  0
LINE
  5
7D7E
330
18
100
AcDbEntity
  8
0
 62
     7
370
    25
100
AcDbLine
 10
39.6153110226262
 20
23.18889018332635
 30
0.0
 11
39.6153110226262
 21
29.36457992429672
 31
0.0
  0
CIRCLE
  5
7D7F
330
18
100
AcDbEntity
  8
0
 62
     7
100
AcDbCircle
 10
39.6153110226262
 20
26.37803474442251
 30
0.0
 40
2.558188651476678
  0
LINE
  5
7D80
330
18
100
AcDbEntity
  8
0
 62
     7
370
    25
100
AcDbLine
 10
47.19321986919976
 20
26.37803474442262
 30
0.0
 11
53.50512581624241
 21
26.37803474442262
 31
0.0
  0
LINE
  5
7D81
330
18
100
AcDbEntity
  8
0
 62
     7
100
AcDbLine
 10
47.92942413992534
 20
25.09894041868427
 30
0.0
 11
53.04580144287854
 21
23.81984609294597
 31
0.0
  0
LINE
  5
7D82
330
18
100
AcDbEntity
  8
frame
100
AcDbLine
 10
42.742241959951
 20
22.0
 30
0.0
 11
42.742241959951
 21
12.0
 31
0.0
  0
LINE
  5
7D83
330
18
100
AcDbEntity
  8
0
 62
     7
370
    25
100
AcDbLine
 10
36.41832228486612
 20
26.37803474442251
 30
0.0
 11
43.00325267619268
 21
26.37803474442262
 31
0.0
  0
CIRCLE
  5
7D84
330
18
100
AcDbEntity
  8
0
 62
     7
100
AcDbCircle
 10
39.6153110226262
 20
26.37803474442251
 30
0.0
 40
1.279094325738339
  0
MTEXT
  5
7D85
330
18
100
AcDbEntity
  8
0
100
AcDbMText
 10
33.70184032462407
 20
19.41013815785266
 30
0.0
 40
4.5
 41
0.0
 71
     1
 72
     5
  1
\Ftxt.shx,bigfont.shx|c128;検 図
  7
JL
 73
     1
 44
1.0
  0
LINE
  5
7D86
330
18
100
AcDbEntity
  8
0
 62
     7
370
    25
100
AcDbLine
 10
47.92942413992534
 20
25.09894041868427
 30
0.0
 11
47.92942413992534
 21
27.65712907016086
 31
0.0
  0
MTEXT
  5
7D87
330
18
100
AcDbEntity
  8
0
100
AcDbMText
 10
64.28820249919829
 20
19.32058534748881
 30
0.0
 40
4.5
 41
0.0
 71
     1
 72
     5
  1
\Ftxt.shx,bigfont.shx|c128;承 認
  7
JL
 73
     1
 44
1.0
  0
MTEXT
  5
7D88
330
18
100
AcDbEntity
  8
0
100
AcDbMText
 10
93.71128715606699
 20
10.7026821961914
 30
0.0
 40
4.5
 41
0.0
 71
     1
 72
     5
  1
\Ftxt.shx,bigfont.shx|c128;図  面  番  号
  7
JL
 73
     1
 44
1.0
  0
MTEXT
  5
7D89
330
18
100
AcDbEntity
  8
0
 48
2.0
100
AcDbMText
 10
116.9038190021384
 20
21.8757473149584
 30
0.0
 40
4.5
 41
0.0
 71
     5
 72
     1
  1
\P\Ftxt.shx,bigfont.shx|c128;    精密ロックナット
 73
     1
 44
1.0
  0
MTEXT
  5
7D8A
330
18
100
AcDbEntity
  8
0
100
AcDbMText
 10
94.8083613031232
 20
29.03862457973275
 30
0.0
 40
4.5
 41
0.0
 71
     1
 72
     5
  1
\Ftxt.shx,bigfont.shx|c128;品  名
  7
JL
 73
     1
 44
1.0
  0
LINE
  5
7D8B
330
18
100
AcDbEntity
  8
frame
100
AcDbLine
 10
92.12121212121223
 20
32.0
 30
0.0
 11
92.12121212121223
 21
0.1833227579584786
 31
0.0
  0
LINE
  5
7D8C
330
18
100
AcDbEntity
  8
frame
100
AcDbLine
 10
73.41414141414145
 20
32.0
 30
0.0
 11
73.41414141414145
 21
12.0
 31
0.0
  0
LINE
  5
7D8D
330
18
100
AcDbEntity
  8
frame
100
AcDbLine
 10
147.0327092740656
 20
32.0
 30
0.0
 11
147.0327092740657
 21
12.0
 31
0.0
  0
MTEXT
  5
7D8E
330
18
100
AcDbEntity
  8
0
100
AcDbMText
 10
150.895959446773
 20
29.04517782830391
 30
0.0
 40
4.5
 41
0.0
 71
     1
 72
     5
  1
\Ftxt.shx,bigfont.shx|c128;型  番
  7
JL
 73
     1
 44
1.0
  0
MTEXT
  5
7D8F
330
18
100
AcDbEntity
  8
0
100
AcDbMText
 10
165.8059614810325
 20
10.78298174971564
 30
0.0
 40
4.5
 41
0.0
 71
     1
 72
     5
  1
\Ftxt.shx,bigfont.shx|c128;変更
  7
JL
 73
     1
 44
1.0
  0
LINE
  5
7D90
330
18
100
AcDbEntity
  8
frame
100
AcDbLine
 10
164.0909090909092
 20
12.00000000000005
 30
0.0
 11
164.0909090909093
 21
0.0
 31
0.0
  0
LINE
  5
7D91
330
18
100
AcDbEntity
  8
frame
100
AcDbLine
 10
124.6157900786393
 20
43.13491348924492
 30
0.0
 11
184.6157900786393
 21
43.13491348924481
 31
0.0
  0
LINE
  5
7D92
330
18
100
AcDbEntity
  8
frame
100
AcDbLine
 10
124.6157900786393
 20
50.33491348924497
 30
0.0
 11
184.6157900786393
 21
50.33491348924497
 31
0.0
  0
LINE
  5
7D93
330
18
100
AcDbEntity
  8
frame
100
AcDbLine
 10
124.6157900786393
 20
57.5349134892449
 30
0.0
 11
184.6157900786393
 21
57.53491348924478
 31
0.0
  0
LINE
  5
7D94
330
18
100
AcDbEntity
  8
frame
100
AcDbLine
 10
124.6157900786393
 20
64.73491348924494
 30
0.0
 11
184.6157900786393
 21
64.73491348924483
 31
0.0
  0
LINE
  5
7D95
330
18
100
AcDbEntity
  8
frame
100
AcDbLine
 10
124.6157900786393
 20
35.93491348924488
 30
0.0
 11
184.6157900786393
 21
35.93491348924488
 31
0.0
  0
MTEXT
  5
7D96
330
18
100
AcDbEntity
  8
0
 62
     7
 48
2.0
100
AcDbMText
 10
154.5011900445106
 20
65.52808189982909
 30
0.0
 40
4.8
 41
0.0
 71
     5
 72
     1
  1
\P\Ftxt.shx,bigfont.shx|c128;諸　　　　元
 73
     1
 44
1.0
  0
LINE
  5
7D97
330
18
100
AcDbEntity
  8
frame
100
AcDbLine
 10
124.6157900786393
 20
64.73491348924483
 30
0.0
 11
124.6157900786393
 21
35.93491348924488
 31
0.0
  0
MTEXT
  5
7D98
330
18
100
AcDbEntity
  8
0
100
AcDbMText
 10
128.1382258923195
 20
56.00840432212407
 30
0.0
 40
4.4
 41
163.916286842249
 71
     1
 72
     5
  1
\Ftxt.shx,bigfont.shx|c128;熱　処　理
  7
JL
 73
     1
 44
1.0
  0
LINE
  5
7D99
330
18
100
AcDbEntity
  8
frame
100
AcDbLine
 10
148.6157900786393
 20
57.53491348924478
 30
0.0
 11
148.6157900786393
 21
35.93491348924488
 31
0.0
  0
MTEXT
  5
7D9A
330
18
100
AcDbEntity
  8
0
100
AcDbMText
 10
127.8579515249403
 20
49.00617587486397
 30
0.0
 40
4.4
 41
163.6058628849672
 71
     1
 72
     5
  1
\Ftxt.shx,bigfont.shx|c128;表 面 処 理
  7
JL
 73
     1
 44
1.0
  0
MTEXT
  5
7D9B
330
18
100
AcDbEntity
  8
0
100
AcDbMText
 10
128.1480173733753
 20
41.71770302125605
 30
0.0
 40
4.4
 41
166.1718
 71
     1
 72
     5
  1
\Ftxt.shx,bigfont.shx|c128;等     　級
  7
JL
 73
     1
 44
1.0
  0
LINE
  5
7D9C
330
18
100
AcDbEntity
  8
frame
100
AcDbLine
 10
184.6157900786393
 20
64.73491348924483
 30
0.0
 11
184.6157900786393
 21
35.93491348924499
 31
0.0
  0
MTEXT
  5
7D9D
330
18
100
AcDbEntity
  8
0
100
AcDbMText
 10
153.3627933880818
 20
55.83344641471445
 30
0.0
 40
4.4
 41
291.8960056857887
 71
     1
 72
     5
  1
\Ftxt.shx,bigfont.shx|c128;調質　HRC30%%d%%p２%%d
  7
JL
 73
     1
 44
1.0
  0
MTEXT
  5
7D9E
330
18
100
AcDbEntity
  8
0
100
AcDbMText
 10
153.6234323895182
 20
41.7183135927072
 30
0.0
 40
4.4
 41
290.783364796891
 71
     1
 72
     5
  1
\Ftxt.shx,bigfont.shx|c128;ＩＳＯ - ４Ｈ
  7
JL
 73
     1
 44
1.0
  0
MTEXT
  5
7D9F
330
18
100
AcDbEntity
  8
0
100
AcDbMText
 10
153.7978935876485
 20
48.65328293790913
 30
0.0
 40
4.4
 41
291.4548
 71
     1
 72
     5
  1
\Ftxt.shx,bigfont.shx|c128;黒  　    染
  7
JL
 73
     1
 44
1.0
  0
MTEXT
  5
7DA0
330
18
100
AcDbEntity
  8
0
100
AcDbMText
 10
57.63639061334425
 20
260.9000583279474
 30
0.0
 40
5.0
 41
0.0
 71
     1
 72
     5
  1
{\Ftxt,bigfont|c128;M5X0.8P-20L}
  7
JL
 73
     1
 44
1.0
1001
ACAD
1000
ACAD_MTEXT_DEFINED_HEIGHT_BEGIN
1070
    46
1040
0.0
1000
ACAD_MTEXT_DEFINED_HEIGHT_END
  0
LINE
  5
7DA2
330
18
100
AcDbEntity
  8
frame
100
AcDbLine
 10
0.0
 20
254.0
 30
0.0
 11
190.0
 21
254.0
 31
0.0
  0
LINE
  5
7DA3
330
18
100
AcDbEntity
  8
frame
100
AcDbLine
 10
0.0
 20
262.0
 30
0.0
 11
190.0
 21
262.0
 31
0.0
  0
LINE
  5
7DA4
330
18
100
AcDbEntity
  8
frame
 62
     9
100
AcDbLine
 10
0.0
 20
270.0
 30
0.0
 11
190.0
 21
270.0
 31
0.0
  0
MTEXT
  5
7DA5
330
18
100
AcDbEntity
  8
0
100
AcDbMText
 10
57.0156439060371
 20
277.4240560049041
 30
0.0
 40
5.0
 41
0.0
 71
     1
 72
     5
  1
\Ftxt.shx,bigfont.shx|c128;図    番 / 規　　格
  7
JL
 73
     1
 44
1.0
  0
LINE
  5
7DA6
330
18
100
AcDbEntity
  8
frame
100
AcDbLine
 10
0.0
 20
254.0
 30
0.0
 11
190.0
 21
254.0
 31
0.0
  0
MTEXT
  5
7DA8
330
18
100
AcDbEntity
  8
0
100
AcDbMText
 10
21.12488048923433
 20
277.4637981386743
 30
0.0
 40
5.0
 41
0.0
 71
     1
 72
     5
  1
\Ftxt.shx,bigfont.shx|c128;品　          名
  7
JL
 73
     1
 44
1.0
  0
MTEXT
  5
7DA9
330
18
100
AcDbEntity
  8
0
100
AcDbMText
 10
18.10281387110132
 20
260.7907237289111
 30
0.0
 40
5.0
 41
0.0
 71
     1
 72
     5
  1
\Ftxt.shx,bigfont.shx|c128;セットスクリュ-
  7
JL
 73
     1
 44
1.0
  0
MTEXT
  5
7DAA
330
18
100
AcDbEntity
  8
0
100
AcDbMText
 10
17.91509480863158
 20
268.8361230282964
 30
0.0
 40
5.0
 41
0.0
 71
     1
 72
     5
  1
\Ftxt.shx,bigfont.shx|c128;ロックナット　  
  7
JL
 73
     1
 44
1.0
  0
LINE
  5
7DAC
330
18
100
AcDbEntity
  8
frame
 62
     9
100
AcDbLine
 10
14.39393939393937
 20
279.9999999999999
 30
0.0
 11
14.39393939393964
 21
254.0
 31
0.0
  0
LINE
  5
7DAD
330
18
100
AcDbEntity
  8
frame
 62
     9
100
AcDbLine
 10
14.39393939393937
 20
279.9999999999999
 30
0.0
 11
14.39393939393937
 21
255.0505050505051
 31
0.0
  0
MTEXT
  5
7DAE
330
18
100
AcDbEntity
  8
0
100
AcDbMText
 10
6.815009268013795
 20
268.7281674434121
 30
0.0
 40
5.0
 41
0.0
 71
     1
 72
     5
  1
\Ftxt.shx,bigfont.shx|c128;1
  7
JL
 73
     1
 44
1.0
  0
MTEXT
  5
7DAF
330
18
100
AcDbEntity
  8
0
100
AcDbMText
 10
2.119828072980226
 20
277.4734782639491
 30
0.0
 40
5.0
 41
0.0
 71
     1
 72
     5
  1
\Ftxt.shx,bigfont.shx|c128;照   号
  7
JL
 73
     1
 44
1.0
  0
LINE
  5
7DB0
330
18
100
AcDbEntity
  8
frame
 62
     9
100
AcDbLine
 10
52.77777777777783
 20
279.9999999999999
 30
0.0
 11
52.77777777777784
 21
254.0
 31
0.0
  0
MTEXT
  5
7DB1
330
18
100
AcDbEntity
  8
0
100
AcDbMText
 10
145.5736374372851
 20
277.6781663894194
 30
0.0
 40
5.0
 41
0.0
 71
     1
 72
     5
  1
\Ftxt.shx,bigfont.shx|c128;備           考
  7
JL
 73
     1
 44
1.0
  0
LINE
  5
7DB2
330
18
100
AcDbEntity
  8
frame
 62
     9
100
AcDbLine
 10
91.16161616161617
 20
280.0
 30
0.0
 11
91.16161616161617
 21
254.0
 31
0.0
  0
MTEXT
  5
7DB4
330
18
100
AcDbEntity
  8
0
100
AcDbMText
 10
92.87341089179369
 20
268.8361230282964
 30
0.0
 40
5.0
 41
0.0
 71
     1
 72
     5
  1
\Ftxt.shx,bigfont.shx|c128;SCM-440
  7
JL
 73
     1
 44
1.0
  0
MTEXT
  5
7DB5
330
18
100
AcDbEntity
  8
0
100
AcDbMText
 10
92.87341089179369
 20
260.765002012584
 30
0.0
 40
5.0
 41
0.0
 71
     1
 72
     5
  1
\Ftxt.shx,bigfont.shx|c128;SCM435
  7
JL
 73
     1
 44
1.0
  0
MTEXT
  5
7DB6
330
18
100
AcDbEntity
  8
0
100
AcDbMText
 10
95.76798863104192
 20
277.5645499482919
 30
0.0
 40
5.0
 41
0.0
 71
     1
 72
     5
  1
\Ftxt.shx,bigfont.shx|c128;材　質
  7
JL
 73
     1
 44
1.0
  0
LINE
  5
7DB7
330
18
100
AcDbEntity
  8
frame
 62
     9
100
AcDbLine
 10
110.3535353535354
 20
280.0
 30
0.0
 11
110.3535353535354
 21
254.0
 31
0.0
  0
LINE
  5
7DB8
330
18
100
AcDbEntity
  8
frame
100
AcDbLine
 10
124.7474747474747
 20
280.0
 30
0.0
 11
124.7474747474748
 21
254.0
 31
0.0
  0
MTEXT
  5
7DBA
330
18
100
AcDbEntity
  8
0
100
AcDbMText
 10
117.1685446215491
 20
269.0412711679932
 30
0.0
 40
5.0
 41
0.0
 71
     1
 72
     5
  1
\Ftxt.shx,bigfont.shx|c128;1
  7
JL
 73
     1
 44
1.0
  0
MTEXT
  5
7DBB
330
18
100
AcDbEntity
  8
0
100
AcDbMText
 10
116.5939070266884
 20
260.5092290150679
 30
0.0
 40
5.0
 41
0.0
 71
     1
 72
     5
  1
{\Ftxt,bigfont|c128;6}
  7
JL
 73
     1
 44
1.0
1001
ACAD
1000
ACAD_MTEXT_DEFINED_HEIGHT_BEGIN
1070
    46
1040
0.0
1000
ACAD_MTEXT_DEFINED_HEIGHT_END
  0
MTEXT
  5
7DBC
330
18
100
AcDbEntity
  8
0
100
AcDbMText
 10
112.4223895919262
 20
277.5645499482919
 30
0.0
 40
5.0
 41
0.0
 71
     1
 72
     5
  1
\Ftxt.shx,bigfont.shx|c128;数   量
  7
JL
 73
     1
 44
1.0
  0
MTEXT
  5
7DBD
330
18
100
AcDbEntity
  8
0
100
AcDbMText
 10
6.404019699055993
 20
260.7281674434121
 30
0.0
 40
5.0
 41
0.0
 71
     1
 72
     5
  1
{\Ftxt,bigfont|c128;2}
  7
JL
 73
     1
 44
1.0
1001
ACAD
1000
ACAD_MTEXT_DEFINED_HEIGHT_BEGIN
1070
    46
1040
0.0
1000
ACAD_MTEXT_DEFINED_HEIGHT_END
  0
LINE
  5
A471
330
18
100
AcDbEntity
  8
center
 48
0.4
100
AcDbLine
 10
95.00000000000046
 20
247.5197722159308
 30
0.0
 11
95.0
 21
155.5197722159307
 31
0.0
  0
LINE
  5
A472
330
18
100
AcDbEntity
  8
center
 48
0.4
100
AcDbLine
 10
49.00000000000034
 20
201.5197722159308
 30
0.0
 11
141.0000000000002
 21
201.5197722159306
 31
0.0
  0
LINE
  5
A4D0
102
{ACAD_REACTORS
330
ACC1
102
}
330
18
100
AcDbEntity
  8
contour
100
AcDbLine
 10
51.00000000000012
 20
118.4189450693528
 30
0.0
 11
51.00000000000005
 21
100.9189450693528
 31
0.0
  0
LINE
  5
A4D1
102
{ACAD_REACTORS
330
ACC1
102
}
330
18
100
AcDbEntity
  8
contour
100
AcDbLine
 10
52.00000000000006
 20
91.41894506935273
 30
0.0
 11
138.0000000000001
 21
91.41894506935276
 31
0.0
  0
LINE
  5
A4D2
102
{ACAD_REACTORS
330
ACC1
102
}
330
18
100
AcDbEntity
  8
contour
100
AcDbLine
 10
139.0000000000001
 20
92.41894506935276
 30
0.0
 11
139.0
 21
96.91894506935277
 31
0.0
  0
LINE
  5
A4D3
102
{ACAD_REACTORS
330
ACC1
102
}
330
18
100
AcDbEntity
  8
contour
100
AcDbLine
 10
138.0
 20
119.4189450693527
 30
0.0
 11
52.00000000000011
 21
119.4189450693527
 31
0.0
  0
LINE
  5
A4D4
102
{ACAD_REACTORS
330
ACC1
102
}
330
18
100
AcDbEntity
  8
contour
100
AcDbLine
 10
52.00000000000006
 20
97.91894506935278
 30
0.0
 11
59.75000000000005
 21
97.91894506935278
 31
0.0
  0
LINE
  5
A4D5
102
{ACAD_REACTORS
330
ACC1
102
}
330
18
100
AcDbEntity
  8
contour
100
AcDbLine
 10
52.00000000000006
 20
99.91894506935279
 30
0.0
 11
59.75000000000005
 21
99.91894506935279
 31
0.0
  0
LINE
  5
A4D6
330
18
100
AcDbEntity
  8
center
 48
0.4
100
AcDbLine
 10
95.00000000000005
 20
121.4189450693528
 30
0.0
 11
95.00000000000005
 21
89.41894506935275
 31
0.0
  0
LINE
  5
A4D8
102
{ACAD_REACTORS
330
ACC1
102
}
330
18
100
AcDbEntity
  8
contour
100
AcDbLine
 10
59.75000000000005
 20
97.91894506935282
 30
0.0
 11
59.75000000000005
 21
99.91894506935281
 31
0.0
  0
LINE
  5
A4DA
102
{ACAD_REACTORS
330
ACC1
102
}
330
18
100
AcDbEntity
  8
contour
100
AcDbLine
 10
51.00000000000005
 20
96.91894506935279
 30
0.0
 11
51.00000000000005
 21
92.41894506935279
 31
0.0
  0
LINE
  5
A4DB
102
{ACAD_REACTORS
330
ACC1
102
}
330
18
100
AcDbEntity
  8
contour
100
AcDbLine
 10
139.0
 20
100.9189450693528
 30
0.0
 11
139.0
 21
118.4189450693527
 31
0.0
  0
LINE
  5
A4DE
102
{ACAD_REACTORS
330
ACC1
102
}
330
18
100
AcDbEntity
  8
contour
100
AcDbLine
 10
53.25000000000006
 20
100.9189450693528
 30
0.0
 11
131.0
 21
100.9189450693529
 31
0.0
  0
LINE
  5
A4DF
102
{ACAD_REACTORS
330
ACC1
102
}
330
18
100
AcDbEntity
  8
contour
100
AcDbLine
 10
53.25000000000006
 20
103.4189450693528
 30
0.0
 11
131.0
 21
103.4189450693528
 31
0.0
  0
LINE
  5
A4E2
102
{ACAD_REACTORS
330
ACC1
102
}
330
18
100
AcDbEntity
  8
contour
100
AcDbLine
 10
53.25000000000006
 20
103.4189450693528
 30
0.0
 11
53.25000000000006
 21
100.9189450693528
 31
0.0
  0
LINE
  5
A4E4
102
{ACAD_REACTORS
330
ACC1
102
}
330
18
100
AcDbEntity
  8
contour
100
AcDbLine
 10
136.75
 20
103.4189450693528
 30
0.0
 11
136.75
 21
100.9189450693527
 31
0.0
  0
LINE
  5
A4E8
102
{ACAD_REACTORS
330
ACC1
102
}
330
18
100
AcDbEntity
  8
contour
100
AcDbLine
 10
51.49999999999995
 20
105.9189450693527
 30
0.0
 11
51.00000000000005
 21
105.4189450693528
 31
0.0
  0
LINE
  5
A4E9
102
{ACAD_REACTORS
330
ACC1
102
}
330
18
100
AcDbEntity
  8
contour
100
AcDbLine
 10
51.49999999999995
 20
105.9189450693527
 30
0.0
 11
56.2679491924311
 21
105.9189450693527
 31
0.0
  0
LINE
  5
A4EA
102
{ACAD_REACTORS
330
ACC1
102
}
330
18
100
AcDbEntity
  8
contour
100
AcDbLine
 10
58.00000000000006
 20
108.9189450693528
 30
0.0
 11
56.2679491924311
 21
111.9189450693527
 31
0.0
  0
LINE
  5
A4EB
102
{ACAD_REACTORS
330
ACC1
102
}
330
18
100
AcDbEntity
  8
contour
100
AcDbLine
 10
56.2679491924311
 20
111.9189450693527
 30
0.0
 11
51.49999999999995
 21
111.9189450693528
 31
0.0
  0
LINE
  5
A4EC
102
{ACAD_REACTORS
330
ACC1
102
}
330
18
100
AcDbEntity
  8
contour
100
AcDbLine
 10
58.00000000000006
 20
108.9189450693528
 30
0.0
 11
56.2679491924311
 21
105.9189450693527
 31
0.0
  0
LINE
  5
A4ED
330
18
100
AcDbEntity
  8
contour
100
AcDbLine
 10
56.2679491924311
 20
105.9189450693527
 30
0.0
 11
56.2679491924311
 21
111.9189450693527
 31
0.0
  0
LINE
  5
A4EE
102
{ACAD_REACTORS
330
ACC1
102
}
330
18
100
AcDbEntity
  8
contour
100
AcDbLine
 10
51.49999999999995
 20
111.9189450693527
 30
0.0
 11
51.00000000000005
 21
112.4189450693527
 31
0.0
  0
LINE
  5
A4EF
330
18
100
AcDbEntity
  8
contour
100
AcDbLine
 10
51.49999999999995
 20
111.9189450693527
 30
0.0
 11
51.49999999999995
 21
105.9189450693528
 31
0.0
  0
LINE
  5
A4FD
330
18
100
AcDbEntity
  8
center
 48
0.2
100
AcDbLine
 10
60.00000000000006
 20
108.9189450693528
 30
0.0
 11
49.00000000000005
 21
108.9189450693528
 31
0.0
  0
LINE
  5
A543
102
{ACAD_REACTORS
330
ACC1
102
}
330
18
100
AcDbEntity
  8
contour
100
AcDbLine
 10
136.0
 20
99.91894506935279
 30
0.0
 11
138.0
 21
99.91894506935279
 31
0.0
  0
LINE
  5
A544
102
{ACAD_REACTORS
330
ACC1
102
}
330
18
100
AcDbEntity
  8
contour
100
AcDbLine
 10
136.0
 20
97.91894506935278
 30
0.0
 11
138.0
 21
97.91894506935276
 31
0.0
  0
ARC
  5
A548
102
{ACAD_REACTORS
330
ACC1
102
}
330
18
100
AcDbEntity
  8
contour
100
AcDbCircle
 10
52.00000000000006
 20
92.41894506935279
 30
0.0
 40
1.0
100
AcDbArc
 50
180.0
 51
270.0
  0
ARC
  5
A549
102
{ACAD_REACTORS
330
ACC1
102
}
330
18
100
AcDbEntity
  8
contour
100
AcDbCircle
 10
52.00000000000006
 20
96.91894506935279
 30
0.0
 40
1.0
100
AcDbArc
 50
90.0
 51
180.0
  0
ARC
  5
A54A
102
{ACAD_REACTORS
330
ACC1
102
}
330
18
100
AcDbEntity
  8
contour
100
AcDbCircle
 10
52.00000000000006
 20
100.9189450693528
 30
0.0
 40
1.0
100
AcDbArc
 50
180.0
 51
270.0
  0
ARC
  5
A54B
102
{ACAD_REACTORS
330
ACC1
102
}
330
18
100
AcDbEntity
  8
contour
100
AcDbCircle
 10
52.00000000000011
 20
118.4189450693528
 30
0.0
 40
1.0
100
AcDbArc
 50
90.0
 51
180.0
  0
ARC
  5
A54C
102
{ACAD_REACTORS
330
ACC1
102
}
330
18
100
AcDbEntity
  8
contour
100
AcDbCircle
 10
138.0
 20
118.4189450693527
 30
0.0
 40
1.0
100
AcDbArc
 50
0.0
 51
90.0
  0
ARC
  5
A54D
102
{ACAD_REACTORS
330
ACC1
102
}
330
18
100
AcDbEntity
  8
contour
100
AcDbCircle
 10
138.0
 20
100.9189450693528
 30
0.0
 40
1.0
100
AcDbArc
 50
270.0
 51
0.0
  0
ARC
  5
A54E
102
{ACAD_REACTORS
330
ACC1
102
}
330
18
100
AcDbEntity
  8
contour
100
AcDbCircle
 10
138.0
 20
96.91894506935277
 30
0.0
 40
1.0
100
AcDbArc
 50
0.0
 51
90.0
  0
ARC
  5
A54F
102
{ACAD_REACTORS
330
ACC1
102
}
330
18
100
AcDbEntity
  8
contour
100
AcDbCircle
 10
138.0000000000001
 20
92.41894506935276
 30
0.0
 40
1.0
100
AcDbArc
 50
270.0
 51
0.0
  0
LINE
  5
A550
102
{ACAD_REACTORS
330
ACC1
102
}
330
18
100
AcDbEntity
  8
contour
 62
     4
100
AcDbLine
 10
62.50000000000006
 20
118.7309450693527
 30
0.0
 11
62.5
 21
104.1069450693528
 31
0.0
  0
LINE
  5
A551
102
{ACAD_REACTORS
330
ACC1
102
}
330
18
100
AcDbEntity
  8
contour
100
AcDbLine
 10
63.31200000000001
 20
117.9189450693527
 30
0.0
 11
63.31200000000001
 21
104.9189450693527
 31
0.0
  0
LINE
  5
A552
102
{ACAD_REACTORS
330
ACC1
102
}
330
18
100
AcDbEntity
  8
contour
100
AcDbLine
 10
61.81200000000001
 20
91.41894506935276
 30
0.0
 11
63.31200000000001
 21
92.91894506935276
 31
0.0
  0
LINE
  5
A553
102
{ACAD_REACTORS
330
ACC1
102
}
330
18
100
AcDbEntity
  8
contour
100
AcDbLine
 10
61.81200000000001
 20
100.9189450693527
 30
0.0
 11
63.31200000000001
 21
99.41894506935277
 31
0.0
  0
LINE
  5
A554
102
{ACAD_REACTORS
330
ACC1
102
}
330
18
100
AcDbEntity
  8
contour
100
AcDbLine
 10
61.81200000000001
 20
103.4189450693527
 30
0.0
 11
63.31200000000001
 21
104.9189450693527
 31
0.0
  0
LINE
  5
A555
102
{ACAD_REACTORS
330
ACC1
102
}
330
18
100
AcDbEntity
  8
contour
100
AcDbLine
 10
61.81200000000001
 20
119.4189450693527
 30
0.0
 11
63.31200000000001
 21
117.9189450693527
 31
0.0
  0
LINE
  5
A559
102
{ACAD_REACTORS
330
ACC1
102
}
330
18
100
AcDbEntity
  8
contour
100
AcDbLine
 10
63.31200000000001
 20
99.41894506935273
 30
0.0
 11
63.31200000000001
 21
92.91894506935276
 31
0.0
  0
LINE
  5
A55A
102
{ACAD_REACTORS
330
ACC1
102
}
330
18
100
AcDbEntity
  8
contour
 62
     4
100
AcDbLine
 10
62.5
 20
100.2309450693527
 30
0.0
 11
62.50000000000006
 21
92.10694506935281
 31
0.0
  0
LINE
  5
A55B
102
{ACAD_REACTORS
330
ACC1
102
}
330
18
100
AcDbEntity
  8
contour
 62
     4
100
AcDbLine
 10
127.5
 20
118.7309450693527
 30
0.0
 11
127.5000000000001
 21
104.1069450693526
 31
0.0
  0
LINE
  5
A55C
102
{ACAD_REACTORS
330
ACC1
102
}
330
18
100
AcDbEntity
  8
contour
 62
     4
100
AcDbLine
 10
127.5000000000001
 20
100.2309450693529
 30
0.0
 11
127.5
 21
92.10694506935286
 31
0.0
  0
LINE
  5
A55D
102
{ACAD_REACTORS
330
ACC1
102
}
330
18
100
AcDbEntity
  8
contour
100
AcDbLine
 10
126.6880000000001
 20
117.9189450693528
 30
0.0
 11
126.6880000000001
 21
104.9189450693527
 31
0.0
  0
LINE
  5
A55E
102
{ACAD_REACTORS
330
ACC1
102
}
330
18
100
AcDbEntity
  8
contour
100
AcDbLine
 10
126.6880000000001
 20
99.41894506935293
 30
0.0
 11
126.688
 21
92.91894506935278
 31
0.0
  0
LINE
  5
A55F
102
{ACAD_REACTORS
330
ACC1
102
}
330
18
100
AcDbEntity
  8
contour
100
AcDbLine
 10
128.1880000000001
 20
91.41894506935276
 30
0.0
 11
126.6880000000001
 21
92.91894506935276
 31
0.0
  0
LINE
  5
A560
102
{ACAD_REACTORS
330
ACC1
102
}
330
18
100
AcDbEntity
  8
contour
100
AcDbLine
 10
128.1880000000001
 20
100.9189450693529
 30
0.0
 11
126.6880000000001
 21
99.41894506935287
 31
0.0
  0
LINE
  5
A561
102
{ACAD_REACTORS
330
ACC1
102
}
330
18
100
AcDbEntity
  8
contour
100
AcDbLine
 10
128.188
 20
103.4189450693527
 30
0.0
 11
126.688
 21
104.9189450693527
 31
0.0
  0
LINE
  5
A562
102
{ACAD_REACTORS
330
ACC1
102
}
330
18
100
AcDbEntity
  8
contour
100
AcDbLine
 10
128.1880000000001
 20
119.4189450693527
 30
0.0
 11
126.6880000000001
 21
117.9189450693527
 31
0.0
  0
LINE
  5
A563
330
18
100
AcDbEntity
  8
contour
100
AcDbLine
 10
63.31200000000001
 20
117.9189450693527
 30
0.0
 11
126.688
 21
117.9189450693527
 31
0.0
  0
LINE
  5
A564
330
18
100
AcDbEntity
  8
contour
100
AcDbLine
 10
126.688
 20
104.9189450693526
 30
0.0
 11
63.31200000000007
 21
104.9189450693528
 31
0.0
  0
LINE
  5
A566
330
18
100
AcDbEntity
  8
contour
100
AcDbLine
 10
126.688
 20
92.91894506935269
 30
0.0
 11
63.31200000000001
 21
92.91894506935282
 31
0.0
  0
LINE
  5
A567
330
18
100
AcDbEntity
  8
0
 62
     7
100
AcDbLine
 10
47.92942413992534
 20
27.65712907016098
 30
0.0
 11
53.04580144287854
 21
28.93622339589928
 31
0.0
  0
LINE
  5
A5FC
330
18
100
AcDbEntity
  8
contour
100
AcDbLine
 10
126.6880000000001
 20
99.41894506935287
 30
0.0
 11
63.31200000000001
 21
99.41894506935279
 31
0.0
  0
LINE
  5
A606
102
{ACAD_REACTORS
330
ACC1
102
}
330
18
100
AcDbEntity
  8
contour
100
AcDbLine
 10
130.2500000000001
 20
97.91894506935278
 30
0.0
 11
130.2500000000001
 21
99.91894506935279
 31
0.0
  0
LINE
  5
A647
102
{ACAD_REACTORS
330
ACC1
102
}
330
18
100
AcDbEntity
  8
contour
100
AcDbLine
 10
130.2500000000001
 20
99.91894506935279
 30
0.0
 11
131.0
 21
99.91894506935279
 31
0.0
  0
LINE
  5
A648
102
{ACAD_REACTORS
330
ACC1
102
}
330
18
100
AcDbEntity
  8
contour
100
AcDbLine
 10
130.2500000000001
 20
97.91894506935278
 30
0.0
 11
131.0
 21
97.91894506935278
 31
0.0
  0
LINE
  5
A649
102
{ACAD_REACTORS
330
ACC1
102
}
330
18
100
AcDbEntity
  8
contour
100
AcDbLine
 10
136.75
 20
103.4189450693528
 30
0.0
 11
136.0
 21
103.4189450693528
 31
0.0
  0
LINE
  5
A64A
102
{ACAD_REACTORS
330
ACC1
102
}
330
18
100
AcDbEntity
  8
contour
100
AcDbLine
 10
136.75
 20
100.9189450693527
 30
0.0
 11
136.0
 21
100.9189450693527
 31
0.0
  0
LINE
  5
A6E1
330
18
100
AcDbEntity
  8
center
 48
0.4
100
AcDbLine
 10
133.5000000000001
 20
121.4189450693527
 30
0.0
 11
133.5
 21
89.41894506935275
 31
0.0
  0
INSERT
  5
A71B
102
{ACAD_REACTORS
330
ACC1
102
}
330
18
100
AcDbEntity
  8
contour
100
AcDbBlockReference
  2
LS5
 10
-202.5010875304779
 20
-37.49513512422936
 30
0.0
  0
LINE
  5
A71C
102
{ACAD_REACTORS
330
ACC1
102
}
330
18
100
AcDbEntity
  8
contour
100
AcDbLine
 10
129.25
 20
91.71894506935274
 30
0.0
 11
129.25
 21
91.41894506935276
 31
0.0
  0
LINE
  5
A71D
102
{ACAD_REACTORS
330
ACC1
102
}
330
18
100
AcDbEntity
  8
contour
100
AcDbLine
 10
137.75
 20
91.71894506935274
 30
0.0
 11
137.7500000000001
 21
91.41894506935276
 31
0.0
  0
LINE
  5
A71E
102
{ACAD_REACTORS
330
ACC1
102
}
330
18
100
AcDbEntity
  8
contour
 62
     4
100
AcDbLine
 10
131.0
 20
115.5189450693527
 30
0.0
 11
131.0
 21
119.4189450693527
 31
0.0
  0
LINE
  5
A71F
102
{ACAD_REACTORS
330
ACC1
102
}
330
18
100
AcDbEntity
  8
contour
100
AcDbLine
 10
131.4330000000001
 20
115.9519450693528
 30
0.0
 11
131.433
 21
119.4189450693527
 31
0.0
  0
LINE
  5
A720
102
{ACAD_REACTORS
330
ACC1
102
}
330
18
100
AcDbEntity
  8
contour
 62
     4
100
AcDbLine
 10
135.9999999999999
 20
115.5189450693528
 30
0.0
 11
135.9999999999999
 21
119.4189450693527
 31
0.0
  0
LINE
  5
A721
102
{ACAD_REACTORS
330
ACC1
102
}
330
18
100
AcDbEntity
  8
contour
100
AcDbLine
 10
135.5670000000001
 20
115.9519450693527
 30
0.0
 11
135.5670000000001
 21
119.4189450693527
 31
0.0
  0
LINE
  5
A724
102
{ACAD_REACTORS
330
ACC1
102
}
330
18
100
AcDbEntity
  8
contour
100
AcDbLine
 10
58.40000000000003
 20
91.91894506935268
 30
0.0
 11
58.90000000000004
 21
91.41894506935267
 31
0.0
  0
LINE
  5
A725
102
{ACAD_REACTORS
330
ACC1
102
}
330
18
100
AcDbEntity
  8
contour
100
AcDbLine
 10
58.39999999999992
 20
94.88896685600028
 30
0.0
 11
55.75000000000006
 21
96.41894506935273
 31
0.0
  0
LINE
  5
A726
102
{ACAD_REACTORS
330
ACC1
102
}
330
18
100
AcDbEntity
  8
center
 48
0.2
100
AcDbLine
 10
55.75000000000006
 20
89.41894506935273
 30
0.0
 11
55.75000000000006
 21
98.41894506935274
 31
0.0
  0
LINE
  5
A727
102
{ACAD_REACTORS
330
ACC1
102
}
330
18
100
AcDbEntity
  8
contour
100
AcDbLine
 10
53.10000000000008
 20
94.88896685600016
 30
0.0
 11
53.10000000000008
 21
91.91894506935279
 31
0.0
  0
LINE
  5
A728
102
{ACAD_REACTORS
330
ACC1
102
}
330
18
100
AcDbEntity
  8
contour
100
AcDbLine
 10
52.60000000000008
 20
91.41894506935278
 30
0.0
 11
53.10000000000008
 21
91.91894506935279
 31
0.0
  0
LINE
  5
A729
102
{ACAD_REACTORS
330
ACC1
102
}
330
18
100
AcDbEntity
  8
contour
100
AcDbLine
 10
58.39999999999992
 20
94.88896685600028
 30
0.0
 11
58.40000000000003
 21
91.91894506935279
 31
0.0
  0
LINE
  5
A72A
102
{ACAD_REACTORS
330
ACC1
102
}
330
18
100
AcDbEntity
  8
contour
100
AcDbLine
 10
53.10000000000008
 20
94.88896685600016
 30
0.0
 11
55.75000000000006
 21
96.41894506935273
 31
0.0
  0
LINE
  5
A72B
330
18
100
AcDbEntity
  8
contour
100
AcDbLine
 10
53.10000000000008
 20
94.88896685600016
 30
0.0
 11
58.39999999999992
 21
94.88896685600019
 31
0.0
  0
LINE
  5
A72C
330
18
100
AcDbEntity
  8
contour
100
AcDbLine
 10
53.10000000000008
 20
91.91894506935279
 30
0.0
 11
58.40000000000003
 21
91.91894506935287
 31
0.0
  0
CIRCLE
  5
A732
330
18
100
AcDbEntity
  8
contour
100
AcDbCircle
 10
95.00000000000028
 20
201.5197722159308
 30
0.0
 40
43.99999999999991
  0
CIRCLE
  5
A734
330
18
100
AcDbEntity
  8
center
 48
0.4
100
AcDbCircle
 10
95.00000000000028
 20
201.5197722159308
 30
0.0
 40
38.49999999999983
  0
CIRCLE
  5
A738
330
18
100
AcDbEntity
  8
contour
100
AcDbCircle
 10
133.5000000000001
 20
201.5197722159308
 30
0.0
 40
2.067000000000064
  0
ARC
  5
A739
330
18
100
AcDbEntity
  8
contour
 62
     4
100
AcDbCircle
 10
133.5000000000001
 20
201.5197722159308
 30
0.0
 40
2.500000000000113
100
AcDbArc
 50
168.4630409671869
 51
101.5369590328148
  0
CIRCLE
  5
A73A
330
18
100
AcDbEntity
  8
bowle
 48
0.2
100
AcDbCircle
 10
133.5000000000001
 20
201.5197722159308
 30
0.0
 40
4.250000000000113
  0
CIRCLE
  5
A743
330
18
100
AcDbEntity
  8
bowle
 48
0.2
100
AcDbCircle
 10
61.00850290146087
 20
221.1447722159308
 30
0.0
 40
1.899999999999465
  0
CIRCLE
  5
A744
330
18
100
AcDbEntity
  8
bowle
 48
0.2
100
AcDbCircle
 10
61.00850290146087
 20
221.1447722159308
 30
0.0
 40
2.399999999999636
  0
LINE
  5
A745
330
18
100
AcDbEntity
  8
bowle
 48
0.2
100
AcDbLine
 10
55.82789493537717
 20
220.6716960045775
 30
0.0
 11
55.32150840705594
 21
220.5360101432558
 31
0.0
  0
LINE
  5
A746
330
18
100
AcDbEntity
  8
bowle
 48
0.2
100
AcDbLine
 10
55.82789493537717
 20
220.6716960045775
 30
0.0
 11
59.95706005997601
 21
218.2877214083619
 31
0.0
  0
LINE
  5
A747
330
18
100
AcDbEntity
  8
bowle
 48
0.2
100
AcDbLine
 10
62.95706005997613
 20
220.0197722159308
 30
0.0
 11
62.95706005997601
 21
223.4838738310685
 31
0.0
  0
LINE
  5
A748
330
18
100
AcDbEntity
  8
bowle
 48
0.2
100
AcDbLine
 10
62.95706005997601
 20
223.4838738310685
 30
0.0
 11
58.82789493537718
 21
225.8678484272841
 31
0.0
  0
LINE
  5
A749
330
18
100
AcDbEntity
  8
bowle
 48
0.2
100
AcDbLine
 10
62.95706005997613
 20
220.0197722159308
 30
0.0
 11
59.95706005997601
 21
218.2877214083619
 31
0.0
  0
LINE
  5
A74A
330
18
100
AcDbEntity
  8
bowle
 48
0.2
100
AcDbLine
 10
59.95706005997601
 20
218.2877214083619
 30
0.0
 11
62.95706005997601
 21
223.4838738310685
 31
0.0
  0
LINE
  5
A74B
330
18
100
AcDbEntity
  8
bowle
 48
0.2
100
AcDbLine
 10
58.82789493537718
 20
225.8678484272841
 30
0.0
 11
58.69220907405554
 21
226.3742349556054
 31
0.0
  0
LINE
  5
A74C
330
18
100
AcDbEntity
  8
bowle
 48
0.2
100
AcDbLine
 10
58.82789493537718
 20
225.8678484272841
 30
0.0
 11
55.82789493537717
 21
220.6716960045775
 31
0.0
  0
LINE
  5
A74D
330
18
100
AcDbEntity
  8
center
 48
0.2
100
AcDbLine
 10
69.28943781244782
 20
216.3637722159307
 30
0.0
 11
55.16283142591612
 21
224.5197722159308
 31
0.0
  0
CIRCLE
  5
A74F
330
18
100
AcDbEntity
  8
bowle
 48
0.2
100
AcDbCircle
 10
61.00850290146087
 20
221.1447722159308
 30
0.0
 40
4.399999999999636
  0
ARC
  5
A751
330
18
100
AcDbEntity
  8
center
 48
0.2
100
AcDbCircle
 10
95.00000000000028
 20
201.5197722159308
 30
0.0
 40
39.25000000000023
100
AcDbArc
 50
140.6471225785586
 51
169.9339151074703
  0
CIRCLE
  5
A756
330
18
100
AcDbEntity
  8
contour
100
AcDbCircle
 10
95.00000000000028
 20
201.5197722159308
 30
0.0
 40
31.68800000000004
  0
ARC
  5
A757
330
18
100
AcDbEntity
  8
contour
 62
     4
100
AcDbCircle
 10
95.00000000000023
 20
201.5197722159308
 30
0.0
 40
32.5
100
AcDbArc
 50
171.1501169015704
 51
98.8498830984294
  0
CIRCLE
  5
A758
330
18
100
AcDbEntity
  8
contour
100
AcDbCircle
 10
95.00000000000023
 20
201.5197722159308
 30
0.0
 40
33.18799999999999
  0
CIRCLE
  5
A75C
330
18
100
AcDbEntity
  8
contour
100
AcDbCircle
 10
114.2500000000001
 20
234.8617502616315
 30
0.0
 40
2.067000000000064
  0
ARC
  5
A75D
330
18
100
AcDbEntity
  8
contour
 62
     4
100
AcDbCircle
 10
114.2500000000001
 20
234.8617502616315
 30
0.0
 40
2.500000000000113
100
AcDbArc
 50
228.4630409671861
 51
161.5369590328142
  0
CIRCLE
  5
A75E
330
18
100
AcDbEntity
  8
bowle
 48
0.2
100
AcDbCircle
 10
114.2500000000001
 20
234.8617502616315
 30
0.0
 40
4.250000000000113
  0
CIRCLE
  5
A75F
330
18
100
AcDbEntity
  8
contour
100
AcDbCircle
 10
75.75000000000028
 20
234.8617502616315
 30
0.0
 40
2.067000000000063
  0
ARC
  5
A760
330
18
100
AcDbEntity
  8
contour
 62
     4
100
AcDbCircle
 10
75.75000000000028
 20
234.8617502616315
 30
0.0
 40
2.500000000000113
100
AcDbArc
 50
288.4630409671885
 51
221.5369590328163
  0
CIRCLE
  5
A761
330
18
100
AcDbEntity
  8
bowle
 48
0.2
100
AcDbCircle
 10
75.75000000000028
 20
234.8617502616315
 30
0.0
 40
4.250000000000112
  0
CIRCLE
  5
A762
330
18
100
AcDbEntity
  8
contour
100
AcDbCircle
 10
56.5000000000004
 20
201.5197722159308
 30
0.0
 40
2.067000000000064
  0
ARC
  5
A763
330
18
100
AcDbEntity
  8
contour
 62
     4
100
AcDbCircle
 10
56.5000000000004
 20
201.5197722159308
 30
0.0
 40
2.500000000000113
100
AcDbArc
 50
348.4630409671886
 51
281.5369590328114
  0
CIRCLE
  5
A764
330
18
100
AcDbEntity
  8
bowle
 48
0.2
100
AcDbCircle
 10
56.5000000000004
 20
201.5197722159308
 30
0.0
 40
4.250000000000113
  0
CIRCLE
  5
A765
330
18
100
AcDbEntity
  8
contour
100
AcDbCircle
 10
75.75000000000028
 20
168.1777941702299
 30
0.0
 40
2.067000000000064
  0
ARC
  5
A766
330
18
100
AcDbEntity
  8
contour
 62
     4
100
AcDbCircle
 10
75.75000000000028
 20
168.1777941702299
 30
0.0
 40
2.500000000000113
100
AcDbArc
 50
48.46304096718835
 51
341.5369590328114
  0
CIRCLE
  5
A767
330
18
100
AcDbEntity
  8
bowle
 48
0.2
100
AcDbCircle
 10
75.75000000000028
 20
168.1777941702299
 30
0.0
 40
4.250000000000113
  0
CIRCLE
  5
A768
330
18
100
AcDbEntity
  8
contour
100
AcDbCircle
 10
114.2500000000001
 20
168.17779417023
 30
0.0
 40
2.067000000000064
  0
ARC
  5
A769
330
18
100
AcDbEntity
  8
contour
 62
     4
100
AcDbCircle
 10
114.2500000000001
 20
168.17779417023
 30
0.0
 40
2.500000000000113
100
AcDbArc
 50
108.4630409671868
 51
41.53695903281399
  0
CIRCLE
  5
A76A
330
18
100
AcDbEntity
  8
bowle
 48
0.2
100
AcDbCircle
 10
114.2500000000001
 20
168.17779417023
 30
0.0
 40
4.250000000000113
  0
CIRCLE
  5
A76D
330
18
100
AcDbEntity
  8
bowle
 48
0.2
100
AcDbCircle
 10
61.00850290146087
 20
181.8947722159306
 30
0.0
 40
1.899999999999465
  0
CIRCLE
  5
A76E
330
18
100
AcDbEntity
  8
bowle
 48
0.2
100
AcDbCircle
 10
61.00850290146087
 20
181.8947722159306
 30
0.0
 40
2.399999999999636
  0
CIRCLE
  5
A76F
330
18
100
AcDbEntity
  8
bowle
 48
0.2
100
AcDbCircle
 10
61.00850290146087
 20
181.8947722159306
 30
0.0
 40
4.399999999999636
  0
LINE
  5
A770
330
18
100
AcDbEntity
  8
bowle
 48
0.2
100
AcDbLine
 10
58.82789493537706
 20
177.1716960045775
 30
0.0
 11
58.69220907405543
 21
176.6653094762562
 31
0.0
  0
LINE
  5
A771
330
18
100
AcDbEntity
  8
bowle
 48
0.2
100
AcDbLine
 10
58.82789493537706
 20
177.1716960045775
 30
0.0
 11
62.95706005997596
 21
179.555670600793
 31
0.0
  0
LINE
  5
A772
330
18
100
AcDbEntity
  8
bowle
 48
0.2
100
AcDbLine
 10
62.95706005997607
 20
183.0197722159308
 30
0.0
 11
59.95706005997596
 21
184.7518230234996
 31
0.0
  0
LINE
  5
A773
330
18
100
AcDbEntity
  8
bowle
 48
0.2
100
AcDbLine
 10
59.95706005997596
 20
184.7518230234996
 30
0.0
 11
55.82789493537706
 21
182.3678484272841
 31
0.0
  0
LINE
  5
A774
330
18
100
AcDbEntity
  8
bowle
 48
0.2
100
AcDbLine
 10
62.95706005997607
 20
183.0197722159308
 30
0.0
 11
62.95706005997596
 21
179.555670600793
 31
0.0
  0
LINE
  5
A775
330
18
100
AcDbEntity
  8
bowle
 48
0.2
100
AcDbLine
 10
62.95706005997596
 20
179.555670600793
 30
0.0
 11
59.95706005997596
 21
184.7518230234996
 31
0.0
  0
LINE
  5
A776
330
18
100
AcDbEntity
  8
bowle
 48
0.2
100
AcDbLine
 10
55.82789493537706
 20
182.3678484272841
 30
0.0
 11
55.32150840705589
 21
182.5035342886058
 31
0.0
  0
LINE
  5
A777
330
18
100
AcDbEntity
  8
bowle
 48
0.2
100
AcDbLine
 10
55.82789493537706
 20
182.3678484272841
 30
0.0
 11
58.82789493537706
 21
177.1716960045775
 31
0.0
  0
LINE
  5
A778
330
18
100
AcDbEntity
  8
center
 48
0.2
100
AcDbLine
 10
69.28943781244782
 20
186.6757722159307
 30
0.0
 11
55.16283142591607
 21
178.5197722159308
 31
0.0
  0
ARC
  5
A779
330
18
100
AcDbEntity
  8
center
 48
0.2
100
AcDbCircle
 10
95.00000000000028
 20
201.5197722159308
 30
0.0
 40
39.25000000000023
100
AcDbArc
 50
200.6471225785583
 51
219.352877421442
  0
CIRCLE
  5
A77A
330
18
100
AcDbEntity
  8
bowle
 48
0.2
100
AcDbCircle
 10
95.00000000000012
 20
162.2697722159305
 30
0.0
 40
1.899999999999465
  0
CIRCLE
  5
A77B
330
18
100
AcDbEntity
  8
bowle
 48
0.2
100
AcDbCircle
 10
95.00000000000012
 20
162.2697722159305
 30
0.0
 40
2.399999999999635
  0
CIRCLE
  5
A77C
330
18
100
AcDbEntity
  8
bowle
 48
0.2
100
AcDbCircle
 10
95.00000000000012
 20
162.2697722159305
 30
0.0
 40
4.399999999999635
  0
LINE
  5
A77D
330
18
100
AcDbEntity
  8
bowle
 48
0.2
100
AcDbLine
 10
98.00000000000011
 20
158.0197722159307
 30
0.0
 11
98.37070066699965
 21
157.6490715489311
 31
0.0
  0
LINE
  5
A77E
330
18
100
AcDbEntity
  8
bowle
 48
0.2
100
AcDbLine
 10
98.00000000000011
 20
158.0197722159307
 30
0.0
 11
98.00000000000011
 21
162.7877214083618
 31
0.0
  0
LINE
  5
A77F
330
18
100
AcDbEntity
  8
bowle
 48
0.2
100
AcDbLine
 10
95.00000000000005
 20
164.5197722159308
 30
0.0
 11
92.00000000000017
 21
162.7877214083618
 31
0.0
  0
LINE
  5
A780
330
18
100
AcDbEntity
  8
bowle
 48
0.2
100
AcDbLine
 10
92.00000000000017
 20
162.7877214083618
 30
0.0
 11
92.00000000000011
 21
158.0197722159307
 31
0.0
  0
LINE
  5
A781
330
18
100
AcDbEntity
  8
bowle
 48
0.2
100
AcDbLine
 10
95.00000000000005
 20
164.5197722159308
 30
0.0
 11
98.00000000000011
 21
162.7877214083618
 31
0.0
  0
LINE
  5
A782
330
18
100
AcDbEntity
  8
bowle
 48
0.2
100
AcDbLine
 10
98.00000000000011
 20
162.7877214083618
 30
0.0
 11
92.00000000000017
 21
162.7877214083618
 31
0.0
  0
LINE
  5
A783
330
18
100
AcDbEntity
  8
bowle
 48
0.2
100
AcDbLine
 10
92.00000000000011
 20
158.0197722159307
 30
0.0
 11
91.62929933300057
 21
157.6490715489312
 31
0.0
  0
LINE
  5
A784
330
18
100
AcDbEntity
  8
bowle
 48
0.2
100
AcDbLine
 10
92.00000000000011
 20
158.0197722159307
 30
0.0
 11
98.00000000000011
 21
158.0197722159307
 31
0.0
  0
LINE
  5
A785
330
18
100
AcDbEntity
  8
center
 48
0.2
100
AcDbLine
 10
95.00000000000017
 20
171.8317722159307
 30
0.0
 11
95.00000000000017
 21
155.5197722159308
 31
0.0
  0
ARC
  5
A786
330
18
100
AcDbEntity
  8
center
 48
0.2
100
AcDbCircle
 10
95.00000000000017
 20
201.5197722159308
 30
0.0
 40
39.25000000000022
100
AcDbArc
 50
260.6471225785573
 51
279.3528774214427
  0
CIRCLE
  5
A787
330
18
100
AcDbEntity
  8
bowle
 48
0.2
100
AcDbCircle
 10
128.9914970985396
 20
181.8947722159307
 30
0.0
 40
1.899999999999465
  0
CIRCLE
  5
A788
330
18
100
AcDbEntity
  8
bowle
 48
0.2
100
AcDbCircle
 10
128.9914970985396
 20
181.8947722159307
 30
0.0
 40
2.399999999999636
  0
CIRCLE
  5
A789
330
18
100
AcDbEntity
  8
bowle
 48
0.2
100
AcDbCircle
 10
128.9914970985396
 20
181.8947722159307
 30
0.0
 40
4.399999999999636
  0
LINE
  5
A78A
330
18
100
AcDbEntity
  8
bowle
 48
0.2
100
AcDbLine
 10
134.1721050646233
 20
182.367848427284
 30
0.0
 11
134.6784915929445
 21
182.5035342886057
 31
0.0
  0
LINE
  5
A78B
330
18
100
AcDbEntity
  8
bowle
 48
0.2
100
AcDbLine
 10
134.1721050646233
 20
182.367848427284
 30
0.0
 11
130.0429399400245
 21
184.7518230234996
 31
0.0
  0
LINE
  5
A78C
330
18
100
AcDbEntity
  8
bowle
 48
0.2
100
AcDbLine
 10
127.0429399400244
 20
183.0197722159308
 30
0.0
 11
127.0429399400245
 21
179.555670600793
 31
0.0
  0
LINE
  5
A78D
330
18
100
AcDbEntity
  8
bowle
 48
0.2
100
AcDbLine
 10
127.0429399400245
 20
179.555670600793
 30
0.0
 11
131.1721050646233
 21
177.1716960045774
 31
0.0
  0
LINE
  5
A78E
330
18
100
AcDbEntity
  8
bowle
 48
0.2
100
AcDbLine
 10
127.0429399400244
 20
183.0197722159308
 30
0.0
 11
130.0429399400245
 21
184.7518230234996
 31
0.0
  0
LINE
  5
A78F
330
18
100
AcDbEntity
  8
bowle
 48
0.2
100
AcDbLine
 10
130.0429399400245
 20
184.7518230234996
 30
0.0
 11
127.0429399400245
 21
179.555670600793
 31
0.0
  0
LINE
  5
A790
330
18
100
AcDbEntity
  8
bowle
 48
0.2
100
AcDbLine
 10
131.1721050646233
 20
177.1716960045774
 30
0.0
 11
131.307790925945
 21
176.6653094762562
 31
0.0
  0
LINE
  5
A791
330
18
100
AcDbEntity
  8
bowle
 48
0.2
100
AcDbLine
 10
131.1721050646233
 20
177.1716960045774
 30
0.0
 11
134.1721050646233
 21
182.367848427284
 31
0.0
  0
LINE
  5
A792
330
18
100
AcDbEntity
  8
center
 48
0.2
100
AcDbLine
 10
120.7105621875527
 20
186.6757722159308
 30
0.0
 11
134.8371685740844
 21
178.5197722159308
 31
0.0
  0
ARC
  5
A793
330
18
100
AcDbEntity
  8
center
 48
0.2
100
AcDbCircle
 10
95.00000000000023
 20
201.5197722159308
 30
0.0
 40
39.25000000000023
100
AcDbArc
 50
320.6471225785592
 51
349.9339151074703
  0
CIRCLE
  5
A794
330
18
100
AcDbEntity
  8
bowle
 48
0.2
100
AcDbCircle
 10
128.9914970985396
 20
221.1447722159308
 30
0.0
 40
1.899999999999465
  0
CIRCLE
  5
A795
330
18
100
AcDbEntity
  8
bowle
 48
0.2
100
AcDbCircle
 10
128.9914970985396
 20
221.1447722159308
 30
0.0
 40
2.399999999999636
  0
CIRCLE
  5
A796
330
18
100
AcDbEntity
  8
bowle
 48
0.2
100
AcDbCircle
 10
128.9914970985396
 20
221.1447722159308
 30
0.0
 40
4.399999999999636
  0
LINE
  5
A797
330
18
100
AcDbEntity
  8
bowle
 48
0.2
100
AcDbLine
 10
131.1721050646233
 20
225.867848427284
 30
0.0
 11
131.307790925945
 21
226.3742349556052
 31
0.0
  0
LINE
  5
A798
330
18
100
AcDbEntity
  8
bowle
 48
0.2
100
AcDbLine
 10
131.1721050646233
 20
225.867848427284
 30
0.0
 11
127.0429399400245
 21
223.4838738310684
 31
0.0
  0
LINE
  5
A799
330
18
100
AcDbEntity
  8
bowle
 48
0.2
100
AcDbLine
 10
127.0429399400244
 20
220.0197722159306
 30
0.0
 11
130.0429399400245
 21
218.2877214083618
 31
0.0
  0
LINE
  5
A79A
330
18
100
AcDbEntity
  8
bowle
 48
0.2
100
AcDbLine
 10
130.0429399400245
 20
218.2877214083618
 30
0.0
 11
134.1721050646233
 21
220.6716960045774
 31
0.0
  0
LINE
  5
A79B
330
18
100
AcDbEntity
  8
bowle
 48
0.2
100
AcDbLine
 10
127.0429399400244
 20
220.0197722159306
 30
0.0
 11
127.0429399400245
 21
223.4838738310684
 31
0.0
  0
LINE
  5
A79C
330
18
100
AcDbEntity
  8
bowle
 48
0.2
100
AcDbLine
 10
127.0429399400245
 20
223.4838738310684
 30
0.0
 11
130.0429399400245
 21
218.2877214083618
 31
0.0
  0
LINE
  5
A79D
330
18
100
AcDbEntity
  8
bowle
 48
0.2
100
AcDbLine
 10
134.1721050646233
 20
220.6716960045774
 30
0.0
 11
134.6784915929445
 21
220.5360101432556
 31
0.0
  0
LINE
  5
A79E
330
18
100
AcDbEntity
  8
bowle
 48
0.2
100
AcDbLine
 10
134.1721050646233
 20
220.6716960045774
 30
0.0
 11
131.1721050646233
 21
225.867848427284
 31
0.0
  0
LINE
  5
A79F
330
18
100
AcDbEntity
  8
center
 48
0.2
100
AcDbLine
 10
120.7105621875526
 20
216.3637722159307
 30
0.0
 11
134.8371685740844
 21
224.5197722159306
 31
0.0
  0
ARC
  5
A7A0
330
18
100
AcDbEntity
  8
center
 48
0.2
100
AcDbCircle
 10
95.00000000000017
 20
201.5197722159307
 30
0.0
 40
39.25000000000023
100
AcDbArc
 50
20.64712257856055
 51
39.35287742144135
  0
CIRCLE
  5
A7A1
330
18
100
AcDbEntity
  8
bowle
 48
0.2
100
AcDbCircle
 10
95.00000000000028
 20
240.769772215931
 30
0.0
 40
1.899999999999465
  0
CIRCLE
  5
A7A2
330
18
100
AcDbEntity
  8
bowle
 48
0.2
100
AcDbCircle
 10
95.00000000000028
 20
240.769772215931
 30
0.0
 40
2.399999999999636
  0
CIRCLE
  5
A7A3
330
18
100
AcDbEntity
  8
bowle
 48
0.2
100
AcDbCircle
 10
95.00000000000028
 20
240.769772215931
 30
0.0
 40
4.399999999999636
  0
LINE
  5
A7A4
330
18
100
AcDbEntity
  8
bowle
 48
0.2
100
AcDbLine
 10
92.00000000000034
 20
245.0197722159308
 30
0.0
 11
91.6292993330008
 21
245.3904728829304
 31
0.0
  0
LINE
  5
A7A5
330
18
100
AcDbEntity
  8
bowle
 48
0.2
100
AcDbLine
 10
92.00000000000034
 20
245.0197722159308
 30
0.0
 11
92.00000000000029
 21
240.2518230234997
 31
0.0
  0
LINE
  5
A7A6
330
18
100
AcDbEntity
  8
bowle
 48
0.2
100
AcDbLine
 10
95.0000000000004
 20
238.5197722159307
 30
0.0
 11
98.00000000000029
 21
240.2518230234997
 31
0.0
  0
LINE
  5
A7A7
330
18
100
AcDbEntity
  8
bowle
 48
0.2
100
AcDbLine
 10
98.00000000000029
 20
240.2518230234997
 30
0.0
 11
98.00000000000034
 21
245.0197722159308
 31
0.0
  0
LINE
  5
A7A8
330
18
100
AcDbEntity
  8
bowle
 48
0.2
100
AcDbLine
 10
95.0000000000004
 20
238.5197722159307
 30
0.0
 11
92.00000000000029
 21
240.2518230234997
 31
0.0
  0
LINE
  5
A7A9
330
18
100
AcDbEntity
  8
bowle
 48
0.2
100
AcDbLine
 10
92.00000000000029
 20
240.2518230234997
 30
0.0
 11
98.00000000000029
 21
240.2518230234997
 31
0.0
  0
LINE
  5
A7AA
330
18
100
AcDbEntity
  8
bowle
 48
0.2
100
AcDbLine
 10
98.00000000000034
 20
245.0197722159308
 30
0.0
 11
98.37070066699988
 21
245.3904728829304
 31
0.0
  0
LINE
  5
A7AB
330
18
100
AcDbEntity
  8
bowle
 48
0.2
100
AcDbLine
 10
98.00000000000034
 20
245.0197722159308
 30
0.0
 11
92.00000000000034
 21
245.0197722159308
 31
0.0
  0
LINE
  5
A7AC
330
18
100
AcDbEntity
  8
center
 48
0.2
100
AcDbLine
 10
95.00000000000028
 20
231.2077722159308
 30
0.0
 11
95.00000000000028
 21
247.5197722159308
 31
0.0
  0
ARC
  5
A7AD
330
18
100
AcDbEntity
  8
center
 48
0.2
100
AcDbCircle
 10
95.00000000000028
 20
201.5197722159308
 30
0.0
 40
39.25000000000023
100
AcDbArc
 50
80.64712257855893
 51
99.35287742144266
  0
LINE
  5
A7AE
330
18
100
AcDbEntity
  8
center
 48
0.2
100
AcDbLine
 10
72.00000000000028
 20
241.3569407900149
 30
0.0
 11
80.15600000000029
 21
227.2303344034832
 31
0.0
  0
LINE
  5
A7B1
330
18
100
AcDbEntity
  8
center
 48
0.2
100
AcDbLine
 10
109.8440000000004
 20
175.8092100283783
 30
0.0
 11
118.0000000000003
 21
161.6826036418467
 31
0.0
  0
LINE
  5
A7B2
330
18
100
AcDbEntity
  8
center
 48
0.2
100
AcDbLine
 10
118.0000000000001
 20
241.3569407900149
 30
0.0
 11
109.8440000000001
 21
227.2303344034832
 31
0.0
  0
LINE
  5
A7B3
330
18
100
AcDbEntity
  8
center
 48
0.2
100
AcDbLine
 10
80.15600000000006
 20
175.8092100283783
 30
0.0
 11
72.00000000000011
 21
161.6826036418467
 31
0.0
  0
MTEXT
  5
AA42
330
18
100
AcDbEntity
  8
mark
 62
     3
100
AcDbMText
 10
119.5546603431269
 20
86.8369145764141
 30
0.0
 40
2.5
 41
0.0
 71
     5
 72
     1
  1
C1.5
 11
0.7071067811865478
 21
0.7071067811865474
 31
0.0
 73
     1
 44
1.0
1001
ACAD
1000
ACAD_MTEXT_DEFINED_HEIGHT_BEGIN
1070
    46
1040
0.0
1000
ACAD_MTEXT_DEFINED_HEIGHT_END
  0
LEADER
  5
AA43
330
18
100
AcDbEntity
  8
mark
100
AcDbLeader
  3
STANDARD
 76
     2
 10
127.4380000000001
 20
92.16894506935275
 30
0.0
 10
118.3676602328053
 20
83.09860530215784
 30
0.0
211
0.0000000000000095
221
-1.0
231
0.0
1001
ACAD
1000
DSTYLE
1002
{
1070
   147
1040
0.8
1070
    77
1070
     0
1002
}
  0
LEADER
  5
AA44
330
18
100
AcDbEntity
  8
mark
100
AcDbLeader
  3
STANDARD
 76
     3
 10
51.00000000000008
 20
108.9189450693528
 30
0.0
 10
41.1000000000001
 20
99.01894506935281
 30
0.0
 10
22.42008232378871
 20
99.01894506935281
 30
0.0
1001
ACAD
1000
DSTYLE
1002
{
1070
   147
1040
0.4
1070
    77
1070
     0
1002
}
  0
TEXT
  5
AA45
330
18
100
AcDbEntity
  8
dim
100
AcDbText
 10
22.54873662878853
 20
100.1034070822367
 30
0.0
 40
2.5
  1
6-%%C6深さ7
  7
TXT
100
AcDbText
  0
LEADER
  5
AA46
330
18
100
AcDbEntity
  8
mark
100
AcDbLeader
  3
STANDARD
 76
     3
 10
55.75
 20
91.41894506935267
 30
0.0
 10
43.85000000000002
 20
79.5189450693527
 30
0.0
 10
22.03591579395618
 20
79.5189450693527
 30
0.0
1001
ACAD
1000
DSTYLE
1002
{
1070
   147
1040
0.4
1070
    77
1070
     0
1002
}
  0
TEXT
  5
AA47
330
18
100
AcDbEntity
  8
dim
100
AcDbText
 10
22.31429048061295
 20
80.67502502797271
 30
0.0
 40
2.5
  1
6-%%C5.3深さ5
  7
TXT
100
AcDbText
  0
TOLERANCE
  5
AA48
330
18
100
AcDbEntity
  8
mark
100
AcDbFcf
  3
STANDARD
 10
157.2534910668287
 20
124.4189450693527
 30
0.0
  1
{\Fgdt;h}%%v0.005%%v%%vA%%v%%v
  0
LINE
  5
AA49
330
18
100
AcDbEntity
  8
mark
100
AcDbLine
 10
152.2534910668287
 20
119.4189450693527
 30
0.0
 11
152.2534910668287
 21
124.4189450693527
 31
0.0
  0
LINE
  5
AA4A
330
18
100
AcDbEntity
  8
mark
100
AcDbLine
 10
152.2534910668287
 20
124.4189450693527
 30
0.0
 11
157.2534910668287
 21
124.4189450693527
 31
0.0
  0
TOLERANCE
  5
AA4B
330
18
100
AcDbEntity
  8
mark
100
AcDbFcf
  3
STANDARD
 10
72.50000000000006
 20
66.47212562983708
 30
0.0
  1
%%v%%v%%vA%%v%%v
  0
HATCH
  5
AA4C
330
18
100
AcDbEntity
  8
mark
100
AcDbHatch
 10
0.0
 20
0.0
 30
0.0
210
0.0
220
0.0
230
1.0
  2
SOLID
 70
     1
 71
     1
 91
        1
 92
        7
 72
     0
 73
     1
 93
        4
 10
62.50000000000006
 20
68.9721256298371
 10
62.50000000000006
 20
66.47212562983708
 10
62.50000000000006
 20
63.97212562983709
 10
65.00000000000006
 20
66.47212562983708
 97
        4
330
AA4D
330
AA51
330
AA50
330
AA4F
 75
     0
 76
     1
 47
0.0383085416812868
 98
        1
 10
64.08732744460024
 20
66.67598526304499
450
        0
451
        0
460
0.0
461
0.0
452
        1
462
1.0
453
        2
463
0.0
 63
     5
421
      255
463
1.0
 63
     7
421
 16777215
470
LINEAR
1001
ACAD
1010
0.0
1020
0.0
1030
0.0
  0
LINE
  5
AA4D
102
{ACAD_REACTORS
330
AA4C
102
}
330
18
100
AcDbEntity
  8
mark
100
AcDbLine
 10
62.50000000000006
 20
76.47212562983708
 30
0.0
 11
62.50000000000006
 21
66.47212562983708
 31
0.0
  0
LINE
  5
AA4E
330
18
100
AcDbEntity
  8
mark
100
AcDbLine
 10
65.00000000000006
 20
66.47212562983708
 30
0.0
 11
72.50000000000006
 21
66.47212562983708
 31
0.0
  0
LINE
  5
AA4F
102
{ACAD_REACTORS
330
AA4C
102
}
330
18
100
AcDbEntity
  8
mark
100
AcDbLine
 10
62.50000000000006
 20
68.97212562983708
 30
0.0
 11
65.00000000000006
 21
66.47212562983708
 31
0.0
  0
LINE
  5
AA50
102
{ACAD_REACTORS
330
AA4C
102
}
330
18
100
AcDbEntity
  8
mark
100
AcDbLine
 10
65.00000000000006
 20
66.47212562983708
 30
0.0
 11
62.50000000000006
 21
63.97212562983708
 31
0.0
  0
LINE
  5
AA51
102
{ACAD_REACTORS
330
AA4C
102
}
330
18
100
AcDbEntity
  8
mark
100
AcDbLine
 10
62.50000000000006
 20
63.97212562983708
 30
0.0
 11
62.50000000000006
 21
66.47212562983708
 31
0.0
  0
LEADER
  5
AA61
330
18
100
AcDbEntity
  8
mark
100
AcDbLeader
  3
STANDARD
 76
     2
 10
126.1126983722084
 20
170.4070738437229
 30
0.0
 10
141.4455760812025
 20
155.0741961347288
 30
0.0
211
0.7193398003386509
221
-0.6946583704589976
231
0.0
1001
ACAD
1000
DSTYLE
1002
{
1070
   147
1040
0.8
1070
    77
1070
     0
1002
}
  0
MTEXT
  5
AA63
330
18
100
AcDbEntity
  8
mark
 62
     3
100
AcDbMText
 10
144.4443557602753
 20
154.8423856957396
 30
0.0
 40
5.0
 41
0.0
 71
     4
 72
     1
  1
1
 73
     1
 44
1.0
1001
ACAD
1000
ACAD_MTEXT_DEFINED_HEIGHT_BEGIN
1070
    46
1040
0.0
1000
ACAD_MTEXT_DEFINED_HEIGHT_END
  0
MTEXT
  5
AA64
330
18
100
AcDbEntity
  8
mark
 62
     3
100
AcDbMText
 10
143.5439290022903
 20
83.53062136672324
 30
0.0
 40
5.0
 41
0.0
 71
     4
 72
     1
  1
2
 73
     1
 44
1.0
1001
ACAD
1000
ACAD_MTEXT_DEFINED_HEIGHT_BEGIN
1070
    46
1040
0.0
1000
ACAD_MTEXT_DEFINED_HEIGHT_END
  0
DIMENSION
  5
AB11
330
18
100
AcDbEntity
  8
mark
100
AcDbDimension
  2
*D8
 10
132.9609152022344
 20
191.5432288762361
 30
0.0
 11
38.79199199319106
 21
216.2918509429695
 31
0.0
 70
   163
  1
P.C.D 78.5
 71
     5
 42
78.50000000000041
  3
STANDARD
100
AcDbDiametricDimension
 15
57.0390847977662
 25
211.4963155556256
 35
0.0
 40
0.0
1001
ACAD
1000
DSTYLE
1002
{
1070
   288
1070
     1
1002
}
  0
DIMENSION
  5
AB25
330
18
100
AcDbEntity
  8
mark
100
AcDbDimension
  2
*D9
 10
57.85580483595412
 20
191.39264203926
 30
0.0
 11
148.4663077682931
 21
216.0970232895938
 31
0.0
 70
   163
  1
P.C.D 77
 71
     5
 42
76.9999999999996
  3
STANDARD
100
AcDbDiametricDimension
 15
132.1441951640464
 25
211.6469023926014
 35
0.0
 40
0.0
1001
ACAD
1000
DSTYLE
1002
{
1070
   288
1070
     1
1002
}
  0
DIMENSION
  5
AB31
330
18
100
AcDbEntity
  8
mark
100
AcDbDimension
  2
*D10
 10
44.2223035070584
 20
119.4189450693527
 30
0.0
 11
42.17230350705838
 21
114.1689450693528
 31
0.0
 70
    32
 71
     5
 42
10.49999999999994
  3
STANDARD
100
AcDbAlignedDimension
 13
49.00000000000005
 23
108.9189450693528
 33
0.0
 14
52.00000000000011
 24
119.4189450693527
 34
0.0
 50
90.0
100
AcDbRotatedDimension
  0
DIMENSION
  5
AB3E
330
18
100
AcDbEntity
  8
mark
100
AcDbDimension
  2
*D11
 10
145.8485835029428
 20
99.91894506935279
 30
0.0
 11
143.7985835029428
 21
109.6689450693528
 31
0.0
 70
    32
 71
     5
 42
19.49999999999997
  3
STANDARD
100
AcDbAlignedDimension
 13
138.0
 23
119.4189450693527
 33
0.0
 14
138.0
 24
99.91894506935279
 34
0.0
 50
90.0
100
AcDbRotatedDimension
  0
DIMENSION
  5
AB4B
330
18
100
AcDbEntity
  8
mark
100
AcDbDimension
  2
*D12
 10
145.8485835029429
 20
97.91894506935276
 30
0.0
 11
145.8485835029428
 21
98.9189450693528
 31
0.0
 70
   160
 71
     5
 42
2.000000000000028
  3
STANDARD
100
AcDbAlignedDimension
 13
138.0
 23
99.91894506935279
 33
0.0
 14
138.0
 24
97.91894506935276
 34
0.0
 50
90.0
100
AcDbRotatedDimension
  0
DIMENSION
  5
AB65
330
18
100
AcDbEntity
  8
mark
100
AcDbDimension
  2
*D13
 10
152.2534910668287
 20
91.41894506935273
 30
0.0
 11
150.2034910668287
 21
105.4189450693527
 31
0.0
 70
    32
  1
28%%P0.2
 71
     5
 42
28.00000000000003
  3
STANDARD
100
AcDbAlignedDimension
 13
138.0
 23
119.4189450693527
 33
0.0
 14
138.0000000000001
 24
91.41894506935273
 34
0.0
 50
90.0
100
AcDbRotatedDimension
  0
DIMENSION
  5
AB72
330
18
100
AcDbEntity
  8
mark
100
AcDbDimension
  2
*D14
 10
139.0
 20
126.8773189500618
 30
0.0
 11
95.00000000000008
 21
128.9273189500619
 31
0.0
 70
    32
  1
%%c88
 71
     5
 42
87.99999999999995
  3
STANDARD
100
AcDbAlignedDimension
 13
51.00000000000012
 23
118.4189450693528
 33
0.0
 14
139.0
 24
118.4189450693527
 34
0.0
100
AcDbRotatedDimension
  0
MTEXT
  5
AB7F
330
18
100
AcDbEntity
  8
mark
 62
     3
100
AcDbMText
 10
99.12120597905328
 20
129.1795549776952
 30
0.0
 40
1.25
 41
0.0
 71
     4
 72
     1
  1
+0\P-0.2
 73
     1
 44
1.0
1001
ACAD
1000
ACAD_MTEXT_DEFINED_HEIGHT_BEGIN
1070
    46
1040
0.0
1000
ACAD_MTEXT_DEFINED_HEIGHT_END
  0
DIMENSION
  5
AB80
330
18
100
AcDbEntity
  8
mark
100
AcDbDimension
  2
*D15
 10
127.5
 20
77.27212562983709
 30
0.0
 11
95.00000000000005
 21
79.32212562983709
 31
0.0
 70
    32
  1
M65X1.5P
 71
     5
 42
65.0
  3
STANDARD
100
AcDbAlignedDimension
 13
62.50000000000006
 23
92.10694506935281
 33
0.0
 14
127.5
 24
92.10694506935286
 34
0.0
100
AcDbRotatedDimension
  0
DIMENSION
  5
AB8D
330
18
100
AcDbEntity
  8
mark
100
AcDbDimension
  2
*D16
 10
52.00000000000024
 20
92.41894506935278
 30
0.0
 11
44.56359368452095
 21
87.88167655674005
 31
0.0
 70
    36
 71
     5
 42
1.000000000000142
  3
STANDARD
100
AcDbRadialDimension
 15
51.29289321881348
 25
91.71183828816623
 35
0.0
 40
0.0
1001
ACAD
1000
DSTYLE
1002
{
1070
   288
1070
     1
1002
}
  0
LEADER
  5
AB9E
330
18
100
AcDbEntity
  8
mark
100
AcDbLeader
  3
STANDARD
 76
     2
 10
133.5
 20
91.41894506935276
 30
0.0
 10
141.4455760812025
 20
83.47336898815029
 30
0.0
211
0.7193398003386509
221
-0.6946583704589976
231
0.0
1001
ACAD
1000
DSTYLE
1002
{
1070
   147
1040
0.8
1070
    77
1070
     0
1002
}
  0
HATCH
  5
ACC1
330
18
100
AcDbEntity
  8
section
100
AcDbHatch
 10
0.0
 20
0.0
 30
0.0
210
0.0
220
0.0
230
1.0
  2
ANSI31
 70
     0
 71
     1
 91
       12
 92
        7
 72
     1
 73
     1
 93
       28
 10
62.50000000000006
 20
118.7309450693527
 42
0.0
 10
61.81200000000004
 20
119.4189450693527
 42
0.0
 10
52.00000000000011
 20
119.4189450693527
 42
0.4142135623730951
 10
51.00000000000012
 20
118.4189450693527
 42
0.0
 10
51.0000000000001
 20
112.4189450693526
 42
0.0
 10
51.49999999999988
 20
111.9189450693528
 42
0.0
 10
56.2679491924311
 20
111.9189450693527
 42
0.0
 10
58.00000000000006
 20
108.9189450693528
 42
0.0
 10
56.2679491924311
 20
105.9189450693527
 42
0.0
 10
51.49999999999995
 20
105.9189450693527
 42
0.0
 10
51.00000000000007
 20
105.4189450693529
 42
0.0
 10
51.00000000000005
 20
100.9189450693528
 42
0.4142135623730951
 10
52.00000000000006
 20
99.91894506935279
 42
0.0
 10
59.75000000000005
 20
99.91894506935278
 42
0.0
 10
59.75000000000004
 20
97.91894506935278
 42
0.0
 10
55.75000000000006
 20
97.91894506935278
 42
0.0
 10
55.75000000000006
 20
96.41894506935273
 42
0.0
 10
58.39999999999992
 20
94.88896685600028
 42
0.0
 10
58.40000000000003
 20
91.91894506935268
 42
0.0
 10
58.89999999999997
 20
91.41894506935273
 42
0.0
 10
61.81199999999997
 20
91.41894506935271
 42
0.0
 10
62.50000000000006
 20
92.10694506935279
 42
0.0
 10
62.5
 20
100.2309450693527
 42
0.0
 10
61.81199999999996
 20
100.9189450693528
 42
0.0
 10
53.25000000000006
 20
100.9189450693527
 42
0.0
 10
53.25000000000006
 20
103.4189450693528
 42
0.0
 10
61.81200000000002
 20
103.4189450693528
 42
0.0
 10
62.5
 20
104.1069450693527
 42
0.0
 97
       27
330
A555
330
A4D3
330
A54B
330
A4D0
330
A4EE
330
A4EB
330
A4EA
330
A4EC
330
A4E9
330
A4E8
330
A54A
330
A4D5
330
A4D8
330
A4D4
330
A726
330
A725
330
A729
330
A724
330
A4D1
330
A552
330
A55A
330
A553
330
A4DE
330
A4E2
330
A4DF
330
A554
330
A550
 92
        7
 72
     0
 73
     1
 93
        7
 10
131.0
 20
115.5189450693527
 10
131.0
 20
119.4189450693527
 10
128.1880000000001
 20
119.4189450693527
 10
127.5000000000001
 20
118.7309450693527
 10
127.5000000000001
 20
104.1069450693526
 10
128.1879999999999
 20
103.4189450693528
 10
131.0
 20
103.4189450693528
 97
        7
330
A71E
330
A4D3
330
A562
330
A55B
330
A561
330
A4DF
330
A71B
 92
        7
 72
     1
 73
     1
 93
        9
 10
55.75000000000005
 20
96.41894506935273
 42
0.0
 10
55.75000000000005
 20
97.91894506935278
 42
0.0
 10
52.00000000000006
 20
97.91894506935278
 42
0.4142135623730951
 10
51.00000000000005
 20
96.91894506935279
 42
0.0
 10
51.00000000000005
 20
92.41894506935279
 42
0.4142135623731117
 10
52.00000000000006
 20
91.41894506935273
 42
0.0
 10
52.60000000000002
 20
91.41894506935273
 42
0.0
 10
53.10000000000008
 20
91.91894506935277
 42
0.0
 10
53.10000000000007
 20
94.88896685600014
 42
0.0
 97
        9
330
A726
330
A4D4
330
A549
330
A4DA
330
A548
330
A4D1
330
A728
330
A727
330
A72A
 92
        7
 72
     0
 73
     1
 93
        4
 10
63.31200000000001
 20
99.41894506935277
 10
62.5
 20
100.2309450693528
 10
62.50000000000007
 20
92.10694506935283
 10
63.312
 20
92.91894506935276
 97
        4
330
A553
330
A55A
330
A552
330
A559
 92
        7
 72
     0
 73
     1
 93
        4
 10
63.31200000000001
 20
117.9189450693527
 10
62.50000000000006
 20
118.7309450693527
 10
62.5
 20
104.1069450693527
 10
63.31200000000001
 20
104.9189450693527
 97
        4
330
A555
330
A550
330
A554
330
A551
 92
        7
 72
     0
 73
     1
 93
        4
 10
127.5
 20
118.7309450693527
 10
126.6880000000001
 20
117.9189450693527
 10
126.6880000000001
 20
104.9189450693526
 10
127.5000000000001
 20
104.1069450693526
 97
        4
330
A562
330
A55D
330
A561
330
A55B
 92
        7
 72
     1
 73
     1
 93
       11
 10
139.0
 20
118.4189450693527
 42
0.4142135623730951
 10
138.0
 20
119.4189450693527
 42
0.0
 10
135.9999999999999
 20
119.4189450693527
 42
0.0
 10
135.9999999999999
 20
115.5189450693528
 42
0.0
 10
136.0
 20
103.4189450693528
 42
0.0
 10
136.75
 20
103.4189450693528
 42
0.0
 10
136.7500000000001
 20
100.9189450693527
 42
0.0
 10
136.0
 20
100.9189450693527
 42
0.0
 10
136.0
 20
99.91894506935278
 42
0.0
 10
138.0
 20
99.91894506935279
 42
0.4142135623730951
 10
139.0
 20
100.9189450693528
 42
0.0
 97
       10
330
A54C
330
A4D3
330
A720
330
A71B
330
A649
330
A4E4
330
A64A
330
A543
330
A54D
330
A4DB
 92
        7
 72
     0
 73
     1
 93
        4
 10
131.433
 20
119.4189450693527
 10
131.0
 20
119.4189450693527
 10
131.0
 20
115.5189450693527
 10
131.4330000000001
 20
115.9519450693528
 97
        4
330
A4D3
330
A71E
330
A71B
330
A71F
 92
        7
 72
     0
 73
     1
 93
        4
 10
135.9999999999999
 20
119.4189450693527
 10
135.5670000000001
 20
119.4189450693527
 10
135.5670000000001
 20
115.9519450693526
 10
135.9999999999999
 20
115.5189450693528
 97
        4
330
A4D3
330
A721
330
A71B
330
A720
 92
        7
 72
     0
 73
     1
 93
        4
 10
127.5000000000001
 20
100.2309450693529
 10
126.6880000000001
 20
99.41894506935287
 10
126.688
 20
92.91894506935282
 10
127.5
 20
92.10694506935281
 97
        4
330
A560
330
A55E
330
A55F
330
A55C
 92
        7
 72
     0
 73
     1
 93
       13
 10
131.0
 20
97.91894506935278
 10
130.2500000000001
 20
97.91894506935278
 10
130.2500000000001
 20
99.91894506935278
 10
131.0
 20
99.91894506935279
 10
131.0
 20
100.9189450693529
 10
128.1880000000001
 20
100.9189450693529
 10
127.5000000000001
 20
100.2309450693529
 10
127.5000000000001
 20
92.10694506935281
 10
128.1880000000001
 20
91.41894506935274
 10
129.25
 20
91.41894506935278
 10
129.25
 20
91.71894506935274
 10
129.25
 20
96.41894506935276
 10
131.0000000000001
 20
96.41894506935276
 97
       10
330
A648
330
A606
330
A647
330
A71B
330
A4DE
330
A560
330
A55C
330
A55F
330
A4D1
330
A71C
 92
        7
 72
     1
 73
     1
 93
        9
 10
139.0
 20
96.91894506935277
 42
0.4142135623730951
 10
138.0
 20
97.91894506935276
 42
0.0
 10
136.0
 20
97.91894506935278
 42
0.0
 10
136.0
 20
96.41894506935276
 42
0.0
 10
137.75
 20
96.41894506935276
 42
0.0
 10
137.75
 20
91.71894506935274
 42
0.0
 10
137.7500000000001
 20
91.41894506935276
 42
0.0
 10
138.0000000000001
 20
91.41894506935276
 42
0.4142135623730992
 10
139.0000000000001
 20
92.41894506935278
 42
0.0
 97
        7
330
A54E
330
A544
330
A71B
330
A71D
330
A4D1
330
A54F
330
A4D2
 75
     0
 76
     1
 52
0.0
 41
1.0
 77
     0
 78
     1
 53
45.0
 43
0.0
 44
0.0
 45
-2.245064030267287
 46
2.245064030267288
 79
     0
 47
0.1078825079079328
 98
       12
 10
58.58734516411505
 20
114.758431062218
 10
129.2026476025176
 20
111.6122283588765
 10
53.25051076753834
 20
95.65756719756222
 10
63.10571409431076
 20
96.26907575991868
 10
62.96977831646427
 20
106.8006116034282
 10
127.0634581136264
 20
111.5544069556058
 10
138.5037650391177
 20
110.1128082480125
 10
131.2200344716993
 20
118.3711779549678
 10
135.8074070483503
 20
117.6967773539816
 10
126.9630167599762
 20
97.71680923500662
 10
128.5817676819583
 20
97.71680923500662
 10
138.4021843521818
 20
96.5301006646298
1001
ACAD
1010
0.0
1020
0.0
1030
0.0
  0
MTEXT
  5
ACDA
330
18
100
AcDbEntity
  8
0
100
AcDbMText
 10
47.65097232190476
 20
19.07605901616614
 30
0.0
 40
4.5
 41
0.0
 71
     1
 72
     5
  1
{\Ftxt,bigfont|c128;小\~柳}
  7
JL
 73
     1
 44
1.0
1001
ACAD
1000
ACAD_MTEXT_DEFINED_HEIGHT_BEGIN
1070
    46
1040
0.0
1000
ACAD_MTEXT_DEFINED_HEIGHT_END
  0
MTEXT
  5
ACF9
330
18
100
AcDbEntity
  8
dim
100
AcDbMText
 10
10.41625155093231
 20
42.22246074329382
 30
0.0
 40
4.5
 41
0.0
 71
     1
 72
     5
  1
{\Ftxt,bigfont|c128;07.10.03\~寸法一部変更  林}
  7
JL
 73
     1
 44
1.0
1001
ACAD
1000
ACAD_MTEXT_DEFINED_HEIGHT_BEGIN
1070
    46
1040
0.0
1000
ACAD_MTEXT_DEFINED_HEIGHT_END
  0
CIRCLE
  5
ACFC
330
18
100
AcDbEntity
  8
dim
100
AcDbCircle
 10
44.94900729887468
 20
39.89986729889654
 30
0.0
 40
2.750054604459023
  0
MTEXT
  5
AD18
330
18
100
AcDbEntity
  8
mark
 62
     3
100
AcDbMText
 10
143.7985835029428
 20
131.6864661983234
 30
0.0
 40
2.5
 41
0.0
 71
     5
 72
     1
  1
18.85
 11
0.0000000000000001
 21
1.0
 31
0.0
 73
     1
 44
1.0
1001
ACAD
1000
ACAD_MTEXT_DEFINED_HEIGHT_BEGIN
1070
    46
1040
0.0
1000
ACAD_MTEXT_DEFINED_HEIGHT_END
  0
LWPOLYLINE
  5
AD1B
330
18
100
AcDbEntity
  8
mark
100
AcDbPolyline
 90
        3
 70
     1
 43
0.0
 10
140.5554824295298
 20
123.5708764865657
 10
145.0554824295298
 20
120.9728002752124
 10
145.0554824295298
 20
126.1689526979191
  0
TEXT
  5
AD1C
330
18
100
AcDbEntity
  8
dim
100
AcDbText
 10
144.4962674935863
 20
123.1901128822546
 30
0.0
 40
2.5
  1
1
 50
90.0
  7
TXT
100
AcDbText
  0
LINE
  5
AD1D
330
18
100
AcDbEntity
  8
mark
 62
     1
100
AcDbLine
 10
143.1734164703559
 20
113.6956906267563
 30
0.0
 11
143.1734164703559
 21
105.7766000910461
 31
0.0
  0
LINE
  5
AD1E
330
18
100
AcDbEntity
  8
mark
 62
     1
100
AcDbLine
 10
144.2422651535467
 20
113.6956906267563
 30
0.0
 11
144.2422651535467
 21
105.7766000910461
 31
0.0
  0
LWPOLYLINE
  5
AD60
330
18
100
AcDbEntity
  8
mark
100
AcDbPolyline
 90
        3
 70
     1
 43
0.0
 10
8.612076659872009
 20
45.34138119464816
 10
5.725325313923894
 20
50.34138119464817
 10
2.838573967975754
 20
45.34138119464816
  0
MTEXT
  5
AD61
330
18
100
AcDbEntity
  8
dim
100
AcDbMText
 10
4.933626654205033
 20
48.37914571553537
 30
0.0
 40
2.5
 41
9.163114146879252
 71
     1
 72
     5
  1
2
 73
     1
 44
1.0
1001
ACAD
1000
ACAD_MTEXT_DEFINED_HEIGHT_BEGIN
1070
    46
1040
0.0
1000
ACAD_MTEXT_DEFINED_HEIGHT_END
  0
MTEXT
  5
AD62
330
18
100
AcDbEntity
  8
dim
100
AcDbMText
 10
10.37527517134367
 20
49.80193917709846
 30
0.0
 40
4.5
 41
0.0
 71
     1
 72
     5
  1
{\Ftxt,bigfont|c128;08.08.08 振れ精度の変更  林}
  7
JL
 73
     1
 44
1.0
1001
ACAD
1000
ACAD_MTEXT_DEFINED_HEIGHT_BEGIN
1070
    46
1040
0.0
1000
ACAD_MTEXT_DEFINED_HEIGHT_END
  0
CIRCLE
  5
AD63
330
18
100
AcDbEntity
  8
dim
100
AcDbCircle
 10
48.14957846536941
 20
47.49212055713167
 30
0.0
 40
2.762409708108862
  0
LWPOLYLINE
  5
AD64
330
18
100
AcDbEntity
  8
mark
100
AcDbPolyline
 90
        3
 70
     1
 43
0.0
 10
8.653053039460651
 20
37.76190276084353
 10
5.766301693512536
 20
42.76190276084352
 10
2.879550347564396
 20
37.76190276084353
  0
MTEXT
  5
AD65
330
18
100
AcDbEntity
  8
dim
100
AcDbMText
 10
5.356389428383556
 20
41.10491818979048
 30
0.0
 40
2.5
 41
9.163114146879252
 71
     1
 72
     5
  1
1
 73
     1
 44
1.0
1001
ACAD
1000
ACAD_MTEXT_DEFINED_HEIGHT_BEGIN
1070
    46
1040
0.0
1000
ACAD_MTEXT_DEFINED_HEIGHT_END
  0
LWPOLYLINE
  5
AD66
330
18
100
AcDbEntity
  8
mark
100
AcDbPolyline
 90
        3
 70
     1
 43
0.0
 10
163.3888559054792
 20
128.1401018324753
 10
160.502104559531
 20
133.1401018324753
 10
157.6153532135829
 20
128.1401018324753
  0
MTEXT
  5
AD67
330
18
100
AcDbEntity
  8
dim
100
AcDbMText
 10
159.7104058998122
 20
131.1778663533625
 30
0.0
 40
2.5
 41
9.163114146879252
 71
     1
 72
     5
  1
2
 73
     1
 44
1.0
1001
ACAD
1000
ACAD_MTEXT_DEFINED_HEIGHT_BEGIN
1070
    46
1040
0.0
1000
ACAD_MTEXT_DEFINED_HEIGHT_END
  0
MTEXT
  5
AD68
330
18
100
AcDbEntity
  8
dim
100
AcDbMText
 10
164.7347159347786
 20
131.1778663533625
 30
0.0
 40
2.5
 41
9.163114146879252
 71
     1
 72
     5
  1
0.007
 73
     1
 44
1.0
1001
ACAD
1000
ACAD_MTEXT_DEFINED_HEIGHT_BEGIN
1070
    46
1040
0.0
1000
ACAD_MTEXT_DEFINED_HEIGHT_END
  0
LINE
  5
AD6A
330
18
100
AcDbEntity
  8
mark
 62
     1
100
AcDbLine
 10
163.911813422306
 20
124.7660202827044
 30
0.0
 11
174.3149519146341
 21
124.7660202827044
 31
0.0
  0
LINE
  5
AD6B
330
18
100
AcDbEntity
  8
mark
 62
     1
100
AcDbLine
 10
163.911813422306
 20
124.0431161809828
 30
0.0
 11
174.3149519146341
 21
124.0431161809828
 31
0.0
  0
LWPOLYLINE
  5
AD6C
330
18
100
AcDbEntity
  8
mark
100
AcDbPolyline
 90
        3
 70
     1
 43
0.0
 10
180.8173029066353
 20
2.851085905356057
 10
177.9305515606872
 20
7.851085905356057
 10
175.0438002147391
 20
2.851085905356057
  0
MTEXT
  5
AD6D
330
18
100
AcDbEntity
  8
dim
100
AcDbMText
 10
177.1388529009684
 20
5.888850426243266
 30
0.0
 40
2.5
 41
9.163114146879252
 71
     1
 72
     5
  1
2
 73
     1
 44
1.0
1001
ACAD
1000
ACAD_MTEXT_DEFINED_HEIGHT_BEGIN
1070
    46
1040
0.0
1000
ACAD_MTEXT_DEFINED_HEIGHT_END
  0
ENDSEC
  0
SECTION
  2
OBJECTS
  0
DICTIONARY
  5
C
330
0
100
AcDbDictionary
281
     1
  3
ACAD_COLOR
350
7873
  3
ACAD_GROUP
350
D
  3
ACAD_LAYOUT
350
5CF3
  3
ACAD_MATERIAL
350
7872
  3
ACAD_MLINESTYLE
350
1B
  3
ACAD_PLOTSETTINGS
350
5CF4
  3
ACAD_PLOTSTYLENAME
350
5CF1
  3
ACAD_TABLESTYLE
350
7874
  3
AcadDim
350
9A73
  3
ACDBVARIABLEDICTIONARY
350
45D
  0
DICTIONARY
  5
7BFE
330
2
100
AcDbDictionary
280
     1
281
     1
  3
ACAD_LAYERFILTERS
360
7C00
  3
ACLYDICTIONARY
360
7BFF
  0
DICTIONARY
  5
45F
330
18
100
AcDbDictionary
280
     1
281
     1
  3
ACAD_LAYOUTSELFREF
360
5D8B
  3
ACAD_SORTENTS
360
460
  0
DICTIONARY
  5
5D89
330
15
100
AcDbDictionary
280
     1
281
     1
  3
ACAD_LAYOUTSELFREF
360
5D8A
  0
DICTIONARY
  5
7C0B
330
7C0A
100
AcDbDictionary
280
     1
281
     1
  3
AcDbBlockTableRecordData
360
7C0C
  0
DICTIONARY
  5
8E73
330
8E72
100
AcDbDictionary
280
     1
281
     1
  3
AcDbBlockTableRecordData
360
8E74
  0
DICTIONARY
  5
9D16
330
9D15
100
AcDbDictionary
280
     1
281
     1
  3
AcDbBlockTableRecordData
360
9D17
  0
DICTIONARY
  5
A519
330
A518
100
AcDbDictionary
280
     1
281
     1
  3
AcDbBlockTableRecordData
360
A51A
  0
DICTIONARY
  5
A628
330
A627
100
AcDbDictionary
280
     1
281
     1
  3
AcDbBlockTableRecordData
360
A629
  0
DICTIONARY
  5
A6FC
330
A6FB
100
AcDbDictionary
280
     1
281
     1
  3
AcDbBlockTableRecordData
360
A6FD
  0
DICTIONARY
  5
7873
102
{ACAD_REACTORS
330
C
102
}
330
C
100
AcDbDictionary
281
     1
  0
DICTIONARY
  5
D
102
{ACAD_REACTORS
330
C
102
}
330
C
100
AcDbDictionary
281
     1
  0
DICTIONARY
  5
5CF3
102
{ACAD_REACTORS
330
C
102
}
330
C
100
AcDbDictionary
281
     1
  3
Model
350
5CF5
  3
配置1
350
5CF6
  0
DICTIONARY
  5
7872
102
{ACAD_REACTORS
330
C
102
}
330
C
100
AcDbDictionary
281
     1
  0
DICTIONARY
  5
1B
102
{ACAD_REACTORS
330
C
102
}
330
C
100
AcDbDictionary
281
     1
  3
STANDARD
350
1C
  0
DICTIONARY
  5
5CF4
102
{ACAD_REACTORS
330
C
102
}
330
C
100
AcDbDictionary
281
     1
  0
ACDBDICTIONARYWDFLT
  5
5CF1
102
{ACAD_REACTORS
330
C
102
}
330
C
100
AcDbDictionary
281
     1
  3
Normal
350
5CF2
100
AcDbDictionaryWithDefault
340
5CF2
  0
DICTIONARY
  5
7874
102
{ACAD_REACTORS
330
C
102
}
330
C
100
AcDbDictionary
281
     1
  3
Standard
350
7875
  0
XRECORD
  5
9A73
102
{ACAD_REACTORS
330
C
102
}
330
C
100
AcDbXrecord
280
     1
 90
   990106
  3

 60
     0
 61
     0
 62
     1
 63
     3
 64
     0
 65
     0
 66
     0
 67
     3
 68
     1
 69
     0
 70
     0
 71
     0
 72
     0
 40
0.0
170
     0
  0
DICTIONARY
  5
45D
102
{ACAD_REACTORS
330
C
102
}
330
C
100
AcDbDictionary
281
     1
  3
CTABLESTYLE
350
7880
  3
SORTENTS
350
45E
  0
DICTIONARY
  5
7C00
102
{ACAD_REACTORS
330
7BFE
102
}
330
7BFE
100
AcDbDictionary
281
     1
  0
DICTIONARY
  5
7BFF
102
{ACAD_REACTORS
330
7BFE
102
}
330
7BFE
100
AcDbDictionary
281
     1
1001
ACAD
1000
<All
  0
XRECORD
  5
5D8B
102
{ACAD_REACTORS
330
45F
102
}
330
45F
100
AcDbXrecord
280
     1
340
18
  0
SORTENTSTABLE
  5
460
102
{ACAD_REACTORS
330
45F
102
}
330
45F
100
AcDbSortentsTable
330
18
331
7D9C
  5
7D9C
331
A4E9
  5
A56A
331
A548
  5
A514
331
AA4B
  5
AA4C
331
A784
  5
A787
331
A74D
  5
A758
331
A550
  5
A59E
331
7DA4
  5
7DA4
331
7D6D
  5
7D6D
331
C0
  5
CB
331
A78C
  5
A78F
331
7DAC
  5
7DAC
331
7D75
  5
7D75
331
A794
  5
A797
331
A71E
  5
A724
331
A75D
  5
A761
331
AA63
  5
AA64
331
A647
  5
A71D
331
A560
  5
A64B
331
7DB4
  5
7DB4
331
A79C
  5
A79F
331
A726
  5
A72A
331
7DBC
  5
7DBC
331
7D7D
  5
7D7D
331
A472
  5
A508
331
A7A4
  5
A7A7
331
A765
  5
A769
331
7D85
  5
7D85
331
A4D2
  5
A540
331
A7AC
  5
A7AF
331
A76D
  5
A770
331
AB72
  5
AB7F
331
7D8D
  5
7D8D
331
A4DA
  5
A513
331
A775
  5
A778
331
A4E2
  5
A563
331
7D95
  5
7D95
331
A77D
  5
A780
331
A746
  5
A74C
331
AA44
  5
AA45
331
7D9D
  5
7D9D
331
A4EA
  5
A56B
331
A549
  5
A538
331
A785
  5
A788
331
AA4C
  5
AA4D
331
A551
  5
A5A0
331
7D6E
  5
7D6E
331
7DA5
  5
7DA5
331
A78D
  5
A790
331
A756
  5
A75D
331
A559
  5
A5A1
331
7DAD
  5
7DAD
331
7D76
  5
7D76
331
AB4B
  5
AB65
331
A795
  5
A798
331
A71F
  5
A725
331
A75E
  5
A762
331
AA64
  5
AB11
331
AD18
  5
AD18
331
A561
  5
A64C
331
7DB5
  5
7DB5
331
A79D
  5
A7A0
331
A727
  5
A72B
331
A648
  5
A71E
331
7DBD
  5
7DBD
331
7D7E
  5
7D7E
331
A7A5
  5
A7A8
331
A766
  5
A76A
331
7D86
  5
7D86
331
A4D3
  5
A54E
331
A7AD
  5
A7B0
331
A76E
  5
A771
331
7D8E
  5
7D8E
331
A4DB
  5
A544
331
A776
  5
A779
331
7D96
  5
7D96
331
ACC1
  5
A50D
331
A77E
  5
A781
331
A747
  5
A74D
331
AA45
  5
AA46
331
A4EB
  5
A56C
331
7D9E
  5
7D9E
331
A54A
  5
A512
331
AA4D
  5
AA4E
331
A786
  5
A789
331
A552
  5
A5A2
331
7D6F
  5
7D6F
331
7DA6
  5
7DA6
331
A74F
  5
A74A
331
ACF9
  5
ACF9
331
A78E
  5
A791
331
A55A
  5
A59F
331
7DAE
  5
7DAE
331
7D77
  5
7D77
331
A757
  5
A75E
331
A796
  5
A799
331
A562
  5
A64D
331
7DB6
  5
7DB6
331
A720
  5
A726
331
A75F
  5
A763
331
A79E
  5
A7A1
331
7D7F
  5
7D7F
331
A649
  5
A71F
331
A728
  5
A72C
331
A7A6
  5
A7A9
331
A767
  5
A76C
331
A4D4
  5
A517
331
7D87
  5
7D87
331
A6E1
  5
A564
331
A7AE
  5
A7B1
331
A76F
  5
A772
331
7D8F
  5
7D8F
331
A738
  5
A744
331
AB25
  5
AB31
331
A543
  5
A59C
331
A4E4
  5
A566
331
7D97
  5
7D97
331
A777
  5
A77A
331
AA46
  5
AA47
331
A77F
  5
A782
331
A4EC
  5
A58E
331
7D9F
  5
7D9F
331
A54B
  5
A552
331
A748
  5
A74E
331
AA4E
  5
AA4F
331
A553
  5
A5A3
331
7D70
  5
7D70
331
A787
  5
A78A
331
ACDA
  5
ACDA
331
A78F
  5
A792
331
A55B
  5
A646
331
7DAF
  5
7DAF
331
A758
  5
A75F
331
A797
  5
A79A
331
A563
  5
A686
331
7DB7
  5
7DB7
331
A721
  5
A727
331
A79F
  5
A7A2
331
7D78
  5
7D78
331
A760
  5
A764
331
7D80
  5
7D80
331
A64A
  5
A720
331
A729
  5
A732
331
AB65
  5
AB72
331
A7A7
  5
A7AA
331
A4D5
  5
A53A
331
7D88
  5
7D88
331
A768
  5
A76D
331
A770
  5
A773
331
7D90
  5
7D90
331
A739
  5
A745
331
A544
  5
A59D
331
A778
  5
A77B
331
AA47
  5
AA48
331
7D98
  5
7D98
331
A780
  5
A783
331
A749
  5
A751
331
A4ED
  5
A592
331
7DA0
  5
7DA0
331
A54C
  5
A54D
331
AB8D
  5
AB9E
331
AA4F
  5
AA50
331
A788
  5
A78B
331
A751
  5
A75A
331
A554
  5
A607
331
A4FD
  5
A599
331
7D71
  5
7D71
331
7DA8
  5
7DA8
331
AB3E
  5
AB4B
331
A790
  5
A793
331
A55C
  5
A647
331
7DB0
  5
7DB0
331
A798
  5
A79B
331
A564
  5
A687
331
7DB8
  5
7DB8
331
7D79
  5
7D79
331
A7A0
  5
A7A3
331
A761
  5
A765
331
A72A
  5
A734
331
A5FC
  5
A68B
331
7D81
  5
7D81
331
A7A8
  5
A7AB
331
A769
  5
A76E
331
A732
  5
A73B
331
7D89
  5
7D89
331
A4D6
  5
A553
331
A771
  5
A774
331
A73A
  5
A747
331
7D91
  5
7D91
331
A4DE
  5
A53B
331
A779
  5
A77C
331
7D99
  5
7D99
331
AA48
  5
AA49
331
A781
  5
A784
331
A74A
  5
A752
331
A4EE
  5
A594
331
A54D
  5
A54B
331
AA50
  5
AA51
331
A789
  5
A78C
331
A555
  5
A608
331
7DA9
  5
7DA9
331
ACFC
  5
ACFC
331
A791
  5
A794
331
A71B
  5
A721
331
A55D
  5
A648
331
7DB1
  5
7DB1
331
AB9E
  5
AC3C
331
A799
  5
A79C
331
7D7A
  5
7D7A
331
A7A1
  5
A7A4
331
A762
  5
A766
331
A72B
  5
A738
331
7D82
  5
7D82
331
A7A9
  5
A7AC
331
A76A
  5
A76F
331
7D8A
  5
7D8A
331
A7B1
  5
A7B2
331
A772
  5
A775
331
7D92
  5
7D92
331
A4DF
  5
A53F
331
A77A
  5
A77D
331
A743
  5
A748
331
AB7F
  5
AB80
331
7D9A
  5
7D9A
331
AA49
  5
AA4A
331
A782
  5
A785
331
A74B
  5
A756
331
A4EF
  5
A598
331
7DA2
  5
7DA2
331
A54E
  5
A542
331
AA51
  5
AA61
331
A78A
  5
A78D
331
7DAA
  5
7DAA
331
7D73
  5
7D73
331
AA61
  5
AA63
331
A792
  5
A795
331
A71C
  5
A722
331
A55E
  5
A649
331
7DB2
  5
7DB2
331
A79A
  5
A79D
331
A724
  5
A728
331
A566
  5
A689
331
7DBA
  5
7DBA
331
7D7B
  5
7D7B
331
A7A2
  5
A7A5
331
A763
  5
A767
331
A72C
  5
A739
331
AB11
  5
AB25
331
7D83
  5
7D83
331
A4D0
  5
A50E
331
A7AA
  5
A7AD
331
A734
  5
A743
331
A606
  5
A68C
331
7D8B
  5
7D8B
331
A4D8
  5
A565
331
A7B2
  5
A7B3
331
A773
  5
A776
331
7D93
  5
7D93
331
AA42
  5
AA43
331
A77B
  5
A77E
331
A744
  5
A749
331
AB80
  5
AB8D
331
A4E8
  5
A567
331
7D9B
  5
7D9B
331
AA4A
  5
AA4B
331
A783
  5
A786
331
A74C
  5
A757
331
AB31
  5
AB3E
331
A54F
  5
A516
331
7DA3
  5
7DA3
331
7D6C
  5
7D6C
331
A78B
  5
A78E
331
7D74
  5
7D74
331
A793
  5
A796
331
A71D
  5
A723
331
A75C
  5
A760
331
A55F
  5
A64A
331
A79B
  5
A79E
331
A725
  5
A729
331
A567
  5
A68A
331
7D7C
  5
7D7C
331
7DBB
  5
7DBB
331
A471
  5
A4D5
331
A7A3
  5
A7A6
331
A764
  5
A768
331
7D84
  5
7D84
331
A4D1
  5
A515
331
A7AB
  5
A7AE
331
7D8C
  5
7D8C
331
A7B3
  5
AA42
331
A774
  5
A777
331
7D94
  5
7D94
331
AA43
  5
AA44
331
A77C
  5
A77F
331
A745
  5
A74B
  0
XRECORD
  5
5D8A
102
{ACAD_REACTORS
330
5D89
102
}
330
5D89
100
AcDbXrecord
280
     1
340
15
  0
DICTIONARY
  5
7C0C
102
{ACAD_REACTORS
330
7C0B
102
}
330
7C0B
100
AcDbDictionary
280
     1
281
     1
  3
Edit
360
7C0D
  0
DICTIONARY
  5
8E74
102
{ACAD_REACTORS
330
8E73
102
}
330
8E73
100
AcDbDictionary
280
     1
281
     1
  3
Edit
360
8E75
  0
DICTIONARY
  5
9D17
102
{ACAD_REACTORS
330
9D16
102
}
330
9D16
100
AcDbDictionary
280
     1
281
     1
  3
Edit
360
9D18
  0
DICTIONARY
  5
A51A
102
{ACAD_REACTORS
330
A519
102
}
330
A519
100
AcDbDictionary
280
     1
281
     1
  3
Edit
360
A51B
  0
DICTIONARY
  5
A629
102
{ACAD_REACTORS
330
A628
102
}
330
A628
100
AcDbDictionary
280
     1
281
     1
  3
Edit
360
A62A
  0
DICTIONARY
  5
A6FD
102
{ACAD_REACTORS
330
A6FC
102
}
330
A6FC
100
AcDbDictionary
280
     1
281
     1
  3
Edit
360
A6FE
  0
LAYOUT
  5
5CF5
102
{ACAD_REACTORS
330
5CF3
102
}
330
5CF3
100
AcDbPlotSettings
  1

  2
hp LaserJet 1300 PCL 6
  4
A4
  6

 40
5.027083396911621
 41
5.069413185119628
 42
5.027084350585937
 43
5.027069091796875
 44
209.9733276367187
 45
296.9683227539062
 46
2.628062639917644
 47
0.0
 48
0.0
 49
0.0
140
190.0
141
280.0
142
1.0
143
0.9760456081518363
 70
 11956
 72
     1
 73
     0
 74
     4
  7
LIN.ctb
 75
     0
147
1.02454228741782
 76
     0
 77
     2
 78
   300
148
0.0
149
0.0
100
AcDbLayout
  1
Model
 70
     1
 71
     0
 10
0.0
 20
0.0
 11
12.0
 21
9.0
 12
0.0
 22
0.0
 32
0.0
 14
0.0
 24
0.0
 34
0.0
 15
0.0
 25
0.0
 35
0.0
146
0.0
 13
0.0
 23
0.0
 33
0.0
 16
1.0
 26
0.0
 36
0.0
 17
0.0
 27
1.0
 37
0.0
 76
     0
330
18
1001
ACAD_PSEXT
1000
hp LaserJet 1300 PCL 6
1000
hp LaserJet 1300 PCL 6
1000
HP 1300
1000

1070
     0
  0
LAYOUT
  5
5CF6
102
{ACAD_REACTORS
330
5CF3
102
}
330
5CF3
100
AcDbPlotSettings
  1

  2
EPSON STYLUS COLOR 440
  4

  6

 40
0.0
 41
0.0
 42
0.0
 43
0.0
 44
0.0
 45
0.0
 46
0.0
 47
0.0
 48
0.0
 49
0.0
140
0.0
141
0.0
142
1.0
143
1.0
 70
   688
 72
     0
 73
     0
 74
     5
  7
LIN.ctb
 75
    16
147
1.0
 76
     0
 77
     2
 78
   300
148
0.0
149
0.0
100
AcDbLayout
  1
ｰtｸm1
 70
     1
 71
     1
 10
0.0
 20
0.0
 11
420.0
 21
297.0
 12
0.0
 22
0.0
 32
0.0
 14
1.000000000000000E+20
 24
1.000000000000000E+20
 34
1.000000000000000E+20
 15
-1.000000000000000E+20
 25
-1.000000000000000E+20
 35
-1.000000000000000E+20
146
0.0
 13
0.0
 23
0.0
 33
0.0
 16
1.0
 26
0.0
 36
0.0
 17
0.0
 27
1.0
 37
0.0
 76
     0
330
15
  0
MLINESTYLE
  5
1C
102
{ACAD_REACTORS
330
1B
102
}
330
1B
100
AcDbMlineStyle
  2
STANDARD
 70
     0
  3

 62
   256
 51
90.0
 52
90.0
 71
     2
 49
0.5
 62
   256
  6
BYLAYER
 49
-0.5
 62
   256
  6
BYLAYER
  0
ACDBPLACEHOLDER
  5
5CF2
102
{ACAD_REACTORS
330
5CF1
102
}
330
5CF1
  0
TABLESTYLE
  5
7875
102
{ACAD_REACTORS
330
7874
102
}
330
7874
100
AcDbTableStyle
  3
Standard
 70
     0
 71
     8
 40
1.5
 41
1.5
280
     0
281
     0
  7
STANDARD
140
4.5
170
     2
 62
     0
 63
     7
283
     0
274
    -2
284
     1
 64
     0
275
    -2
285
     1
 65
     0
276
    -2
286
     1
 66
     0
277
    -2
287
     1
 67
     0
278
    -2
288
     1
 68
     0
279
    -2
289
     1
 69
     0
  7
STANDARD
140
6.0
170
     5
 62
     0
 63
     7
283
     0
274
    -2
284
     1
 64
     0
275
    -2
285
     1
 65
     0
276
    -2
286
     1
 66
     0
277
    -2
287
     1
 67
     0
278
    -2
288
     1
 68
     0
279
    -2
289
     1
 69
     0
  7
STANDARD
140
4.5
170
     5
 62
     0
 63
     7
283
     0
274
    -2
284
     1
 64
     0
275
    -2
285
     1
 65
     0
276
    -2
286
     1
 66
     0
277
    -2
287
     1
 67
     0
278
    -2
288
     1
 68
     0
279
    -2
289
     1
 69
     0
  0
DICTIONARYVAR
  5
7880
102
{ACAD_REACTORS
330
45D
102
}
330
45D
100
DictionaryVariables
280
     0
  1
STANDARD
  0
DICTIONARYVAR
  5
45E
102
{ACAD_REACTORS
330
45D
102
}
330
45D
100
DictionaryVariables
280
     0
  1
127
  0
XRECORD
  5
7C0D
102
{ACAD_REACTORS
330
7C0C
102
}
330
7C0C
100
AcDbXrecord
280
     1
1070
     0
1070
     1
1070
     1
  0
XRECORD
  5
8E75
102
{ACAD_REACTORS
330
8E74
102
}
330
8E74
100
AcDbXrecord
280
     1
1070
     0
1070
     1
1070
     1
  0
XRECORD
  5
9D18
102
{ACAD_REACTORS
330
9D17
102
}
330
9D17
100
AcDbXrecord
280
     1
1070
     0
1070
     1
1070
     1
  0
XRECORD
  5
A51B
102
{ACAD_REACTORS
330
A51A
102
}
330
A51A
100
AcDbXrecord
280
     1
1070
     0
1070
     1
1070
     1
  0
XRECORD
  5
A62A
102
{ACAD_REACTORS
330
A629
102
}
330
A629
100
AcDbXrecord
280
     1
1070
     0
1070
     1
1070
     1
  0
XRECORD
  5
A6FE
102
{ACAD_REACTORS
330
A6FD
102
}
330
A6FD
100
AcDbXrecord
280
     1
1070
     0
1070
     1
1070
     1
  0
ENDSEC
  0
EOF
