  0
SECTION
  2
HEADER
  9
$ACADVER
  1
AC1018
  9
$ACADMAINTVER
 70
    76
  9
$DWGCODEPAGE
  3
ANSI_932
  9
$INSBASE
 10
0.0
 20
0.0
 30
0.0
  9
$EXTMIN
 10
0.0
 20
0.0
 30
0.0
  9
$EXTMAX
 10
190.0
 20
280.0
 30
0.0
  9
$LIMMIN
 10
0.0
 20
0.0
  9
$LIMMAX
 10
420.0
 20
297.0
  9
$ORTHOMODE
 70
     1
  9
$REGENMODE
 70
     1
  9
$FILLMODE
 70
     1
  9
$QTEXTMODE
 70
     0
  9
$MIRRTEXT
 70
     1
  9
$LTSCALE
 40
1.0
  9
$ATTMODE
 70
     1
  9
$TEXTSIZE
 40
2.5
  9
$TRACEWID
 40
1.0
  9
$TEXTSTYLE
  7
STANDARD
  9
$CLAYER
  8
mark
  9
$CELTYPE
  6
BYLAYER
  9
$CECOLOR
 62
   256
  9
$CELTSCALE
 40
1.0
  9
$DISPSILH
 70
     0
  9
$DIMSCALE
 40
1.0
  9
$DIMASZ
 40
2.5
  9
$DIMEXO
 40
0.85
  9
$DIMDLI
 40
0.38
  9
$DIMRND
 40
0.0
  9
$DIMDLE
 40
0.0
  9
$DIMEXE
 40
0.85
  9
$DIMTP
 40
0.0
  9
$DIMTM
 40
0.0
  9
$DIMTXT
 40
2.5
  9
$DIMCEN
 40
0.09
  9
$DIMTSZ
 40
0.0
  9
$DIMTOL
 70
     0
  9
$DIMLIM
 70
     0
  9
$DIMTIH
 70
     0
  9
$DIMTOH
 70
     0
  9
$DIMSE1
 70
     0
  9
$DIMSE2
 70
     0
  9
$DIMTAD
 70
     3
  9
$DIMZIN
 70
     8
  9
$DIMBLK
  1
Open30
  9
$DIMASO
 70
     1
  9
$DIMSHO
 70
     1
  9
$DIMPOST
  1

  9
$DIMAPOST
  1

  9
$DIMALT
 70
     0
  9
$DIMALTD
 70
     2
  9
$DIMALTF
 40
25.4
  9
$DIMLFAC
 40
1.0
  9
$DIMTOFL
 70
     1
  9
$DIMTVP
 40
0.0
  9
$DIMTIX
 70
     0
  9
$DIMSOXD
 70
     0
  9
$DIMSAH
 70
     0
  9
$DIMBLK1
  1

  9
$DIMBLK2
  1

  9
$DIMSTYLE
  2
STANDARD
  9
$DIMCLRD
 70
   256
  9
$DIMCLRE
 70
   256
  9
$DIMCLRT
 70
     3
  9
$DIMTFAC
 40
1.0
  9
$DIMGAP
 40
0.85
  9
$DIMJUST
 70
     0
  9
$DIMSD1
 70
     0
  9
$DIMSD2
 70
     0
  9
$DIMTOLJ
 70
     1
  9
$DIMTZIN
 70
     0
  9
$DIMALTZ
 70
     0
  9
$DIMALTTZ
 70
     0
  9
$DIMUPT
 70
     0
  9
$DIMDEC
 70
     2
  9
$DIMTDEC
 70
     2
  9
$DIMALTU
 70
     2
  9
$DIMALTTD
 70
     2
  9
$DIMTXSTY
  7
STANDARD
  9
$DIMAUNIT
 70
     0
  9
$DIMADEC
 70
     2
  9
$DIMALTRND
 40
0.0
  9
$DIMAZIN
 70
     2
  9
$DIMDSEP
 70
    46
  9
$DIMATFIT
 70
     3
  9
$DIMFRAC
 70
     0
  9
$DIMLDRBLK
  1
Open30
  9
$DIMLUNIT
 70
     2
  9
$DIMLWD
 70
    -2
  9
$DIMLWE
 70
    -2
  9
$DIMTMOVE
 70
     0
  9
$LUNITS
 70
     2
  9
$LUPREC
 70
     2
  9
$SKETCHINC
 40
1.0
  9
$FILLETRAD
 40
1.0
  9
$AUNITS
 70
     0
  9
$AUPREC
 70
     2
  9
$MENU
  1
.
  9
$ELEVATION
 40
0.0
  9
$PELEVATION
 40
0.0
  9
$THICKNESS
 40
0.0
  9
$LIMCHECK
 70
     0
  9
$CHAMFERA
 40
1.0
  9
$CHAMFERB
 40
1.0
  9
$CHAMFERC
 40
1.75
  9
$CHAMFERD
 40
0.0174532925199433
  9
$SKPOLY
 70
     0
  9
$TDCREATE
 40
2451555.620234838
  9
$TDUCREATE
 40
2451555.245234838
  9
$TDUPDATE
 40
2455846.621541794
  9
$TDUUPDATE
 40
2455846.246541794
  9
$TDINDWG
 40
3.0967140394
  9
$TDUSRTIMER
 40
3.0967140394
  9
$USRTIMER
 70
     1
  9
$ANGBASE
 50
0.0
  9
$ANGDIR
 70
     0
  9
$PDMODE
 70
     0
  9
$PDSIZE
 40
0.0
  9
$PLINEWID
 40
0.0
  9
$SPLFRAME
 70
     0
  9
$SPLINETYPE
 70
     6
  9
$SPLINESEGS
 70
     8
  9
$HANDSEED
  5
DF08
  9
$SURFTAB1
 70
     6
  9
$SURFTAB2
 70
     6
  9
$SURFTYPE
 70
     6
  9
$SURFU
 70
     6
  9
$SURFV
 70
     6
  9
$UCSBASE
  2

  9
$UCSNAME
  2

  9
$UCSORG
 10
0.0
 20
0.0
 30
0.0
  9
$UCSXDIR
 10
1.0
 20
0.0
 30
0.0
  9
$UCSYDIR
 10
0.0
 20
1.0
 30
0.0
  9
$UCSORTHOREF
  2

  9
$UCSORTHOVIEW
 70
     1
  9
$UCSORGTOP
 10
0.0
 20
0.0
 30
0.0
  9
$UCSORGBOTTOM
 10
0.0
 20
0.0
 30
0.0
  9
$UCSORGLEFT
 10
0.0
 20
0.0
 30
0.0
  9
$UCSORGRIGHT
 10
0.0
 20
0.0
 30
0.0
  9
$UCSORGFRONT
 10
0.0
 20
0.0
 30
0.0
  9
$UCSORGBACK
 10
0.0
 20
0.0
 30
0.0
  9
$PUCSBASE
  2

  9
$PUCSNAME
  2

  9
$PUCSORG
 10
0.0
 20
0.0
 30
0.0
  9
$PUCSXDIR
 10
1.0
 20
0.0
 30
0.0
  9
$PUCSYDIR
 10
0.0
 20
1.0
 30
0.0
  9
$PUCSORTHOREF
  2

  9
$PUCSORTHOVIEW
 70
     0
  9
$PUCSORGTOP
 10
0.0
 20
0.0
 30
0.0
  9
$PUCSORGBOTTOM
 10
0.0
 20
0.0
 30
0.0
  9
$PUCSORGLEFT
 10
0.0
 20
0.0
 30
0.0
  9
$PUCSORGRIGHT
 10
0.0
 20
0.0
 30
0.0
  9
$PUCSORGFRONT
 10
0.0
 20
0.0
 30
0.0
  9
$PUCSORGBACK
 10
0.0
 20
0.0
 30
0.0
  9
$USERI1
 70
     0
  9
$USERI2
 70
     0
  9
$USERI3
 70
     0
  9
$USERI4
 70
     0
  9
$USERI5
 70
     0
  9
$USERR1
 40
0.0
  9
$USERR2
 40
0.0
  9
$USERR3
 40
0.0
  9
$USERR4
 40
0.0
  9
$USERR5
 40
0.0
  9
$WORLDVIEW
 70
     1
  9
$SHADEDGE
 70
     3
  9
$SHADEDIF
 70
    70
  9
$TILEMODE
 70
     1
  9
$MAXACTVP
 70
    48
  9
$PINSBASE
 10
0.0
 20
0.0
 30
0.0
  9
$PLIMCHECK
 70
     0
  9
$PEXTMIN
 10
1.000000000000000E+20
 20
1.000000000000000E+20
 30
1.000000000000000E+20
  9
$PEXTMAX
 10
-1.000000000000000E+20
 20
-1.000000000000000E+20
 30
-1.000000000000000E+20
  9
$PLIMMIN
 10
0.0
 20
0.0
  9
$PLIMMAX
 10
420.0
 20
297.0
  9
$UNITMODE
 70
     0
  9
$VISRETAIN
 70
     1
  9
$PLINEGEN
 70
     0
  9
$PSLTSCALE
 70
     1
  9
$TREEDEPTH
 70
  3020
  9
$CMLSTYLE
  2
STANDARD
  9
$CMLJUST
 70
     0
  9
$CMLSCALE
 40
20.0
  9
$PROXYGRAPHICS
 70
     1
  9
$MEASUREMENT
 70
     1
  9
$CELWEIGHT
370
    -1
  9
$ENDCAPS
280
     0
  9
$JOINSTYLE
280
     0
  9
$LWDISPLAY
290
     0
  9
$INSUNITS
 70
     0
  9
$HYPERLINKBASE
  1

  9
$STYLESHEET
  1
LIN.ctb
  9
$XEDIT
290
     1
  9
$CEPSNTYPE
380
     0
  9
$PSTYLEMODE
290
     1
  9
$FINGERPRINTGUID
  2
{1CF51E8A-A506-11D4-A7D9-AF69F5C20846}
  9
$VERSIONGUID
  2
{AFF61E1F-BF1E-498A-A741-699A18D041D4}
  9
$EXTNAMES
290
     1
  9
$PSVPSCALE
 40
0.0
  9
$OLESTARTUP
290
     0
  9
$SORTENTS
280
   127
  9
$INDEXCTL
280
     0
  9
$HIDETEXT
280
     0
  9
$XCLIPFRAME
290
     0
  9
$HALOGAP
280
     0
  9
$OBSCOLOR
 70
   257
  9
$OBSLTYPE
280
     0
  9
$INTERSECTIONDISPLAY
280
     0
  9
$INTERSECTIONCOLOR
 70
   257
  9
$DIMASSOC
280
     1
  9
$PROJECTNAME
  1

  0
ENDSEC
  0
SECTION
  2
CLASSES
  0
CLASS
  1
DICTIONARYVAR
  2
AcDbDictionaryVar
  3
ObjectDBX Classes
 90
        0
 91
        2
280
     0
281
     0
  0
CLASS
  1
SORTENTSTABLE
  2
AcDbSortentsTable
  3
ObjectDBX Classes
 90
        0
 91
        1
280
     0
281
     0
  0
CLASS
  1
ACDBDICTIONARYWDFLT
  2
AcDbDictionaryWithDefault
  3
ObjectDBX Classes
 90
        0
 91
        1
280
     0
281
     0
  0
CLASS
  1
TABLESTYLE
  2
AcDbTableStyle
  3
ObjectDBX Classes
 90
     2047
 91
        1
280
     0
281
     0
  0
ENDSEC
  0
SECTION
  2
TABLES
  0
TABLE
  2
VPORT
  5
8
330
0
100
AcDbSymbolTable
 70
     2
  0
VPORT
  5
DF07
330
8
100
AcDbSymbolTableRecord
100
AcDbViewportTableRecord
  2
*Active
 70
     0
 10
0.0
 20
0.0
 11
1.0
 21
1.0
 12
297.469194200538
 22
140.0027625224352
 13
0.0
 23
0.0
 14
10.0
 24
10.0
 15
10.0
 25
10.0
 16
0.0
 26
0.0
 36
1.0
 17
0.0
 27
0.0
 37
0.0
 40
283.5086058527126
 41
2.47104247104247
 42
50.0
 43
0.0
 44
0.0
 50
0.0
 51
0.0
 71
     0
 72
 20000
 73
     1
 74
     1
 75
     0
 76
     0
 77
     0
 78
     0
281
     0
 65
     1
110
0.0
120
0.0
130
0.0
111
1.0
121
0.0
131
0.0
112
0.0
122
1.0
132
0.0
 79
     1
146
0.0
  0
ENDTAB
  0
TABLE
  2
LTYPE
  5
5
330
0
100
AcDbSymbolTable
 70
     7
  0
LTYPE
  5
12
330
5
100
AcDbSymbolTableRecord
100
AcDbLinetypeTableRecord
  2
BYBLOCK
 70
     0
  3

 72
    65
 73
     0
 40
0.0
  0
LTYPE
  5
13
330
5
100
AcDbSymbolTableRecord
100
AcDbLinetypeTableRecord
  2
BYLAYER
 70
     0
  3

 72
    65
 73
     0
 40
0.0
  0
LTYPE
  5
14
330
5
100
AcDbSymbolTableRecord
100
AcDbLinetypeTableRecord
  2
CONTINUOUS
 70
     0
  3
Solid line
 72
    65
 73
     0
 40
0.0
  0
LTYPE
  5
9D
330
5
100
AcDbSymbolTableRecord
100
AcDbLinetypeTableRecord
  2
CENTERX2
 70
     0
  3
Center (2x) ________  __  ________  __  _____
 72
    65
 73
     4
 40
101.6
 49
63.5
 74
     0
 49
-12.7
 74
     0
 49
12.7
 74
     0
 49
-12.7
 74
     0
  0
LTYPE
  5
A1
330
5
100
AcDbSymbolTableRecord
100
AcDbLinetypeTableRecord
  2
DASHED
 70
     0
  3
Dashed __ __ __ __ __ __ __ __ __ __ __ __ __ _
 72
    65
 73
     2
 40
19.05
 49
12.7
 74
     0
 49
-6.349999999999999
 74
     0
  0
LTYPE
  5
A2
330
5
100
AcDbSymbolTableRecord
100
AcDbLinetypeTableRecord
  2
DASHED2
 70
     0
  3
Dashed (.5x) _ _ _ _ _ _ _ _ _ _ _ _ _ _ _ _ _
 72
    65
 73
     2
 40
9.524999999999998
 49
6.349999999999999
 74
     0
 49
-3.174999999999999
 74
     0
  0
LTYPE
  5
A5
330
5
100
AcDbSymbolTableRecord
100
AcDbLinetypeTableRecord
  2
DIVIDE2
 70
     0
  3
Divide (.5x) __..__..__..__..__..__..__..__.._
 72
    65
 73
     6
 40
15.875
 49
6.349999999999999
 74
     0
 49
-3.174999999999999
 74
     0
 49
0.0
 74
     0
 49
-3.174999999999999
 74
     0
 49
0.0
 74
     0
 49
-3.174999999999999
 74
     0
  0
LTYPE
  5
650B
330
5
100
AcDbSymbolTableRecord
100
AcDbLinetypeTableRecord
  2
CENTER
 70
     0
  3
Center ____ _ ____ _ ____ _ ____ _ ____ _ ____
 72
    65
 73
     4
 40
50.8
 49
31.75
 74
     0
 49
-6.349999999999999
 74
     0
 49
6.349999999999999
 74
     0
 49
-6.349999999999999
 74
     0
  0
LTYPE
  5
650C
330
5
100
AcDbSymbolTableRecord
100
AcDbLinetypeTableRecord
  2
HIDDEN
 70
     0
  3
Hidden __ __ __ __ __ __ __ __ __ __ __ __ __ _
 72
    65
 73
     2
 40
9.524999999999998
 49
6.349999999999999
 74
     0
 49
-3.174999999999999
 74
     0
  0
ENDTAB
  0
TABLE
  2
LAYER
  5
2
102
{ACAD_XDICTIONARY
360
7BFE
102
}
330
0
100
AcDbSymbolTable
 70
     9
  0
LAYER
  5
E
330
2
100
AcDbSymbolTableRecord
100
AcDbLayerTableRecord
  2
0
 70
     0
 62
     7
  6
CONTINUOUS
370
    -3
390
5CF2
  0
LAYER
  5
B9
330
2
100
AcDbSymbolTableRecord
100
AcDbLayerTableRecord
  2
dim
 70
     0
 62
     3
  6
CONTINUOUS
370
    -3
390
5CF2
  0
LAYER
  5
F2
330
2
100
AcDbSymbolTableRecord
100
AcDbLayerTableRecord
  2
DEFPOINTS
 70
     0
 62
     4
  6
CONTINUOUS
290
     0
370
    -3
390
5CF2
  0
LAYER
  5
5F8B
330
2
100
AcDbSymbolTableRecord
100
AcDbLayerTableRecord
  2
mark
 70
     0
 62
     6
  6
CONTINUOUS
370
    -3
390
5CF2
  0
LAYER
  5
644E
330
2
100
AcDbSymbolTableRecord
100
AcDbLayerTableRecord
  2
frame
 70
     0
 62
     9
  6
CONTINUOUS
370
    -3
390
5CF2
  0
LAYER
  5
650D
330
2
100
AcDbSymbolTableRecord
100
AcDbLayerTableRecord
  2
center
 70
     0
 62
     1
  6
CENTER
370
    -3
390
5CF2
  0
LAYER
  5
650E
330
2
100
AcDbSymbolTableRecord
100
AcDbLayerTableRecord
  2
bowle
 70
     0
 62
     4
  6
HIDDEN
370
    -3
390
5CF2
  0
LAYER
  5
650F
330
2
100
AcDbSymbolTableRecord
100
AcDbLayerTableRecord
  2
contour
 70
     0
 62
     2
  6
CONTINUOUS
370
    -3
390
5CF2
  0
LAYER
  5
6510
330
2
100
AcDbSymbolTableRecord
100
AcDbLayerTableRecord
  2
section
 70
     0
 62
     5
  6
CONTINUOUS
370
    -3
390
5CF2
  0
ENDTAB
  0
TABLE
  2
STYLE
  5
3
330
0
100
AcDbSymbolTable
 70
     3
  0
STYLE
  5
F
330
3
100
AcDbSymbolTableRecord
100
AcDbTextStyleTableRecord
  2
STANDARD
 70
     0
 40
0.0
 41
1.0
 50
0.0
 71
     0
 42
2.5
  3
txt.shx
  4
bigfont.shx
  0
STYLE
  5
BE
330
3
100
AcDbSymbolTableRecord
100
AcDbTextStyleTableRecord
  2
CN
 70
     0
 40
0.0
 41
1.0
 50
0.0
 71
     0
 42
2.5
  3
txt.shx
  4
gbcbig.shx
  0
STYLE
  5
5DCC
330
3
100
AcDbSymbolTableRecord
100
AcDbTextStyleTableRecord
  2
TW
 70
     0
 40
0.0
 41
1.0
 50
0.0
 71
     0
 42
5.0
  3
txt.shx
  4
chineset.shx
  0
ENDTAB
  0
TABLE
  2
VIEW
  5
6
330
0
100
AcDbSymbolTable
 70
     0
  0
ENDTAB
  0
TABLE
  2
UCS
  5
7
330
0
100
AcDbSymbolTable
 70
     0
  0
ENDTAB
  0
TABLE
  2
APPID
  5
9
330
0
100
AcDbSymbolTable
 70
    11
  0
APPID
  5
10
330
9
100
AcDbSymbolTableRecord
100
AcDbRegAppTableRecord
  2
ACAD
 70
     0
  0
APPID
  5
7C91
330
9
100
AcDbSymbolTableRecord
100
AcDbRegAppTableRecord
  2
ACAD_DSTYLE_DIMEXT_LENGTH
 70
     0
  0
APPID
  5
7C92
330
9
100
AcDbSymbolTableRecord
100
AcDbRegAppTableRecord
  2
ACAD_DSTYLE_DIMEXT_ENABLED
 70
     0
  0
APPID
  5
7C93
330
9
100
AcDbSymbolTableRecord
100
AcDbRegAppTableRecord
  2
ACAD_DSTYLE_DIMJOGGED_JOGANGLE_SYMBOL
 70
     0
  0
APPID
  5
7C94
330
9
100
AcDbSymbolTableRecord
100
AcDbRegAppTableRecord
  2
ACAD_DSTYLE_DIMARC_LENGTH_SYMBOL
 70
     0
  0
APPID
  5
7F1C
330
9
100
AcDbSymbolTableRecord
100
AcDbRegAppTableRecord
  2
ACAD_EXEMPT_FROM_CAD_STANDARDS
 70
     0
  0
APPID
  5
7F49
330
9
100
AcDbSymbolTableRecord
100
AcDbRegAppTableRecord
  2
ACAD_DSTYLE_DIMTEXT_FILL
 70
     0
  0
APPID
  5
7F4C
330
9
100
AcDbSymbolTableRecord
100
AcDbRegAppTableRecord
  2
ACAD_DSTYLE_DIM_LINETYPE
 70
     0
  0
APPID
  5
7F4D
330
9
100
AcDbSymbolTableRecord
100
AcDbRegAppTableRecord
  2
ACAD_DSTYLE_DIM_EXT1_LINETYPE
 70
     0
  0
APPID
  5
7F4E
330
9
100
AcDbSymbolTableRecord
100
AcDbRegAppTableRecord
  2
ACAD_DSTYLE_DIM_EXT2_LINETYPE
 70
     0
  0
APPID
  5
8C73
330
9
100
AcDbSymbolTableRecord
100
AcDbRegAppTableRecord
  2
ACAD_PSEXT
 70
     0
  0
ENDTAB
  0
TABLE
  2
DIMSTYLE
  5
A
330
0
100
AcDbSymbolTable
 70
     1
100
AcDbDimStyleTable
 71
     1
340
1D
  0
DIMSTYLE
105
1D
102
{ACAD_REACTORS
330
DC95
330
DCA2
330
DCBC
330
DCDF
330
DCF3
330
DDA1
330
DDAD
330
DE93
102
}
330
A
100
AcDbSymbolTableRecord
100
AcDbDimStyleTableRecord
  2
STANDARD
 70
     0
 41
2.5
 42
0.85
 44
0.85
 73
     0
 74
     0
 77
     3
 78
     8
 79
     2
140
2.5
147
0.85
172
     1
176
   256
177
   256
178
     3
179
     2
271
     2
272
     2
340
F
341
7C04
342
7C04
1001
ACAD_DSTYLE_DIMEXT_LENGTH
1070
   378
1040
0.18
1001
ACAD_DSTYLE_DIMEXT_ENABLED
1070
   383
1070
     0
1001
ACAD_DSTYLE_DIMARC_LENGTH_SYMBOL
1070
   379
1070
     0
1001
ACAD_DSTYLE_DIMJOGGED_JOGANGLE_SYMBOL
1070
   384
1040
1.570796326794896
  0
ENDTAB
  0
TABLE
  2
BLOCK_RECORD
  5
1
330
0
100
AcDbSymbolTable
 70
    15
  0
BLOCK_RECORD
  5
18
102
{ACAD_XDICTIONARY
360
45F
102
}
330
1
100
AcDbSymbolTableRecord
100
AcDbBlockTableRecord
  2
*MODEL_SPACE
340
5CF5
  0
BLOCK_RECORD
  5
15
102
{ACAD_XDICTIONARY
360
5D89
102
}
330
1
100
AcDbSymbolTableRecord
100
AcDbBlockTableRecord
  2
*PAPER_SPACE
340
5CF6
  0
BLOCK_RECORD
  5
639D
330
1
100
AcDbSymbolTableRecord
100
AcDbBlockTableRecord
  2
A$C255C26A2
340
0
  0
BLOCK_RECORD
  5
7C04
330
1
100
AcDbSymbolTableRecord
100
AcDbBlockTableRecord
  2
_Open30
340
0
102
{BLKREFS
331
DEA5
331
DEA6
331
DEB0
331
DEB1
331
DEB9
331
DEBA
331
DEC2
331
DEC3
331
DECB
331
DECC
331
DED5
331
DED6
331
DEDD
331
DEDE
331
DEE4
331
DEE5
102
}
  0
BLOCK_RECORD
  5
7C0A
102
{ACAD_XDICTIONARY
360
7C0B
102
}
330
1
100
AcDbSymbolTableRecord
100
AcDbBlockTableRecord
  2
A
340
0
310
2800000020000000200000000100080000000000000400000000000000000000000000000000000000000000000080000080000000808000800000008000800080800000C0C0C000C0DCC000F0CAA6000020400000206000002080000020A0000020C0000020E00000400000004020000040400000406000004080000040A0
310
000040C0000040E00000600000006020000060400000606000006080000060A0000060C0000060E00000800000008020000080400000806000008080000080A0000080C0000080E00000A0000000A0200000A0400000A0600000A0800000A0A00000A0C00000A0E00000C0000000C0200000C0400000C0600000C0800000C0
310
A00000C0C00000C0E00000E0000000E0200000E0400000E0600000E0800000E0A00000E0C00000E0E00040000000400020004000400040006000400080004000A0004000C0004000E00040200000402020004020400040206000402080004020A0004020C0004020E000404000004040200040404000404060004040800040
310
40A0004040C0004040E00040600000406020004060400040606000406080004060A0004060C0004060E00040800000408020004080400040806000408080004080A0004080C0004080E00040A0000040A0200040A0400040A0600040A0800040A0A00040A0C00040A0E00040C0000040C0200040C0400040C0600040C08000
310
40C0A00040C0C00040C0E00040E0000040E0200040E0400040E0600040E0800040E0A00040E0C00040E0E00080000000800020008000400080006000800080008000A0008000C0008000E00080200000802020008020400080206000802080008020A0008020C0008020E00080400000804020008040400080406000804080
310
008040A0008040C0008040E00080600000806020008060400080606000806080008060A0008060C0008060E00080800000808020008080400080806000808080008080A0008080C0008080E00080A0000080A0200080A0400080A0600080A0800080A0A00080A0C00080A0E00080C0000080C0200080C0400080C0600080C0
310
800080C0A00080C0C00080C0E00080E0000080E0200080E0400080E0600080E0800080E0A00080E0C00080E0E000C0000000C0002000C0004000C0006000C0008000C000A000C000C000C000E000C0200000C0202000C0204000C0206000C0208000C020A000C020C000C020E000C0400000C0402000C0404000C0406000C0
310
408000C040A000C040C000C040E000C0600000C0602000C0604000C0606000C0608000C060A000C060C000C060E000C0800000C0802000C0804000C0806000C0808000C080A000C080C000C080E000C0A00000C0A02000C0A04000C0A06000C0A08000C0A0A000C0A0C000C0A0E000C0C00000C0C02000C0C04000C0C06000
310
C0C08000C0C0A000F0FBFF00A4A0A000808080000000FF0000FF000000FFFF00FF000000FF00FF00FFFF0000FFFFFF0000000000000000000000000000000000000000000000000000000000000000000000000000000000000000000000000000000000000000000000000000000000000000000000000000000000000000
310
00000000000000000000000000000000000000000000000000000000000000000000000000000000000000000000000000000000000000000000000000000000000000000000000000000000000000000000000000000000000000000000000000000000000000000000000000000000000000000000000000000000000000
310
00000000000000000000000000000000000000000000000000000000000000000000000000000000000000000000000000000000000000000000000000000000000000000000000000000000000000000000000000000000000000000000000000000000000000000000000000000000000000000000000000000000000000
310
000000000000FDFDFDFDFDFDFDFDFDFDFDFD0000FD0000000000000000000000000000000000FD0000FA0000000000FA00FD0000FDFD00000000000000000000000000000000FD0000FA0000000000FA00FD0000FDFDFD000000000000000000000000000000FD0000FA0000000000FA00FD0000FDFDFDFD00000000000000
310
00000000000000FD0000FAFAFAFAFAFAFA00FD0000FDFDFDFDFD00000000000000000000000000FD000000FA00000000FA00FD0000FDFDFDFDFDFDFDFDFDFDFDFDFDFDFDFDFDFDFD000000FA000000FA0000FD0000FDFDFDFDFD00000000000000000000000000FD00000000FA0000FA0000FD0000FDFDFDFD000000000000
310
0000000000000000FD00000000FA00FA000000FD0000FDFD00000000000000000000000000000000FD0000000000FAFA000000FD0000FD0000000000000000000000000000000000FD0000000000FA00000000FD0000000000000000000000000000000000000000FDFDFDFDFDFDFDFDFDFDFDFD0000000000000000000000
310
00000000000000000000000000000000000000000000000000000000000000000000000000000000000000000000000000000000000000000000000000000000000000000000000000000000000000000000000000000000000000000000000000000000000000000000000000000000000000000000000000000000000000
310
00000000000000000000000000000000000000000000000000000000000000000000000000000000000000000000000000000000000000000000000000000000000000000000000000000000000000000000000000000000000000000000000000000000000000000000000000000000000000000000000000000000000000
310
0000000000000000000000000000000000000000000000000000000000000000000000000000000000000000000000000000000000000000
  0
BLOCK_RECORD
  5
8E72
102
{ACAD_XDICTIONARY
360
8E73
102
}
330
1
100
AcDbSymbolTableRecord
100
AcDbBlockTableRecord
  2
LS
340
0
310
2800000020000000200000000100080000000000000400000000000000000000000000000000000000000000000080000080000000808000800000008000800080800000C0C0C000C0DCC000F0CAA6000020400000206000002080000020A0000020C0000020E00000400000004020000040400000406000004080000040A0
310
000040C0000040E00000600000006020000060400000606000006080000060A0000060C0000060E00000800000008020000080400000806000008080000080A0000080C0000080E00000A0000000A0200000A0400000A0600000A0800000A0A00000A0C00000A0E00000C0000000C0200000C0400000C0600000C0800000C0
310
A00000C0C00000C0E00000E0000000E0200000E0400000E0600000E0800000E0A00000E0C00000E0E00040000000400020004000400040006000400080004000A0004000C0004000E00040200000402020004020400040206000402080004020A0004020C0004020E000404000004040200040404000404060004040800040
310
40A0004040C0004040E00040600000406020004060400040606000406080004060A0004060C0004060E00040800000408020004080400040806000408080004080A0004080C0004080E00040A0000040A0200040A0400040A0600040A0800040A0A00040A0C00040A0E00040C0000040C0200040C0400040C0600040C08000
310
40C0A00040C0C00040C0E00040E0000040E0200040E0400040E0600040E0800040E0A00040E0C00040E0E00080000000800020008000400080006000800080008000A0008000C0008000E00080200000802020008020400080206000802080008020A0008020C0008020E00080400000804020008040400080406000804080
310
008040A0008040C0008040E00080600000806020008060400080606000806080008060A0008060C0008060E00080800000808020008080400080806000808080008080A0008080C0008080E00080A0000080A0200080A0400080A0600080A0800080A0A00080A0C00080A0E00080C0000080C0200080C0400080C0600080C0
310
800080C0A00080C0C00080C0E00080E0000080E0200080E0400080E0600080E0800080E0A00080E0C00080E0E000C0000000C0002000C0004000C0006000C0008000C000A000C000C000C000E000C0200000C0202000C0204000C0206000C0208000C020A000C020C000C020E000C0400000C0402000C0404000C0406000C0
310
408000C040A000C040C000C040E000C0600000C0602000C0604000C0606000C0608000C060A000C060C000C060E000C0800000C0802000C0804000C0806000C0808000C080A000C080C000C080E000C0A00000C0A02000C0A04000C0A06000C0A08000C0A0A000C0A0C000C0A0E000C0C00000C0C02000C0C04000C0C06000
310
C0C08000C0C0A000F0FBFF00A4A0A000808080000000FF0000FF000000FFFF00FF000000FF00FF00FFFF0000FFFFFF00000000000000000000000000000000000000000000000000000000000000000000000000000000000000FBFBFEFBFEFBFBFEFBFEFBFB00000000000000000000000000000000000000FBFBFBFEFBFE
310
FBFBFEFBFEFBFBFB000000000000000000000000000000000000FB0000FE00FE0000FE00FE0000FB000000000000000000000000000000000000FB0000FE00FE0000FE00FE0000FB000000000000000000000000000000000000FB0000FEFEFEFEFEFEFEFE0000FB000000000000000000000000000000000000FB000000FE
310
FE0000FEFE000000FB000000000000000000000000000000000000FB0000000000FEFE0000000000FB000000000000000000000000000000000000FBFBFBFEFBFBFBFBFBFBFEFBFBFB000000000000000000000000000000000000000000FBFE0000000000FE000000000000000000000000000000000000000000000000FB
310
FBFBFBFBFBFEFB000000000000000000000000000000000000000000000000FBFE00000000FEFB000000000000000000000000000000000000000000000000FBFE00000000FEFB000000000000000000000000000000000000000000000000FBFE00000000FEFB000000000000000000000000000000000000000000000000
310
FBFE00000000FEFB000000000000000000000000000000000000000000000000FBFE00000000FEFB000000000000000000000000000000000000000000000000FBFE00000000FEFB000000000000000000000000000000000000000000000000FBFE00000000FEFB0000000000000000000000000000000000000000000000
310
00FBFE00000000FEFB000000000000000000000000000000000000000000000000FBFE00000000FEFB000000000000000000000000000000000000000000000000FBFE00000000FEFB000000000000000000000000000000000000000000000000FBFE00000000FEFB00000000000000000000000000000000000000000000
310
0000FBFE00000000FEFB000000000000000000000000000000000000000000000000FBFE00000000FEFB000000000000000000000000000000000000000000000000FBFE00000000FEFB000000000000000000000000000000000000000000000000FBFE00000000FEFB000000000000000000000000000000000000000000
310
000000FBFE00000000FEFB000000000000000000000000000000000000000000000000FBFE00000000FEFB000000000000000000000000000000000000000000000000FBFEFBFBFBFBFEFB00000000000000000000000000000000000000000000000000FE00000000FEFB0000000000000000000000000000000000000000
310
0000000000FBFBFBFBFBFB000000000000000000000000000000000000000000000000000000000000000000000000000000000000000000
  0
BLOCK_RECORD
  5
9D15
102
{ACAD_XDICTIONARY
360
9D16
102
}
330
1
100
AcDbSymbolTableRecord
100
AcDbBlockTableRecord
  2
LS2
340
0
310
2800000020000000200000000100080000000000000400000000000000000000000000000000000000000000000080000080000000808000800000008000800080800000C0C0C000C0DCC000F0CAA6000020400000206000002080000020A0000020C0000020E00000400000004020000040400000406000004080000040A0
310
000040C0000040E00000600000006020000060400000606000006080000060A0000060C0000060E00000800000008020000080400000806000008080000080A0000080C0000080E00000A0000000A0200000A0400000A0600000A0800000A0A00000A0C00000A0E00000C0000000C0200000C0400000C0600000C0800000C0
310
A00000C0C00000C0E00000E0000000E0200000E0400000E0600000E0800000E0A00000E0C00000E0E00040000000400020004000400040006000400080004000A0004000C0004000E00040200000402020004020400040206000402080004020A0004020C0004020E000404000004040200040404000404060004040800040
310
40A0004040C0004040E00040600000406020004060400040606000406080004060A0004060C0004060E00040800000408020004080400040806000408080004080A0004080C0004080E00040A0000040A0200040A0400040A0600040A0800040A0A00040A0C00040A0E00040C0000040C0200040C0400040C0600040C08000
310
40C0A00040C0C00040C0E00040E0000040E0200040E0400040E0600040E0800040E0A00040E0C00040E0E00080000000800020008000400080006000800080008000A0008000C0008000E00080200000802020008020400080206000802080008020A0008020C0008020E00080400000804020008040400080406000804080
310
008040A0008040C0008040E00080600000806020008060400080606000806080008060A0008060C0008060E00080800000808020008080400080806000808080008080A0008080C0008080E00080A0000080A0200080A0400080A0600080A0800080A0A00080A0C00080A0E00080C0000080C0200080C0400080C0600080C0
310
800080C0A00080C0C00080C0E00080E0000080E0200080E0400080E0600080E0800080E0A00080E0C00080E0E000C0000000C0002000C0004000C0006000C0008000C000A000C000C000C000E000C0200000C0202000C0204000C0206000C0208000C020A000C020C000C020E000C0400000C0402000C0404000C0406000C0
310
408000C040A000C040C000C040E000C0600000C0602000C0604000C0606000C0608000C060A000C060C000C060E000C0800000C0802000C0804000C0806000C0808000C080A000C080C000C080E000C0A00000C0A02000C0A04000C0A06000C0A08000C0A0A000C0A0C000C0A0E000C0C00000C0C02000C0C04000C0C06000
310
C0C08000C0C0A000F0FBFF00A4A0A000808080000000FF0000FF000000FFFF00FF000000FF00FF00FFFF0000FFFFFF0000000000000000000000000000000000000000000000000000000000000000000000000000000000000000FBFBFEFEFBFBFEFEFBFB00000000000000000000000000000000000000000000FBFBFEFE
310
FBFBFEFEFBFB00000000000000000000000000000000000000000000FB00FEFE0000FEFE00FB00000000000000000000000000000000000000000000FB00FEFE0000FEFE00FB00000000000000000000000000000000000000000000FB00FEFEFEFEFEFE00FB00000000000000000000000000000000000000000000FB0000
310
FEFEFE000000FB00000000000000000000000000000000000000000000FBFBFEFBFBFBFBFEFBFB000000000000000000000000000000000000000000000000FBFBFBFBFBFE0000000000000000000000000000000000000000000000000000FE00000000FE0000000000000000000000000000000000000000000000000000
310
FE00000000FE0000000000000000000000000000000000000000000000000000FE00000000FE0000000000000000000000000000000000000000000000000000FE00000000FE0000000000000000000000000000000000000000000000000000FE00000000FE00000000000000000000000000000000000000000000000000
310
00FE00000000FE0000000000000000000000000000000000000000000000000000FE00000000FE0000000000000000000000000000000000000000000000000000FE00000000FE0000000000000000000000000000000000000000000000000000FE00000000FE000000000000000000000000000000000000000000000000
310
0000FE00000000FE0000000000000000000000000000000000000000000000000000FE00000000FE0000000000000000000000000000000000000000000000000000FE00000000FE0000000000000000000000000000000000000000000000000000FE00000000FE0000000000000000000000000000000000000000000000
310
000000FE00000000FE0000000000000000000000000000000000000000000000000000FE00000000FE0000000000000000000000000000000000000000000000000000FE00000000FE0000000000000000000000000000000000000000000000000000FE00000000FE00000000000000000000000000000000000000000000
310
00000000FE00000000FE0000000000000000000000000000000000000000000000000000FE00000000FE0000000000000000000000000000000000000000000000000000FEFBFBFBFBFE0000000000000000000000000000000000000000000000000000FEFB000000FE000000000000000000000000000000000000000000
310
000000000000FBFBFBFB00000000000000000000000000000000000000000000000000000000000000000000000000000000000000000000
  0
BLOCK_RECORD
  5
A518
102
{ACAD_XDICTIONARY
360
A519
102
}
330
1
100
AcDbSymbolTableRecord
100
AcDbBlockTableRecord
  2
LS3
340
0
310
2800000020000000200000000100080000000000000400000000000000000000000000000000000000000000000080000080000000808000800000008000800080800000C0C0C000C0DCC000F0CAA6000020400000206000002080000020A0000020C0000020E00000400000004020000040400000406000004080000040A0
310
000040C0000040E00000600000006020000060400000606000006080000060A0000060C0000060E00000800000008020000080400000806000008080000080A0000080C0000080E00000A0000000A0200000A0400000A0600000A0800000A0A00000A0C00000A0E00000C0000000C0200000C0400000C0600000C0800000C0
310
A00000C0C00000C0E00000E0000000E0200000E0400000E0600000E0800000E0A00000E0C00000E0E00040000000400020004000400040006000400080004000A0004000C0004000E00040200000402020004020400040206000402080004020A0004020C0004020E000404000004040200040404000404060004040800040
310
40A0004040C0004040E00040600000406020004060400040606000406080004060A0004060C0004060E00040800000408020004080400040806000408080004080A0004080C0004080E00040A0000040A0200040A0400040A0600040A0800040A0A00040A0C00040A0E00040C0000040C0200040C0400040C0600040C08000
310
40C0A00040C0C00040C0E00040E0000040E0200040E0400040E0600040E0800040E0A00040E0C00040E0E00080000000800020008000400080006000800080008000A0008000C0008000E00080200000802020008020400080206000802080008020A0008020C0008020E00080400000804020008040400080406000804080
310
008040A0008040C0008040E00080600000806020008060400080606000806080008060A0008060C0008060E00080800000808020008080400080806000808080008080A0008080C0008080E00080A0000080A0200080A0400080A0600080A0800080A0A00080A0C00080A0E00080C0000080C0200080C0400080C0600080C0
310
800080C0A00080C0C00080C0E00080E0000080E0200080E0400080E0600080E0800080E0A00080E0C00080E0E000C0000000C0002000C0004000C0006000C0008000C000A000C000C000C000E000C0200000C0202000C0204000C0206000C0208000C020A000C020C000C020E000C0400000C0402000C0404000C0406000C0
310
408000C040A000C040C000C040E000C0600000C0602000C0604000C0606000C0608000C060A000C060C000C060E000C0800000C0802000C0804000C0806000C0808000C080A000C080C000C080E000C0A00000C0A02000C0A04000C0A06000C0A08000C0A0A000C0A0C000C0A0E000C0C00000C0C02000C0C04000C0C06000
310
C0C08000C0C0A000F0FBFF00A4A0A000808080000000FF0000FF000000FFFF00FF000000FF00FF00FFFF0000FFFFFF0000000000000000000000000000000000000000000000000000000000000000000000000000000000000000FBFBFEFEFBFBFEFEFBFB00000000000000000000000000000000000000000000FBFBFEFE
310
FBFBFEFEFBFB00000000000000000000000000000000000000000000FB00FEFE0000FEFE00FB00000000000000000000000000000000000000000000FB00FEFEFEFEFEFE00FB00000000000000000000000000000000000000000000FB0000FEFE00FE0000FB00000000000000000000000000000000000000000000FB0000
310
0000FE000000FB00000000000000000000000000000000000000000000FBFBFEFBFBFBFBFBFBFB000000000000000000000000000000000000000000000000FE00000000FE0000000000000000000000000000000000000000000000000000FE00000000FE0000000000000000000000000000000000000000000000000000
310
FE00000000FE0000000000000000000000000000000000000000000000000000FE00000000FE0000000000000000000000000000000000000000000000000000FE00000000FE0000000000000000000000000000000000000000000000000000FE00000000FE00000000000000000000000000000000000000000000000000
310
00FE00000000FE0000000000000000000000000000000000000000000000000000FE00000000FE0000000000000000000000000000000000000000000000000000FE00000000FE0000000000000000000000000000000000000000000000000000FE00000000FE000000000000000000000000000000000000000000000000
310
0000FE00000000FE0000000000000000000000000000000000000000000000000000FE00000000FE0000000000000000000000000000000000000000000000000000FE00000000FE0000000000000000000000000000000000000000000000000000FE00000000FE0000000000000000000000000000000000000000000000
310
000000FE00000000FE0000000000000000000000000000000000000000000000000000FE00000000FE0000000000000000000000000000000000000000000000000000FE00000000FE0000000000000000000000000000000000000000000000000000FE00000000FE00000000000000000000000000000000000000000000
310
00000000FE00000000FE0000000000000000000000000000000000000000000000000000FE00000000FE0000000000000000000000000000000000000000000000000000FE00000000FE0000000000000000000000000000000000000000000000000000FEFBFBFBFBFE000000000000000000000000000000000000000000
310
000000000000FBFBFBFB00000000000000000000000000000000000000000000000000000000000000000000000000000000000000000000
  0
BLOCK_RECORD
  5
A627
102
{ACAD_XDICTIONARY
360
A628
102
}
330
1
100
AcDbSymbolTableRecord
100
AcDbBlockTableRecord
  2
LS4
340
0
310
2800000020000000200000000100080000000000000400000000000000000000000000000000000000000000000080000080000000808000800000008000800080800000C0C0C000C0DCC000F0CAA6000020400000206000002080000020A0000020C0000020E00000400000004020000040400000406000004080000040A0
310
000040C0000040E00000600000006020000060400000606000006080000060A0000060C0000060E00000800000008020000080400000806000008080000080A0000080C0000080E00000A0000000A0200000A0400000A0600000A0800000A0A00000A0C00000A0E00000C0000000C0200000C0400000C0600000C0800000C0
310
A00000C0C00000C0E00000E0000000E0200000E0400000E0600000E0800000E0A00000E0C00000E0E00040000000400020004000400040006000400080004000A0004000C0004000E00040200000402020004020400040206000402080004020A0004020C0004020E000404000004040200040404000404060004040800040
310
40A0004040C0004040E00040600000406020004060400040606000406080004060A0004060C0004060E00040800000408020004080400040806000408080004080A0004080C0004080E00040A0000040A0200040A0400040A0600040A0800040A0A00040A0C00040A0E00040C0000040C0200040C0400040C0600040C08000
310
40C0A00040C0C00040C0E00040E0000040E0200040E0400040E0600040E0800040E0A00040E0C00040E0E00080000000800020008000400080006000800080008000A0008000C0008000E00080200000802020008020400080206000802080008020A0008020C0008020E00080400000804020008040400080406000804080
310
008040A0008040C0008040E00080600000806020008060400080606000806080008060A0008060C0008060E00080800000808020008080400080806000808080008080A0008080C0008080E00080A0000080A0200080A0400080A0600080A0800080A0A00080A0C00080A0E00080C0000080C0200080C0400080C0600080C0
310
800080C0A00080C0C00080C0E00080E0000080E0200080E0400080E0600080E0800080E0A00080E0C00080E0E000C0000000C0002000C0004000C0006000C0008000C000A000C000C000C000E000C0200000C0202000C0204000C0206000C0208000C020A000C020C000C020E000C0400000C0402000C0404000C0406000C0
310
408000C040A000C040C000C040E000C0600000C0602000C0604000C0606000C0608000C060A000C060C000C060E000C0800000C0802000C0804000C0806000C0808000C080A000C080C000C080E000C0A00000C0A02000C0A04000C0A06000C0A08000C0A0A000C0A0C000C0A0E000C0C00000C0C02000C0C04000C0C06000
310
C0C08000C0C0A000F0FBFF00A4A0A000808080000000FF0000FF000000FFFF00FF000000FF00FF00FFFF0000FFFFFF0000000000000000000000000000000000000000000000000000000000000000000000000000000000000000FBFBFEFEFBFBFEFEFBFB000000000000000000000000000000000000000000FBFBFBFEFE
310
FBFBFEFEFBFBFB0000000000000000000000000000000000000000FB0000FEFE0000FEFE0000FB0000000000000000000000000000000000000000FB0000FEFEFEFEFEFE0000FB0000000000000000000000000000000000000000FB000000FEFE00FE000000FB0000000000000000000000000000000000000000FB000000
310
0000FE00000000FB0000000000000000000000000000000000000000FB00000000000000000000FB0000000000000000000000000000000000000000FBFBFEFEFBFBFBFBFBFBFBFB00000000000000000000000000000000000000000000FBFE00000000FEFB000000000000000000000000000000000000000000000000FB
310
FE00000000FEFB000000000000000000000000000000000000000000000000FBFE00000000FEFB000000000000000000000000000000000000000000000000FBFE00000000FEFB000000000000000000000000000000000000000000000000FBFE00000000FEFB000000000000000000000000000000000000000000000000
310
FBFE00000000FEFB000000000000000000000000000000000000000000000000FBFE00000000FEFB000000000000000000000000000000000000000000000000FBFE00000000FEFB000000000000000000000000000000000000000000000000FBFE00000000FEFB0000000000000000000000000000000000000000000000
310
00FBFE00000000FEFB000000000000000000000000000000000000000000000000FBFE00000000FEFB000000000000000000000000000000000000000000000000FBFE00000000FEFB000000000000000000000000000000000000000000000000FBFE00000000FEFB00000000000000000000000000000000000000000000
310
0000FBFE00000000FEFB000000000000000000000000000000000000000000000000FBFE00000000FEFB000000000000000000000000000000000000000000000000FBFE00000000FEFB000000000000000000000000000000000000000000000000FBFE00000000FEFB000000000000000000000000000000000000000000
310
000000FBFE00000000FEFB000000000000000000000000000000000000000000000000FBFE00000000FEFB000000000000000000000000000000000000000000000000FBFEFBFBFBFBFEFB00000000000000000000000000000000000000000000000000FE00000000FE000000000000000000000000000000000000000000
310
000000000000FBFBFBFB00000000000000000000000000000000000000000000000000000000000000000000000000000000000000000000
102
{BLKREFS
331
DC14
102
}
  0
BLOCK_RECORD
  5
DC96
330
1
100
AcDbSymbolTableRecord
100
AcDbBlockTableRecord
  2
*D7
340
0
  0
BLOCK_RECORD
  5
DCA3
330
1
100
AcDbSymbolTableRecord
100
AcDbBlockTableRecord
  2
*D8
340
0
  0
BLOCK_RECORD
  5
DCBD
330
1
100
AcDbSymbolTableRecord
100
AcDbBlockTableRecord
  2
*D9
340
0
  0
BLOCK_RECORD
  5
DCE0
330
1
100
AcDbSymbolTableRecord
100
AcDbBlockTableRecord
  2
*D10
340
0
  0
BLOCK_RECORD
  5
DCF4
330
1
100
AcDbSymbolTableRecord
100
AcDbBlockTableRecord
  2
*D11
340
0
  0
BLOCK_RECORD
  5
DDA2
330
1
100
AcDbSymbolTableRecord
100
AcDbBlockTableRecord
  2
*D12
340
0
  0
BLOCK_RECORD
  5
DDAE
330
1
100
AcDbSymbolTableRecord
100
AcDbBlockTableRecord
  2
*D13
340
0
  0
BLOCK_RECORD
  5
DE94
330
1
100
AcDbSymbolTableRecord
100
AcDbBlockTableRecord
  2
*D14
340
0
  0
ENDTAB
  0
ENDSEC
  0
SECTION
  2
BLOCKS
  0
BLOCK
  5
19
330
18
100
AcDbEntity
  8
0
100
AcDbBlockBegin
  2
*MODEL_SPACE
 70
     0
 10
0.0
 20
0.0
 30
0.0
  3
*MODEL_SPACE
  1

  0
ENDBLK
  5
1A
330
18
100
AcDbEntity
  8
0
100
AcDbBlockEnd
  0
BLOCK
  5
16
330
15
100
AcDbEntity
 67
     1
  8
0
100
AcDbBlockBegin
  2
*PAPER_SPACE
 70
     0
 10
0.0
 20
0.0
 30
0.0
  3
*PAPER_SPACE
  1

  0
ENDBLK
  5
17
330
15
100
AcDbEntity
 67
     1
  8
0
100
AcDbBlockEnd
  0
BLOCK
  5
63A1
330
639D
100
AcDbEntity
  8
0
100
AcDbBlockBegin
  2
A$C255C26A2
 70
     0
 10
0.0
 20
0.0
 30
0.0
  3
A$C255C26A2
  1

  0
LWPOLYLINE
  5
639E
330
639D
100
AcDbEntity
  8
0
100
AcDbPolyline
 90
        3
 70
     1
 43
0.0
 10
7.014806023851633
 20
0.0000006939811783
 10
5.611844869720698
 20
2.430000693981241
 10
8.417767177982568
 20
2.430000693981241
  0
LWPOLYLINE
  5
639F
330
639D
100
AcDbEntity
  8
0
100
AcDbPolyline
 90
        3
 70
     1
 43
0.0
 10
4.20888371558999
 20
0.0000006939811783
 10
2.805922561459283
 20
2.430000693981241
 10
5.611844869720698
 20
2.430000693981241
  0
LWPOLYLINE
  5
63A0
330
639D
100
AcDbEntity
  8
0
100
AcDbPolyline
 90
        3
 70
     1
 43
0.0
 10
1.402961407328348
 20
0.0000006939811783
 10
0.0000002531974133
 20
2.430000693981241
 10
2.805922561459283
 20
2.430000693981241
  0
ENDBLK
  5
63A2
330
639D
100
AcDbEntity
  8
0
100
AcDbBlockEnd
  0
BLOCK
  5
7C05
330
7C04
100
AcDbEntity
  8
0
100
AcDbBlockBegin
  2
_Open30
 70
     0
 10
0.0
 20
0.0
 30
0.0
  3
_Open30
  1

  0
LINE
  5
7C06
330
7C04
100
AcDbEntity
  8
0
  6
ByBlock
 62
     0
370
    -2
100
AcDbLine
 10
-1.0
 20
0.26794919
 30
0.0
 11
0.0
 21
0.0
 31
0.0
  0
LINE
  5
7C07
330
7C04
100
AcDbEntity
  8
0
  6
ByBlock
 62
     0
370
    -2
100
AcDbLine
 10
0.0
 20
0.0
 30
0.0
 11
-1.0
 21
-0.26794919
 31
0.0
  0
LINE
  5
7C08
330
7C04
100
AcDbEntity
  8
0
  6
ByBlock
 62
     0
370
    -2
100
AcDbLine
 10
0.0
 20
0.0
 30
0.0
 11
-1.0
 21
0.0
 31
0.0
  0
ENDBLK
  5
7C09
330
7C04
100
AcDbEntity
  8
0
100
AcDbBlockEnd
  0
BLOCK
  5
7C0E
330
7C0A
100
AcDbEntity
  8
0
100
AcDbBlockBegin
  2
A
 70
     0
 10
0.0
 20
0.0
 30
0.0
  3
A
  1

  0
MTEXT
  5
7C0F
330
7C0A
100
AcDbEntity
  8
mark
 62
     3
100
AcDbMText
 10
10.65641897020822
 20
-5.596245361730467
 30
0.0
 40
2.5
 41
0.0
 71
     5
 72
     1
  1
A
 73
     1
 44
1.0
1001
ACAD
1000
ACAD_MTEXT_DEFINED_HEIGHT_BEGIN
1070
    46
1040
0.0
1000
ACAD_MTEXT_DEFINED_HEIGHT_END
  0
LWPOLYLINE
  5
7C10
330
7C0A
100
AcDbEntity
  8
mark
100
AcDbPolyline
 90
        4
 70
     1
 43
0.0
 10
9.07926800414657
 20
-7.141145101782569
 10
12.07926800414657
 20
-7.141145101782569
 10
12.07926800414657
 20
-4.141145101782569
 10
9.07926800414657
 20
-4.141145101782569
  0
HATCH
  5
7C11
330
7C0A
100
AcDbEntity
  8
mark
100
AcDbHatch
 10
0.0
 20
0.0
 30
0.0
210
0.0
220
0.0
230
1.0
  2
SOLID
 70
     1
 71
     0
 91
        1
 92
        7
 72
     0
 73
     1
 93
        3
 10
5.32926800414657
 20
-5.641145101782569
 10
4.07926800414657
 20
-4.391145101782541
 10
4.07926800414657
 20
-6.891145101782541
 97
        0
 75
     0
 76
     1
 47
0.0398277943677868
 98
        1
 10
4.589689734415287
 20
-5.732163331855076
450
        0
451
        0
460
0.0
461
0.0
452
        1
462
1.0
453
        2
463
0.0
 63
     5
421
      255
463
1.0
 63
     7
421
 16777215
470
LINEAR
1001
ACAD
1010
0.0
1020
0.0
1030
0.0
  0
LINE
  5
7C12
330
7C0A
100
AcDbEntity
  8
mark
100
AcDbLine
 10
5.32926800414657
 20
-5.641145101782569
 30
0.0
 11
9.07926800414657
 21
-5.641145101782569
 31
0.0
  0
LINE
  5
7C13
330
7C0A
100
AcDbEntity
  8
mark
100
AcDbLine
 10
5.32926800414657
 20
-5.641145101782569
 30
0.0
 11
4.07926800414657
 21
-4.391145101782569
 31
0.0
  0
LINE
  5
7C14
330
7C0A
100
AcDbEntity
  8
mark
100
AcDbLine
 10
5.32926800414657
 20
-5.641145101782569
 30
0.0
 11
4.07926800414657
 21
-6.891145101782569
 31
0.0
  0
ENDBLK
  5
7C15
330
7C0A
100
AcDbEntity
  8
0
100
AcDbBlockEnd
  0
BLOCK
  5
8E76
330
8E72
100
AcDbEntity
  8
0
100
AcDbBlockBegin
  2
LS
 70
     0
 10
0.0
 20
0.0
 30
0.0
  3
LS
  1

  0
LINE
  5
8E78
330
8E72
100
AcDbEntity
  8
contour
100
AcDbLine
 10
310.7457309951603
 20
181.0160360664828
 30
0.0
 11
310.7457309951603
 21
184.7160360664827
 31
0.0
  0
LINE
  5
8E79
330
8E72
100
AcDbEntity
  8
contour
100
AcDbLine
 10
310.7457309951603
 20
184.7160360664827
 30
0.0
 11
303.7457309951603
 21
184.7160360664827
 31
0.0
  0
LINE
  5
8E7A
330
8E72
100
AcDbEntity
  8
contour
100
AcDbLine
 10
308.4457309951603
 20
196.7160360664827
 30
0.0
 11
306.0457309951603
 21
196.7160360664826
 31
0.0
  0
LINE
  5
8E7B
330
8E72
100
AcDbEntity
  8
contour
100
AcDbLine
 10
309.2457309951603
 20
195.9160360664826
 30
0.0
 11
308.4457309951603
 21
196.7160360664826
 31
0.0
  0
LINE
  5
8E7C
330
8E72
100
AcDbEntity
  8
contour
100
AcDbLine
 10
303.7457309951603
 20
184.7160360664827
 30
0.0
 11
303.7457309951603
 21
181.0160360664827
 31
0.0
  0
LINE
  5
8E7D
330
8E72
100
AcDbEntity
  8
contour
100
AcDbLine
 10
304.0457309951603
 20
180.7160360664827
 30
0.0
 11
310.4457309951603
 21
180.7160360664828
 31
0.0
  0
LINE
  5
8E7E
330
8E72
100
AcDbEntity
  8
contour
100
AcDbLine
 10
310.7457309951603
 20
181.0160360664828
 30
0.0
 11
310.4457309951603
 21
180.7160360664828
 31
0.0
  0
LINE
  5
8E7F
330
8E72
100
AcDbEntity
  8
contour
100
AcDbLine
 10
303.7457309951603
 20
181.0160360664827
 30
0.0
 11
304.0457309951603
 21
180.7160360664827
 31
0.0
  0
LINE
  5
8E80
330
8E72
100
AcDbEntity
  8
contour
100
AcDbLine
 10
309.2457309951603
 20
184.7160360664826
 30
0.0
 11
309.2457309951603
 21
195.9160360664827
 31
0.0
  0
LINE
  5
8E81
330
8E72
100
AcDbEntity
  8
contour
100
AcDbLine
 10
305.2457309951603
 20
184.7160360664826
 30
0.0
 11
305.2457309951603
 21
195.9160360664827
 31
0.0
  0
LINE
  5
8E82
330
8E72
100
AcDbEntity
  8
contour
100
AcDbLine
 10
306.0457309951603
 20
196.7160360664826
 30
0.0
 11
305.2457309951603
 21
195.9160360664826
 31
0.0
  0
LINE
  5
8E83
330
8E72
100
AcDbEntity
  8
contour
100
AcDbLine
 10
309.2457309951603
 20
195.9160360664827
 30
0.0
 11
305.2457309951603
 21
195.9160360664827
 31
0.0
  0
LINE
  5
8E84
330
8E72
100
AcDbEntity
  8
contour
 62
     4
100
AcDbLine
 10
308.8667309951603
 20
185.3724833225513
 30
0.0
 11
308.8667309951603
 21
196.2950360664826
 31
0.0
  0
LINE
  5
8E85
330
8E72
100
AcDbEntity
  8
contour
 62
     4
100
AcDbLine
 10
305.6247309951603
 20
185.3724833225513
 30
0.0
 11
305.6247309951603
 21
196.2950360664826
 31
0.0
  0
LINE
  5
8E86
330
8E72
100
AcDbEntity
  8
contour
100
AcDbLine
 10
310.7457309951603
 20
181.0160360664828
 30
0.0
 11
303.7457309951603
 21
181.0160360664828
 31
0.0
  0
LINE
  5
8E87
330
8E72
100
AcDbEntity
  8
bowle
 48
0.1
100
AcDbLine
 10
308.1117563989447
 20
180.7160360664827
 30
0.0
 11
308.1117563989447
 21
182.9160360664827
 31
0.0
  0
LINE
  5
8E88
330
8E72
100
AcDbEntity
  8
bowle
 48
0.1
100
AcDbLine
 10
308.9777818027293
 20
180.7160360664827
 30
0.0
 11
308.9777818027293
 21
182.9160360664827
 31
0.0
  0
LINE
  5
8E89
330
8E72
100
AcDbEntity
  8
bowle
 48
0.1
100
AcDbLine
 10
306.3797055913759
 20
180.7160360664827
 30
0.0
 11
306.3797055913759
 21
182.9160360664826
 31
0.0
  0
LINE
  5
8E8A
330
8E72
100
AcDbEntity
  8
bowle
 48
0.1
100
AcDbLine
 10
305.5136801875914
 20
180.7160360664827
 30
0.0
 11
305.5136801875914
 21
182.9160360664826
 31
0.0
  0
LINE
  5
8E8B
330
8E72
100
AcDbEntity
  8
bowle
 48
0.1
100
AcDbLine
 10
308.9777818027292
 20
182.9160360664827
 30
0.0
 11
305.5136801875914
 21
182.9160360664827
 31
0.0
  0
LINE
  5
8E8C
330
8E72
100
AcDbEntity
  8
bowle
 48
0.1
100
AcDbLine
 10
305.5136801875914
 20
182.9160360664826
 30
0.0
 11
307.2457309951603
 21
183.9160360664826
 31
0.0
  0
LINE
  5
8E8D
330
8E72
100
AcDbEntity
  8
bowle
 48
0.1
100
AcDbLine
 10
308.9777818027292
 20
182.9160360664826
 30
0.0
 11
307.2457309951603
 21
183.9160360664826
 31
0.0
  0
LINE
  5
8E8E
330
8E72
100
AcDbEntity
  8
contour
 62
     4
100
AcDbLine
 10
305.6247309951603
 20
185.3724833225513
 30
0.0
 11
305.2457309951603
 21
184.7160360664826
 31
0.0
  0
LINE
  5
8E8F
330
8E72
100
AcDbEntity
  8
contour
100
AcDbLine
 10
305.2457309951603
 20
185.3724833225513
 30
0.0
 11
309.2457309951603
 21
185.3724833225513
 31
0.0
  0
LINE
  5
8E90
330
8E72
100
AcDbEntity
  8
contour
 62
     4
100
AcDbLine
 10
309.2457309951603
 20
184.7160360664827
 30
0.0
 11
308.8667309951603
 21
185.3724833225513
 31
0.0
  0
ENDBLK
  5
8E77
330
8E72
100
AcDbEntity
  8
0
100
AcDbBlockEnd
  0
BLOCK
  5
9D19
330
9D15
100
AcDbEntity
  8
0
100
AcDbBlockBegin
  2
LS2
 70
     0
 10
0.0
 20
0.0
 30
0.0
  3
LS2
  1

  0
LINE
  5
9D1B
330
9D15
100
AcDbEntity
  8
contour
100
AcDbLine
 10
143.2797554375081
 20
0.0655328110734672
 30
0.0
 11
143.2797554375081
 21
3.765532811073398
 31
0.0
  0
LINE
  5
9D1C
330
9D15
100
AcDbEntity
  8
contour
100
AcDbLine
 10
143.2797554375081
 20
3.765532811073398
 30
0.0
 11
136.2797554375081
 21
3.765532811073398
 31
0.0
  0
LINE
  5
9D1D
330
9D15
100
AcDbEntity
  8
contour
100
AcDbLine
 10
140.979755437508
 20
19.7655328110734
 30
0.0
 11
138.5797554375081
 21
19.76553281107334
 31
0.0
  0
LINE
  5
9D1E
330
9D15
100
AcDbEntity
  8
contour
100
AcDbLine
 10
141.7797554375081
 20
18.96553281107333
 30
0.0
 11
140.9797554375081
 21
19.76553281107334
 31
0.0
  0
LINE
  5
9D1F
330
9D15
100
AcDbEntity
  8
contour
100
AcDbLine
 10
136.2797554375081
 20
3.765532811073398
 30
0.0
 11
136.2797554375081
 21
0.0655328110733535
 31
0.0
  0
LINE
  5
9D20
330
9D15
100
AcDbEntity
  8
contour
100
AcDbLine
 10
136.5797554375081
 20
-0.2344671889266578
 30
0.0
 11
142.9797554375081
 21
-0.2344671889265442
 31
0.0
  0
LINE
  5
9D21
330
9D15
100
AcDbEntity
  8
contour
100
AcDbLine
 10
143.2797554375081
 20
0.0655328110734672
 30
0.0
 11
142.9797554375081
 21
-0.2344671889265442
 31
0.0
  0
LINE
  5
9D22
330
9D15
100
AcDbEntity
  8
contour
100
AcDbLine
 10
136.2797554375081
 20
0.0655328110733535
 30
0.0
 11
136.5797554375081
 21
-0.2344671889266578
 31
0.0
  0
LINE
  5
9D23
330
9D15
100
AcDbEntity
  8
contour
100
AcDbLine
 10
141.7797554375081
 20
3.765532811073342
 30
0.0
 11
141.7797554375081
 21
18.96553281107339
 31
0.0
  0
LINE
  5
9D24
330
9D15
100
AcDbEntity
  8
contour
100
AcDbLine
 10
137.7797554375081
 20
3.765532811073342
 30
0.0
 11
137.7797554375081
 21
18.96553281107339
 31
0.0
  0
LINE
  5
9D25
330
9D15
100
AcDbEntity
  8
contour
100
AcDbLine
 10
138.5797554375081
 20
19.76553281107334
 30
0.0
 11
137.7797554375081
 21
18.96553281107333
 31
0.0
  0
LINE
  5
9D26
330
9D15
100
AcDbEntity
  8
contour
100
AcDbLine
 10
141.7797554375081
 20
18.96553281107339
 30
0.0
 11
137.7797554375081
 21
18.96553281107339
 31
0.0
  0
LINE
  5
9D27
330
9D15
100
AcDbEntity
  8
contour
 62
     4
100
AcDbLine
 10
141.400755437508
 20
4.42198006714193
 30
0.0
 11
141.4007554375081
 21
19.34453281107327
 31
0.0
  0
LINE
  5
9D28
330
9D15
100
AcDbEntity
  8
contour
 62
     4
100
AcDbLine
 10
138.1587554375081
 20
4.42198006714193
 30
0.0
 11
138.1587554375081
 21
19.34453281107336
 31
0.0
  0
LINE
  5
9D29
330
9D15
100
AcDbEntity
  8
contour
100
AcDbLine
 10
143.2797554375081
 20
0.0655328110734672
 30
0.0
 11
136.2797554375081
 21
0.0655328110735241
 31
0.0
  0
LINE
  5
9D2A
330
9D15
100
AcDbEntity
  8
bowle
 48
0.1
100
AcDbLine
 10
140.6457808412925
 20
-0.234467188926601
 30
0.0
 11
140.6457808412925
 21
1.965532811073387
 31
0.0
  0
LINE
  5
9D2B
330
9D15
100
AcDbEntity
  8
bowle
 48
0.1
100
AcDbLine
 10
141.511806245077
 20
-0.2344671889266578
 30
0.0
 11
141.511806245077
 21
1.965532811073387
 31
0.0
  0
LINE
  5
9D2C
330
9D15
100
AcDbEntity
  8
bowle
 48
0.1
100
AcDbLine
 10
138.9137300337237
 20
-0.234467188926601
 30
0.0
 11
138.9137300337237
 21
1.96553281107333
 31
0.0
  0
LINE
  5
9D2D
330
9D15
100
AcDbEntity
  8
bowle
 48
0.1
100
AcDbLine
 10
138.0477046299392
 20
-0.2344671889266578
 30
0.0
 11
138.0477046299391
 21
1.96553281107333
 31
0.0
  0
LINE
  5
9D2E
330
9D15
100
AcDbEntity
  8
bowle
 48
0.1
100
AcDbLine
 10
141.511806245077
 20
1.965532811073387
 30
0.0
 11
138.0477046299391
 21
1.965532811073387
 31
0.0
  0
LINE
  5
9D2F
330
9D15
100
AcDbEntity
  8
bowle
 48
0.1
100
AcDbLine
 10
138.0477046299391
 20
1.96553281107333
 30
0.0
 11
139.779755437508
 21
2.96553281107333
 31
0.0
  0
LINE
  5
9D30
330
9D15
100
AcDbEntity
  8
bowle
 48
0.1
100
AcDbLine
 10
141.511806245077
 20
1.96553281107333
 30
0.0
 11
139.779755437508
 21
2.96553281107333
 31
0.0
  0
LINE
  5
9D31
330
9D15
100
AcDbEntity
  8
contour
 62
     4
100
AcDbLine
 10
138.1587554375081
 20
4.421980067141987
 30
0.0
 11
137.7797554375081
 21
3.765532811073342
 31
0.0
  0
LINE
  5
9D32
330
9D15
100
AcDbEntity
  8
contour
100
AcDbLine
 10
137.7797554375081
 20
4.42198006714193
 30
0.0
 11
141.7797554375081
 21
4.42198006714193
 31
0.0
  0
LINE
  5
9D33
330
9D15
100
AcDbEntity
  8
contour
 62
     4
100
AcDbLine
 10
141.7797554375081
 20
3.765532811073398
 30
0.0
 11
141.400755437508
 21
4.42198006714193
 31
0.0
  0
ENDBLK
  5
9D1A
330
9D15
100
AcDbEntity
  8
0
100
AcDbBlockEnd
  0
BLOCK
  5
A51C
330
A518
100
AcDbEntity
  8
0
100
AcDbBlockBegin
  2
LS3
 70
     0
 10
0.0
 20
0.0
 30
0.0
  3
LS3
  1

  0
LINE
  5
A51E
330
A518
100
AcDbEntity
  8
contour
100
AcDbLine
 10
329.8877449821333
 20
4.477662871771769
 30
0.0
 11
329.8877449821333
 21
8.177662871771701
 31
0.0
  0
LINE
  5
A51F
330
A518
100
AcDbEntity
  8
contour
100
AcDbLine
 10
329.8877449821333
 20
8.177662871771701
 30
0.0
 11
336.8877449821333
 21
8.177662871771701
 31
0.0
  0
LINE
  5
A520
330
A518
100
AcDbEntity
  8
contour
100
AcDbLine
 10
332.1877449821334
 20
26.1776628717717
 30
0.0
 11
334.5877449821334
 21
26.17766287177165
 31
0.0
  0
LINE
  5
A521
330
A518
100
AcDbEntity
  8
contour
100
AcDbLine
 10
331.3877449821333
 20
25.37766287177163
 30
0.0
 11
332.1877449821334
 21
26.17766287177165
 31
0.0
  0
LINE
  5
A522
330
A518
100
AcDbEntity
  8
contour
100
AcDbLine
 10
336.8877449821333
 20
8.177662871771701
 30
0.0
 11
336.8877449821333
 21
4.477662871771656
 31
0.0
  0
LINE
  5
A523
330
A518
100
AcDbEntity
  8
contour
100
AcDbLine
 10
336.5877449821334
 20
4.177662871771644
 30
0.0
 11
330.1877449821334
 21
4.177662871771758
 31
0.0
  0
LINE
  5
A524
330
A518
100
AcDbEntity
  8
contour
100
AcDbLine
 10
329.8877449821333
 20
4.477662871771769
 30
0.0
 11
330.1877449821334
 21
4.177662871771758
 31
0.0
  0
LINE
  5
A525
330
A518
100
AcDbEntity
  8
contour
100
AcDbLine
 10
336.8877449821333
 20
4.477662871771656
 30
0.0
 11
336.5877449821334
 21
4.177662871771644
 31
0.0
  0
LINE
  5
A526
330
A518
100
AcDbEntity
  8
contour
100
AcDbLine
 10
331.3877449821333
 20
8.177662871771644
 30
0.0
 11
331.3877449821334
 21
25.37766287177168
 31
0.0
  0
LINE
  5
A527
330
A518
100
AcDbEntity
  8
contour
100
AcDbLine
 10
335.3877449821333
 20
8.177662871771644
 30
0.0
 11
335.3877449821333
 21
25.37766287177166
 31
0.0
  0
LINE
  5
A528
330
A518
100
AcDbEntity
  8
contour
100
AcDbLine
 10
334.5877449821334
 20
26.17766287177165
 30
0.0
 11
335.3877449821333
 21
25.37766287177163
 31
0.0
  0
LINE
  5
A529
330
A518
100
AcDbEntity
  8
contour
100
AcDbLine
 10
331.3877449821333
 20
25.37766287177169
 30
0.0
 11
335.3877449821333
 21
25.37766287177169
 31
0.0
  0
LINE
  5
A52A
330
A518
100
AcDbEntity
  8
contour
 62
     4
100
AcDbLine
 10
331.7667449821333
 20
8.834110127840233
 30
0.0
 11
331.7667449821333
 21
25.75666287177167
 31
0.0
  0
LINE
  5
A52B
330
A518
100
AcDbEntity
  8
contour
 62
     4
100
AcDbLine
 10
335.0087449821333
 20
8.834110127840233
 30
0.0
 11
335.0087449821334
 21
25.75666287177161
 31
0.0
  0
LINE
  5
A52C
330
A518
100
AcDbEntity
  8
contour
100
AcDbLine
 10
329.8877449821333
 20
4.477662871771769
 30
0.0
 11
336.8877449821333
 21
4.477662871771826
 31
0.0
  0
LINE
  5
A52D
330
A518
100
AcDbEntity
  8
bowle
 48
0.1
100
AcDbLine
 10
332.5217195783489
 20
4.177662871771701
 30
0.0
 11
332.5217195783489
 21
6.37766287177169
 31
0.0
  0
LINE
  5
A52E
330
A518
100
AcDbEntity
  8
bowle
 48
0.1
100
AcDbLine
 10
331.6556941745643
 20
4.177662871771644
 30
0.0
 11
331.6556941745643
 21
6.37766287177169
 31
0.0
  0
LINE
  5
A52F
330
A518
100
AcDbEntity
  8
bowle
 48
0.1
100
AcDbLine
 10
334.2537703859177
 20
4.177662871771701
 30
0.0
 11
334.2537703859177
 21
6.377662871771633
 31
0.0
  0
LINE
  5
A530
330
A518
100
AcDbEntity
  8
bowle
 48
0.1
100
AcDbLine
 10
335.1197957897023
 20
4.177662871771644
 30
0.0
 11
335.1197957897023
 21
6.377662871771633
 31
0.0
  0
LINE
  5
A531
330
A518
100
AcDbEntity
  8
bowle
 48
0.1
100
AcDbLine
 10
331.6556941745645
 20
6.37766287177169
 30
0.0
 11
335.1197957897023
 21
6.37766287177169
 31
0.0
  0
LINE
  5
A532
330
A518
100
AcDbEntity
  8
bowle
 48
0.1
100
AcDbLine
 10
335.1197957897023
 20
6.377662871771633
 30
0.0
 11
333.3877449821334
 21
7.377662871771633
 31
0.0
  0
LINE
  5
A533
330
A518
100
AcDbEntity
  8
bowle
 48
0.1
100
AcDbLine
 10
331.6556941745645
 20
6.377662871771633
 30
0.0
 11
333.3877449821334
 21
7.377662871771633
 31
0.0
  0
LINE
  5
A534
330
A518
100
AcDbEntity
  8
contour
 62
     4
100
AcDbLine
 10
335.0087449821333
 20
8.83411012784029
 30
0.0
 11
335.3877449821333
 21
8.177662871771644
 31
0.0
  0
LINE
  5
A535
330
A518
100
AcDbEntity
  8
contour
100
AcDbLine
 10
335.3877449821333
 20
8.834110127840233
 30
0.0
 11
331.3877449821333
 21
8.834110127840233
 31
0.0
  0
LINE
  5
A536
330
A518
100
AcDbEntity
  8
contour
 62
     4
100
AcDbLine
 10
331.3877449821333
 20
8.177662871771701
 30
0.0
 11
331.7667449821333
 21
8.834110127840233
 31
0.0
  0
ENDBLK
  5
A51D
330
A518
100
AcDbEntity
  8
0
100
AcDbBlockEnd
  0
BLOCK
  5
A62B
330
A627
100
AcDbEntity
  8
0
100
AcDbBlockBegin
  2
LS4
 70
     0
 10
0.0
 20
0.0
 30
0.0
  3
LS4
  1

  0
LINE
  5
A62D
330
A627
100
AcDbEntity
  8
contour
100
AcDbLine
 10
402.9074768226647
 20
108.9417821167274
 30
0.0
 11
410.8074768226646
 21
108.9417821167274
 31
0.0
  0
LINE
  5
A62E
330
A627
100
AcDbEntity
  8
contour
100
AcDbLine
 10
411.1074768226647
 20
109.2417821167273
 30
0.0
 11
411.1074768226647
 21
113.9417821167274
 31
0.0
  0
LINE
  5
A62F
330
A627
100
AcDbEntity
  8
contour
100
AcDbLine
 10
410.8074768226646
 20
108.9417821167274
 30
0.0
 11
411.1074768226647
 21
109.2417821167273
 31
0.0
  0
LINE
  5
A630
330
A627
100
AcDbEntity
  8
contour
100
AcDbLine
 10
411.1074768226647
 20
113.9417821167274
 30
0.0
 11
402.6074768226647
 21
113.9417821167274
 31
0.0
  0
LINE
  5
A631
330
A627
100
AcDbEntity
  8
contour
100
AcDbLine
 10
408.4574768226646
 20
131.9417821167274
 30
0.0
 11
405.2574768226646
 21
131.9417821167273
 31
0.0
  0
LINE
  5
A632
330
A627
100
AcDbEntity
  8
contour
100
AcDbLine
 10
409.3574768226646
 20
131.0417821167273
 30
0.0
 11
408.4574768226646
 21
131.9417821167274
 31
0.0
  0
LINE
  5
A633
330
A627
100
AcDbEntity
  8
contour
100
AcDbLine
 10
402.6074768226647
 20
113.9417821167274
 30
0.0
 11
402.6074768226647
 21
109.2417821167273
 31
0.0
  0
LINE
  5
A634
330
A627
100
AcDbEntity
  8
contour
100
AcDbLine
 10
402.9074768226647
 20
108.9417821167274
 30
0.0
 11
402.6074768226647
 21
109.2417821167273
 31
0.0
  0
LINE
  5
A635
330
A627
100
AcDbEntity
  8
contour
100
AcDbLine
 10
402.6074768226647
 20
109.2417821167273
 30
0.0
 11
411.1074768226647
 21
109.2417821167273
 31
0.0
  0
LINE
  5
A636
330
A627
100
AcDbEntity
  8
contour
100
AcDbLine
 10
404.3574768226647
 20
113.9417821167274
 30
0.0
 11
404.3574768226647
 21
131.0417821167273
 31
0.0
  0
LINE
  5
A637
330
A627
100
AcDbEntity
  8
contour
100
AcDbLine
 10
405.2574768226646
 20
131.9417821167273
 30
0.0
 11
404.3574768226647
 21
131.0417821167273
 31
0.0
  0
LINE
  5
A638
330
A627
100
AcDbEntity
  8
contour
100
AcDbLine
 10
409.3574768226647
 20
113.9417821167274
 30
0.0
 11
409.3574768226646
 21
131.0417821167273
 31
0.0
  0
LINE
  5
A639
330
A627
100
AcDbEntity
  8
contour
100
AcDbLine
 10
404.3574768226647
 20
131.0417821167273
 30
0.0
 11
409.3574768226646
 21
131.0417821167273
 31
0.0
  0
LINE
  5
A63A
330
A627
100
AcDbEntity
  8
contour
 62
     4
100
AcDbLine
 10
404.7904768226646
 20
114.6917601164047
 30
0.0
 11
404.7904768226647
 21
131.4747821167274
 31
0.0
  0
LINE
  5
A63B
330
A627
100
AcDbEntity
  8
contour
 62
     4
100
AcDbLine
 10
408.9244768226647
 20
114.6917601164048
 30
0.0
 11
408.9244768226647
 21
131.4747821167273
 31
0.0
  0
LINE
  5
A63C
330
A627
100
AcDbEntity
  8
contour
 62
     4
100
AcDbLine
 10
408.9244768226646
 20
114.6917601164048
 30
0.0
 11
409.3574768226647
 21
113.9417821167274
 31
0.0
  0
LINE
  5
A63D
330
A627
100
AcDbEntity
  8
contour
100
AcDbLine
 10
409.3574768226647
 20
114.6917601164048
 30
0.0
 11
404.3574768226647
 21
114.6917601164048
 31
0.0
  0
LINE
  5
A63E
330
A627
100
AcDbEntity
  8
contour
 62
     4
100
AcDbLine
 10
404.7904768226647
 20
114.6917601164048
 30
0.0
 11
404.3574768226647
 21
113.9417821167274
 31
0.0
  0
LINE
  5
A63F
330
A627
100
AcDbEntity
  8
bowle
 48
0.2
100
AcDbLine
 10
404.5480757459062
 20
108.9417821167274
 30
0.0
 11
404.5480757459062
 21
111.4417821167274
 31
0.0
  0
LINE
  5
A640
330
A627
100
AcDbEntity
  8
bowle
 48
0.2
100
AcDbLine
 10
409.1668778994232
 20
108.9417821167274
 30
0.0
 11
409.1668778994232
 21
111.4417821167274
 31
0.0
  0
LINE
  5
A641
330
A627
100
AcDbEntity
  8
bowle
 48
0.2
100
AcDbLine
 10
404.5480757459062
 20
111.4417821167274
 30
0.0
 11
409.1668778994232
 21
111.4417821167274
 31
0.0
  0
LINE
  5
A642
330
A627
100
AcDbEntity
  8
bowle
 48
0.2
100
AcDbLine
 10
405.7027762842854
 20
111.4417821167274
 30
0.0
 11
405.7027762842854
 21
108.9417821167274
 31
0.0
  0
LINE
  5
A643
330
A627
100
AcDbEntity
  8
bowle
 48
0.2
100
AcDbLine
 10
408.0121773610439
 20
111.4417821167274
 30
0.0
 11
408.0121773610439
 21
108.9417821167274
 31
0.0
  0
LINE
  5
A644
330
A627
100
AcDbEntity
  8
bowle
 48
0.2
100
AcDbLine
 10
409.1668778994232
 20
111.4417821167274
 30
0.0
 11
406.8574768226646
 21
112.7751154500606
 31
0.0
  0
LINE
  5
A645
330
A627
100
AcDbEntity
  8
bowle
 48
0.2
100
AcDbLine
 10
404.5480757459062
 20
111.4417821167274
 30
0.0
 11
406.8574768226646
 21
112.7751154500606
 31
0.0
  0
ENDBLK
  5
A62C
330
A627
100
AcDbEntity
  8
0
100
AcDbBlockEnd
  0
BLOCK
  5
DCA0
330
DC96
100
AcDbEntity
  8
0
100
AcDbBlockBegin
  2
*D7
 70
     1
 10
0.0
 20
0.0
 30
0.0
  3
*D7
  1

  0
LINE
  5
DEA2
330
DC96
100
AcDbEntity
  8
mark
370
    -2
100
AcDbLine
 10
137.7456383165678
 20
115.5514495969021
 30
0.0
 11
148.6003625602201
 21
115.5514495969021
 31
0.0
  0
LINE
  5
DEA3
330
DC96
100
AcDbEntity
  8
mark
370
    -2
100
AcDbLine
 10
137.7456383165678
 20
98.70144959690216
 30
0.0
 11
148.6003625602201
 21
98.70144959690216
 31
0.0
  0
LINE
  5
DEA4
330
DC96
100
AcDbEntity
  8
mark
370
    -2
100
AcDbLine
 10
147.7503625602201
 20
113.0514495969021
 30
0.0
 11
147.7503625602201
 21
101.2014495969021
 31
0.0
  0
INSERT
  5
DEA5
330
DC96
100
AcDbEntity
  8
mark
370
    -2
100
AcDbBlockReference
  2
_Open30
 10
147.7503625602201
 20
115.5514495969021
 30
0.0
 41
2.5
 42
2.5
 43
2.5
 50
90.0
  0
INSERT
  5
DEA6
330
DC96
100
AcDbEntity
  8
mark
370
    -2
100
AcDbBlockReference
  2
_Open30
 10
147.7503625602201
 20
98.70144959690216
 30
0.0
 41
2.5
 42
2.5
 43
2.5
 50
270.0
  0
MTEXT
  5
DEA7
330
DC96
100
AcDbEntity
  8
mark
 62
     3
100
AcDbMText
 10
145.65036256022
 20
107.1264495969021
 30
0.0
 40
2.5
 41
0.0
 71
     5
 72
     1
  1
\A1;16.85
 11
0.0000000000000001
 21
1.0
 31
0.0
 73
     1
 44
1.0
  0
POINT
  5
DEA8
330
DC96
100
AcDbEntity
  8
DEFPOINTS
 62
     0
100
AcDbPoint
 10
136.8956383165678
 20
115.5514495969021
 30
0.0
  0
POINT
  5
DEA9
330
DC96
100
AcDbEntity
  8
DEFPOINTS
 62
     0
100
AcDbPoint
 10
136.8956383165678
 20
98.70144959690216
 30
0.0
  0
POINT
  5
DEAA
330
DC96
100
AcDbEntity
  8
DEFPOINTS
 62
     0
100
AcDbPoint
 10
147.7503625602201
 20
98.70144959690216
 30
0.0
  0
ENDBLK
  5
DCA1
330
DC96
100
AcDbEntity
  8
0
100
AcDbBlockEnd
  0
BLOCK
  5
DCAF
330
DCA3
100
AcDbEntity
  8
0
100
AcDbBlockBegin
  2
*D8
 70
     1
 10
0.0
 20
0.0
 30
0.0
  3
*D8
  1

  0
LINE
  5
DEAB
330
DCA3
100
AcDbEntity
  8
mark
370
    -2
100
AcDbLine
 10
137.7456383165678
 20
98.70144959690216
 30
0.0
 11
148.6003625602201
 21
98.70144959690216
 31
0.0
  0
LINE
  5
DEAC
330
DCA3
100
AcDbEntity
  8
mark
370
    -2
100
AcDbLine
 10
137.7456383165678
 20
96.70144959690214
 30
0.0
 11
148.6003625602201
 21
96.70144959690214
 31
0.0
  0
LINE
  5
DEAD
330
DCA3
100
AcDbEntity
  8
mark
370
    -2
100
AcDbLine
 10
147.7503625602201
 20
101.2014495969021
 30
0.0
 11
147.7503625602201
 21
103.7014495969021
 31
0.0
  0
LINE
  5
DEAE
330
DCA3
100
AcDbEntity
  8
mark
370
    -2
100
AcDbLine
 10
147.7503625602201
 20
94.20144959690214
 30
0.0
 11
147.7503625602201
 21
91.70144959690214
 31
0.0
  0
LINE
  5
DEAF
330
DCA3
100
AcDbEntity
  8
mark
370
    -2
100
AcDbLine
 10
147.7503625602201
 20
98.70144959690216
 30
0.0
 11
147.7503625602201
 21
96.70144959690214
 31
0.0
  0
INSERT
  5
DEB0
330
DCA3
100
AcDbEntity
  8
mark
370
    -2
100
AcDbBlockReference
  2
_Open30
 10
147.7503625602201
 20
98.70144959690216
 30
0.0
 41
2.5
 42
2.5
 43
2.5
 50
270.0
  0
INSERT
  5
DEB1
330
DCA3
100
AcDbEntity
  8
mark
370
    -2
100
AcDbBlockReference
  2
_Open30
 10
147.7503625602201
 20
96.70144959690214
 30
0.0
 41
2.5
 42
2.5
 43
2.5
 50
90.0
  0
MTEXT
  5
DEB2
330
DCA3
100
AcDbEntity
  8
mark
 62
     3
100
AcDbMText
 10
145.65036256022
 20
97.70144959690217
 30
0.0
 40
2.5
 41
0.0
 71
     5
 72
     1
  1
\A1;2
 11
0.0000000000000001
 21
1.0
 31
0.0
 73
     1
 44
1.0
  0
POINT
  5
DEB3
330
DCA3
100
AcDbEntity
  8
DEFPOINTS
 62
     0
100
AcDbPoint
 10
136.8956383165678
 20
98.70144959690216
 30
0.0
  0
POINT
  5
DEB4
330
DCA3
100
AcDbEntity
  8
DEFPOINTS
 62
     0
100
AcDbPoint
 10
136.8956383165678
 20
96.70144959690214
 30
0.0
  0
POINT
  5
DEB5
330
DCA3
100
AcDbEntity
  8
DEFPOINTS
 62
     0
100
AcDbPoint
 10
147.7503625602201
 20
96.70144959690214
 30
0.0
  0
ENDBLK
  5
DCB0
330
DCA3
100
AcDbEntity
  8
0
100
AcDbBlockEnd
  0
BLOCK
  5
DCC7
330
DCBD
100
AcDbEntity
  8
0
100
AcDbBlockBegin
  2
*D9
 70
     1
 10
0.0
 20
0.0
 30
0.0
  3
*D9
  1

  0
LINE
  5
DEB6
330
DCBD
100
AcDbEntity
  8
mark
370
    -2
100
AcDbLine
 10
137.7456383165678
 20
115.5514495969021
 30
0.0
 11
157.9543606515966
 21
115.5514495969021
 31
0.0
  0
LINE
  5
DEB7
330
DCBD
100
AcDbEntity
  8
mark
370
    -2
100
AcDbLine
 10
137.7456383165678
 20
89.55144959690214
 30
0.0
 11
157.9543606515966
 21
89.55144959690214
 31
0.0
  0
LINE
  5
DEB8
330
DCBD
100
AcDbEntity
  8
mark
370
    -2
100
AcDbLine
 10
157.1043606515966
 20
113.0514495969021
 30
0.0
 11
157.1043606515966
 21
92.05144959690214
 31
0.0
  0
INSERT
  5
DEB9
330
DCBD
100
AcDbEntity
  8
mark
370
    -2
100
AcDbBlockReference
  2
_Open30
 10
157.1043606515966
 20
115.5514495969021
 30
0.0
 41
2.5
 42
2.5
 43
2.5
 50
90.0
  0
INSERT
  5
DEBA
330
DCBD
100
AcDbEntity
  8
mark
370
    -2
100
AcDbBlockReference
  2
_Open30
 10
157.1043606515966
 20
89.55144959690214
 30
0.0
 41
2.5
 42
2.5
 43
2.5
 50
270.0
  0
MTEXT
  5
DEBB
330
DCBD
100
AcDbEntity
  8
mark
 62
     3
100
AcDbMText
 10
155.0043606515966
 20
102.5514495969021
 30
0.0
 40
2.5
 41
0.0
 71
     5
 72
     1
  1
\A1;26%%P0.2
 11
0.0000000000000001
 21
1.0
 31
0.0
 73
     1
 44
1.0
  0
POINT
  5
DEBC
330
DCBD
100
AcDbEntity
  8
DEFPOINTS
 62
     0
100
AcDbPoint
 10
136.8956383165678
 20
115.5514495969021
 30
0.0
  0
POINT
  5
DEBD
330
DCBD
100
AcDbEntity
  8
DEFPOINTS
 62
     0
100
AcDbPoint
 10
136.8956383165678
 20
89.55144959690214
 30
0.0
  0
POINT
  5
DEBE
330
DCBD
100
AcDbEntity
  8
DEFPOINTS
 62
     0
100
AcDbPoint
 10
157.1043606515966
 20
89.55144959690214
 30
0.0
  0
ENDBLK
  5
DCC8
330
DCBD
100
AcDbEntity
  8
0
100
AcDbBlockEnd
  0
BLOCK
  5
DCEA
330
DCE0
100
AcDbEntity
  8
0
100
AcDbBlockBegin
  2
*D10
 70
     1
 10
0.0
 20
0.0
 30
0.0
  3
*D10
  1

  0
LINE
  5
DEBF
330
DCE0
100
AcDbEntity
  8
mark
370
    -2
100
AcDbLine
 10
65.89563831656789
 20
89.61894959690221
 30
0.0
 11
65.89563831656789
 21
76.86448955852259
 31
0.0
  0
LINE
  5
DEC0
330
DCE0
100
AcDbEntity
  8
mark
370
    -2
100
AcDbLine
 10
125.8956383165676
 20
89.61894959690221
 30
0.0
 11
125.8956383165676
 21
76.86448955852259
 31
0.0
  0
LINE
  5
DEC1
330
DCE0
100
AcDbEntity
  8
mark
370
    -2
100
AcDbLine
 10
68.39563831656789
 20
77.71448955852259
 30
0.0
 11
123.3956383165677
 21
77.71448955852259
 31
0.0
  0
INSERT
  5
DEC2
330
DCE0
100
AcDbEntity
  8
mark
370
    -2
100
AcDbBlockReference
  2
_Open30
 10
65.89563831656789
 20
77.71448955852259
 30
0.0
 41
2.5
 42
2.5
 43
2.5
 50
180.0
  0
INSERT
  5
DEC3
330
DCE0
100
AcDbEntity
  8
mark
370
    -2
100
AcDbBlockReference
  2
_Open30
 10
125.8956383165676
 20
77.71448955852259
 30
0.0
 41
2.5
 42
2.5
 43
2.5
  0
MTEXT
  5
DEC4
330
DCE0
100
AcDbEntity
  8
mark
 62
     3
100
AcDbMText
 10
95.89563831656779
 20
79.81448955852258
 30
0.0
 40
2.5
 41
0.0
 71
     5
 72
     1
  1
\A1;M60x2.0P
 73
     1
 44
1.0
  0
POINT
  5
DEC5
330
DCE0
100
AcDbEntity
  8
DEFPOINTS
 62
     0
100
AcDbPoint
 10
65.89563831656789
 20
90.4689495969022
 30
0.0
  0
POINT
  5
DEC6
330
DCE0
100
AcDbEntity
  8
DEFPOINTS
 62
     0
100
AcDbPoint
 10
125.8956383165676
 20
90.4689495969022
 30
0.0
  0
POINT
  5
DEC7
330
DCE0
100
AcDbEntity
  8
DEFPOINTS
 62
     0
100
AcDbPoint
 10
125.8956383165676
 20
77.71448955852259
 30
0.0
  0
ENDBLK
  5
DCEB
330
DCE0
100
AcDbEntity
  8
0
100
AcDbBlockEnd
  0
BLOCK
  5
DCFE
330
DCF4
100
AcDbEntity
  8
0
100
AcDbBlockBegin
  2
*D11
 70
     1
 10
0.0
 20
0.0
 30
0.0
  3
*D11
  1

  0
LINE
  5
DEC8
330
DCF4
100
AcDbEntity
  8
mark
370
    -2
100
AcDbLine
 10
53.89563831656784
 20
115.4014495969021
 30
0.0
 11
53.89563831656784
 21
123.1938372581147
 31
0.0
  0
LINE
  5
DEC9
330
DCF4
100
AcDbEntity
  8
mark
370
    -2
100
AcDbLine
 10
137.8956383165677
 20
115.4014495969021
 30
0.0
 11
137.8956383165677
 21
123.1938372581147
 31
0.0
  0
LINE
  5
DECA
330
DCF4
100
AcDbEntity
  8
mark
370
    -2
100
AcDbLine
 10
56.39563831656784
 20
122.3438372581147
 30
0.0
 11
135.3956383165677
 21
122.3438372581147
 31
0.0
  0
INSERT
  5
DECB
330
DCF4
100
AcDbEntity
  8
mark
370
    -2
100
AcDbBlockReference
  2
_Open30
 10
53.89563831656784
 20
122.3438372581147
 30
0.0
 41
2.5
 42
2.5
 43
2.5
 50
180.0
  0
INSERT
  5
DECC
330
DCF4
100
AcDbEntity
  8
mark
370
    -2
100
AcDbBlockReference
  2
_Open30
 10
137.8956383165677
 20
122.3438372581147
 30
0.0
 41
2.5
 42
2.5
 43
2.5
  0
MTEXT
  5
DECD
330
DCF4
100
AcDbEntity
  8
mark
 62
     3
100
AcDbMText
 10
95.89563831656779
 20
124.4438372581147
 30
0.0
 40
2.5
 41
0.0
 71
     5
 72
     1
  1
\A1;%%c84
 73
     1
 44
1.0
  0
POINT
  5
DECE
330
DCF4
100
AcDbEntity
  8
DEFPOINTS
 62
     0
100
AcDbPoint
 10
53.89563831656784
 20
114.5514495969021
 30
0.0
  0
POINT
  5
DECF
330
DCF4
100
AcDbEntity
  8
DEFPOINTS
 62
     0
100
AcDbPoint
 10
137.8956383165677
 20
114.5514495969021
 30
0.0
  0
POINT
  5
DED0
330
DCF4
100
AcDbEntity
  8
DEFPOINTS
 62
     0
100
AcDbPoint
 10
137.8956383165677
 20
122.3438372581147
 30
0.0
  0
ENDBLK
  5
DCFF
330
DCF4
100
AcDbEntity
  8
0
100
AcDbBlockEnd
  0
BLOCK
  5
DDAB
330
DDA2
100
AcDbEntity
  8
0
100
AcDbBlockBegin
  2
*D12
 70
     1
 10
0.0
 20
0.0
 30
0.0
  3
*D12
  1

  0
LINE
  5
DED1
330
DDA2
100
AcDbEntity
  8
mark
370
    -2
100
AcDbLine
 10
156.778646755849
 20
217.1779454589338
 30
0.0
 11
133.1513621821061
 21
208.3886396435305
 31
0.0
  0
LINE
  5
DED2
330
DDA2
100
AcDbEntity
  8
mark
370
    -2
100
AcDbLine
 10
58.63991445102968
 20
180.6705199919536
 30
0.0
 11
56.29678716388892
 21
179.7988810091996
 31
0.0
  0
MTEXT
  5
DED3
330
DDA2
100
AcDbEntity
  8
mark
 62
     3
100
AcDbMText
 10
146.7364442560964
 20
215.6828601553228
 30
0.0
 40
2.5
 41
0.0
 71
     5
 72
     1
  1
\A1;P.C.D 74.5
 11
0.9372509148563022
 21
0.3486555931015945
 31
0.0
 73
     1
 44
1.0
  0
LINE
  5
DED4
330
DDA2
100
AcDbEntity
  8
mark
370
    -2
100
AcDbLine
 10
60.98304173817043
 20
181.5421589747076
 30
0.0
 11
130.8082348949654
 21
207.5170006607765
 31
0.0
  0
INSERT
  5
DED5
330
DDA2
100
AcDbEntity
  8
mark
370
    -2
100
AcDbBlockReference
  2
_Open30
 10
60.98304173817043
 20
181.5421589747076
 30
0.0
 41
2.5
 42
2.5
 43
2.5
 50
20.40510721424327
  0
INSERT
  5
DED6
330
DDA2
100
AcDbEntity
  8
mark
370
    -2
100
AcDbBlockReference
  2
_Open30
 10
130.8082348949654
 20
207.5170006607765
 30
0.0
 41
2.5
 42
2.5
 43
2.5
 50
200.4051072142433
  0
POINT
  5
DED7
330
DDA2
100
AcDbEntity
  8
DEFPOINTS
 62
     0
100
AcDbPoint
 10
130.8082348949654
 20
207.5170006607765
 30
0.0
  0
POINT
  5
DED8
330
DDA2
100
AcDbEntity
  8
DEFPOINTS
 62
     0
100
AcDbPoint
 10
60.98304173817043
 20
181.5421589747076
 30
0.0
  0
ENDBLK
  5
DDAC
330
DDA2
100
AcDbEntity
  8
0
100
AcDbBlockEnd
  0
BLOCK
  5
DDB7
330
DDAE
100
AcDbEntity
  8
0
100
AcDbBlockBegin
  2
*D13
 70
     1
 10
0.0
 20
0.0
 30
0.0
  3
*D13
  1

  0
LINE
  5
DED9
330
DDAE
100
AcDbEntity
  8
mark
370
    -2
100
AcDbLine
 10
156.5576155016019
 20
204.8792860929393
 30
0.0
 11
133.8472394515198
 21
201.0046065584976
 31
0.0
  0
LINE
  5
DEDA
330
DDAE
100
AcDbEntity
  8
mark
370
    -2
100
AcDbLine
 10
57.94403718161575
 20
188.0545530769867
 30
0.0
 11
55.47964749752794
 21
187.6340967951194
 31
0.0
  0
MTEXT
  5
DEDB
330
DDAE
100
AcDbEntity
  8
mark
 62
     3
100
AcDbMText
 10
148.0555170027831
 20
205.559064655532
 30
0.0
 40
2.5
 41
0.0
 71
     5
 72
     1
  1
\A1;P.C.D 72
 11
0.985755873635121
 21
0.1681825127468951
 31
0.0
 73
     1
 44
1.0
  0
LINE
  5
DEDC
330
DDAE
100
AcDbEntity
  8
mark
370
    -2
100
AcDbLine
 10
60.40842686570353
 20
188.4750093588539
 30
0.0
 11
131.382849767432
 21
200.5841502766303
 31
0.0
  0
INSERT
  5
DEDD
330
DDAE
100
AcDbEntity
  8
mark
370
    -2
100
AcDbBlockReference
  2
_Open30
 10
60.40842686570353
 20
188.4750093588539
 30
0.0
 41
2.5
 42
2.5
 43
2.5
 50
9.682163290891008
  0
INSERT
  5
DEDE
330
DDAE
100
AcDbEntity
  8
mark
370
    -2
100
AcDbBlockReference
  2
_Open30
 10
131.382849767432
 20
200.5841502766303
 30
0.0
 41
2.5
 42
2.5
 43
2.5
 50
189.682163290891
  0
POINT
  5
DEDF
330
DDAE
100
AcDbEntity
  8
DEFPOINTS
 62
     0
100
AcDbPoint
 10
131.382849767432
 20
200.5841502766303
 30
0.0
  0
POINT
  5
DEE0
330
DDAE
100
AcDbEntity
  8
DEFPOINTS
 62
     0
100
AcDbPoint
 10
60.40842686570353
 20
188.4750093588539
 30
0.0
  0
ENDBLK
  5
DDB8
330
DDAE
100
AcDbEntity
  8
0
100
AcDbBlockEnd
  0
BLOCK
  5
DE9E
330
DE94
100
AcDbEntity
  8
0
100
AcDbBlockBegin
  2
*D14
 70
     1
 10
0.0
 20
0.0
 30
0.0
  3
*D14
  1

  0
LINE
  5
DEE1
330
DE94
100
AcDbEntity
  8
mark
370
    -2
100
AcDbLine
 10
54.04563831656783
 20
115.5514495969021
 30
0.0
 11
44.88645335305946
 21
115.5514495969021
 31
0.0
  0
LINE
  5
DEE2
330
DE94
100
AcDbEntity
  8
mark
370
    -2
100
AcDbLine
 10
51.04563831656778
 20
106.5514495969021
 30
0.0
 11
44.88645335305945
 21
106.5514495969021
 31
0.0
  0
LINE
  5
DEE3
330
DE94
100
AcDbEntity
  8
mark
370
    -2
100
AcDbLine
 10
45.73645335305946
 20
113.0514495969021
 30
0.0
 11
45.73645335305946
 21
109.0514495969021
 31
0.0
  0
INSERT
  5
DEE4
330
DE94
100
AcDbEntity
  8
mark
370
    -2
100
AcDbBlockReference
  2
_Open30
 10
45.73645335305946
 20
115.5514495969021
 30
0.0
 41
2.5
 42
2.5
 43
2.5
 50
90.0
  0
INSERT
  5
DEE5
330
DE94
100
AcDbEntity
  8
mark
370
    -2
100
AcDbBlockReference
  2
_Open30
 10
45.73645335305946
 20
106.5514495969021
 30
0.0
 41
2.5
 42
2.5
 43
2.5
 50
270.0
  0
MTEXT
  5
DEE6
330
DE94
100
AcDbEntity
  8
mark
 62
     3
100
AcDbMText
 10
43.63645335305944
 20
111.0514495969021
 30
0.0
 40
2.5
 41
0.0
 71
     5
 72
     1
  1
\A1;9
 11
0.0000000000000001
 21
1.0
 31
0.0
 73
     1
 44
1.0
  0
POINT
  5
DEE7
330
DE94
100
AcDbEntity
  8
DEFPOINTS
 62
     0
100
AcDbPoint
 10
54.89563831656784
 20
115.5514495969021
 30
0.0
  0
POINT
  5
DEE8
330
DE94
100
AcDbEntity
  8
DEFPOINTS
 62
     0
100
AcDbPoint
 10
51.89563831656778
 20
106.5514495969021
 30
0.0
  0
POINT
  5
DEE9
330
DE94
100
AcDbEntity
  8
DEFPOINTS
 62
     0
100
AcDbPoint
 10
45.73645335305946
 20
106.5514495969021
 30
0.0
  0
ENDBLK
  5
DE9F
330
DE94
100
AcDbEntity
  8
0
100
AcDbBlockEnd
  0
ENDSEC
  0
SECTION
  2
ENTITIES
  0
MTEXT
  5
C0
330
18
100
AcDbEntity
  8
0
100
AcDbMText
 10
41.26970765600413
 20
233.6950877649332
 30
0.0
 40
2.5
 41
0.0
 71
     1
 72
     5
  1

  7
CN
 73
     1
 44
1.0
  0
LWPOLYLINE
  5
AF44
330
18
100
AcDbEntity
  8
frame
100
AcDbPolyline
 90
        4
 70
     1
 43
0.0
 10
190.0
 20
280.0
 10
0.0
 20
280.0
 10
0.0
 20
0.0
 10
190.0
 20
0.0
  0
MTEXT
  5
AF45
330
18
100
AcDbEntity
  8
0
100
AcDbMText
 10
17.09950368689175
 20
19.07605901616614
 30
0.0
 40
5.0
 41
0.0
 71
     1
 72
     5
  1
{\Ftxt,bigfont|c128;\W0.5;林彦旭}
 73
     1
 44
1.0
1001
ACAD
1000
ACAD_MTEXT_DEFINED_HEIGHT_BEGIN
1070
    46
1040
0.0
1000
ACAD_MTEXT_DEFINED_HEIGHT_END
  0
MTEXT
  5
AF46
330
18
100
AcDbEntity
  8
0
100
AcDbMText
 10
77.95294729228851
 20
28.93578979870677
 30
0.0
 40
4.5
 41
0.0
 71
     1
 72
     5
  1
{\Ftxt,bigfont|c128;\W0.5;1 : 1}
 73
     1
 44
1.0
1001
ACAD
1000
ACAD_MTEXT_DEFINED_HEIGHT_BEGIN
1070
    46
1040
0.0
1000
ACAD_MTEXT_DEFINED_HEIGHT_END
  0
MTEXT
  5
AF47
330
18
100
AcDbEntity
  8
0
100
AcDbMText
 10
126.3732928177675
 20
8.303263321280269
 30
0.0
 40
5.0
 41
0.0
 71
     1
 72
     5
  1
{\Ftxt,bigfont|c128;\W0.5;N L 4 0 2 8 4}
 73
     1
 44
1.0
1001
ACAD
1000
ACAD_MTEXT_DEFINED_HEIGHT_BEGIN
1070
    46
1040
0.0
1000
ACAD_MTEXT_DEFINED_HEIGHT_END
  0
MTEXT
  5
AF48
330
18
100
AcDbEntity
  8
0
100
AcDbMText
 10
151.5700116201594
 20
27.85218499726989
 30
0.0
 40
5.0
 41
0.0
 71
     1
 72
     5
  1
\P{\Ftxt,bigfont|c128;\W0.5;MKR60X2.0P}
 73
     1
 44
1.0
1001
ACAD
1000
ACAD_MTEXT_DEFINED_HEIGHT_BEGIN
1070
    46
1040
0.0
1000
ACAD_MTEXT_DEFINED_HEIGHT_END
  0
MTEXT
  5
AF49
330
18
100
AcDbEntity
  8
0
100
AcDbMText
 10
15.3760677136774
 20
28.37740359834709
 30
0.0
 40
4.5
 41
0.0
 71
     1
 72
     5
  1
{\Ftxt,bigfont|c128;\W0.5;08.07.07}
 73
     1
 44
1.0
1001
ACAD
1000
ACAD_MTEXT_DEFINED_HEIGHT_BEGIN
1070
    46
1040
0.0
1000
ACAD_MTEXT_DEFINED_HEIGHT_END
  0
MTEXT
  5
AF4A
330
18
100
AcDbEntity
  8
0
100
AcDbMText
 10
9.2763627141411
 20
9.242195050049303
 30
0.0
 40
7.0
 41
0.0
 71
     1
 72
     5
  1
{\Ftxt,bigfont|c128;\W1.5;日機株式会社}
 73
     1
 44
1.0
1001
ACAD
1000
ACAD_MTEXT_DEFINED_HEIGHT_BEGIN
1070
    46
1040
0.0
1000
ACAD_MTEXT_DEFINED_HEIGHT_END
  0
LINE
  5
AF4B
330
18
100
AcDbEntity
  8
frame
100
AcDbLine
 10
0.0
 20
12.0
 30
0.0
 11
190.0
 21
12.00000000000005
 31
0.0
  0
LINE
  5
AF4C
330
18
100
AcDbEntity
  8
frame
100
AcDbLine
 10
0.0
 20
22.0
 30
0.0
 11
92.12121212121223
 21
22.0
 31
0.0
  0
LINE
  5
AF4D
330
18
100
AcDbEntity
  8
frame
100
AcDbLine
 10
0.0
 20
32.0
 30
0.0
 11
190.0
 21
32.0
 31
0.0
  0
LINE
  5
AF4E
330
18
100
AcDbEntity
  8
frame
100
AcDbLine
 10
12.19077332493799
 20
32.0
 30
0.0
 11
12.19077332493799
 21
12.0
 31
0.0
  0
LINE
  5
AF4F
330
18
100
AcDbEntity
  8
frame
100
AcDbLine
 10
30.70707070707067
 20
32.0
 30
0.0
 11
30.70707070707078
 21
12.0
 31
0.0
  0
MTEXT
  5
AF50
330
18
100
AcDbEntity
  8
0
100
AcDbMText
 10
2.830274784221955
 20
29.08190089582831
 30
0.0
 40
5.0
 41
0.0
 71
     1
 72
     5
  1
{\Ftxt,bigfont|c128;\W0.5;日 付}
 73
     1
 44
1.0
1001
ACAD
1000
ACAD_MTEXT_DEFINED_HEIGHT_BEGIN
1070
    46
1040
0.0
1000
ACAD_MTEXT_DEFINED_HEIGHT_END
  0
MTEXT
  5
AF51
330
18
100
AcDbEntity
  8
0
100
AcDbMText
 10
2.97063307743889
 20
19.52163842926637
 30
0.0
 40
5.0
 41
0.0
 71
     1
 72
     5
  1
{\Ftxt,bigfont|c128;\W0.5;製 図}
 73
     1
 44
1.0
1001
ACAD
1000
ACAD_MTEXT_DEFINED_HEIGHT_BEGIN
1070
    46
1040
0.0
1000
ACAD_MTEXT_DEFINED_HEIGHT_END
  0
LINE
  5
AF52
330
18
100
AcDbEntity
  8
0
 62
     7
370
    25
100
AcDbLine
 10
53.04580144287854
 20
23.81984609294597
 30
0.0
 11
53.04580144287854
 21
28.93622339589922
 31
0.0
  0
MTEXT
  5
AF53
330
18
100
AcDbEntity
  8
0
100
AcDbMText
 10
64.00748852490835
 20
29.12242703792379
 30
0.0
 40
5.0
 41
0.0
 71
     1
 72
     5
  1
{\Ftxt,bigfont|c128;\W0.5;尺 度}
 73
     1
 44
1.0
1001
ACAD
1000
ACAD_MTEXT_DEFINED_HEIGHT_BEGIN
1070
    46
1040
0.0
1000
ACAD_MTEXT_DEFINED_HEIGHT_END
  0
LINE
  5
AF54
330
18
100
AcDbEntity
  8
frame
100
AcDbLine
 10
61.41414141414145
 20
32.0
 30
0.0
 11
61.41414141414145
 21
12.0
 31
0.0
  0
LINE
  5
AF55
330
18
100
AcDbEntity
  8
0
 62
     7
370
    25
100
AcDbLine
 10
39.6153110226262
 20
23.18889018332635
 30
0.0
 11
39.6153110226262
 21
29.36457992429672
 31
0.0
  0
CIRCLE
  5
AF56
330
18
100
AcDbEntity
  8
0
 62
     7
100
AcDbCircle
 10
39.6153110226262
 20
26.37803474442251
 30
0.0
 40
2.558188651476678
  0
LINE
  5
AF57
330
18
100
AcDbEntity
  8
0
 62
     7
370
    25
100
AcDbLine
 10
47.19321986919976
 20
26.37803474442262
 30
0.0
 11
53.50512581624241
 21
26.37803474442262
 31
0.0
  0
LINE
  5
AF58
330
18
100
AcDbEntity
  8
0
 62
     7
100
AcDbLine
 10
47.92942413992534
 20
25.09894041868427
 30
0.0
 11
53.04580144287854
 21
23.81984609294597
 31
0.0
  0
LINE
  5
AF59
330
18
100
AcDbEntity
  8
frame
100
AcDbLine
 10
42.742241959951
 20
22.0
 30
0.0
 11
42.742241959951
 21
12.0
 31
0.0
  0
LINE
  5
AF5A
330
18
100
AcDbEntity
  8
0
 62
     7
370
    25
100
AcDbLine
 10
36.41832228486612
 20
26.37803474442251
 30
0.0
 11
43.00325267619268
 21
26.37803474442262
 31
0.0
  0
CIRCLE
  5
AF5B
330
18
100
AcDbEntity
  8
0
 62
     7
100
AcDbCircle
 10
39.6153110226262
 20
26.37803474442251
 30
0.0
 40
1.279094325738339
  0
MTEXT
  5
AF5C
330
18
100
AcDbEntity
  8
0
100
AcDbMText
 10
33.70184032462407
 20
19.41013815785266
 30
0.0
 40
5.0
 41
0.0
 71
     1
 72
     5
  1
{\Ftxt,bigfont|c128;\W0.5;検 図}
 73
     1
 44
1.0
1001
ACAD
1000
ACAD_MTEXT_DEFINED_HEIGHT_BEGIN
1070
    46
1040
0.0
1000
ACAD_MTEXT_DEFINED_HEIGHT_END
  0
LINE
  5
AF5D
330
18
100
AcDbEntity
  8
0
 62
     7
370
    25
100
AcDbLine
 10
47.92942413992534
 20
25.09894041868427
 30
0.0
 11
47.92942413992534
 21
27.65712907016086
 31
0.0
  0
MTEXT
  5
AF5E
330
18
100
AcDbEntity
  8
0
100
AcDbMText
 10
64.28820249919829
 20
19.32058534748881
 30
0.0
 40
5.0
 41
0.0
 71
     1
 72
     5
  1
{\Ftxt,bigfont|c128;\W0.5;承 認}
 73
     1
 44
1.0
1001
ACAD
1000
ACAD_MTEXT_DEFINED_HEIGHT_BEGIN
1070
    46
1040
0.0
1000
ACAD_MTEXT_DEFINED_HEIGHT_END
  0
MTEXT
  5
AF5F
330
18
100
AcDbEntity
  8
0
100
AcDbMText
 10
93.71128715606699
 20
8.296061362868272
 30
0.0
 40
5.0
 41
0.0
 71
     1
 72
     5
  1
{\Ftxt,bigfont|c128;\W0.5;図  面  番  号}
 73
     1
 44
1.0
1001
ACAD
1000
ACAD_MTEXT_DEFINED_HEIGHT_BEGIN
1070
    46
1040
0.0
1000
ACAD_MTEXT_DEFINED_HEIGHT_END
  0
MTEXT
  5
AF60
330
18
100
AcDbEntity
  8
0
100
AcDbMText
 10
99.83012938662671
 20
27.61736863466092
 30
0.0
 40
5.0
 41
0.0
 71
     1
 72
     5
  1
\P{\Ftxt,bigfont|c128;    \W0.5;精密ロックナット}
 73
     1
 44
1.0
1001
ACAD
1000
ACAD_MTEXT_DEFINED_HEIGHT_BEGIN
1070
    46
1040
0.0
1000
ACAD_MTEXT_DEFINED_HEIGHT_END
  0
MTEXT
  5
AF61
330
18
100
AcDbEntity
  8
0
100
AcDbMText
 10
94.8083613031232
 20
29.03862457973275
 30
0.0
 40
5.0
 41
0.0
 71
     1
 72
     5
  1
{\Ftxt,bigfont|c128;\W0.5;品  名}
 73
     1
 44
1.0
1001
ACAD
1000
ACAD_MTEXT_DEFINED_HEIGHT_BEGIN
1070
    46
1040
0.0
1000
ACAD_MTEXT_DEFINED_HEIGHT_END
  0
LINE
  5
AF62
330
18
100
AcDbEntity
  8
frame
100
AcDbLine
 10
92.12121212121223
 20
32.0
 30
0.0
 11
92.12121212121223
 21
0.1833227579584786
 31
0.0
  0
LINE
  5
AF63
330
18
100
AcDbEntity
  8
frame
100
AcDbLine
 10
73.41414141414145
 20
32.0
 30
0.0
 11
73.41414141414145
 21
12.0
 31
0.0
  0
LINE
  5
AF64
330
18
100
AcDbEntity
  8
frame
100
AcDbLine
 10
147.0327092740656
 20
32.0
 30
0.0
 11
147.0327092740657
 21
12.0
 31
0.0
  0
MTEXT
  5
AF65
330
18
100
AcDbEntity
  8
0
100
AcDbMText
 10
150.895959446773
 20
29.04517782830391
 30
0.0
 40
5.0
 41
0.0
 71
     1
 72
     5
  1
{\Ftxt,bigfont|c128;\W0.5;型  番}
 73
     1
 44
1.0
1001
ACAD
1000
ACAD_MTEXT_DEFINED_HEIGHT_BEGIN
1070
    46
1040
0.0
1000
ACAD_MTEXT_DEFINED_HEIGHT_END
  0
MTEXT
  5
AF66
330
18
100
AcDbEntity
  8
0
100
AcDbMText
 10
165.8059614810325
 20
8.576913178763106
 30
0.0
 40
5.0
 41
0.0
 71
     1
 72
     5
  1
{\Ftxt,bigfont|c128;\W0.5;変更}
 73
     1
 44
1.0
1001
ACAD
1000
ACAD_MTEXT_DEFINED_HEIGHT_BEGIN
1070
    46
1040
0.0
1000
ACAD_MTEXT_DEFINED_HEIGHT_END
  0
LINE
  5
AF67
330
18
100
AcDbEntity
  8
frame
100
AcDbLine
 10
164.0909090909092
 20
12.00000000000005
 30
0.0
 11
164.0909090909093
 21
0.0
 31
0.0
  0
LINE
  5
AF68
330
18
100
AcDbEntity
  8
frame
100
AcDbLine
 10
124.6157900786393
 20
43.13491348924492
 30
0.0
 11
184.6157900786393
 21
43.13491348924481
 31
0.0
  0
LINE
  5
AF69
330
18
100
AcDbEntity
  8
frame
100
AcDbLine
 10
124.6157900786393
 20
50.33491348924497
 30
0.0
 11
184.6157900786393
 21
50.33491348924497
 31
0.0
  0
LINE
  5
AF6A
330
18
100
AcDbEntity
  8
frame
100
AcDbLine
 10
124.6157900786393
 20
57.5349134892449
 30
0.0
 11
184.6157900786393
 21
57.53491348924478
 31
0.0
  0
LINE
  5
AF6B
330
18
100
AcDbEntity
  8
frame
100
AcDbLine
 10
124.6157900786393
 20
64.73491348924494
 30
0.0
 11
184.6157900786393
 21
64.73491348924483
 31
0.0
  0
LINE
  5
AF6C
330
18
100
AcDbEntity
  8
frame
100
AcDbLine
 10
124.6157900786393
 20
35.93491348924488
 30
0.0
 11
184.6157900786393
 21
35.93491348924488
 31
0.0
  0
MTEXT
  5
AF6D
330
18
100
AcDbEntity
  8
0
 48
2.0
100
AcDbMText
 10
154.5011900445106
 20
65.52808189982909
 30
0.0
 40
5.0
 41
0.0
 71
     5
 72
     1
  1
\P{\Ftxt,bigfont|c128;\H1.042x;\W0.5;諸　　　　元}
 73
     1
 44
1.0
1001
ACAD
1000
ACAD_MTEXT_DEFINED_HEIGHT_BEGIN
1070
    46
1040
0.0
1000
ACAD_MTEXT_DEFINED_HEIGHT_END
  0
LINE
  5
AF6E
330
18
100
AcDbEntity
  8
frame
100
AcDbLine
 10
124.6157900786393
 20
64.73491348924483
 30
0.0
 11
124.6157900786393
 21
35.93491348924488
 31
0.0
  0
MTEXT
  5
AF6F
330
18
100
AcDbEntity
  8
0
 48
2.0
100
AcDbMText
 10
135.799177113669
 20
54.01970870242223
 30
0.0
 40
5.0
 41
0.0
 71
     5
 72
     1
  1
{\Ftxt,bigfont|c128;\W0.5;熱　処　理}
 73
     1
 44
1.0
1001
ACAD
1000
ACAD_MTEXT_DEFINED_HEIGHT_BEGIN
1070
    46
1040
0.0
1000
ACAD_MTEXT_DEFINED_HEIGHT_END
  0
LINE
  5
AF70
330
18
100
AcDbEntity
  8
0
100
AcDbLine
 10
148.6157900786393
 20
57.53491348924478
 30
0.0
 11
148.6157900786393
 21
35.93491348924488
 31
0.0
  0
MTEXT
  5
AF71
330
18
100
AcDbEntity
  8
0
 48
2.0
100
AcDbMText
 10
136.1158625954765
 20
46.61974099088547
 30
0.0
 40
5.0
 41
0.0
 71
     5
 72
     1
  1
{\Ftxt,bigfont|c128;\W0.5;表 面 処 理}
 73
     1
 44
1.0
1001
ACAD
1000
ACAD_MTEXT_DEFINED_HEIGHT_BEGIN
1070
    46
1040
0.0
1000
ACAD_MTEXT_DEFINED_HEIGHT_END
  0
MTEXT
  5
AF72
330
18
100
AcDbEntity
  8
0
 48
2.0
100
AcDbMText
 10
136.3064351357138
 20
39.53013776941589
 30
0.0
 40
5.0
 41
0.0
 71
     5
 72
     1
  1
{\Ftxt,bigfont|c128;\W0.5;等     　級}
 73
     1
 44
1.0
1001
ACAD
1000
ACAD_MTEXT_DEFINED_HEIGHT_BEGIN
1070
    46
1040
0.0
1000
ACAD_MTEXT_DEFINED_HEIGHT_END
  0
LINE
  5
AF73
330
18
100
AcDbEntity
  8
frame
100
AcDbLine
 10
184.6157900786393
 20
64.73491348924483
 30
0.0
 11
184.6157900786393
 21
35.93491348924499
 31
0.0
  0
MTEXT
  5
AF74
330
18
100
AcDbEntity
  8
0
 48
2.0
100
AcDbMText
 10
167.1483511063784
 20
53.94720739886157
 30
0.0
 40
5.0
 41
0.0
 71
     5
 72
     1
  1
{\Ftxt,bigfont|c128;\W0.5;調質　HRC30%%D%%P２%%D}
 73
     1
 44
1.0
1001
ACAD
1000
ACAD_MTEXT_DEFINED_HEIGHT_BEGIN
1070
    46
1040
0.0
1000
ACAD_MTEXT_DEFINED_HEIGHT_END
  0
MTEXT
  5
AF75
330
18
100
AcDbEntity
  8
0
 48
2.0
100
AcDbMText
 10
161.5295505616327
 20
39.48145527421412
 30
0.0
 40
5.0
 41
0.0
 71
     5
 72
     1
  1
{\Ftxt,bigfont|c128;\W0.5;ＩＳＯ - ４Ｈ}
 73
     1
 44
1.0
1001
ACAD
1000
ACAD_MTEXT_DEFINED_HEIGHT_BEGIN
1070
    46
1040
0.0
1000
ACAD_MTEXT_DEFINED_HEIGHT_END
  0
MTEXT
  5
AF76
330
18
100
AcDbEntity
  8
0
 48
2.0
100
AcDbMText
 10
161.3126275617533
 20
46.86379586210626
 30
0.0
 40
5.0
 41
0.0
 71
     5
 72
     1
  1
{\Ftxt,bigfont|c128;\W0.5;黒  　    染}
 73
     1
 44
1.0
1001
ACAD
1000
ACAD_MTEXT_DEFINED_HEIGHT_BEGIN
1070
    46
1040
0.0
1000
ACAD_MTEXT_DEFINED_HEIGHT_END
  0
MTEXT
  5
AF77
330
18
100
AcDbEntity
  8
0
100
AcDbMText
 10
57.63639061334425
 20
260.2464527942954
 30
0.0
 40
5.0
 41
0.0
 71
     1
 72
     5
  1
{\Ftxt,bigfont|c128;\W0.5;M5X0.8P-18L}
 73
     1
 44
1.0
1001
ACAD
1000
ACAD_MTEXT_DEFINED_HEIGHT_BEGIN
1070
    46
1040
0.0
1000
ACAD_MTEXT_DEFINED_HEIGHT_END
  0
LINE
  5
AF78
330
18
100
AcDbEntity
  8
frame
100
AcDbLine
 10
0.0
 20
254.0
 30
0.0
 11
190.0
 21
254.0
 31
0.0
  0
LINE
  5
AF79
330
18
100
AcDbEntity
  8
frame
100
AcDbLine
 10
0.0
 20
262.0
 30
0.0
 11
190.0
 21
262.0
 31
0.0
  0
LINE
  5
AF7A
330
18
100
AcDbEntity
  8
frame
 62
     9
100
AcDbLine
 10
0.0
 20
270.0
 30
0.0
 11
190.0
 21
270.0
 31
0.0
  0
MTEXT
  5
AF7B
330
18
100
AcDbEntity
  8
0
100
AcDbMText
 10
57.0156439060371
 20
277.4240560049041
 30
0.0
 40
5.0
 41
0.0
 71
     1
 72
     5
  1
{\Ftxt,bigfont|c128;\W0.5;図    番 / 規　　格}
 73
     1
 44
1.0
1001
ACAD
1000
ACAD_MTEXT_DEFINED_HEIGHT_BEGIN
1070
    46
1040
0.0
1000
ACAD_MTEXT_DEFINED_HEIGHT_END
  0
LINE
  5
AF7C
330
18
100
AcDbEntity
  8
frame
100
AcDbLine
 10
0.0
 20
254.0
 30
0.0
 11
190.0
 21
254.0
 31
0.0
  0
MTEXT
  5
AF7D
330
18
100
AcDbEntity
  8
0
100
AcDbMText
 10
21.12488048923433
 20
277.4637981386743
 30
0.0
 40
5.0
 41
0.0
 71
     1
 72
     5
  1
{\Ftxt,bigfont|c128;\W0.5;品　          名}
 73
     1
 44
1.0
1001
ACAD
1000
ACAD_MTEXT_DEFINED_HEIGHT_BEGIN
1070
    46
1040
0.0
1000
ACAD_MTEXT_DEFINED_HEIGHT_END
  0
MTEXT
  5
AF7E
330
18
100
AcDbEntity
  8
0
100
AcDbMText
 10
21.00789435981875
 20
260.7907237289111
 30
0.0
 40
5.0
 41
0.0
 71
     1
 72
     5
  1
{\Ftxt,bigfont|c128;\W0.5;セットスクリュ-}
 73
     1
 44
1.0
1001
ACAD
1000
ACAD_MTEXT_DEFINED_HEIGHT_BEGIN
1070
    46
1040
0.0
1000
ACAD_MTEXT_DEFINED_HEIGHT_END
  0
MTEXT
  5
AF7F
330
18
100
AcDbEntity
  8
0
100
AcDbMText
 10
20.82017529734901
 20
268.8361230282964
 30
0.0
 40
5.0
 41
0.0
 71
     1
 72
     5
  1
{\Ftxt,bigfont|c128;\W0.5;ロックナット　  }
 73
     1
 44
1.0
1001
ACAD
1000
ACAD_MTEXT_DEFINED_HEIGHT_BEGIN
1070
    46
1040
0.0
1000
ACAD_MTEXT_DEFINED_HEIGHT_END
  0
LINE
  5
AF80
330
18
100
AcDbEntity
  8
frame
 62
     9
100
AcDbLine
 10
14.39393939393937
 20
279.9999999999999
 30
0.0
 11
14.39393939393963
 21
254.0
 31
0.0
  0
LINE
  5
AF81
330
18
100
AcDbEntity
  8
frame
 62
     9
100
AcDbLine
 10
14.39393939393937
 20
279.9999999999999
 30
0.0
 11
14.39393939393937
 21
255.0505050505051
 31
0.0
  0
MTEXT
  5
AF82
330
18
100
AcDbEntity
  8
0
100
AcDbMText
 10
6.815009268013795
 20
268.7281674434121
 30
0.0
 40
5.0
 41
0.0
 71
     1
 72
     5
  1
{\Ftxt,bigfont|c128;1}
 73
     1
 44
1.0
1001
ACAD
1000
ACAD_MTEXT_DEFINED_HEIGHT_BEGIN
1070
    46
1040
0.0
1000
ACAD_MTEXT_DEFINED_HEIGHT_END
  0
MTEXT
  5
AF83
330
18
100
AcDbEntity
  8
0
100
AcDbMText
 10
2.119828072980226
 20
277.4734782639491
 30
0.0
 40
5.0
 41
0.0
 71
     1
 72
     5
  1
{\Ftxt,bigfont|c128;\W0.5;照   号}
 73
     1
 44
1.0
1001
ACAD
1000
ACAD_MTEXT_DEFINED_HEIGHT_BEGIN
1070
    46
1040
0.0
1000
ACAD_MTEXT_DEFINED_HEIGHT_END
  0
LINE
  5
AF84
330
18
100
AcDbEntity
  8
frame
 62
     9
100
AcDbLine
 10
52.77777777777783
 20
279.9999999999999
 30
0.0
 11
52.77777777777783
 21
254.0
 31
0.0
  0
MTEXT
  5
AF85
330
18
100
AcDbEntity
  8
0
100
AcDbMText
 10
145.5736374372851
 20
277.6781663894194
 30
0.0
 40
5.0
 41
0.0
 71
     1
 72
     5
  1
{\Ftxt,bigfont|c128;\W0.5;備           考}
 73
     1
 44
1.0
1001
ACAD
1000
ACAD_MTEXT_DEFINED_HEIGHT_BEGIN
1070
    46
1040
0.0
1000
ACAD_MTEXT_DEFINED_HEIGHT_END
  0
LINE
  5
AF86
330
18
100
AcDbEntity
  8
frame
 62
     9
100
AcDbLine
 10
91.16161616161617
 20
280.0
 30
0.0
 11
91.16161616161617
 21
254.0
 31
0.0
  0
MTEXT
  5
AF87
330
18
100
AcDbEntity
  8
0
100
AcDbMText
 10
92.87341089179369
 20
268.8361230282964
 30
0.0
 40
5.0
 41
0.0
 71
     1
 72
     5
  1
{\Ftxt,bigfont|c128;\W0.5;SCM440}
 73
     1
 44
1.0
1001
ACAD
1000
ACAD_MTEXT_DEFINED_HEIGHT_BEGIN
1070
    46
1040
0.0
1000
ACAD_MTEXT_DEFINED_HEIGHT_END
  0
MTEXT
  5
AF88
330
18
100
AcDbEntity
  8
0
100
AcDbMText
 10
92.87341089179369
 20
260.765002012584
 30
0.0
 40
5.0
 41
0.0
 71
     1
 72
     5
  1
{\Ftxt,bigfont|c128;\W0.5;SCM435}
 73
     1
 44
1.0
1001
ACAD
1000
ACAD_MTEXT_DEFINED_HEIGHT_BEGIN
1070
    46
1040
0.0
1000
ACAD_MTEXT_DEFINED_HEIGHT_END
  0
MTEXT
  5
AF89
330
18
100
AcDbEntity
  8
0
100
AcDbMText
 10
95.76798863104192
 20
277.5645499482919
 30
0.0
 40
5.0
 41
0.0
 71
     1
 72
     5
  1
{\Ftxt,bigfont|c128;\W0.5;材　質}
 73
     1
 44
1.0
1001
ACAD
1000
ACAD_MTEXT_DEFINED_HEIGHT_BEGIN
1070
    46
1040
0.0
1000
ACAD_MTEXT_DEFINED_HEIGHT_END
  0
LINE
  5
AF8A
330
18
100
AcDbEntity
  8
frame
 62
     9
100
AcDbLine
 10
110.3535353535354
 20
280.0
 30
0.0
 11
110.3535353535354
 21
254.0
 31
0.0
  0
LINE
  5
AF8B
330
18
100
AcDbEntity
  8
frame
100
AcDbLine
 10
124.7474747474747
 20
280.0
 30
0.0
 11
124.7474747474748
 21
254.0
 31
0.0
  0
MTEXT
  5
AF8C
330
18
100
AcDbEntity
  8
0
100
AcDbMText
 10
117.1685446215491
 20
269.0412711679932
 30
0.0
 40
5.0
 41
0.0
 71
     1
 72
     5
  1
\Ftxt.shx,bigfont.shx|c128;1
 73
     1
 44
1.0
  0
MTEXT
  5
AF8D
330
18
100
AcDbEntity
  8
0
100
AcDbMText
 10
116.5939070266884
 20
260.5092290150679
 30
0.0
 40
5.0
 41
0.0
 71
     1
 72
     5
  1
{\Ftxt,bigfont|c128;6}
 73
     1
 44
1.0
1001
ACAD
1000
ACAD_MTEXT_DEFINED_HEIGHT_BEGIN
1070
    46
1040
0.0
1000
ACAD_MTEXT_DEFINED_HEIGHT_END
  0
MTEXT
  5
AF8E
330
18
100
AcDbEntity
  8
0
100
AcDbMText
 10
112.4223895919262
 20
277.5645499482919
 30
0.0
 40
5.0
 41
0.0
 71
     1
 72
     5
  1
{\Ftxt,bigfont|c128;\W0.5;数   量}
 73
     1
 44
1.0
1001
ACAD
1000
ACAD_MTEXT_DEFINED_HEIGHT_BEGIN
1070
    46
1040
0.0
1000
ACAD_MTEXT_DEFINED_HEIGHT_END
  0
MTEXT
  5
AF8F
330
18
100
AcDbEntity
  8
0
100
AcDbMText
 10
6.404019699055993
 20
260.7281674434121
 30
0.0
 40
5.0
 41
0.0
 71
     1
 72
     5
  1
{\Ftxt,bigfont|c128;2}
 73
     1
 44
1.0
1001
ACAD
1000
ACAD_MTEXT_DEFINED_HEIGHT_BEGIN
1070
    46
1040
0.0
1000
ACAD_MTEXT_DEFINED_HEIGHT_END
  0
LINE
  5
AFC8
330
18
100
AcDbEntity
  8
0
 62
     7
100
AcDbLine
 10
47.92942413992534
 20
27.65712907016098
 30
0.0
 11
53.04580144287854
 21
28.93622339589928
 31
0.0
  0
LINE
  5
DA2B
330
18
100
AcDbEntity
  8
mark
100
AcDbLine
 10
65.89563831656789
 20
76.86448955852259
 30
0.0
 11
65.89563831656789
 21
64.36448955852262
 31
0.0
  0
LINE
  5
DA33
330
18
100
AcDbEntity
  8
mark
100
AcDbLine
 10
68.39563831656779
 20
66.86448955852256
 30
0.0
 11
75.89563831656789
 21
66.86448955852259
 31
0.0
  0
LINE
  5
DA37
330
18
100
AcDbEntity
  8
mark
100
AcDbLine
 10
65.89563831656789
 20
69.36448955852259
 30
0.0
 11
68.39563831656779
 21
66.86448955852256
 31
0.0
  0
LINE
  5
DA39
330
18
100
AcDbEntity
  8
mark
100
AcDbLine
 10
65.89563831656789
 20
64.36448955852262
 30
0.0
 11
68.39563831656779
 21
66.86448955852256
 31
0.0
  0
HATCH
  5
DA3F
330
18
100
AcDbEntity
  8
mark
100
AcDbHatch
 10
0.0
 20
0.0
 30
0.0
210
0.0
220
0.0
230
1.0
  2
SOLID
 70
     1
 71
     0
 91
        1
 92
        7
 72
     0
 73
     1
 93
        3
 10
68.39563831656779
 20
66.86448955852256
 10
65.89563831656789
 20
69.36448955852265
 10
65.89563831656789
 20
64.36448955852265
 97
        0
 75
     0
 76
     1
 47
0.0567731388354328
 98
        1
 10
67.43737651893145
 20
66.35643926089944
450
        0
451
        0
460
0.0
461
0.0
452
        1
462
1.0
453
        2
463
0.0
 63
     5
421
      255
463
1.0
 63
     7
421
 16777215
470
LINEAR
1001
ACAD
1010
0.0
1020
0.0
1030
0.0
  0
TOLERANCE
  5
DA90
330
18
100
AcDbEntity
  8
mark
100
AcDbFcf
  3
STANDARD
 10
75.89563831656789
 20
66.86448955852259
 30
0.0
  1
%%v%%v%%vA%%v%%v
  0
LINE
  5
DBEB
330
18
100
AcDbEntity
  8
contour
100
AcDbLine
 10
53.89563831656784
 20
114.5514495969021
 30
0.0
 11
53.89563831656778
 21
99.70144959690214
 31
0.0
  0
LINE
  5
DBEC
330
18
100
AcDbEntity
  8
contour
100
AcDbLine
 10
54.89563831656778
 20
103.5514495969021
 30
0.0
 11
53.89563831656778
 21
102.5514495969021
 31
0.0
  0
ARC
  5
DBED
330
18
100
AcDbEntity
  8
contour
100
AcDbCircle
 10
54.89563831656778
 20
99.70144959690214
 30
0.0
 40
1.0
100
AcDbArc
 50
180.0
 51
270.0
  0
LINE
  5
DBEE
330
18
100
AcDbEntity
  8
contour
100
AcDbLine
 10
53.89563831656778
 20
95.70144959690214
 30
0.0
 11
53.89563831656778
 21
90.55144959690213
 31
0.0
  0
ARC
  5
DBEF
330
18
100
AcDbEntity
  8
contour
100
AcDbCircle
 10
54.89563831656778
 20
90.55144959690213
 30
0.0
 40
1.0
100
AcDbArc
 50
180.0
 51
270.0
  0
LINE
  5
DBF0
330
18
100
AcDbEntity
  8
contour
100
AcDbLine
 10
54.89563831656778
 20
89.55144959690214
 30
0.0
 11
136.8956383165678
 21
89.55144959690214
 31
0.0
  0
LINE
  5
DBF1
330
18
100
AcDbEntity
  8
contour
100
AcDbLine
 10
66.97813831656777
 20
91.55144959690213
 30
0.0
 11
64.97813831656777
 21
89.55144959690214
 31
0.0
  0
ARC
  5
DBF2
330
18
100
AcDbEntity
  8
contour
100
AcDbCircle
 10
136.8956383165678
 20
90.55144959690213
 30
0.0
 40
1.0
100
AcDbArc
 50
270.0
 51
0.0
  0
LINE
  5
DBF3
330
18
100
AcDbEntity
  8
contour
100
AcDbLine
 10
54.89563831656778
 20
96.70144959690214
 30
0.0
 11
63.14563831656778
 21
96.70144959690214
 31
0.0
  0
ARC
  5
DBF4
330
18
100
AcDbEntity
  8
contour
100
AcDbCircle
 10
54.89563831656778
 20
95.70144959690214
 30
0.0
 40
1.0
100
AcDbArc
 50
90.0
 51
180.0
  0
LINE
  5
DBF5
330
18
100
AcDbEntity
  8
contour
100
AcDbLine
 10
54.89563831656778
 20
98.70144959690215
 30
0.0
 11
63.14563831656778
 21
98.70144959690215
 31
0.0
  0
LINE
  5
DBF6
330
18
100
AcDbEntity
  8
contour
100
AcDbLine
 10
56.64563831656778
 20
99.70144959690214
 30
0.0
 11
129.3956383165678
 21
99.70144959690228
 31
0.0
  0
LINE
  5
DBF7
330
18
100
AcDbEntity
  8
contour
100
AcDbLine
 10
66.97813831656777
 20
97.70144959690217
 30
0.0
 11
64.97813831656777
 21
99.70144959690216
 31
0.0
  0
LINE
  5
DBF8
330
18
100
AcDbEntity
  8
contour
100
AcDbLine
 10
56.64563831656778
 20
102.7014495969021
 30
0.0
 11
129.3956383165678
 21
102.7014495969021
 31
0.0
  0
LINE
  5
DBF9
330
18
100
AcDbEntity
  8
contour
100
AcDbLine
 10
66.97813831656777
 20
104.7014495969021
 30
0.0
 11
64.97813831656777
 21
102.7014495969021
 31
0.0
  0
LINE
  5
DBFA
330
18
100
AcDbEntity
  8
contour
100
AcDbLine
 10
137.8956383165678
 20
90.55144959690213
 30
0.0
 11
137.8956383165678
 21
95.70144959690214
 31
0.0
  0
ARC
  5
DBFB
330
18
100
AcDbEntity
  8
contour
100
AcDbCircle
 10
136.8956383165678
 20
95.70144959690214
 30
0.0
 40
1.0
100
AcDbArc
 50
0.0
 51
90.0
  0
LINE
  5
DBFC
330
18
100
AcDbEntity
  8
contour
100
AcDbLine
 10
137.8956383165678
 20
99.70144959690216
 30
0.0
 11
137.8956383165678
 21
114.5514495969021
 31
0.0
  0
ARC
  5
DBFD
330
18
100
AcDbEntity
  8
contour
100
AcDbCircle
 10
136.8956383165678
 20
99.70144959690216
 30
0.0
 40
1.0
100
AcDbArc
 50
270.0
 51
0.0
  0
ARC
  5
DBFE
330
18
100
AcDbEntity
  8
contour
100
AcDbCircle
 10
136.8956383165678
 20
114.5514495969021
 30
0.0
 40
1.0
100
AcDbArc
 50
0.0
 51
90.0
  0
LINE
  5
DBFF
330
18
100
AcDbEntity
  8
contour
100
AcDbLine
 10
136.8956383165678
 20
115.5514495969021
 30
0.0
 11
54.89563831656784
 21
115.5514495969021
 31
0.0
  0
ARC
  5
DC00
330
18
100
AcDbEntity
  8
contour
100
AcDbCircle
 10
54.89563831656784
 20
114.5514495969021
 30
0.0
 40
1.0
100
AcDbArc
 50
90.0
 51
180.0
  0
LINE
  5
DC01
330
18
100
AcDbEntity
  8
center
 48
0.25
100
AcDbLine
 10
95.89563831656779
 20
117.5514495969021
 30
0.0
 11
95.89563831656779
 21
87.55144959690213
 31
0.0
  0
LINE
  5
DC02
330
18
100
AcDbEntity
  8
contour
100
AcDbLine
 10
56.64563831656778
 20
102.7014495969021
 30
0.0
 11
56.64563831656778
 21
99.70144959690214
 31
0.0
  0
LINE
  5
DC03
330
18
100
AcDbEntity
  8
center
 48
0.25
100
AcDbLine
 10
95.89563831656779
 20
117.5514495969021
 30
0.0
 11
95.89563831656779
 21
87.55144959690213
 31
0.0
  0
LINE
  5
DC04
330
18
100
AcDbEntity
  8
center
 48
0.25
100
AcDbLine
 10
131.8956383165677
 20
117.5514495969021
 30
0.0
 11
131.8956383165678
 21
87.55144959690213
 31
0.0
  0
LINE
  5
DC05
330
18
100
AcDbEntity
  8
contour
100
AcDbLine
 10
63.14563831656778
 20
96.70144959690217
 30
0.0
 11
63.14563831656778
 21
98.70144959690216
 31
0.0
  0
LINE
  5
DC06
330
18
100
AcDbEntity
  8
contour
100
AcDbLine
 10
135.1456383165678
 20
102.7014495969021
 30
0.0
 11
135.1456383165678
 21
99.70144959690211
 31
0.0
  0
LINE
  5
DC07
330
18
100
AcDbEntity
  8
contour
100
AcDbLine
 10
54.89563831656784
 20
103.5514495969021
 30
0.0
 11
59.16358750899883
 21
103.5514495969021
 31
0.0
  0
LINE
  5
DC08
330
18
100
AcDbEntity
  8
contour
100
AcDbLine
 10
60.89563831656779
 20
106.5514495969021
 30
0.0
 11
59.16358750899883
 21
109.5514495969021
 31
0.0
  0
LINE
  5
DC09
330
18
100
AcDbEntity
  8
contour
100
AcDbLine
 10
59.16358750899883
 20
109.5514495969021
 30
0.0
 11
54.89563831656784
 21
109.5514495969021
 31
0.0
  0
LINE
  5
DC0A
330
18
100
AcDbEntity
  8
contour
100
AcDbLine
 10
53.89563831656784
 20
110.5514495969021
 30
0.0
 11
54.89563831656784
 21
109.5514495969021
 31
0.0
  0
LINE
  5
DC0B
330
18
100
AcDbEntity
  8
contour
100
AcDbLine
 10
60.89563831656779
 20
106.5514495969021
 30
0.0
 11
59.16358750899883
 21
103.5514495969021
 31
0.0
  0
LINE
  5
DC0C
330
18
100
AcDbEntity
  8
contour
100
AcDbLine
 10
59.16358750899883
 20
103.5514495969021
 30
0.0
 11
59.16358750899883
 21
109.5514495969021
 31
0.0
  0
LINE
  5
DC0D
330
18
100
AcDbEntity
  8
contour
100
AcDbLine
 10
54.89563831656784
 20
109.5514495969021
 30
0.0
 11
54.89563831656784
 21
103.5514495969021
 31
0.0
  0
LINE
  5
DC0E
330
18
100
AcDbEntity
  8
center
 48
0.2
100
AcDbLine
 10
62.89563831656778
 20
106.5514495969021
 30
0.0
 11
51.89563831656778
 21
106.5514495969021
 31
0.0
  0
LINE
  5
DC0F
330
18
100
AcDbEntity
  8
contour
100
AcDbLine
 10
134.3956383165679
 20
98.70144959690216
 30
0.0
 11
136.8956383165678
 21
98.70144959690216
 31
0.0
  0
LINE
  5
DC10
330
18
100
AcDbEntity
  8
contour
100
AcDbLine
 10
134.3956383165678
 20
96.70144959690214
 30
0.0
 11
136.8956383165678
 21
96.70144959690214
 31
0.0
  0
LINE
  5
DC11
330
18
100
AcDbEntity
  8
contour
 62
     4
100
AcDbLine
 10
65.89563831656784
 20
114.633949596902
 30
0.0
 11
65.89563831656784
 21
103.6189495969022
 31
0.0
  0
LINE
  5
DC12
330
18
100
AcDbEntity
  8
contour
 62
     4
100
AcDbLine
 10
65.89563831656784
 20
98.78394959690211
 30
0.0
 11
65.89563831656789
 21
90.4689495969022
 31
0.0
  0
LINE
  5
DC13
330
18
100
AcDbEntity
  8
contour
100
AcDbLine
 10
128.6456383165678
 20
96.70144959690217
 30
0.0
 11
128.6456383165678
 21
98.70144959690216
 31
0.0
  0
INSERT
  5
DC14
330
18
100
AcDbEntity
  8
contour
100
AcDbBlockReference
  2
LS4
 10
-274.9618385060969
 20
-19.39033251982525
 30
0.0
  0
LINE
  5
DC15
330
18
100
AcDbEntity
  8
contour
100
AcDbLine
 10
128.6456383165678
 20
98.70144959690216
 30
0.0
 11
129.3956383165678
 21
98.70144959690216
 31
0.0
  0
LINE
  5
DC16
330
18
100
AcDbEntity
  8
contour
100
AcDbLine
 10
128.6456383165678
 20
96.70144959690217
 30
0.0
 11
129.3956383165678
 21
96.70144959690217
 31
0.0
  0
LINE
  5
DC17
330
18
100
AcDbEntity
  8
contour
100
AcDbLine
 10
135.1456383165678
 20
102.7014495969021
 30
0.0
 11
134.3956383165679
 21
102.7014495969021
 31
0.0
  0
LINE
  5
DC18
330
18
100
AcDbEntity
  8
contour
100
AcDbLine
 10
135.1456383165678
 20
99.70144959690211
 30
0.0
 11
134.3956383165679
 21
99.70144959690211
 31
0.0
  0
LINE
  5
DC19
330
18
100
AcDbEntity
  8
contour
 62
     4
100
AcDbLine
 10
129.3956383165678
 20
111.6514495969021
 30
0.0
 11
129.3956383165678
 21
115.5514495969021
 31
0.0
  0
LINE
  5
DC1A
330
18
100
AcDbEntity
  8
contour
 62
     4
100
AcDbLine
 10
134.3956383165678
 20
111.6514495969021
 30
0.0
 11
134.3956383165678
 21
115.5514495969021
 31
0.0
  0
LINE
  5
DC1B
330
18
100
AcDbEntity
  8
contour
100
AcDbLine
 10
133.9626383165678
 20
112.0844495969021
 30
0.0
 11
133.9626383165678
 21
115.5514495969021
 31
0.0
  0
LINE
  5
DC1C
330
18
100
AcDbEntity
  8
contour
100
AcDbLine
 10
129.8286383165679
 20
112.0844495969021
 30
0.0
 11
129.8286383165678
 21
115.5514495969021
 31
0.0
  0
LINE
  5
DC1D
330
18
100
AcDbEntity
  8
contour
100
AcDbLine
 10
127.6456383165678
 20
89.85144959690211
 30
0.0
 11
127.6456383165678
 21
89.5514495969021
 31
0.0
  0
LINE
  5
DC1E
330
18
100
AcDbEntity
  8
contour
100
AcDbLine
 10
136.1456383165678
 20
89.85144959690211
 30
0.0
 11
136.1456383165678
 21
89.5514495969021
 31
0.0
  0
LINE
  5
DC1F
330
18
100
AcDbEntity
  8
contour
100
AcDbLine
 10
61.29563831656776
 20
90.05144959690204
 30
0.0
 11
61.79563831656776
 21
89.55144959690205
 31
0.0
  0
LINE
  5
DC20
330
18
100
AcDbEntity
  8
contour
100
AcDbLine
 10
61.29563831656764
 20
93.02147138354966
 30
0.0
 11
58.64563831656778
 21
94.5514495969021
 31
0.0
  0
LINE
  5
DC21
330
18
100
AcDbEntity
  8
center
 48
0.1
100
AcDbLine
 10
58.64563831656778
 20
87.55144959690211
 30
0.0
 11
58.64563831656778
 21
97.70144959690213
 31
0.0
  0
LINE
  5
DC22
330
18
100
AcDbEntity
  8
contour
100
AcDbLine
 10
55.9956383165678
 20
93.02147138354953
 30
0.0
 11
55.9956383165678
 21
90.05144959690216
 31
0.0
  0
LINE
  5
DC23
330
18
100
AcDbEntity
  8
contour
100
AcDbLine
 10
55.4956383165678
 20
89.55144959690215
 30
0.0
 11
55.9956383165678
 21
90.05144959690216
 31
0.0
  0
LINE
  5
DC24
330
18
100
AcDbEntity
  8
contour
100
AcDbLine
 10
61.29563831656764
 20
93.02147138354966
 30
0.0
 11
61.29563831656776
 21
90.05144959690216
 31
0.0
  0
LINE
  5
DC25
330
18
100
AcDbEntity
  8
contour
100
AcDbLine
 10
55.9956383165678
 20
93.02147138354953
 30
0.0
 11
58.64563831656778
 21
94.5514495969021
 31
0.0
  0
LINE
  5
DC26
330
18
100
AcDbEntity
  8
contour
100
AcDbLine
 10
55.9956383165678
 20
93.02147138354953
 30
0.0
 11
61.29563831656764
 21
93.02147138354957
 31
0.0
  0
LINE
  5
DC27
330
18
100
AcDbEntity
  8
contour
100
AcDbLine
 10
55.9956383165678
 20
90.05144959690216
 30
0.0
 11
61.29563831656776
 21
90.05144959690225
 31
0.0
  0
LINE
  5
DC28
330
18
100
AcDbEntity
  8
contour
100
AcDbLine
 10
66.97813831656777
 20
113.5514495969021
 30
0.0
 11
66.97813831656777
 21
104.7014495969021
 31
0.0
  0
LINE
  5
DC29
330
18
100
AcDbEntity
  8
contour
100
AcDbLine
 10
64.97813831656777
 20
115.5514495969021
 30
0.0
 11
66.97813831656777
 21
113.5514495969021
 31
0.0
  0
LINE
  5
DC2A
330
18
100
AcDbEntity
  8
contour
100
AcDbLine
 10
66.97813831656777
 20
97.70144959690213
 30
0.0
 11
66.97813831656777
 21
91.55144959690213
 31
0.0
  0
LINE
  5
DC2B
330
18
100
AcDbEntity
  8
contour
100
AcDbLine
 10
124.8131383165678
 20
91.55144959690213
 30
0.0
 11
126.8131383165678
 21
89.55144959690214
 31
0.0
  0
LINE
  5
DC2C
330
18
100
AcDbEntity
  8
contour
100
AcDbLine
 10
124.8131383165678
 20
97.70144959690217
 30
0.0
 11
126.8131383165678
 21
99.70144959690216
 31
0.0
  0
LINE
  5
DC2D
330
18
100
AcDbEntity
  8
contour
100
AcDbLine
 10
124.8131383165678
 20
104.7014495969021
 30
0.0
 11
126.8131383165678
 21
102.7014495969021
 31
0.0
  0
LINE
  5
DC2E
330
18
100
AcDbEntity
  8
contour
 62
     4
100
AcDbLine
 10
125.8956383165677
 20
114.633949596902
 30
0.0
 11
125.8956383165677
 21
103.6189495969022
 31
0.0
  0
LINE
  5
DC2F
330
18
100
AcDbEntity
  8
contour
 62
     4
100
AcDbLine
 10
125.8956383165678
 20
98.78394959690211
 30
0.0
 11
125.8956383165676
 21
90.4689495969022
 31
0.0
  0
LINE
  5
DC30
330
18
100
AcDbEntity
  8
contour
100
AcDbLine
 10
124.8131383165678
 20
113.5514495969021
 30
0.0
 11
124.8131383165678
 21
104.7014495969021
 31
0.0
  0
LINE
  5
DC31
330
18
100
AcDbEntity
  8
contour
100
AcDbLine
 10
126.8131383165678
 20
115.5514495969021
 30
0.0
 11
124.8131383165678
 21
113.5514495969021
 31
0.0
  0
LINE
  5
DC32
330
18
100
AcDbEntity
  8
contour
100
AcDbLine
 10
124.8131383165678
 20
97.70144959690213
 30
0.0
 11
124.8131383165678
 21
91.55144959690213
 31
0.0
  0
LINE
  5
DC33
330
18
100
AcDbEntity
  8
contour
100
AcDbLine
 10
66.97813831656777
 20
113.5514495969021
 30
0.0
 11
124.8131383165677
 21
113.5514495969021
 31
0.0
  0
LINE
  5
DC34
330
18
100
AcDbEntity
  8
contour
100
AcDbLine
 10
66.97813831656777
 20
104.7014495969021
 30
0.0
 11
124.8131383165677
 21
104.7014495969021
 31
0.0
  0
LINE
  5
DC35
330
18
100
AcDbEntity
  8
contour
100
AcDbLine
 10
66.97813831656777
 20
97.70144959690213
 30
0.0
 11
124.8131383165678
 21
97.70144959690213
 31
0.0
  0
LINE
  5
DC36
330
18
100
AcDbEntity
  8
contour
100
AcDbLine
 10
124.8131383165678
 20
91.55144959690213
 30
0.0
 11
66.97813831656777
 21
91.55144959690213
 31
0.0
  0
LINE
  5
DC37
330
18
100
AcDbEntity
  8
center
 48
0.25
100
AcDbLine
 10
95.89563831656812
 20
238.5295798177419
 30
0.0
 11
95.89563831656773
 21
150.5295798177422
 31
0.0
  0
LINE
  5
DC38
330
18
100
AcDbEntity
  8
center
 48
0.25
100
AcDbLine
 10
51.89563831656795
 20
194.5295798177422
 30
0.0
 11
139.8956383165678
 21
194.5295798177419
 31
0.0
  0
CIRCLE
  5
DC39
330
18
100
AcDbEntity
  8
contour
100
AcDbCircle
 10
95.89563831656773
 20
194.529579817742
 30
0.0
 40
41.99999999999988
  0
CIRCLE
  5
DC3A
330
18
100
AcDbEntity
  8
contour
100
AcDbCircle
 10
131.8956383165676
 20
194.5295798177419
 30
0.0
 40
2.066999999999666
  0
ARC
  5
DC3B
330
18
100
AcDbEntity
  8
contour
 62
     4
100
AcDbCircle
 10
131.8956383165676
 20
194.5295798177419
 30
0.0
 40
2.499999999999715
100
AcDbArc
 50
168.4630409671834
 51
101.5369590328181
  0
CIRCLE
  5
DC3C
330
18
100
AcDbEntity
  8
bowle
 48
0.2
100
AcDbCircle
 10
131.8956383165676
 20
194.5295798177419
 30
0.0
 40
4.249999999999772
  0
CIRCLE
  5
DC3D
330
18
100
AcDbEntity
  8
center
 48
0.25
100
AcDbCircle
 10
95.89563831656773
 20
194.529579817742
 30
0.0
 40
35.99999999999983
  0
LINE
  5
DC3E
330
18
100
AcDbEntity
  8
center
 48
0.2
100
AcDbLine
 10
72.35013963847632
 20
208.1235798177421
 30
0.0
 11
57.79052055005263
 21
216.5295798177421
 31
0.0
  0
CIRCLE
  5
DC3F
330
18
100
AcDbEntity
  8
bowle
 48
0.2
100
AcDbCircle
 10
63.63619202559744
 20
213.1545798177421
 30
0.0
 40
2.649999999999806
  0
CIRCLE
  5
DC40
330
18
100
AcDbEntity
  8
bowle
 48
0.2
100
AcDbCircle
 10
63.63619202559744
 20
213.1545798177421
 30
0.0
 40
3.149999999999806
  0
LINE
  5
DC41
330
18
100
AcDbEntity
  8
bowle
 48
0.2
100
AcDbLine
 10
58.88859676140583
 20
212.4315036063887
 30
0.0
 11
57.76104603337955
 21
212.1293772993892
 31
0.0
  0
LINE
  5
DC42
330
18
100
AcDbEntity
  8
bowle
 48
0.2
100
AcDbLine
 10
58.88859676140583
 20
212.4315036063887
 30
0.0
 11
62.58474918411252
 21
210.2975290101731
 31
0.0
  0
LINE
  5
DC43
330
18
100
AcDbEntity
  8
bowle
 48
0.2
100
AcDbLine
 10
65.58474918411258
 20
212.0295798177421
 30
0.0
 11
65.58474918411253
 21
215.4936814328797
 31
0.0
  0
LINE
  5
DC44
330
18
100
AcDbEntity
  8
bowle
 48
0.2
100
AcDbLine
 10
65.58474918411253
 20
215.4936814328797
 30
0.0
 11
61.88859676140589
 21
217.6276560290954
 31
0.0
  0
LINE
  5
DC45
330
18
100
AcDbEntity
  8
bowle
 48
0.2
100
AcDbLine
 10
65.58474918411258
 20
212.0295798177421
 30
0.0
 11
62.58474918411252
 21
210.2975290101731
 31
0.0
  0
LINE
  5
DC46
330
18
100
AcDbEntity
  8
bowle
 48
0.2
100
AcDbLine
 10
62.58474918411252
 20
210.2975290101731
 30
0.0
 11
65.58474918411253
 21
215.4936814328797
 31
0.0
  0
LINE
  5
DC47
330
18
100
AcDbEntity
  8
bowle
 48
0.2
100
AcDbLine
 10
61.88859676140589
 20
217.6276560290952
 30
0.0
 11
61.58647045440591
 21
218.7552067571216
 31
0.0
  0
LINE
  5
DC48
330
18
100
AcDbEntity
  8
bowle
 48
0.2
100
AcDbLine
 10
61.88859676140589
 20
217.6276560290953
 30
0.0
 11
58.88859676140589
 21
212.4315036063888
 31
0.0
  0
CIRCLE
  5
DC49
330
18
100
AcDbEntity
  8
contour
100
AcDbCircle
 10
113.8956383165678
 20
225.7064943539816
 30
0.0
 40
2.066999999999666
  0
CIRCLE
  5
DC4A
330
18
100
AcDbEntity
  8
bowle
 48
0.2
100
AcDbCircle
 10
113.8956383165678
 20
225.7064943539816
 30
0.0
 40
4.249999999999772
  0
CIRCLE
  5
DC4B
330
18
100
AcDbEntity
  8
contour
100
AcDbCircle
 10
77.89563831656806
 20
225.7064943539816
 30
0.0
 40
2.066999999999665
  0
CIRCLE
  5
DC4C
330
18
100
AcDbEntity
  8
bowle
 48
0.2
100
AcDbCircle
 10
77.89563831656806
 20
225.7064943539816
 30
0.0
 40
4.249999999999771
  0
CIRCLE
  5
DC4D
330
18
100
AcDbEntity
  8
contour
100
AcDbCircle
 10
59.89563831656823
 20
194.5295798177421
 30
0.0
 40
2.066999999999666
  0
CIRCLE
  5
DC4E
330
18
100
AcDbEntity
  8
bowle
 48
0.2
100
AcDbCircle
 10
59.89563831656823
 20
194.5295798177421
 30
0.0
 40
4.249999999999772
  0
CIRCLE
  5
DC4F
330
18
100
AcDbEntity
  8
contour
100
AcDbCircle
 10
77.89563831656789
 20
163.3526652815024
 30
0.0
 40
2.066999999999666
  0
CIRCLE
  5
DC50
330
18
100
AcDbEntity
  8
bowle
 48
0.2
100
AcDbCircle
 10
77.89563831656789
 20
163.3526652815024
 30
0.0
 40
4.249999999999772
  0
CIRCLE
  5
DC51
330
18
100
AcDbEntity
  8
contour
100
AcDbCircle
 10
113.8956383165677
 20
163.3526652815025
 30
0.0
 40
2.066999999999666
  0
CIRCLE
  5
DC52
330
18
100
AcDbEntity
  8
bowle
 48
0.2
100
AcDbCircle
 10
113.8956383165677
 20
163.3526652815025
 30
0.0
 40
4.249999999999772
  0
LINE
  5
DC53
330
18
100
AcDbEntity
  8
bowle
 48
0.2
100
AcDbLine
 10
58.45558405951368
 20
176.3776560290953
 30
0.0
 11
57.95700668341305
 21
176.5112494343858
 31
0.0
  0
LINE
  5
DC54
330
18
100
AcDbEntity
  8
center
 48
0.2
100
AcDbLine
 10
82.30163831656772
 20
218.0750784958335
 30
0.0
 11
73.89563831656795
 21
232.6346975842573
 31
0.0
  0
LINE
  5
DC55
330
18
100
AcDbEntity
  8
center
 48
0.2
100
AcDbLine
 10
109.4896383165679
 20
218.0750784958336
 30
0.0
 11
117.8956383165677
 21
232.6346975842572
 31
0.0
  0
LINE
  5
DC56
330
18
100
AcDbEntity
  8
center
 48
0.2
100
AcDbLine
 10
82.30163831656785
 20
170.9840811396505
 30
0.0
 11
73.8956383165679
 21
156.4244620512265
 31
0.0
  0
LINE
  5
DC57
330
18
100
AcDbEntity
  8
center
 48
0.2
100
AcDbLine
 10
109.4896383165679
 20
170.9840811396504
 30
0.0
 11
117.8956383165676
 21
156.4244620512265
 31
0.0
  0
ARC
  5
DC58
330
18
100
AcDbEntity
  8
contour
 62
     4
100
AcDbCircle
 10
113.8956383165677
 20
163.3526652815023
 30
0.0
 40
2.499999999999715
100
AcDbArc
 50
168.4630409671834
 51
101.5369590328181
  0
ARC
  5
DC59
330
18
100
AcDbEntity
  8
contour
 62
     4
100
AcDbCircle
 10
77.89563831656801
 20
163.3526652815023
 30
0.0
 40
2.499999999999715
100
AcDbArc
 50
168.4630409671834
 51
101.5369590328181
  0
ARC
  5
DC5A
330
18
100
AcDbEntity
  8
contour
 62
     4
100
AcDbCircle
 10
59.89563831656823
 20
194.5295798177422
 30
0.0
 40
2.499999999999715
100
AcDbArc
 50
168.4630409671834
 51
101.5369590328181
  0
ARC
  5
DC5B
330
18
100
AcDbEntity
  8
contour
 62
     4
100
AcDbCircle
 10
77.89563831656806
 20
225.7064943539818
 30
0.0
 40
2.499999999999715
100
AcDbArc
 50
168.4630409671834
 51
101.5369590328181
  0
ARC
  5
DC5C
330
18
100
AcDbEntity
  8
contour
 62
     4
100
AcDbCircle
 10
113.8956383165679
 20
225.7064943539816
 30
0.0
 40
2.499999999999715
100
AcDbArc
 50
168.4630409671834
 51
101.5369590328181
  0
CIRCLE
  5
DC5D
330
18
100
AcDbEntity
  8
contour
100
AcDbCircle
 10
95.89563831656789
 20
194.529579817742
 30
0.0
 40
28.91749999999991
  0
ARC
  5
DC5E
330
18
100
AcDbEntity
  8
contour
 62
     4
100
AcDbCircle
 10
95.89563831656789
 20
194.529579817742
 30
0.0
 40
29.99999999999989
100
AcDbArc
 50
168.4630409671834
 51
101.5369590328181
  0
CIRCLE
  5
DC5F
330
18
100
AcDbEntity
  8
contour
100
AcDbCircle
 10
95.89563831656789
 20
194.529579817742
 30
0.0
 40
30.91749999999996
  0
LINE
  5
DC60
330
18
100
AcDbEntity
  8
center
 48
0.2
100
AcDbLine
 10
72.35013963847643
 20
180.9355798177419
 30
0.0
 11
57.79052055005269
 21
172.5295798177421
 31
0.0
  0
CIRCLE
  5
DC61
330
18
100
AcDbEntity
  8
bowle
 48
0.2
100
AcDbCircle
 10
63.63619202559738
 20
175.904579817742
 30
0.0
 40
2.649999999999806
  0
CIRCLE
  5
DC62
330
18
100
AcDbEntity
  8
bowle
 48
0.2
100
AcDbCircle
 10
63.63619202559738
 20
175.904579817742
 30
0.0
 40
3.149999999999806
  0
LINE
  5
DC63
330
18
100
AcDbEntity
  8
bowle
 48
0.2
100
AcDbLine
 10
61.88859676140589
 20
171.4315036063886
 30
0.0
 11
61.58647045440597
 21
170.3039528783624
 31
0.0
  0
LINE
  5
DC64
330
18
100
AcDbEntity
  8
bowle
 48
0.2
100
AcDbLine
 10
61.88859676140589
 20
171.4315036063886
 30
0.0
 11
65.58474918411263
 21
173.5654782026042
 31
0.0
  0
LINE
  5
DC65
330
18
100
AcDbEntity
  8
bowle
 48
0.2
100
AcDbLine
 10
65.58474918411263
 20
177.029579817742
 30
0.0
 11
62.58474918411264
 21
178.7616306253109
 31
0.0
  0
LINE
  5
DC66
330
18
100
AcDbEntity
  8
bowle
 48
0.2
100
AcDbLine
 10
62.58474918411264
 20
178.7616306253109
 30
0.0
 11
58.88859676140595
 21
176.6276560290953
 31
0.0
  0
LINE
  5
DC67
330
18
100
AcDbEntity
  8
bowle
 48
0.2
100
AcDbLine
 10
65.58474918411263
 20
177.029579817742
 30
0.0
 11
65.58474918411263
 21
173.5654782026042
 31
0.0
  0
LINE
  5
DC68
330
18
100
AcDbEntity
  8
bowle
 48
0.2
100
AcDbLine
 10
65.58474918411263
 20
173.5654782026042
 30
0.0
 11
62.58474918411264
 21
178.7616306253109
 31
0.0
  0
LINE
  5
DC69
330
18
100
AcDbEntity
  8
bowle
 48
0.2
100
AcDbLine
 10
58.88859676140606
 20
176.6276560290953
 30
0.0
 11
57.76104603337961
 21
176.9297823360949
 31
0.0
  0
LINE
  5
DC6A
330
18
100
AcDbEntity
  8
bowle
 48
0.2
100
AcDbLine
 10
58.88859676140601
 20
176.6276560290953
 30
0.0
 11
61.88859676140594
 21
171.4315036063887
 31
0.0
  0
CIRCLE
  5
DC6B
330
18
100
AcDbEntity
  8
bowle
 48
0.2
100
AcDbCircle
 10
95.89563831656789
 20
157.2795798177418
 30
0.0
 40
2.649999999999806
  0
CIRCLE
  5
DC6C
330
18
100
AcDbEntity
  8
bowle
 48
0.2
100
AcDbCircle
 10
95.89563831656789
 20
157.2795798177418
 30
0.0
 40
3.149999999999806
  0
LINE
  5
DC6D
330
18
100
AcDbEntity
  8
bowle
 48
0.2
100
AcDbLine
 10
98.89563831656808
 20
153.529579817742
 30
0.0
 11
99.72106273759443
 21
152.7041553967153
 31
0.0
  0
LINE
  5
DC6E
330
18
100
AcDbEntity
  8
bowle
 48
0.2
100
AcDbLine
 10
98.89563831656808
 20
153.529579817742
 30
0.0
 11
98.89563831656808
 21
157.7975290101732
 31
0.0
  0
LINE
  5
DC6F
330
18
100
AcDbEntity
  8
bowle
 48
0.2
100
AcDbLine
 10
95.89563831656807
 20
159.529579817742
 30
0.0
 11
92.89563831656806
 21
157.7975290101732
 31
0.0
  0
LINE
  5
DC70
330
18
100
AcDbEntity
  8
bowle
 48
0.2
100
AcDbLine
 10
92.89563831656806
 20
157.7975290101732
 30
0.0
 11
92.89563831656801
 21
153.529579817742
 31
0.0
  0
LINE
  5
DC71
330
18
100
AcDbEntity
  8
bowle
 48
0.2
100
AcDbLine
 10
95.89563831656807
 20
159.529579817742
 30
0.0
 11
98.89563831656808
 21
157.7975290101732
 31
0.0
  0
LINE
  5
DC72
330
18
100
AcDbEntity
  8
bowle
 48
0.2
100
AcDbLine
 10
98.89563831656808
 20
157.7975290101732
 30
0.0
 11
92.89563831656806
 21
157.7975290101732
 31
0.0
  0
LINE
  5
DC73
330
18
100
AcDbEntity
  8
bowle
 48
0.2
100
AcDbLine
 10
92.89563831656812
 20
153.5295798177421
 30
0.0
 11
92.07021389554165
 21
152.7041553967153
 31
0.0
  0
LINE
  5
DC74
330
18
100
AcDbEntity
  8
bowle
 48
0.2
100
AcDbLine
 10
92.89563831656812
 20
153.529579817742
 30
0.0
 11
98.89563831656808
 21
153.5295798177419
 31
0.0
  0
LINE
  5
DC75
330
18
100
AcDbEntity
  8
center
 48
0.2
100
AcDbLine
 10
119.4411369946595
 20
180.9355798177421
 30
0.0
 11
134.0007560830831
 21
172.5295798177422
 31
0.0
  0
CIRCLE
  5
DC76
330
18
100
AcDbEntity
  8
bowle
 48
0.2
100
AcDbCircle
 10
128.1550846075383
 20
175.904579817742
 30
0.0
 40
2.649999999999806
  0
CIRCLE
  5
DC77
330
18
100
AcDbEntity
  8
bowle
 48
0.2
100
AcDbCircle
 10
128.1550846075383
 20
175.904579817742
 30
0.0
 40
3.149999999999806
  0
LINE
  5
DC78
330
18
100
AcDbEntity
  8
bowle
 48
0.2
100
AcDbLine
 10
132.90267987173
 20
176.6276560290955
 30
0.0
 11
134.0302305997562
 21
176.9297823360951
 31
0.0
  0
LINE
  5
DC79
330
18
100
AcDbEntity
  8
bowle
 48
0.2
100
AcDbLine
 10
132.90267987173
 20
176.6276560290955
 30
0.0
 11
129.2065274490233
 21
178.7616306253111
 31
0.0
  0
LINE
  5
DC7A
330
18
100
AcDbEntity
  8
bowle
 48
0.2
100
AcDbLine
 10
126.2065274490232
 20
177.0295798177422
 30
0.0
 11
126.2065274490232
 21
173.5654782026045
 31
0.0
  0
LINE
  5
DC7B
330
18
100
AcDbEntity
  8
bowle
 48
0.2
100
AcDbLine
 10
126.2065274490232
 20
173.5654782026045
 30
0.0
 11
129.9026798717299
 21
171.4315036063888
 31
0.0
  0
LINE
  5
DC7C
330
18
100
AcDbEntity
  8
bowle
 48
0.2
100
AcDbLine
 10
126.2065274490232
 20
177.0295798177422
 30
0.0
 11
129.2065274490233
 21
178.7616306253111
 31
0.0
  0
LINE
  5
DC7D
330
18
100
AcDbEntity
  8
bowle
 48
0.2
100
AcDbLine
 10
129.2065274490233
 20
178.7616306253111
 30
0.0
 11
126.2065274490232
 21
173.5654782026045
 31
0.0
  0
LINE
  5
DC7E
330
18
100
AcDbEntity
  8
bowle
 48
0.2
100
AcDbLine
 10
129.9026798717299
 20
171.431503606389
 30
0.0
 11
130.2048061787299
 21
170.3039528783626
 31
0.0
  0
LINE
  5
DC7F
330
18
100
AcDbEntity
  8
bowle
 48
0.2
100
AcDbLine
 10
129.9026798717299
 20
171.4315036063889
 30
0.0
 11
132.9026798717299
 21
176.6276560290954
 31
0.0
  0
LINE
  5
DC80
330
18
100
AcDbEntity
  8
center
 48
0.2
100
AcDbLine
 10
119.4411369946595
 20
208.1235798177422
 30
0.0
 11
134.0007560830831
 21
216.529579817742
 31
0.0
  0
CIRCLE
  5
DC81
330
18
100
AcDbEntity
  8
bowle
 48
0.2
100
AcDbCircle
 10
128.1550846075385
 20
213.1545798177421
 30
0.0
 40
2.649999999999806
  0
CIRCLE
  5
DC82
330
18
100
AcDbEntity
  8
bowle
 48
0.2
100
AcDbCircle
 10
128.1550846075385
 20
213.1545798177421
 30
0.0
 40
3.149999999999806
  0
LINE
  5
DC83
330
18
100
AcDbEntity
  8
bowle
 48
0.2
100
AcDbLine
 10
129.9026798717299
 20
217.6276560290955
 30
0.0
 11
130.2048061787299
 21
218.7552067571216
 31
0.0
  0
LINE
  5
DC84
330
18
100
AcDbEntity
  8
bowle
 48
0.2
100
AcDbLine
 10
129.9026798717299
 20
217.6276560290955
 30
0.0
 11
126.2065274490232
 21
215.4936814328798
 31
0.0
  0
LINE
  5
DC85
330
18
100
AcDbEntity
  8
bowle
 48
0.2
100
AcDbLine
 10
126.2065274490232
 20
212.0295798177421
 30
0.0
 11
129.2065274490233
 21
210.2975290101732
 31
0.0
  0
LINE
  5
DC86
330
18
100
AcDbEntity
  8
bowle
 48
0.2
100
AcDbLine
 10
129.2065274490233
 20
210.2975290101732
 30
0.0
 11
132.9026798717299
 21
212.4315036063888
 31
0.0
  0
LINE
  5
DC87
330
18
100
AcDbEntity
  8
bowle
 48
0.2
100
AcDbLine
 10
126.2065274490232
 20
212.0295798177421
 30
0.0
 11
126.2065274490232
 21
215.4936814328798
 31
0.0
  0
LINE
  5
DC88
330
18
100
AcDbEntity
  8
bowle
 48
0.2
100
AcDbLine
 10
126.2065274490232
 20
215.4936814328798
 30
0.0
 11
129.2065274490233
 21
210.2975290101732
 31
0.0
  0
LINE
  5
DC89
330
18
100
AcDbEntity
  8
bowle
 48
0.2
100
AcDbLine
 10
132.9026798717298
 20
212.4315036063888
 30
0.0
 11
134.0302305997562
 21
212.1293772993892
 31
0.0
  0
LINE
  5
DC8A
330
18
100
AcDbEntity
  8
bowle
 48
0.2
100
AcDbLine
 10
132.9026798717299
 20
212.4315036063888
 30
0.0
 11
129.90267987173
 21
217.6276560290954
 31
0.0
  0
CIRCLE
  5
DC8B
330
18
100
AcDbEntity
  8
bowle
 48
0.2
100
AcDbCircle
 10
95.89563831656802
 20
231.7795798177423
 30
0.0
 40
2.649999999999806
  0
CIRCLE
  5
DC8C
330
18
100
AcDbEntity
  8
bowle
 48
0.2
100
AcDbCircle
 10
95.89563831656802
 20
231.7795798177423
 30
0.0
 40
3.149999999999806
  0
LINE
  5
DC8D
330
18
100
AcDbEntity
  8
bowle
 48
0.2
100
AcDbLine
 10
92.8956383165679
 20
235.5295798177422
 30
0.0
 11
92.07021389554155
 21
236.3550042387688
 31
0.0
  0
LINE
  5
DC8E
330
18
100
AcDbEntity
  8
bowle
 48
0.2
100
AcDbLine
 10
92.8956383165679
 20
235.5295798177422
 30
0.0
 11
92.8956383165679
 21
231.2616306253109
 31
0.0
  0
LINE
  5
DC8F
330
18
100
AcDbEntity
  8
bowle
 48
0.2
100
AcDbLine
 10
95.89563831656789
 20
229.529579817742
 30
0.0
 11
98.8956383165679
 21
231.2616306253109
 31
0.0
  0
LINE
  5
DC90
330
18
100
AcDbEntity
  8
bowle
 48
0.2
100
AcDbLine
 10
98.8956383165679
 20
231.2616306253109
 30
0.0
 11
98.8956383165679
 21
235.5295798177422
 31
0.0
  0
LINE
  5
DC91
330
18
100
AcDbEntity
  8
bowle
 48
0.2
100
AcDbLine
 10
95.89563831656789
 20
229.529579817742
 30
0.0
 11
92.8956383165679
 21
231.2616306253109
 31
0.0
  0
LINE
  5
DC92
330
18
100
AcDbEntity
  8
bowle
 48
0.2
100
AcDbLine
 10
92.8956383165679
 20
231.2616306253109
 30
0.0
 11
98.8956383165679
 21
231.2616306253109
 31
0.0
  0
LINE
  5
DC93
330
18
100
AcDbEntity
  8
bowle
 48
0.2
100
AcDbLine
 10
98.89563831656785
 20
235.529579817742
 30
0.0
 11
99.72106273759425
 21
236.3550042387688
 31
0.0
  0
LINE
  5
DC94
330
18
100
AcDbEntity
  8
bowle
 48
0.2
100
AcDbLine
 10
98.8956383165679
 20
235.529579817742
 30
0.0
 11
92.8956383165679
 21
235.5295798177422
 31
0.0
  0
DIMENSION
  5
DC95
330
18
100
AcDbEntity
  8
mark
100
AcDbDimension
  2
*D7
 10
147.7503625602201
 20
98.70144959690216
 30
0.0
 11
145.65036256022
 21
107.1264495969021
 31
0.0
 70
    32
 71
     5
 42
16.84999999999996
  3
STANDARD
100
AcDbAlignedDimension
 13
136.8956383165678
 23
115.5514495969021
 33
0.0
 14
136.8956383165678
 24
98.70144959690216
 34
0.0
 50
90.0
100
AcDbRotatedDimension
  0
DIMENSION
  5
DCA2
330
18
100
AcDbEntity
  8
mark
100
AcDbDimension
  2
*D8
 10
147.7503625602201
 20
96.70144959690214
 30
0.0
 11
147.7503625602201
 21
97.70144959690217
 31
0.0
 70
   160
 71
     5
 42
2.000000000000028
  3
STANDARD
100
AcDbAlignedDimension
 13
136.8956383165678
 23
98.70144959690216
 33
0.0
 14
136.8956383165678
 24
96.70144959690214
 34
0.0
 50
90.0
100
AcDbRotatedDimension
  0
DIMENSION
  5
DCBC
330
18
100
AcDbEntity
  8
mark
100
AcDbDimension
  2
*D9
 10
157.1043606515966
 20
89.55144959690214
 30
0.0
 11
155.0043606515966
 21
102.5514495969021
 31
0.0
 70
    32
  1
<>%%P0.2
 71
     5
 42
26.0
  3
STANDARD
100
AcDbAlignedDimension
 13
136.8956383165678
 23
115.5514495969021
 33
0.0
 14
136.8956383165678
 24
89.55144959690214
 34
0.0
 50
90.0
100
AcDbRotatedDimension
  0
LEADER
  5
DCDD
330
18
100
AcDbEntity
  8
mark
100
AcDbLeader
  3
STANDARD
 76
     2
 10
125.8131383165678
 20
90.55144959690213
 30
0.0
 10
118.4458281679293
 20
83.1841394482636
 30
0.0
211
0.7071067811865476
221
0.7071067811865475
231
0.0
1001
ACAD
1000
DSTYLE
1002
{
1070
   147
1040
0.85
1070
    77
1070
     0
1002
}
  0
MTEXT
  5
DCDE
330
18
100
AcDbEntity
  8
mark
 62
     3
100
AcDbMText
 10
118.545154822061
 20
86.43657125163267
 30
0.0
 40
2.5
 41
0.0
 71
     5
 72
     1
  1
C2
 11
0.7071067811865476
 21
0.7071067811865475
 31
0.0
 73
     1
 44
1.0
1001
ACAD
1000
ACAD_MTEXT_DEFINED_HEIGHT_BEGIN
1070
    46
1040
0.0
1000
ACAD_MTEXT_DEFINED_HEIGHT_END
  0
DIMENSION
  5
DCDF
330
18
100
AcDbEntity
  8
mark
100
AcDbDimension
  2
*D10
 10
125.8956383165676
 20
77.71448955852259
 30
0.0
 11
95.89563831656779
 21
79.81448955852258
 31
0.0
 70
    32
  1
M60x2.0P
 71
     5
 42
59.99999999999977
  3
STANDARD
100
AcDbAlignedDimension
 13
65.89563831656789
 23
90.4689495969022
 33
0.0
 14
125.8956383165676
 24
90.4689495969022
 34
0.0
100
AcDbRotatedDimension
  0
MTEXT
  5
DCEC
330
18
100
AcDbEntity
  8
dim
100
AcDbMText
 10
30.73318413876848
 20
86.72597519576735
 30
0.0
 40
2.5
 41
54.08337224291063
 71
     1
 72
     5
  1
6-%%C5.3{\Ftxt,bigfont|c128;深さ}5
 73
     1
 44
1.0
1001
ACAD
1000
ACAD_MTEXT_DEFINED_HEIGHT_BEGIN
1070
    46
1040
0.0
1000
ACAD_MTEXT_DEFINED_HEIGHT_END
  0
LEADER
  5
DCED
330
18
100
AcDbEntity
  8
mark
100
AcDbLeader
  3
STANDARD
 76
     3
 10
58.64563831656778
 20
89.55144959690214
 30
0.0
 10
52.27832816792925
 20
83.1841394482636
 30
0.0
 10
30.75968831160651
 20
83.1841394482636
 30
0.0
1001
ACAD
1000
DSTYLE
1002
{
1070
   147
1040
0.85
1070
    77
1070
     0
1002
}
  0
MTEXT
  5
DCEE
330
18
100
AcDbEntity
  8
dim
100
AcDbMText
 10
29.2184826385643
 20
103.7259751957673
 30
0.0
 40
2.5
 41
54.08337224291063
 71
     1
 72
     5
  1
6-%%C6{\Ftxt,bigfont|c128;深さ}7
 73
     1
 44
1.0
1001
ACAD
1000
ACAD_MTEXT_DEFINED_HEIGHT_BEGIN
1070
    46
1040
0.0
1000
ACAD_MTEXT_DEFINED_HEIGHT_END
  0
LEADER
  5
DCEF
330
18
100
AcDbEntity
  8
mark
100
AcDbLeader
  3
STANDARD
 76
     3
 10
53.89563831656778
 20
106.5514495969021
 30
0.0
 10
47.52832816792926
 20
100.1841394482636
 30
0.0
 10
29.06233830359929
 20
100.1841394482636
 30
0.0
1001
ACAD
1000
DSTYLE
1002
{
1070
   147
1040
0.85
1070
    77
1070
     0
1002
}
  0
TOLERANCE
  5
DCF0
330
18
100
AcDbEntity
  8
mark
100
AcDbFcf
  3
STANDARD
 10
162.1043606515966
 20
122.3438372581147
 30
0.0
  1
{\Fgdt;h}%%v0.005%%v%%vA%%v%%v
  0
LINE
  5
DCF1
330
18
100
AcDbEntity
  8
mark
100
AcDbLine
 10
157.1043606515966
 20
122.3438372581147
 30
0.0
 11
162.1043606515966
 21
122.3438372581147
 31
0.0
  0
LINE
  5
DCF2
330
18
100
AcDbEntity
  8
mark
100
AcDbLine
 10
157.1043606515966
 20
115.5514495969021
 30
0.0
 11
157.1043606515966
 21
122.3438372581147
 31
0.0
  0
DIMENSION
  5
DCF3
330
18
100
AcDbEntity
  8
mark
100
AcDbDimension
  2
*D11
 10
137.8956383165677
 20
122.3438372581147
 30
0.0
 11
95.89563831656779
 21
124.4438372581147
 31
0.0
 70
    32
  1
%%c<>
 71
     5
 42
83.99999999999989
  3
STANDARD
100
AcDbAlignedDimension
 13
53.89563831656784
 23
114.5514495969021
 33
0.0
 14
137.8956383165677
 24
114.5514495969021
 34
0.0
100
AcDbRotatedDimension
  0
MTEXT
  5
DD13
330
18
100
AcDbEntity
  8
mark
 62
     3
100
AcDbMText
 10
101.5754272195804
 20
124.5831533632675
 30
0.0
 40
1.7
 41
0.0
 71
     5
 72
     1
  1
\A1;{\H0.7x;\S+0^ -0.2;}
 73
     1
 44
1.0
1001
ACAD
1000
ACAD_MTEXT_DEFINED_HEIGHT_BEGIN
1070
    46
1040
0.0
1000
ACAD_MTEXT_DEFINED_HEIGHT_END
  0
HATCH
  5
DD97
330
18
100
AcDbEntity
  8
section
100
AcDbHatch
 10
0.0
 20
0.0
 30
0.0
210
0.0
220
0.0
230
1.0
  2
ANSI31
 70
     0
 71
     0
 91
       12
 92
        7
 72
     1
 73
     1
 93
       28
 10
65.89563831656784
 20
114.633949596902
 42
0.0
 10
64.97813831656777
 20
115.5514495969021
 42
0.0
 10
54.89563831656784
 20
115.5514495969021
 42
0.4142135623730951
 10
53.89563831656784
 20
114.5514495969021
 42
0.0
 10
53.89563831656784
 20
110.5514495969021
 42
0.0
 10
54.89563831656784
 20
109.5514495969021
 42
0.0
 10
59.16358750899883
 20
109.5514495969021
 42
0.0
 10
60.89563831656779
 20
106.5514495969021
 42
0.0
 10
59.16358750899883
 20
103.5514495969021
 42
0.0
 10
54.89563831656778
 20
103.5514495969021
 42
0.0
 10
53.89563831656784
 20
102.5514495969021
 42
0.0
 10
53.89563831656778
 20
99.70144959690214
 42
0.4142135623730951
 10
54.89563831656778
 20
98.70144959690215
 42
0.0
 10
63.14563831656778
 20
98.70144959690215
 42
0.0
 10
63.14563831656784
 20
96.70144959690212
 42
0.0
 10
58.64563831656778
 20
96.70144959690208
 42
0.0
 10
58.64563831656784
 20
94.55144959690207
 42
0.0
 10
61.29563831656759
 20
93.02147138354966
 42
0.0
 10
61.29563831656776
 20
90.05144959690207
 42
0.0
 10
61.79563831656764
 20
89.55144959690214
 42
0.0
 10
64.97813831656777
 20
89.55144959690214
 42
0.0
 10
65.89563831656789
 20
90.46894959690225
 42
0.0
 10
65.89563831656779
 20
98.78394959690215
 42
0.0
 10
64.97813831656777
 20
99.70144959690214
 42
0.0
 10
56.64563831656778
 20
99.70144959690211
 42
0.0
 10
56.64563831656778
 20
102.7014495969021
 42
0.0
 10
64.97813831656777
 20
102.7014495969021
 42
0.0
 10
65.89563831656779
 20
103.6189495969022
 42
0.0
 97
        0
 92
        7
 72
     1
 73
     1
 93
        9
 10
58.64563831656778
 20
96.70144959690212
 42
0.0
 10
54.89563831656778
 20
96.70144959690214
 42
0.4142135623730951
 10
53.89563831656778
 20
95.70144959690214
 42
0.0
 10
53.89563831656778
 20
90.55144959690213
 42
0.4142135623730951
 10
54.89563831656778
 20
89.55144959690214
 42
0.0
 10
55.4956383165678
 20
89.55144959690214
 42
0.0
 10
55.9956383165678
 20
90.05144959690218
 42
0.0
 10
55.99563831656786
 20
93.02147138354953
 42
0.0
 10
58.64563831656778
 20
94.5514495969021
 42
0.0
 97
        0
 92
        7
 72
     0
 73
     1
 93
        4
 10
66.97813831656777
 20
97.7014495969022
 10
65.89563831656784
 20
98.78394959690215
 10
65.89563831656784
 20
90.46894959690225
 10
66.97813831656777
 20
91.55144959690208
 97
        0
 92
        7
 72
     0
 73
     1
 93
        4
 10
66.97813831656771
 20
113.5514495969021
 10
65.89563831656779
 20
114.633949596902
 10
65.89563831656784
 20
103.6189495969022
 10
66.97813831656777
 20
104.7014495969021
 97
        0
 92
        7
 72
     1
 73
     1
 93
       11
 10
137.8956383165678
 20
114.5514495969021
 42
0.4142135623730951
 10
136.8956383165678
 20
115.5514495969021
 42
0.0
 10
134.3956383165678
 20
115.5514495969021
 42
0.0
 10
134.3956383165678
 20
111.6514495969021
 42
0.0
 10
134.3956383165678
 20
102.7014495969021
 42
0.0
 10
135.1456383165678
 20
102.7014495969022
 42
0.0
 10
135.1456383165678
 20
99.70144959690214
 42
0.0
 10
134.3956383165678
 20
99.70144959690211
 42
0.0
 10
134.3956383165678
 20
98.70144959690216
 42
0.0
 10
136.8956383165678
 20
98.70144959690216
 42
0.4142135623730951
 10
137.8956383165678
 20
99.70144959690216
 42
0.0
 97
        0
 92
        7
 72
     0
 73
     1
 93
        7
 10
129.3956383165678
 20
111.6514495969021
 10
129.3956383165678
 20
115.5514495969021
 10
126.8131383165677
 20
115.5514495969021
 10
125.8956383165676
 20
114.633949596902
 10
125.8956383165676
 20
103.6189495969023
 10
126.8131383165678
 20
102.7014495969021
 10
129.3956383165678
 20
102.7014495969021
 97
        0
 92
        7
 72
     0
 73
     1
 93
        4
 10
125.8956383165678
 20
114.633949596902
 10
124.8131383165677
 20
113.5514495969021
 10
124.8131383165678
 20
104.7014495969022
 10
125.8956383165676
 20
103.6189495969022
 97
        0
 92
        7
 72
     0
 73
     1
 93
        4
 10
125.8956383165677
 20
98.78394959690211
 10
124.8131383165677
 20
97.70144959690211
 10
124.8131383165678
 20
91.55144959690208
 10
125.8956383165677
 20
90.46894959690225
 97
        0
 92
        7
 72
     0
 73
     1
 93
       13
 10
129.3956383165679
 20
96.70144959690217
 10
128.6456383165678
 20
96.70144959690217
 10
128.6456383165678
 20
98.70144959690215
 10
129.3956383165678
 20
98.70144959690216
 10
129.3956383165678
 20
99.70144959690228
 10
126.8131383165679
 20
99.70144959690225
 10
125.8956383165678
 20
98.7839495969022
 10
125.8956383165676
 20
90.46894959690229
 10
126.8131383165678
 20
89.55144959690214
 10
127.6456383165678
 20
89.55144959690214
 10
127.6456383165678
 20
89.85144959690211
 10
127.6456383165678
 20
94.55144959690214
 10
129.3956383165679
 20
94.55144959690215
 97
        0
 92
        7
 72
     1
 73
     1
 93
        9
 10
137.8956383165678
 20
95.70144959690214
 42
0.4142135623730951
 10
136.8956383165678
 20
96.70144959690214
 42
0.0
 10
134.3956383165678
 20
96.70144959690217
 42
0.0
 10
134.3956383165678
 20
94.55144959690214
 42
0.0
 10
136.1456383165678
 20
94.5514495969021
 42
0.0
 10
136.1456383165678
 20
89.85144959690211
 42
0.0
 10
136.1456383165679
 20
89.55144959690214
 42
0.0
 10
136.8956383165678
 20
89.55144959690214
 42
0.4142135623730951
 10
137.8956383165678
 20
90.55144959690213
 42
0.0
 97
        0
 92
        7
 72
     0
 73
     1
 93
        4
 10
134.3956383165678
 20
115.5514495969021
 10
133.9626383165678
 20
115.5514495969021
 10
133.9626383165678
 20
112.084449596902
 10
134.3956383165678
 20
111.6514495969021
 97
        0
 92
        7
 72
     0
 73
     1
 93
        4
 10
129.8286383165678
 20
115.5514495969021
 10
129.3956383165678
 20
115.5514495969021
 10
129.3956383165679
 20
111.6514495969022
 10
129.8286383165679
 20
112.0844495969022
 97
        0
 75
     0
 76
     1
 52
0.0
 41
0.7
 77
     0
 78
     1
 53
45.0
 43
-210.8461531340347
 44
-71.10457244987594
 45
-1.571544821187101
 46
1.571544821187101
 79
     0
 47
0.0440682502816494
 98
       12
 10
62.70435868715435
 20
105.8393962614473
 10
56.95526616640155
 20
94.88658959505437
 10
66.47720200345315
 20
95.78436061164769
 10
66.65686059760992
 20
109.9691430697537
 10
136.1849594681218
 20
107.0962755527006
 10
128.1002970530542
 20
108.3531548439539
 10
125.2257502090863
 20
108.7122637785004
 10
125.046090447747
 20
95.42525233698768
 10
126.6630236310702
 20
95.60480614437437
 10
136.3646180622786
 20
94.52748132039436
 10
134.3195692746994
 20
114.923197705968
 10
129.7337913914364
 20
114.4825149172898
1001
ACAD
1010
0.0
1020
0.0
1030
0.0
  0
ARC
  5
DD99
330
18
100
AcDbEntity
  8
center
 48
0.25
100
AcDbCircle
 10
95.89563831656789
 20
194.529579817742
 30
0.0
 40
37.25000000000023
100
AcDbArc
 50
17.43900549987265
 51
37.92775243325822
  0
ARC
  5
DD9A
330
18
100
AcDbEntity
  8
center
 48
0.25
100
AcDbCircle
 10
95.89563831656789
 20
194.529579817742
 30
0.0
 40
37.25000000000023
100
AcDbArc
 50
82.07224756674092
 51
97.92775243325904
  0
ARC
  5
DD9B
330
18
100
AcDbEntity
  8
center
 48
0.25
100
AcDbCircle
 10
95.89563831656789
 20
194.5295798177421
 30
0.0
 40
37.25000000000022
100
AcDbArc
 50
142.0722475667394
 51
157.9277524332588
  0
ARC
  5
DD9C
330
18
100
AcDbEntity
  8
center
 48
0.25
100
AcDbCircle
 10
95.89563831656784
 20
194.5295798177421
 30
0.0
 40
37.25000000000023
100
AcDbArc
 50
197.4390054998726
 51
217.9277524332602
  0
ARC
  5
DD9D
330
18
100
AcDbEntity
  8
center
 48
0.25
100
AcDbCircle
 10
95.89563831656779
 20
194.529579817742
 30
0.0
 40
37.25000000000023
100
AcDbArc
 50
262.072247566741
 51
277.9277524332574
  0
ARC
  5
DD9E
330
18
100
AcDbEntity
  8
center
 48
0.25
100
AcDbCircle
 10
95.89563831656789
 20
194.529579817742
 30
0.0
 40
37.25000000000023
100
AcDbArc
 50
322.0722475667411
 51
337.9277524332571
  0
DIMENSION
  5
DDA1
330
18
100
AcDbEntity
  8
mark
100
AcDbDimension
  2
*D12
 10
60.98304173817043
 20
181.5421589747076
 30
0.0
 11
147.4686210016098
 21
213.7146332341246
 31
0.0
 70
   163
  1
P.C.D 74.5
 71
     5
 42
74.50000000000045
  3
STANDARD
100
AcDbDiametricDimension
 15
130.8082348949654
 25
207.5170006607765
 35
0.0
 40
0.0
1001
ACAD
1000
DSTYLE
1002
{
1070
   288
1070
     1
1002
}
  0
DIMENSION
  5
DDAD
330
18
100
AcDbEntity
  8
mark
100
AcDbDimension
  2
*D13
 10
60.40842686570353
 20
188.4750093588539
 30
0.0
 11
148.4087002795515
 21
203.4889773208983
 31
0.0
 70
   163
  1
P.C.D 72
 71
     5
 42
71.99999999999974
  3
STANDARD
100
AcDbDiametricDimension
 15
131.382849767432
 25
200.5841502766303
 35
0.0
 40
0.0
1001
ACAD
1000
DSTYLE
1002
{
1070
   288
1070
     1
1002
}
  0
MTEXT
  5
DDBA
330
18
100
AcDbEntity
  8
dim
100
AcDbMText
 10
150.6835124794129
 20
76.56598079396144
 30
0.0
 40
5.0
 41
8.636702473284913
 71
     1
 72
     5
  1
2
 73
     1
 44
1.0
  0
LEADER
  5
DDC3
330
18
100
AcDbEntity
  8
mark
100
AcDbLeader
  3
STANDARD
 76
     2
 10
131.8956383165678
 20
89.55144959690214
 30
0.0
 10
149.5897549266083
 20
74.70432287540933
 30
0.0
1001
ACAD
1000
DSTYLE
1002
{
1070
   147
1040
0.85
1070
    77
1070
     0
1002
}
  0
LEADER
  5
DDC5
330
18
100
AcDbEntity
  8
mark
100
AcDbLeader
  3
STANDARD
 76
     2
 10
136.4645230207085
 20
183.6591799234363
 30
0.0
 10
149.5897549266083
 20
172.6458026720794
 30
0.0
1001
ACAD
1000
DSTYLE
1002
{
1070
   147
1040
0.85
1070
    77
1070
     0
1002
}
  0
MTEXT
  5
DDC7
330
18
100
AcDbEntity
  8
dim
100
AcDbMText
 10
150.6835124794129
 20
174.5074605906316
 30
0.0
 40
5.0
 41
8.636702473284913
 71
     1
 72
     5
  1
1
 73
     1
 44
1.0
1001
ACAD
1000
ACAD_MTEXT_DEFINED_HEIGHT_BEGIN
1070
    46
1040
0.0
1000
ACAD_MTEXT_DEFINED_HEIGHT_END
  0
DIMENSION
  5
DE93
330
18
100
AcDbEntity
  8
mark
100
AcDbDimension
  2
*D14
 10
45.73645335305946
 20
106.5514495969021
 30
0.0
 11
43.63645335305944
 21
111.0514495969021
 31
0.0
 70
    32
 71
     5
 42
9.0
  3
STANDARD
100
AcDbAlignedDimension
 13
54.89563831656784
 23
115.5514495969021
 33
0.0
 14
51.89563831656778
 24
106.5514495969021
 34
0.0
 50
90.0
100
AcDbRotatedDimension
  0
ENDSEC
  0
SECTION
  2
OBJECTS
  0
DICTIONARY
  5
C
330
0
100
AcDbDictionary
281
     1
  3
ACAD_COLOR
350
7873
  3
ACAD_GROUP
350
D
  3
ACAD_LAYOUT
350
5CF3
  3
ACAD_MATERIAL
350
7872
  3
ACAD_MLINESTYLE
350
1B
  3
ACAD_PLOTSETTINGS
350
5CF4
  3
ACAD_PLOTSTYLENAME
350
5CF1
  3
ACAD_TABLESTYLE
350
7874
  3
AcadDim
350
D9D9
  3
ACDBVARIABLEDICTIONARY
350
45D
  0
DICTIONARY
  5
7BFE
330
2
100
AcDbDictionary
280
     1
281
     1
  3
ACAD_LAYERFILTERS
360
7C00
  3
ACLYDICTIONARY
360
7BFF
  0
DICTIONARY
  5
45F
330
18
100
AcDbDictionary
280
     1
281
     1
  3
ACAD_LAYOUTSELFREF
360
5D8B
  3
ACAD_SORTENTS
360
460
  0
DICTIONARY
  5
5D89
330
15
100
AcDbDictionary
280
     1
281
     1
  3
ACAD_LAYOUTSELFREF
360
5D8A
  0
DICTIONARY
  5
7C0B
330
7C0A
100
AcDbDictionary
280
     1
281
     1
  3
AcDbBlockTableRecordData
360
7C0C
  0
DICTIONARY
  5
8E73
330
8E72
100
AcDbDictionary
280
     1
281
     1
  3
AcDbBlockTableRecordData
360
8E74
  0
DICTIONARY
  5
9D16
330
9D15
100
AcDbDictionary
280
     1
281
     1
  3
AcDbBlockTableRecordData
360
9D17
  0
DICTIONARY
  5
A519
330
A518
100
AcDbDictionary
280
     1
281
     1
  3
AcDbBlockTableRecordData
360
A51A
  0
DICTIONARY
  5
A628
330
A627
100
AcDbDictionary
280
     1
281
     1
  3
AcDbBlockTableRecordData
360
A629
  0
DICTIONARY
  5
7873
102
{ACAD_REACTORS
330
C
102
}
330
C
100
AcDbDictionary
281
     1
  0
DICTIONARY
  5
D
102
{ACAD_REACTORS
330
C
102
}
330
C
100
AcDbDictionary
281
     1
  0
DICTIONARY
  5
5CF3
102
{ACAD_REACTORS
330
C
102
}
330
C
100
AcDbDictionary
281
     1
  3
Model
350
5CF5
  3
配置1
350
5CF6
  0
DICTIONARY
  5
7872
102
{ACAD_REACTORS
330
C
102
}
330
C
100
AcDbDictionary
281
     1
  0
DICTIONARY
  5
1B
102
{ACAD_REACTORS
330
C
102
}
330
C
100
AcDbDictionary
281
     1
  3
STANDARD
350
1C
  0
DICTIONARY
  5
5CF4
102
{ACAD_REACTORS
330
C
102
}
330
C
100
AcDbDictionary
281
     1
  0
ACDBDICTIONARYWDFLT
  5
5CF1
102
{ACAD_REACTORS
330
C
102
}
330
C
100
AcDbDictionary
281
     1
  3
Normal
350
5CF2
100
AcDbDictionaryWithDefault
340
5CF2
  0
DICTIONARY
  5
7874
102
{ACAD_REACTORS
330
C
102
}
330
C
100
AcDbDictionary
281
     1
  3
Standard
350
7875
  0
XRECORD
  5
D9D9
102
{ACAD_REACTORS
330
C
102
}
330
C
100
AcDbXrecord
280
     1
 90
   990106
  3

 60
     0
 61
     0
 62
     1
 63
     3
 64
     0
 65
     0
 66
     0
 67
     3
 68
     1
 69
     0
 70
     0
 71
     0
 72
     0
 40
0.0
170
     0
  0
DICTIONARY
  5
45D
102
{ACAD_REACTORS
330
C
102
}
330
C
100
AcDbDictionary
281
     1
  3
CTABLESTYLE
350
7880
  3
SORTENTS
350
45E
  0
DICTIONARY
  5
7C00
102
{ACAD_REACTORS
330
7BFE
102
}
330
7BFE
100
AcDbDictionary
281
     1
  0
DICTIONARY
  5
7BFF
102
{ACAD_REACTORS
330
7BFE
102
}
330
7BFE
100
AcDbDictionary
281
     1
1001
ACAD
1000
<All
  0
XRECORD
  5
5D8B
102
{ACAD_REACTORS
330
45F
102
}
330
45F
100
AcDbXrecord
280
     1
340
18
  0
SORTENTSTABLE
  5
460
102
{ACAD_REACTORS
330
45F
102
}
330
45F
100
AcDbSortentsTable
330
18
331
AF81
  5
AF81
331
DA90
  5
DA94
331
AF89
  5
AF89
331
AF4A
  5
AF4A
331
C0
  5
CB
331
DC27
  5
DC28
331
DC5E
  5
DC5F
331
AF52
  5
AF52
331
DBF0
  5
DBF1
331
DC2F
  5
DC30
331
DC66
  5
DC68
331
DCEC
  5
DCF0
331
DC6E
  5
DC70
331
DC37
  5
DC38
331
AF5A
  5
AF5A
331
DBF8
  5
DBF9
331
DC76
  5
DC78
331
AF62
  5
AF62
331
DC00
  5
DC01
331
DC7E
  5
DC80
331
AF6A
  5
AF6A
331
DC08
  5
DC09
331
DC3F
  5
DC40
331
DC86
  5
DC8A
331
AF72
  5
AF72
331
DC10
  5
DC11
331
DC47
  5
DC48
331
DD9C
  5
DD9E
331
DC8E
  5
DC92
331
DC18
  5
DC19
331
DC4F
  5
DC50
331
AF7A
  5
AF7A
331
DA39
  5
DA8E
331
DC57
  5
DC58
331
DCDD
  5
DCED
331
AF82
  5
AF82
331
DC20
  5
DC21
331
AF8A
  5
AF8A
331
AF4B
  5
AF4B
331
DC28
  5
DC29
331
DC5F
  5
DC60
331
DC30
  5
DC31
331
AF53
  5
AF53
331
DBF1
  5
DBF2
331
DC67
  5
DC69
331
DCED
  5
DCF1
331
DC6F
  5
DC71
331
AF5B
  5
AF5B
331
DBF9
  5
DBFA
331
DC77
  5
DC79
331
AF63
  5
AF63
331
DC01
  5
DC02
331
DC38
  5
DC39
331
DC7F
  5
DC81
331
AF6B
  5
AF6B
331
DC09
  5
DC0A
331
DC40
  5
DC41
331
DC87
  5
DC8B
331
AF73
  5
AF73
331
DC11
  5
DC12
331
DC48
  5
DC49
331
DC8F
  5
DC93
331
DD9D
  5
DD9F
331
AF7B
  5
AF7B
331
DC19
  5
DC1A
331
DC50
  5
DC51
331
DCDE
  5
DCEE
331
AF83
  5
AF83
331
AF44
  5
AF44
331
DC21
  5
DC22
331
DC58
  5
DC59
331
AF8B
  5
AF8B
331
AF4C
  5
AF4C
331
DC29
  5
DC2A
331
DC60
  5
DC61
331
DC68
  5
DC6A
331
DC31
  5
DC32
331
AF54
  5
AF54
331
DBF2
  5
DBF3
331
DCEE
  5
DCF2
331
DC70
  5
DC72
331
AF5C
  5
AF5C
331
DBFA
  5
DBFB
331
DC78
  5
DC7A
331
AF64
  5
AF64
331
DC02
  5
DC03
331
DC39
  5
DC3A
331
DC80
  5
DC82
331
DC0A
  5
DC0B
331
DC41
  5
DC42
331
AF6C
  5
AF6C
331
DA2B
  5
DA37
331
DC88
  5
DC8C
331
DC12
  5
DC13
331
DC49
  5
DC4A
331
AF74
  5
AF74
331
DA33
  5
DA39
331
DC90
  5
DC94
331
DD9E
  5
DDA0
331
AF7C
  5
AF7C
331
DC1A
  5
DC1B
331
DC51
  5
DC52
331
DCDF
  5
DCEF
331
AF84
  5
AF84
331
AF45
  5
AF45
331
DC22
  5
DC23
331
DC59
  5
DC5A
331
DC2A
  5
DC2B
331
AF8C
  5
AF8C
331
AF4D
  5
AF4D
331
DBEB
  5
DBEC
331
DC61
  5
DC62
331
DC69
  5
DC6B
331
DC32
  5
DC33
331
AF55
  5
AF55
331
DBF3
  5
DBF4
331
DCEF
  5
DCF3
331
DC71
  5
DC73
331
AF5D
  5
AF5D
331
DBFB
  5
DBFC
331
DC79
  5
DC7B
331
AF65
  5
AF65
331
DC03
  5
DC04
331
DC3A
  5
DC3B
331
DC81
  5
DC83
331
AF6D
  5
AF6D
331
DC0B
  5
DC0C
331
DC42
  5
DC43
331
DC89
  5
DC8D
331
DD97
  5
DBEB
331
AF75
  5
AF75
331
DC13
  5
DC14
331
DC4A
  5
DC4B
331
DC91
  5
DC95
331
AF7D
  5
AF7D
331
DC1B
  5
DC1C
331
DC52
  5
DC53
331
AF85
  5
AF85
331
AF46
  5
AF46
331
DC23
  5
DC24
331
DC5A
  5
DC5B
331
DC2B
  5
DC2C
331
DBEC
  5
DBED
331
DC62
  5
DC63
331
AF8D
  5
AF8D
331
AF4E
  5
AF4E
331
DC6A
  5
DC6C
331
DC33
  5
DC34
331
DBF4
  5
DBF5
331
DCF0
  5
DD13
331
AF56
  5
AF56
331
DC72
  5
DC74
331
DBFC
  5
DBFD
331
AF5E
  5
AF5E
331
DC7A
  5
DC7C
331
DC04
  5
DC05
331
DC3B
  5
DC3C
331
AF66
  5
AF66
331
DC82
  5
DC86
331
DC0C
  5
DC0D
331
DC43
  5
DC44
331
AF6E
  5
AF6E
331
DC8A
  5
DC8E
331
DC14
  5
DC15
331
DC4B
  5
DC4C
331
AF76
  5
AF76
331
DC92
  5
DCA2
331
DC1C
  5
DC1D
331
DC53
  5
DC54
331
AF7E
  5
AF7E
331
DCA2
  5
DCDF
331
DC24
  5
DC25
331
DC5B
  5
DC5C
331
AF86
  5
AF86
331
AF47
  5
AF47
331
DC2C
  5
DC2D
331
DBED
  5
DBEE
331
DC63
  5
DC65
331
AF4F
  5
AF4F
331
AF8E
  5
AF8E
331
DC6B
  5
DC6D
331
DC34
  5
DC35
331
DBF5
  5
DBF6
331
DCF1
  5
DD14
331
AF57
  5
AF57
331
DC73
  5
DC75
331
DBFD
  5
DBFE
331
AF5F
  5
AF5F
331
DC7B
  5
DC7D
331
DC05
  5
DC06
331
DC3C
  5
DC3D
331
AF67
  5
AF67
331
DC83
  5
DC87
331
DC0D
  5
DC0E
331
DC44
  5
DC45
331
AF6F
  5
AF6F
331
DC8B
  5
DC8F
331
DD99
  5
DD9B
331
DC15
  5
DC16
331
DC4C
  5
DC4D
331
AF77
  5
AF77
331
DC93
  5
DCBC
331
DC1D
  5
DC1E
331
DC54
  5
DC55
331
AF7F
  5
AF7F
331
DC25
  5
DC26
331
DC5C
  5
DC5D
331
AF87
  5
AF87
331
AF48
  5
AF48
331
DC2D
  5
DC2E
331
DBEE
  5
DBEF
331
DC64
  5
DC66
331
AF8F
  5
AF8F
331
AF50
  5
AF50
331
DC6C
  5
DC6E
331
DC35
  5
DC36
331
DBF6
  5
DBF7
331
DCF2
  5
DD98
331
AF58
  5
AF58
331
DC74
  5
DC76
331
DBFE
  5
DBFF
331
AF60
  5
AF60
331
DC7C
  5
DC7E
331
DC06
  5
DC07
331
DC3D
  5
DC3E
331
AF68
  5
AF68
331
DC84
  5
DC88
331
DC0E
  5
DC0F
331
DC45
  5
DC46
331
AF70
  5
AF70
331
DC4D
  5
DC4E
331
DC8C
  5
DC90
331
DA37
  5
DA3B
331
AF78
  5
AF78
331
DC16
  5
DC17
331
DD9A
  5
DD9C
331
DC94
  5
DCDD
331
DA3F
  5
DA33
331
DC1E
  5
DC1F
331
DC55
  5
DC56
331
AF80
  5
AF80
331
AF88
  5
AF88
331
AF49
  5
AF49
331
DC26
  5
DC27
331
DC5D
  5
DC5E
331
DC2E
  5
DC2F
331
AFC8
  5
AFC8
331
AF51
  5
AF51
331
DBEF
  5
DBF0
331
DC65
  5
DC67
331
DC6D
  5
DC6F
331
DC36
  5
DC37
331
AF59
  5
AF59
331
DBF7
  5
DBF8
331
DCF3
  5
DD99
331
DC75
  5
DC77
331
DBFF
  5
DC00
331
AF61
  5
AF61
331
DD13
  5
DD9A
331
DC7D
  5
DC7F
331
AF69
  5
AF69
331
DC07
  5
DC08
331
DC3E
  5
DC3F
331
DCBC
  5
DCEC
331
DC85
  5
DC89
331
AF71
  5
AF71
331
DC0F
  5
DC10
331
DC46
  5
DC47
331
DD9B
  5
DD9D
331
DC8D
  5
DC91
331
AF79
  5
AF79
331
DC17
  5
DC18
331
DC4E
  5
DC4F
331
DC95
  5
DCDE
331
DC1F
  5
DC20
331
DC56
  5
DC57
  0
XRECORD
  5
5D8A
102
{ACAD_REACTORS
330
5D89
102
}
330
5D89
100
AcDbXrecord
280
     1
340
15
  0
DICTIONARY
  5
7C0C
102
{ACAD_REACTORS
330
7C0B
102
}
330
7C0B
100
AcDbDictionary
280
     1
281
     1
  3
Edit
360
7C0D
  0
DICTIONARY
  5
8E74
102
{ACAD_REACTORS
330
8E73
102
}
330
8E73
100
AcDbDictionary
280
     1
281
     1
  3
Edit
360
8E75
  0
DICTIONARY
  5
9D17
102
{ACAD_REACTORS
330
9D16
102
}
330
9D16
100
AcDbDictionary
280
     1
281
     1
  3
Edit
360
9D18
  0
DICTIONARY
  5
A51A
102
{ACAD_REACTORS
330
A519
102
}
330
A519
100
AcDbDictionary
280
     1
281
     1
  3
Edit
360
A51B
  0
DICTIONARY
  5
A629
102
{ACAD_REACTORS
330
A628
102
}
330
A628
100
AcDbDictionary
280
     1
281
     1
  3
Edit
360
A62A
  0
LAYOUT
  5
5CF5
102
{ACAD_REACTORS
330
5CF3
102
}
330
5CF3
100
AcDbPlotSettings
  1

  2
Microsoft Office Document Image Writer
  4
A4
  6

 40
3.174999952316284
 41
3.174999952316284
 42
3.175003051757812
 43
3.17498779296875
 44
210.0579986572266
 45
297.0530090332031
 46
6.853997826576232
 47
5.351510643959045
 48
0.0
 49
0.0
140
190.0
141
280.0
142
1.0
143
1.0
 70
 11940
 72
     1
 73
     0
 74
     4
  7
LIN.ctb
 75
     0
147
1.02454228741782
 76
     0
 77
     2
 78
   300
148
0.0
149
0.0
100
AcDbLayout
  1
Model
 70
     1
 71
     0
 10
0.0
 20
0.0
 11
12.0
 21
9.0
 12
0.0
 22
0.0
 32
0.0
 14
0.0
 24
0.0
 34
0.0
 15
0.0
 25
0.0
 35
0.0
146
0.0
 13
0.0
 23
0.0
 33
0.0
 16
1.0
 26
0.0
 36
0.0
 17
0.0
 27
1.0
 37
0.0
 76
     0
330
18
1001
ACAD_PSEXT
1000
Microsoft Office Document Image Writer
1000
Microsoft Office Document Image Writer Driver
1000
Microsoft Document Imaging Writer Port:
1000

1070
     0
  0
LAYOUT
  5
5CF6
102
{ACAD_REACTORS
330
5CF3
102
}
330
5CF3
100
AcDbPlotSettings
  1

  2
EPSON STYLUS COLOR 440
  4

  6

 40
0.0
 41
0.0
 42
0.0
 43
0.0
 44
0.0
 45
0.0
 46
0.0
 47
0.0
 48
0.0
 49
0.0
140
0.0
141
0.0
142
1.0
143
1.0
 70
   688
 72
     0
 73
     0
 74
     5
  7
LIN.ctb
 75
    16
147
1.0
 76
     0
 77
     2
 78
   300
148
0.0
149
0.0
100
AcDbLayout
  1
ｰtｸm1
 70
     1
 71
     1
 10
0.0
 20
0.0
 11
420.0
 21
297.0
 12
0.0
 22
0.0
 32
0.0
 14
1.000000000000000E+20
 24
1.000000000000000E+20
 34
1.000000000000000E+20
 15
-1.000000000000000E+20
 25
-1.000000000000000E+20
 35
-1.000000000000000E+20
146
0.0
 13
0.0
 23
0.0
 33
0.0
 16
1.0
 26
0.0
 36
0.0
 17
0.0
 27
1.0
 37
0.0
 76
     0
330
15
  0
MLINESTYLE
  5
1C
102
{ACAD_REACTORS
330
1B
102
}
330
1B
100
AcDbMlineStyle
  2
STANDARD
 70
     0
  3

 62
   256
 51
90.0
 52
90.0
 71
     2
 49
0.5
 62
   256
  6
BYLAYER
 49
-0.5
 62
   256
  6
BYLAYER
  0
ACDBPLACEHOLDER
  5
5CF2
102
{ACAD_REACTORS
330
5CF1
102
}
330
5CF1
  0
TABLESTYLE
  5
7875
102
{ACAD_REACTORS
330
7874
102
}
330
7874
100
AcDbTableStyle
  3
Standard
 70
     0
 71
     8
 40
1.5
 41
1.5
280
     0
281
     0
  7
STANDARD
140
4.5
170
     2
 62
     0
 63
     7
283
     0
274
    -2
284
     1
 64
     0
275
    -2
285
     1
 65
     0
276
    -2
286
     1
 66
     0
277
    -2
287
     1
 67
     0
278
    -2
288
     1
 68
     0
279
    -2
289
     1
 69
     0
  7
STANDARD
140
6.0
170
     5
 62
     0
 63
     7
283
     0
274
    -2
284
     1
 64
     0
275
    -2
285
     1
 65
     0
276
    -2
286
     1
 66
     0
277
    -2
287
     1
 67
     0
278
    -2
288
     1
 68
     0
279
    -2
289
     1
 69
     0
  7
STANDARD
140
4.5
170
     5
 62
     0
 63
     7
283
     0
274
    -2
284
     1
 64
     0
275
    -2
285
     1
 65
     0
276
    -2
286
     1
 66
     0
277
    -2
287
     1
 67
     0
278
    -2
288
     1
 68
     0
279
    -2
289
     1
 69
     0
  0
DICTIONARYVAR
  5
7880
102
{ACAD_REACTORS
330
45D
102
}
330
45D
100
DictionaryVariables
280
     0
  1
STANDARD
  0
DICTIONARYVAR
  5
45E
102
{ACAD_REACTORS
330
45D
102
}
330
45D
100
DictionaryVariables
280
     0
  1
127
  0
XRECORD
  5
7C0D
102
{ACAD_REACTORS
330
7C0C
102
}
330
7C0C
100
AcDbXrecord
280
     1
1070
     0
1070
     1
1070
     1
  0
XRECORD
  5
8E75
102
{ACAD_REACTORS
330
8E74
102
}
330
8E74
100
AcDbXrecord
280
     1
1070
     0
1070
     1
1070
     1
  0
XRECORD
  5
9D18
102
{ACAD_REACTORS
330
9D17
102
}
330
9D17
100
AcDbXrecord
280
     1
1070
     0
1070
     1
1070
     1
  0
XRECORD
  5
A51B
102
{ACAD_REACTORS
330
A51A
102
}
330
A51A
100
AcDbXrecord
280
     1
1070
     0
1070
     1
1070
     1
  0
XRECORD
  5
A62A
102
{ACAD_REACTORS
330
A629
102
}
330
A629
100
AcDbXrecord
280
     1
1070
     0
1070
     1
1070
     1
  0
ENDSEC
  0
EOF
