  0
SECTION
  2
HEADER
  9
$ACADVER
  1
AC1018
  9
$ACADMAINTVER
 70
    76
  9
$DWGCODEPAGE
  3
ANSI_932
  9
$INSBASE
 10
0.0
 20
0.0
 30
0.0
  9
$EXTMIN
 10
0.0
 20
0.0
 30
0.0
  9
$EXTMAX
 10
190.0
 20
280.0
 30
0.0
  9
$LIMMIN
 10
0.0
 20
0.0
  9
$LIMMAX
 10
420.0
 20
297.0
  9
$ORTHOMODE
 70
     0
  9
$REGENMODE
 70
     1
  9
$FILLMODE
 70
     1
  9
$QTEXTMODE
 70
     0
  9
$MIRRTEXT
 70
     1
  9
$LTSCALE
 40
1.0
  9
$ATTMODE
 70
     1
  9
$TEXTSIZE
 40
1.25
  9
$TRACEWID
 40
1.0
  9
$TEXTSTYLE
  7
TXT
  9
$CLAYER
  8
mark
  9
$CELTYPE
  6
BYLAYER
  9
$CECOLOR
 62
   256
  9
$CELTSCALE
 40
1.0
  9
$DISPSILH
 70
     0
  9
$DIMSCALE
 40
1.0
  9
$DIMASZ
 40
2.5
  9
$DIMEXO
 40
0.8
  9
$DIMDLI
 40
0.38
  9
$DIMRND
 40
0.0
  9
$DIMDLE
 40
0.0
  9
$DIMEXE
 40
0.8
  9
$DIMTP
 40
0.0
  9
$DIMTM
 40
0.0
  9
$DIMTXT
 40
2.5
  9
$DIMCEN
 40
0.09
  9
$DIMTSZ
 40
0.0
  9
$DIMTOL
 70
     0
  9
$DIMLIM
 70
     0
  9
$DIMTIH
 70
     0
  9
$DIMTOH
 70
     0
  9
$DIMSE1
 70
     0
  9
$DIMSE2
 70
     0
  9
$DIMTAD
 70
     3
  9
$DIMZIN
 70
     8
  9
$DIMBLK
  1
Open30
  9
$DIMASO
 70
     1
  9
$DIMSHO
 70
     1
  9
$DIMPOST
  1

  9
$DIMAPOST
  1

  9
$DIMALT
 70
     0
  9
$DIMALTD
 70
     2
  9
$DIMALTF
 40
25.4
  9
$DIMLFAC
 40
1.0
  9
$DIMTOFL
 70
     1
  9
$DIMTVP
 40
0.0
  9
$DIMTIX
 70
     0
  9
$DIMSOXD
 70
     0
  9
$DIMSAH
 70
     0
  9
$DIMBLK1
  1

  9
$DIMBLK2
  1

  9
$DIMSTYLE
  2
STANDARD
  9
$DIMCLRD
 70
   256
  9
$DIMCLRE
 70
   256
  9
$DIMCLRT
 70
     3
  9
$DIMTFAC
 40
1.0
  9
$DIMGAP
 40
0.8
  9
$DIMJUST
 70
     0
  9
$DIMSD1
 70
     0
  9
$DIMSD2
 70
     0
  9
$DIMTOLJ
 70
     1
  9
$DIMTZIN
 70
     0
  9
$DIMALTZ
 70
     0
  9
$DIMALTTZ
 70
     0
  9
$DIMUPT
 70
     0
  9
$DIMDEC
 70
     2
  9
$DIMTDEC
 70
     2
  9
$DIMALTU
 70
     2
  9
$DIMALTTD
 70
     2
  9
$DIMTXSTY
  7
STANDARD
  9
$DIMAUNIT
 70
     0
  9
$DIMADEC
 70
     2
  9
$DIMALTRND
 40
0.0
  9
$DIMAZIN
 70
     2
  9
$DIMDSEP
 70
    46
  9
$DIMATFIT
 70
     3
  9
$DIMFRAC
 70
     0
  9
$DIMLDRBLK
  1
Open30
  9
$DIMLUNIT
 70
     2
  9
$DIMLWD
 70
    -2
  9
$DIMLWE
 70
    -2
  9
$DIMTMOVE
 70
     0
  9
$LUNITS
 70
     2
  9
$LUPREC
 70
     2
  9
$SKETCHINC
 40
1.0
  9
$FILLETRAD
 40
1.0
  9
$AUNITS
 70
     0
  9
$AUPREC
 70
     2
  9
$MENU
  1
.
  9
$ELEVATION
 40
0.0
  9
$PELEVATION
 40
0.0
  9
$THICKNESS
 40
0.0
  9
$LIMCHECK
 70
     0
  9
$CHAMFERA
 40
1.5
  9
$CHAMFERB
 40
1.5
  9
$CHAMFERC
 40
1.75
  9
$CHAMFERD
 40
0.0174532925199433
  9
$SKPOLY
 70
     0
  9
$TDCREATE
 40
2451555.620234838
  9
$TDUCREATE
 40
2451555.245234838
  9
$TDUPDATE
 40
2455846.620621841
  9
$TDUUPDATE
 40
2455846.245621840
  9
$TDINDWG
 40
2.6423425926
  9
$TDUSRTIMER
 40
2.6423425926
  9
$USRTIMER
 70
     1
  9
$ANGBASE
 50
0.0
  9
$ANGDIR
 70
     0
  9
$PDMODE
 70
     0
  9
$PDSIZE
 40
0.0
  9
$PLINEWID
 40
0.0
  9
$SPLFRAME
 70
     0
  9
$SPLINETYPE
 70
     6
  9
$SPLINESEGS
 70
     8
  9
$HANDSEED
  5
B39C
  9
$SURFTAB1
 70
     6
  9
$SURFTAB2
 70
     6
  9
$SURFTYPE
 70
     6
  9
$SURFU
 70
     6
  9
$SURFV
 70
     6
  9
$UCSBASE
  2

  9
$UCSNAME
  2

  9
$UCSORG
 10
0.0
 20
0.0
 30
0.0
  9
$UCSXDIR
 10
1.0
 20
0.0
 30
0.0
  9
$UCSYDIR
 10
0.0
 20
1.0
 30
0.0
  9
$UCSORTHOREF
  2

  9
$UCSORTHOVIEW
 70
     1
  9
$UCSORGTOP
 10
0.0
 20
0.0
 30
0.0
  9
$UCSORGBOTTOM
 10
0.0
 20
0.0
 30
0.0
  9
$UCSORGLEFT
 10
0.0
 20
0.0
 30
0.0
  9
$UCSORGRIGHT
 10
0.0
 20
0.0
 30
0.0
  9
$UCSORGFRONT
 10
0.0
 20
0.0
 30
0.0
  9
$UCSORGBACK
 10
0.0
 20
0.0
 30
0.0
  9
$PUCSBASE
  2

  9
$PUCSNAME
  2

  9
$PUCSORG
 10
0.0
 20
0.0
 30
0.0
  9
$PUCSXDIR
 10
1.0
 20
0.0
 30
0.0
  9
$PUCSYDIR
 10
0.0
 20
1.0
 30
0.0
  9
$PUCSORTHOREF
  2

  9
$PUCSORTHOVIEW
 70
     0
  9
$PUCSORGTOP
 10
0.0
 20
0.0
 30
0.0
  9
$PUCSORGBOTTOM
 10
0.0
 20
0.0
 30
0.0
  9
$PUCSORGLEFT
 10
0.0
 20
0.0
 30
0.0
  9
$PUCSORGRIGHT
 10
0.0
 20
0.0
 30
0.0
  9
$PUCSORGFRONT
 10
0.0
 20
0.0
 30
0.0
  9
$PUCSORGBACK
 10
0.0
 20
0.0
 30
0.0
  9
$USERI1
 70
     0
  9
$USERI2
 70
     0
  9
$USERI3
 70
     0
  9
$USERI4
 70
     0
  9
$USERI5
 70
     0
  9
$USERR1
 40
0.0
  9
$USERR2
 40
0.0
  9
$USERR3
 40
0.0
  9
$USERR4
 40
0.0
  9
$USERR5
 40
0.0
  9
$WORLDVIEW
 70
     1
  9
$SHADEDGE
 70
     3
  9
$SHADEDIF
 70
    70
  9
$TILEMODE
 70
     1
  9
$MAXACTVP
 70
    48
  9
$PINSBASE
 10
0.0
 20
0.0
 30
0.0
  9
$PLIMCHECK
 70
     0
  9
$PEXTMIN
 10
1.000000000000000E+20
 20
1.000000000000000E+20
 30
1.000000000000000E+20
  9
$PEXTMAX
 10
-1.000000000000000E+20
 20
-1.000000000000000E+20
 30
-1.000000000000000E+20
  9
$PLIMMIN
 10
0.0
 20
0.0
  9
$PLIMMAX
 10
420.0
 20
297.0
  9
$UNITMODE
 70
     0
  9
$VISRETAIN
 70
     1
  9
$PLINEGEN
 70
     0
  9
$PSLTSCALE
 70
     1
  9
$TREEDEPTH
 70
  3020
  9
$CMLSTYLE
  2
STANDARD
  9
$CMLJUST
 70
     0
  9
$CMLSCALE
 40
20.0
  9
$PROXYGRAPHICS
 70
     1
  9
$MEASUREMENT
 70
     1
  9
$CELWEIGHT
370
    -1
  9
$ENDCAPS
280
     0
  9
$JOINSTYLE
280
     0
  9
$LWDISPLAY
290
     0
  9
$INSUNITS
 70
     0
  9
$HYPERLINKBASE
  1

  9
$STYLESHEET
  1
monochrome.ctb
  9
$XEDIT
290
     1
  9
$CEPSNTYPE
380
     0
  9
$PSTYLEMODE
290
     1
  9
$FINGERPRINTGUID
  2
{1CF51E8A-A506-11D4-A7D9-AF69F5C20846}
  9
$VERSIONGUID
  2
{2F300430-23D7-40D4-9176-BC9BA504E450}
  9
$EXTNAMES
290
     1
  9
$PSVPSCALE
 40
0.0
  9
$OLESTARTUP
290
     0
  9
$SORTENTS
280
   127
  9
$INDEXCTL
280
     0
  9
$HIDETEXT
280
     0
  9
$XCLIPFRAME
290
     0
  9
$HALOGAP
280
     0
  9
$OBSCOLOR
 70
   257
  9
$OBSLTYPE
280
     0
  9
$INTERSECTIONDISPLAY
280
     0
  9
$INTERSECTIONCOLOR
 70
   257
  9
$DIMASSOC
280
     1
  9
$PROJECTNAME
  1

  0
ENDSEC
  0
SECTION
  2
CLASSES
  0
CLASS
  1
DICTIONARYVAR
  2
AcDbDictionaryVar
  3
ObjectDBX Classes
 90
        0
 91
        2
280
     0
281
     0
  0
CLASS
  1
SORTENTSTABLE
  2
AcDbSortentsTable
  3
ObjectDBX Classes
 90
        0
 91
        2
280
     0
281
     0
  0
CLASS
  1
ACDBDICTIONARYWDFLT
  2
AcDbDictionaryWithDefault
  3
ObjectDBX Classes
 90
        0
 91
        1
280
     0
281
     0
  0
CLASS
  1
TABLESTYLE
  2
AcDbTableStyle
  3
ObjectDBX Classes
 90
     2047
 91
        1
280
     0
281
     0
  0
ENDSEC
  0
SECTION
  2
TABLES
  0
TABLE
  2
VPORT
  5
8
330
0
100
AcDbSymbolTable
 70
     2
  0
VPORT
  5
B39B
330
8
100
AcDbSymbolTableRecord
100
AcDbViewportTableRecord
  2
*Active
 70
     0
 10
0.0
 20
0.0
 11
1.0
 21
1.0
 12
245.9792054483759
 22
139.9955774407757
 13
0.0
 23
0.0
 14
10.0
 24
10.0
 15
10.0
 25
10.0
 16
0.0
 26
0.0
 36
1.0
 17
0.0
 27
0.0
 37
0.0
 40
283.4377191999428
 41
2.47104247104247
 42
50.0
 43
0.0
 44
0.0
 50
0.0
 51
0.0
 71
     0
 72
 20000
 73
     1
 74
     1
 75
     0
 76
     0
 77
     0
 78
     0
281
     0
 65
     1
110
0.0
120
0.0
130
0.0
111
1.0
121
0.0
131
0.0
112
0.0
122
1.0
132
0.0
 79
     1
146
0.0
  0
ENDTAB
  0
TABLE
  2
LTYPE
  5
5
330
0
100
AcDbSymbolTable
 70
     7
  0
LTYPE
  5
12
330
5
100
AcDbSymbolTableRecord
100
AcDbLinetypeTableRecord
  2
BYBLOCK
 70
     0
  3

 72
    65
 73
     0
 40
0.0
  0
LTYPE
  5
13
330
5
100
AcDbSymbolTableRecord
100
AcDbLinetypeTableRecord
  2
BYLAYER
 70
     0
  3

 72
    65
 73
     0
 40
0.0
  0
LTYPE
  5
14
330
5
100
AcDbSymbolTableRecord
100
AcDbLinetypeTableRecord
  2
CONTINUOUS
 70
     0
  3
Solid line
 72
    65
 73
     0
 40
0.0
  0
LTYPE
  5
9D
330
5
100
AcDbSymbolTableRecord
100
AcDbLinetypeTableRecord
  2
CENTERX2
 70
     0
  3
Center (2x) ________  __  ________  __  _____
 72
    65
 73
     4
 40
101.6
 49
63.5
 74
     0
 49
-12.7
 74
     0
 49
12.7
 74
     0
 49
-12.7
 74
     0
  0
LTYPE
  5
A1
330
5
100
AcDbSymbolTableRecord
100
AcDbLinetypeTableRecord
  2
DASHED
 70
     0
  3
Dashed __ __ __ __ __ __ __ __ __ __ __ __ __ _
 72
    65
 73
     2
 40
19.05
 49
12.7
 74
     0
 49
-6.349999999999999
 74
     0
  0
LTYPE
  5
A2
330
5
100
AcDbSymbolTableRecord
100
AcDbLinetypeTableRecord
  2
DASHED2
 70
     0
  3
Dashed (.5x) _ _ _ _ _ _ _ _ _ _ _ _ _ _ _ _ _
 72
    65
 73
     2
 40
9.524999999999998
 49
6.349999999999999
 74
     0
 49
-3.174999999999999
 74
     0
  0
LTYPE
  5
A5
330
5
100
AcDbSymbolTableRecord
100
AcDbLinetypeTableRecord
  2
DIVIDE2
 70
     0
  3
Divide (.5x) __..__..__..__..__..__..__..__.._
 72
    65
 73
     6
 40
15.875
 49
6.349999999999999
 74
     0
 49
-3.174999999999999
 74
     0
 49
0.0
 74
     0
 49
-3.174999999999999
 74
     0
 49
0.0
 74
     0
 49
-3.174999999999999
 74
     0
  0
LTYPE
  5
650B
330
5
100
AcDbSymbolTableRecord
100
AcDbLinetypeTableRecord
  2
CENTER
 70
     0
  3
Center ____ _ ____ _ ____ _ ____ _ ____ _ ____
 72
    65
 73
     4
 40
50.8
 49
31.75
 74
     0
 49
-6.349999999999999
 74
     0
 49
6.349999999999999
 74
     0
 49
-6.349999999999999
 74
     0
  0
LTYPE
  5
650C
330
5
100
AcDbSymbolTableRecord
100
AcDbLinetypeTableRecord
  2
HIDDEN
 70
     0
  3
Hidden __ __ __ __ __ __ __ __ __ __ __ __ __ _
 72
    65
 73
     2
 40
9.524999999999998
 49
6.349999999999999
 74
     0
 49
-3.174999999999999
 74
     0
  0
ENDTAB
  0
TABLE
  2
LAYER
  5
2
102
{ACAD_XDICTIONARY
360
7BFE
102
}
330
0
100
AcDbSymbolTable
 70
     9
  0
LAYER
  5
E
330
2
100
AcDbSymbolTableRecord
100
AcDbLayerTableRecord
  2
0
 70
     0
 62
     7
  6
CONTINUOUS
370
    -3
390
5CF2
  0
LAYER
  5
B9
330
2
100
AcDbSymbolTableRecord
100
AcDbLayerTableRecord
  2
dim
 70
     0
 62
     3
  6
CONTINUOUS
370
    -3
390
5CF2
  0
LAYER
  5
F2
330
2
100
AcDbSymbolTableRecord
100
AcDbLayerTableRecord
  2
DEFPOINTS
 70
     0
 62
     4
  6
CONTINUOUS
290
     0
370
    -3
390
5CF2
  0
LAYER
  5
5F8B
330
2
100
AcDbSymbolTableRecord
100
AcDbLayerTableRecord
  2
mark
 70
     0
 62
     6
  6
CONTINUOUS
370
    -3
390
5CF2
  0
LAYER
  5
644E
330
2
100
AcDbSymbolTableRecord
100
AcDbLayerTableRecord
  2
frame
 70
     0
 62
     9
  6
CONTINUOUS
370
    -3
390
5CF2
  0
LAYER
  5
650D
330
2
100
AcDbSymbolTableRecord
100
AcDbLayerTableRecord
  2
center
 70
     0
 62
     1
  6
CENTER
370
    -3
390
5CF2
  0
LAYER
  5
650E
330
2
100
AcDbSymbolTableRecord
100
AcDbLayerTableRecord
  2
bowle
 70
     0
 62
     4
  6
HIDDEN
370
    -3
390
5CF2
  0
LAYER
  5
650F
330
2
100
AcDbSymbolTableRecord
100
AcDbLayerTableRecord
  2
contour
 70
     0
 62
     2
  6
CONTINUOUS
370
    -3
390
5CF2
  0
LAYER
  5
6510
330
2
100
AcDbSymbolTableRecord
100
AcDbLayerTableRecord
  2
section
 70
     0
 62
     5
  6
CONTINUOUS
370
    -3
390
5CF2
  0
ENDTAB
  0
TABLE
  2
STYLE
  5
3
330
0
100
AcDbSymbolTable
 70
     5
  0
STYLE
  5
F
330
3
100
AcDbSymbolTableRecord
100
AcDbTextStyleTableRecord
  2
STANDARD
 70
     0
 40
0.0
 41
1.0
 50
0.0
 71
     0
 42
2.5
  3
txt
  4

  0
STYLE
  5
BE
330
3
100
AcDbSymbolTableRecord
100
AcDbTextStyleTableRecord
  2
ISOCP3
 70
     0
 40
0.0
 41
1.0
 50
0.0
 71
     0
 42
2.5
  3
isocp3.shx
  4

  0
STYLE
  5
2A37
330
3
100
AcDbSymbolTableRecord
100
AcDbTextStyleTableRecord
  2
TXT
 70
     0
 40
0.0
 41
1.0
 50
0.0
 71
     0
 42
1.25
  3
txt.shx
  4
bigfont.shx
  0
STYLE
  5
5DCB
330
3
100
AcDbSymbolTableRecord
100
AcDbTextStyleTableRecord
  2
LKK
 70
     0
 40
50.0
 41
1.5
 50
0.0
 71
     0
 42
50.0
  3
MS PGothic.ttf
  4

1001
ACAD
1000
MS PGothic
1071
    32818
  0
STYLE
  5
5DCC
330
3
100
AcDbSymbolTableRecord
100
AcDbTextStyleTableRecord
  2
JL
 70
     0
 40
10.0
 41
0.5
 50
0.0
 71
     0
 42
5.0
  3
MS Mincho.ttf
  4

1001
ACAD
1000
MS Mincho
1071
    32785
  0
ENDTAB
  0
TABLE
  2
VIEW
  5
6
330
0
100
AcDbSymbolTable
 70
     0
  0
ENDTAB
  0
TABLE
  2
UCS
  5
7
330
0
100
AcDbSymbolTable
 70
     0
  0
ENDTAB
  0
TABLE
  2
APPID
  5
9
330
0
100
AcDbSymbolTable
 70
    11
  0
APPID
  5
10
330
9
100
AcDbSymbolTableRecord
100
AcDbRegAppTableRecord
  2
ACAD
 70
     0
  0
APPID
  5
7C91
330
9
100
AcDbSymbolTableRecord
100
AcDbRegAppTableRecord
  2
ACAD_DSTYLE_DIMEXT_LENGTH
 70
     0
  0
APPID
  5
7C92
330
9
100
AcDbSymbolTableRecord
100
AcDbRegAppTableRecord
  2
ACAD_DSTYLE_DIMEXT_ENABLED
 70
     0
  0
APPID
  5
7C93
330
9
100
AcDbSymbolTableRecord
100
AcDbRegAppTableRecord
  2
ACAD_DSTYLE_DIMJOGGED_JOGANGLE_SYMBOL
 70
     0
  0
APPID
  5
7C94
330
9
100
AcDbSymbolTableRecord
100
AcDbRegAppTableRecord
  2
ACAD_DSTYLE_DIMARC_LENGTH_SYMBOL
 70
     0
  0
APPID
  5
7F1C
330
9
100
AcDbSymbolTableRecord
100
AcDbRegAppTableRecord
  2
ACAD_EXEMPT_FROM_CAD_STANDARDS
 70
     0
  0
APPID
  5
7F49
330
9
100
AcDbSymbolTableRecord
100
AcDbRegAppTableRecord
  2
ACAD_DSTYLE_DIMTEXT_FILL
 70
     0
  0
APPID
  5
7F4C
330
9
100
AcDbSymbolTableRecord
100
AcDbRegAppTableRecord
  2
ACAD_DSTYLE_DIM_LINETYPE
 70
     0
  0
APPID
  5
7F4D
330
9
100
AcDbSymbolTableRecord
100
AcDbRegAppTableRecord
  2
ACAD_DSTYLE_DIM_EXT1_LINETYPE
 70
     0
  0
APPID
  5
7F4E
330
9
100
AcDbSymbolTableRecord
100
AcDbRegAppTableRecord
  2
ACAD_DSTYLE_DIM_EXT2_LINETYPE
 70
     0
  0
APPID
  5
8C73
330
9
100
AcDbSymbolTableRecord
100
AcDbRegAppTableRecord
  2
ACAD_PSEXT
 70
     0
  0
ENDTAB
  0
TABLE
  2
DIMSTYLE
  5
A
330
0
100
AcDbSymbolTable
 70
     1
100
AcDbDimStyleTable
 71
     1
340
1D
  0
DIMSTYLE
105
1D
102
{ACAD_REACTORS
330
AC2F
330
ADC8
330
ADEF
330
AE0B
330
AE18
330
B1F3
330
B200
330
B2C1
102
}
330
A
100
AcDbSymbolTableRecord
100
AcDbDimStyleTableRecord
  2
STANDARD
 70
     0
 41
2.5
 42
0.8
 44
0.8
 73
     0
 74
     0
 77
     3
 78
     8
 79
     2
140
2.5
147
0.8
172
     1
176
   256
177
   256
178
     3
179
     2
271
     2
272
     2
340
F
341
7C04
342
7C04
1001
ACAD_DSTYLE_DIMEXT_LENGTH
1070
   378
1040
0.18
1001
ACAD_DSTYLE_DIMEXT_ENABLED
1070
   383
1070
     0
1001
ACAD_DSTYLE_DIMARC_LENGTH_SYMBOL
1070
   379
1070
     0
1001
ACAD_DSTYLE_DIMJOGGED_JOGANGLE_SYMBOL
1070
   384
1040
1.570796326794896
  0
ENDTAB
  0
TABLE
  2
BLOCK_RECORD
  5
1
330
0
100
AcDbSymbolTable
 70
    23
  0
BLOCK_RECORD
  5
18
102
{ACAD_XDICTIONARY
360
45F
102
}
330
1
100
AcDbSymbolTableRecord
100
AcDbBlockTableRecord
  2
*MODEL_SPACE
340
5CF5
  0
BLOCK_RECORD
  5
15
102
{ACAD_XDICTIONARY
360
5D89
102
}
330
1
100
AcDbSymbolTableRecord
100
AcDbBlockTableRecord
  2
*PAPER_SPACE
340
5CF6
  0
BLOCK_RECORD
  5
639D
330
1
100
AcDbSymbolTableRecord
100
AcDbBlockTableRecord
  2
A$C255C26A2
340
0
  0
BLOCK_RECORD
  5
7C04
330
1
100
AcDbSymbolTableRecord
100
AcDbBlockTableRecord
  2
_Open30
340
0
102
{BLKREFS
331
AC4A
331
AC4B
331
ADA5
331
ADA6
331
AC56
331
AC57
331
AC62
331
AC63
331
AC70
331
AC71
331
AC7C
331
AC7D
331
AC88
331
AC92
331
AC93
331
AC9D
331
AC9E
331
AE01
331
AE02
331
B1C9
331
B1CA
331
B1D2
331
B1D3
331
B1DB
331
B1DC
331
B1E4
331
B1E5
331
B1ED
331
B1EE
331
B1F9
331
B1FA
331
B210
331
B211
331
B2D4
102
}
  0
BLOCK_RECORD
  5
7C0A
102
{ACAD_XDICTIONARY
360
7C0B
102
}
330
1
100
AcDbSymbolTableRecord
100
AcDbBlockTableRecord
  2
A
340
0
310
2800000020000000200000000100080000000000000400000000000000000000000000000000000000000000000080000080000000808000800000008000800080800000C0C0C000C0DCC000F0CAA6000020400000206000002080000020A0000020C0000020E00000400000004020000040400000406000004080000040A0
310
000040C0000040E00000600000006020000060400000606000006080000060A0000060C0000060E00000800000008020000080400000806000008080000080A0000080C0000080E00000A0000000A0200000A0400000A0600000A0800000A0A00000A0C00000A0E00000C0000000C0200000C0400000C0600000C0800000C0
310
A00000C0C00000C0E00000E0000000E0200000E0400000E0600000E0800000E0A00000E0C00000E0E00040000000400020004000400040006000400080004000A0004000C0004000E00040200000402020004020400040206000402080004020A0004020C0004020E000404000004040200040404000404060004040800040
310
40A0004040C0004040E00040600000406020004060400040606000406080004060A0004060C0004060E00040800000408020004080400040806000408080004080A0004080C0004080E00040A0000040A0200040A0400040A0600040A0800040A0A00040A0C00040A0E00040C0000040C0200040C0400040C0600040C08000
310
40C0A00040C0C00040C0E00040E0000040E0200040E0400040E0600040E0800040E0A00040E0C00040E0E00080000000800020008000400080006000800080008000A0008000C0008000E00080200000802020008020400080206000802080008020A0008020C0008020E00080400000804020008040400080406000804080
310
008040A0008040C0008040E00080600000806020008060400080606000806080008060A0008060C0008060E00080800000808020008080400080806000808080008080A0008080C0008080E00080A0000080A0200080A0400080A0600080A0800080A0A00080A0C00080A0E00080C0000080C0200080C0400080C0600080C0
310
800080C0A00080C0C00080C0E00080E0000080E0200080E0400080E0600080E0800080E0A00080E0C00080E0E000C0000000C0002000C0004000C0006000C0008000C000A000C000C000C000E000C0200000C0202000C0204000C0206000C0208000C020A000C020C000C020E000C0400000C0402000C0404000C0406000C0
310
408000C040A000C040C000C040E000C0600000C0602000C0604000C0606000C0608000C060A000C060C000C060E000C0800000C0802000C0804000C0806000C0808000C080A000C080C000C080E000C0A00000C0A02000C0A04000C0A06000C0A08000C0A0A000C0A0C000C0A0E000C0C00000C0C02000C0C04000C0C06000
310
C0C08000C0C0A000F0FBFF00A4A0A000808080000000FF0000FF000000FFFF00FF000000FF00FF00FFFF0000FFFFFF0000000000000000000000000000000000000000000000000000000000000000000000000000000000000000000000000000000000000000000000000000000000000000000000000000000000000000
310
00000000000000000000000000000000000000000000000000000000000000000000000000000000000000000000000000000000000000000000000000000000000000000000000000000000000000000000000000000000000000000000000000000000000000000000000000000000000000000000000000000000000000
310
00000000000000000000000000000000000000000000000000000000000000000000000000000000000000000000000000000000000000000000000000000000000000000000000000000000000000000000000000000000000000000000000000000000000000000000000000000000000000000000000000000000000000
310
000000000000FDFDFDFDFDFDFDFDFDFDFDFD0000FD0000000000000000000000000000000000FD0000FA0000000000FA00FD0000FDFD00000000000000000000000000000000FD0000FA0000000000FA00FD0000FDFDFD000000000000000000000000000000FD0000FA0000000000FA00FD0000FDFDFDFD00000000000000
310
00000000000000FD0000FAFAFAFAFAFAFA00FD0000FDFDFDFDFD00000000000000000000000000FD000000FA00000000FA00FD0000FDFDFDFDFDFDFDFDFDFDFDFDFDFDFDFDFDFDFD000000FA000000FA0000FD0000FDFDFDFDFD00000000000000000000000000FD00000000FA0000FA0000FD0000FDFDFDFD000000000000
310
0000000000000000FD00000000FA00FA000000FD0000FDFD00000000000000000000000000000000FD0000000000FAFA000000FD0000FD0000000000000000000000000000000000FD0000000000FA00000000FD0000000000000000000000000000000000000000FDFDFDFDFDFDFDFDFDFDFDFD0000000000000000000000
310
00000000000000000000000000000000000000000000000000000000000000000000000000000000000000000000000000000000000000000000000000000000000000000000000000000000000000000000000000000000000000000000000000000000000000000000000000000000000000000000000000000000000000
310
00000000000000000000000000000000000000000000000000000000000000000000000000000000000000000000000000000000000000000000000000000000000000000000000000000000000000000000000000000000000000000000000000000000000000000000000000000000000000000000000000000000000000
310
0000000000000000000000000000000000000000000000000000000000000000000000000000000000000000000000000000000000000000
  0
BLOCK_RECORD
  5
8E72
102
{ACAD_XDICTIONARY
360
8E73
102
}
330
1
100
AcDbSymbolTableRecord
100
AcDbBlockTableRecord
  2
LS
340
0
310
2800000020000000200000000100080000000000000400000000000000000000000000000000000000000000000080000080000000808000800000008000800080800000C0C0C000C0DCC000F0CAA6000020400000206000002080000020A0000020C0000020E00000400000004020000040400000406000004080000040A0
310
000040C0000040E00000600000006020000060400000606000006080000060A0000060C0000060E00000800000008020000080400000806000008080000080A0000080C0000080E00000A0000000A0200000A0400000A0600000A0800000A0A00000A0C00000A0E00000C0000000C0200000C0400000C0600000C0800000C0
310
A00000C0C00000C0E00000E0000000E0200000E0400000E0600000E0800000E0A00000E0C00000E0E00040000000400020004000400040006000400080004000A0004000C0004000E00040200000402020004020400040206000402080004020A0004020C0004020E000404000004040200040404000404060004040800040
310
40A0004040C0004040E00040600000406020004060400040606000406080004060A0004060C0004060E00040800000408020004080400040806000408080004080A0004080C0004080E00040A0000040A0200040A0400040A0600040A0800040A0A00040A0C00040A0E00040C0000040C0200040C0400040C0600040C08000
310
40C0A00040C0C00040C0E00040E0000040E0200040E0400040E0600040E0800040E0A00040E0C00040E0E00080000000800020008000400080006000800080008000A0008000C0008000E00080200000802020008020400080206000802080008020A0008020C0008020E00080400000804020008040400080406000804080
310
008040A0008040C0008040E00080600000806020008060400080606000806080008060A0008060C0008060E00080800000808020008080400080806000808080008080A0008080C0008080E00080A0000080A0200080A0400080A0600080A0800080A0A00080A0C00080A0E00080C0000080C0200080C0400080C0600080C0
310
800080C0A00080C0C00080C0E00080E0000080E0200080E0400080E0600080E0800080E0A00080E0C00080E0E000C0000000C0002000C0004000C0006000C0008000C000A000C000C000C000E000C0200000C0202000C0204000C0206000C0208000C020A000C020C000C020E000C0400000C0402000C0404000C0406000C0
310
408000C040A000C040C000C040E000C0600000C0602000C0604000C0606000C0608000C060A000C060C000C060E000C0800000C0802000C0804000C0806000C0808000C080A000C080C000C080E000C0A00000C0A02000C0A04000C0A06000C0A08000C0A0A000C0A0C000C0A0E000C0C00000C0C02000C0C04000C0C06000
310
C0C08000C0C0A000F0FBFF00A4A0A000808080000000FF0000FF000000FFFF00FF000000FF00FF00FFFF0000FFFFFF00000000000000000000000000000000000000000000000000000000000000000000000000000000000000FBFBFEFBFEFBFBFEFBFEFBFB00000000000000000000000000000000000000FBFBFBFEFBFE
310
FBFBFEFBFEFBFBFB000000000000000000000000000000000000FB0000FE00FE0000FE00FE0000FB000000000000000000000000000000000000FB0000FE00FE0000FE00FE0000FB000000000000000000000000000000000000FB0000FEFEFEFEFEFEFEFE0000FB000000000000000000000000000000000000FB000000FE
310
FE0000FEFE000000FB000000000000000000000000000000000000FB0000000000FEFE0000000000FB000000000000000000000000000000000000FBFBFBFEFBFBFBFBFBFBFEFBFBFB000000000000000000000000000000000000000000FBFE0000000000FE000000000000000000000000000000000000000000000000FB
310
FBFBFBFBFBFEFB000000000000000000000000000000000000000000000000FBFE00000000FEFB000000000000000000000000000000000000000000000000FBFE00000000FEFB000000000000000000000000000000000000000000000000FBFE00000000FEFB000000000000000000000000000000000000000000000000
310
FBFE00000000FEFB000000000000000000000000000000000000000000000000FBFE00000000FEFB000000000000000000000000000000000000000000000000FBFE00000000FEFB000000000000000000000000000000000000000000000000FBFE00000000FEFB0000000000000000000000000000000000000000000000
310
00FBFE00000000FEFB000000000000000000000000000000000000000000000000FBFE00000000FEFB000000000000000000000000000000000000000000000000FBFE00000000FEFB000000000000000000000000000000000000000000000000FBFE00000000FEFB00000000000000000000000000000000000000000000
310
0000FBFE00000000FEFB000000000000000000000000000000000000000000000000FBFE00000000FEFB000000000000000000000000000000000000000000000000FBFE00000000FEFB000000000000000000000000000000000000000000000000FBFE00000000FEFB000000000000000000000000000000000000000000
310
000000FBFE00000000FEFB000000000000000000000000000000000000000000000000FBFE00000000FEFB000000000000000000000000000000000000000000000000FBFEFBFBFBFBFEFB00000000000000000000000000000000000000000000000000FE00000000FEFB0000000000000000000000000000000000000000
310
0000000000FBFBFBFBFBFB000000000000000000000000000000000000000000000000000000000000000000000000000000000000000000
  0
BLOCK_RECORD
  5
9D15
102
{ACAD_XDICTIONARY
360
9D16
102
}
330
1
100
AcDbSymbolTableRecord
100
AcDbBlockTableRecord
  2
LS2
340
0
310
2800000020000000200000000100080000000000000400000000000000000000000000000000000000000000000080000080000000808000800000008000800080800000C0C0C000C0DCC000F0CAA6000020400000206000002080000020A0000020C0000020E00000400000004020000040400000406000004080000040A0
310
000040C0000040E00000600000006020000060400000606000006080000060A0000060C0000060E00000800000008020000080400000806000008080000080A0000080C0000080E00000A0000000A0200000A0400000A0600000A0800000A0A00000A0C00000A0E00000C0000000C0200000C0400000C0600000C0800000C0
310
A00000C0C00000C0E00000E0000000E0200000E0400000E0600000E0800000E0A00000E0C00000E0E00040000000400020004000400040006000400080004000A0004000C0004000E00040200000402020004020400040206000402080004020A0004020C0004020E000404000004040200040404000404060004040800040
310
40A0004040C0004040E00040600000406020004060400040606000406080004060A0004060C0004060E00040800000408020004080400040806000408080004080A0004080C0004080E00040A0000040A0200040A0400040A0600040A0800040A0A00040A0C00040A0E00040C0000040C0200040C0400040C0600040C08000
310
40C0A00040C0C00040C0E00040E0000040E0200040E0400040E0600040E0800040E0A00040E0C00040E0E00080000000800020008000400080006000800080008000A0008000C0008000E00080200000802020008020400080206000802080008020A0008020C0008020E00080400000804020008040400080406000804080
310
008040A0008040C0008040E00080600000806020008060400080606000806080008060A0008060C0008060E00080800000808020008080400080806000808080008080A0008080C0008080E00080A0000080A0200080A0400080A0600080A0800080A0A00080A0C00080A0E00080C0000080C0200080C0400080C0600080C0
310
800080C0A00080C0C00080C0E00080E0000080E0200080E0400080E0600080E0800080E0A00080E0C00080E0E000C0000000C0002000C0004000C0006000C0008000C000A000C000C000C000E000C0200000C0202000C0204000C0206000C0208000C020A000C020C000C020E000C0400000C0402000C0404000C0406000C0
310
408000C040A000C040C000C040E000C0600000C0602000C0604000C0606000C0608000C060A000C060C000C060E000C0800000C0802000C0804000C0806000C0808000C080A000C080C000C080E000C0A00000C0A02000C0A04000C0A06000C0A08000C0A0A000C0A0C000C0A0E000C0C00000C0C02000C0C04000C0C06000
310
C0C08000C0C0A000F0FBFF00A4A0A000808080000000FF0000FF000000FFFF00FF000000FF00FF00FFFF0000FFFFFF0000000000000000000000000000000000000000000000000000000000000000000000000000000000000000FBFBFEFEFBFBFEFEFBFB00000000000000000000000000000000000000000000FBFBFEFE
310
FBFBFEFEFBFB00000000000000000000000000000000000000000000FB00FEFE0000FEFE00FB00000000000000000000000000000000000000000000FB00FEFE0000FEFE00FB00000000000000000000000000000000000000000000FB00FEFEFEFEFEFE00FB00000000000000000000000000000000000000000000FB0000
310
FEFEFE000000FB00000000000000000000000000000000000000000000FBFBFEFBFBFBFBFEFBFB000000000000000000000000000000000000000000000000FBFBFBFBFBFE0000000000000000000000000000000000000000000000000000FE00000000FE0000000000000000000000000000000000000000000000000000
310
FE00000000FE0000000000000000000000000000000000000000000000000000FE00000000FE0000000000000000000000000000000000000000000000000000FE00000000FE0000000000000000000000000000000000000000000000000000FE00000000FE00000000000000000000000000000000000000000000000000
310
00FE00000000FE0000000000000000000000000000000000000000000000000000FE00000000FE0000000000000000000000000000000000000000000000000000FE00000000FE0000000000000000000000000000000000000000000000000000FE00000000FE000000000000000000000000000000000000000000000000
310
0000FE00000000FE0000000000000000000000000000000000000000000000000000FE00000000FE0000000000000000000000000000000000000000000000000000FE00000000FE0000000000000000000000000000000000000000000000000000FE00000000FE0000000000000000000000000000000000000000000000
310
000000FE00000000FE0000000000000000000000000000000000000000000000000000FE00000000FE0000000000000000000000000000000000000000000000000000FE00000000FE0000000000000000000000000000000000000000000000000000FE00000000FE00000000000000000000000000000000000000000000
310
00000000FE00000000FE0000000000000000000000000000000000000000000000000000FE00000000FE0000000000000000000000000000000000000000000000000000FEFBFBFBFBFE0000000000000000000000000000000000000000000000000000FEFB000000FE000000000000000000000000000000000000000000
310
000000000000FBFBFBFB00000000000000000000000000000000000000000000000000000000000000000000000000000000000000000000
102
{BLKREFS
331
ACF1
102
}
  0
BLOCK_RECORD
  5
A518
102
{ACAD_XDICTIONARY
360
A519
102
}
330
1
100
AcDbSymbolTableRecord
100
AcDbBlockTableRecord
  2
LS3
340
0
310
2800000020000000200000000100080000000000000400000000000000000000000000000000000000000000000080000080000000808000800000008000800080800000C0C0C000C0DCC000F0CAA6000020400000206000002080000020A0000020C0000020E00000400000004020000040400000406000004080000040A0
310
000040C0000040E00000600000006020000060400000606000006080000060A0000060C0000060E00000800000008020000080400000806000008080000080A0000080C0000080E00000A0000000A0200000A0400000A0600000A0800000A0A00000A0C00000A0E00000C0000000C0200000C0400000C0600000C0800000C0
310
A00000C0C00000C0E00000E0000000E0200000E0400000E0600000E0800000E0A00000E0C00000E0E00040000000400020004000400040006000400080004000A0004000C0004000E00040200000402020004020400040206000402080004020A0004020C0004020E000404000004040200040404000404060004040800040
310
40A0004040C0004040E00040600000406020004060400040606000406080004060A0004060C0004060E00040800000408020004080400040806000408080004080A0004080C0004080E00040A0000040A0200040A0400040A0600040A0800040A0A00040A0C00040A0E00040C0000040C0200040C0400040C0600040C08000
310
40C0A00040C0C00040C0E00040E0000040E0200040E0400040E0600040E0800040E0A00040E0C00040E0E00080000000800020008000400080006000800080008000A0008000C0008000E00080200000802020008020400080206000802080008020A0008020C0008020E00080400000804020008040400080406000804080
310
008040A0008040C0008040E00080600000806020008060400080606000806080008060A0008060C0008060E00080800000808020008080400080806000808080008080A0008080C0008080E00080A0000080A0200080A0400080A0600080A0800080A0A00080A0C00080A0E00080C0000080C0200080C0400080C0600080C0
310
800080C0A00080C0C00080C0E00080E0000080E0200080E0400080E0600080E0800080E0A00080E0C00080E0E000C0000000C0002000C0004000C0006000C0008000C000A000C000C000C000E000C0200000C0202000C0204000C0206000C0208000C020A000C020C000C020E000C0400000C0402000C0404000C0406000C0
310
408000C040A000C040C000C040E000C0600000C0602000C0604000C0606000C0608000C060A000C060C000C060E000C0800000C0802000C0804000C0806000C0808000C080A000C080C000C080E000C0A00000C0A02000C0A04000C0A06000C0A08000C0A0A000C0A0C000C0A0E000C0C00000C0C02000C0C04000C0C06000
310
C0C08000C0C0A000F0FBFF00A4A0A000808080000000FF0000FF000000FFFF00FF000000FF00FF00FFFF0000FFFFFF0000000000000000000000000000000000000000000000000000000000000000000000000000000000000000FBFBFEFEFBFBFEFEFBFB00000000000000000000000000000000000000000000FBFBFEFE
310
FBFBFEFEFBFB00000000000000000000000000000000000000000000FB00FEFE0000FEFE00FB00000000000000000000000000000000000000000000FB00FEFEFEFEFEFE00FB00000000000000000000000000000000000000000000FB0000FEFE00FE0000FB00000000000000000000000000000000000000000000FB0000
310
0000FE000000FB00000000000000000000000000000000000000000000FBFBFEFBFBFBFBFBFBFB000000000000000000000000000000000000000000000000FE00000000FE0000000000000000000000000000000000000000000000000000FE00000000FE0000000000000000000000000000000000000000000000000000
310
FE00000000FE0000000000000000000000000000000000000000000000000000FE00000000FE0000000000000000000000000000000000000000000000000000FE00000000FE0000000000000000000000000000000000000000000000000000FE00000000FE00000000000000000000000000000000000000000000000000
310
00FE00000000FE0000000000000000000000000000000000000000000000000000FE00000000FE0000000000000000000000000000000000000000000000000000FE00000000FE0000000000000000000000000000000000000000000000000000FE00000000FE000000000000000000000000000000000000000000000000
310
0000FE00000000FE0000000000000000000000000000000000000000000000000000FE00000000FE0000000000000000000000000000000000000000000000000000FE00000000FE0000000000000000000000000000000000000000000000000000FE00000000FE0000000000000000000000000000000000000000000000
310
000000FE00000000FE0000000000000000000000000000000000000000000000000000FE00000000FE0000000000000000000000000000000000000000000000000000FE00000000FE0000000000000000000000000000000000000000000000000000FE00000000FE00000000000000000000000000000000000000000000
310
00000000FE00000000FE0000000000000000000000000000000000000000000000000000FE00000000FE0000000000000000000000000000000000000000000000000000FE00000000FE0000000000000000000000000000000000000000000000000000FEFBFBFBFBFE000000000000000000000000000000000000000000
310
000000000000FBFBFBFB00000000000000000000000000000000000000000000000000000000000000000000000000000000000000000000
102
{BLKREFS
331
A537
102
}
  0
BLOCK_RECORD
  5
AC30
330
1
100
AcDbSymbolTableRecord
100
AcDbBlockTableRecord
  2
*D6
340
0
  0
BLOCK_RECORD
  5
AC45
330
1
100
AcDbSymbolTableRecord
100
AcDbBlockTableRecord
  2
*D7
340
0
  0
BLOCK_RECORD
  5
AC51
330
1
100
AcDbSymbolTableRecord
100
AcDbBlockTableRecord
  2
*D8
340
0
  0
BLOCK_RECORD
  5
AC5D
330
1
100
AcDbSymbolTableRecord
100
AcDbBlockTableRecord
  2
*D9
340
0
  0
BLOCK_RECORD
  5
AC69
330
1
100
AcDbSymbolTableRecord
100
AcDbBlockTableRecord
  2
*D10
340
0
  0
BLOCK_RECORD
  5
AC77
330
1
100
AcDbSymbolTableRecord
100
AcDbBlockTableRecord
  2
*D11
340
0
  0
BLOCK_RECORD
  5
AC83
330
1
100
AcDbSymbolTableRecord
100
AcDbBlockTableRecord
  2
*D12
340
0
  0
BLOCK_RECORD
  5
AC8C
330
1
100
AcDbSymbolTableRecord
100
AcDbBlockTableRecord
  2
*D13
340
0
  0
BLOCK_RECORD
  5
AC97
330
1
100
AcDbSymbolTableRecord
100
AcDbBlockTableRecord
  2
*D14
340
0
  0
BLOCK_RECORD
  5
ACA2
102
{ACAD_XDICTIONARY
360
ADC3
102
}
330
1
100
AcDbSymbolTableRecord
100
AcDbBlockTableRecord
  2
A$C027945E2
340
0
1001
ACAD
1000
DesignCenter Data
1002
{
1070
     1
1070
     0
1002
}
  0
BLOCK_RECORD
  5
ADC9
330
1
100
AcDbSymbolTableRecord
100
AcDbBlockTableRecord
  2
*D16
340
0
  0
BLOCK_RECORD
  5
ADF0
330
1
100
AcDbSymbolTableRecord
100
AcDbBlockTableRecord
  2
*D17
340
0
  0
BLOCK_RECORD
  5
AE0C
330
1
100
AcDbSymbolTableRecord
100
AcDbBlockTableRecord
  2
*D18
340
0
  0
BLOCK_RECORD
  5
AE19
330
1
100
AcDbSymbolTableRecord
100
AcDbBlockTableRecord
  2
*D19
340
0
  0
BLOCK_RECORD
  5
B1F4
330
1
100
AcDbSymbolTableRecord
100
AcDbBlockTableRecord
  2
*D20
340
0
  0
BLOCK_RECORD
  5
B201
330
1
100
AcDbSymbolTableRecord
100
AcDbBlockTableRecord
  2
*D21
340
0
  0
BLOCK_RECORD
  5
B2C2
330
1
100
AcDbSymbolTableRecord
100
AcDbBlockTableRecord
  2
*D22
340
0
  0
ENDTAB
  0
ENDSEC
  0
SECTION
  2
BLOCKS
  0
BLOCK
  5
19
330
18
100
AcDbEntity
  8
0
100
AcDbBlockBegin
  2
*MODEL_SPACE
 70
     0
 10
0.0
 20
0.0
 30
0.0
  3
*MODEL_SPACE
  1

  0
ENDBLK
  5
1A
330
18
100
AcDbEntity
  8
0
100
AcDbBlockEnd
  0
BLOCK
  5
16
330
15
100
AcDbEntity
 67
     1
  8
0
100
AcDbBlockBegin
  2
*PAPER_SPACE
 70
     0
 10
0.0
 20
0.0
 30
0.0
  3
*PAPER_SPACE
  1

  0
ENDBLK
  5
17
330
15
100
AcDbEntity
 67
     1
  8
0
100
AcDbBlockEnd
  0
BLOCK
  5
63A1
330
639D
100
AcDbEntity
  8
0
100
AcDbBlockBegin
  2
A$C255C26A2
 70
     0
 10
0.0
 20
0.0
 30
0.0
  3
A$C255C26A2
  1

  0
LWPOLYLINE
  5
639E
330
639D
100
AcDbEntity
  8
0
100
AcDbPolyline
 90
        3
 70
     1
 43
0.0
 10
7.014806023851633
 20
0.0000006939811783
 10
5.611844869720698
 20
2.430000693981241
 10
8.417767177982568
 20
2.430000693981241
  0
LWPOLYLINE
  5
639F
330
639D
100
AcDbEntity
  8
0
100
AcDbPolyline
 90
        3
 70
     1
 43
0.0
 10
4.20888371558999
 20
0.0000006939811783
 10
2.805922561459283
 20
2.430000693981241
 10
5.611844869720698
 20
2.430000693981241
  0
LWPOLYLINE
  5
63A0
330
639D
100
AcDbEntity
  8
0
100
AcDbPolyline
 90
        3
 70
     1
 43
0.0
 10
1.402961407328348
 20
0.0000006939811783
 10
0.0000002531974133
 20
2.430000693981241
 10
2.805922561459283
 20
2.430000693981241
  0
ENDBLK
  5
63A2
330
639D
100
AcDbEntity
  8
0
100
AcDbBlockEnd
  0
BLOCK
  5
7C05
330
7C04
100
AcDbEntity
  8
0
100
AcDbBlockBegin
  2
_Open30
 70
     0
 10
0.0
 20
0.0
 30
0.0
  3
_Open30
  1

  0
LINE
  5
7C06
330
7C04
100
AcDbEntity
  8
0
  6
ByBlock
 62
     0
370
    -2
100
AcDbLine
 10
-1.0
 20
0.26794919
 30
0.0
 11
0.0
 21
0.0
 31
0.0
  0
LINE
  5
7C07
330
7C04
100
AcDbEntity
  8
0
  6
ByBlock
 62
     0
370
    -2
100
AcDbLine
 10
0.0
 20
0.0
 30
0.0
 11
-1.0
 21
-0.26794919
 31
0.0
  0
LINE
  5
7C08
330
7C04
100
AcDbEntity
  8
0
  6
ByBlock
 62
     0
370
    -2
100
AcDbLine
 10
0.0
 20
0.0
 30
0.0
 11
-1.0
 21
0.0
 31
0.0
  0
ENDBLK
  5
7C09
330
7C04
100
AcDbEntity
  8
0
100
AcDbBlockEnd
  0
BLOCK
  5
7C0E
330
7C0A
100
AcDbEntity
  8
0
100
AcDbBlockBegin
  2
A
 70
     0
 10
0.0
 20
0.0
 30
0.0
  3
A
  1

  0
MTEXT
  5
7C0F
330
7C0A
100
AcDbEntity
  8
mark
 62
     3
100
AcDbMText
 10
10.65641897020822
 20
-5.596245361730467
 30
0.0
 40
2.5
 41
0.0
 71
     5
 72
     1
  1
A
 73
     1
 44
1.0
1001
ACAD
1000
ACAD_MTEXT_DEFINED_HEIGHT_BEGIN
1070
    46
1040
0.0
1000
ACAD_MTEXT_DEFINED_HEIGHT_END
  0
LWPOLYLINE
  5
7C10
330
7C0A
100
AcDbEntity
  8
mark
100
AcDbPolyline
 90
        4
 70
     1
 43
0.0
 10
9.07926800414657
 20
-7.141145101782569
 10
12.07926800414657
 20
-7.141145101782569
 10
12.07926800414657
 20
-4.141145101782569
 10
9.07926800414657
 20
-4.141145101782569
  0
HATCH
  5
7C11
330
7C0A
100
AcDbEntity
  8
mark
100
AcDbHatch
 10
0.0
 20
0.0
 30
0.0
210
0.0
220
0.0
230
1.0
  2
SOLID
 70
     1
 71
     0
 91
        1
 92
        7
 72
     0
 73
     1
 93
        3
 10
5.32926800414657
 20
-5.641145101782569
 10
4.07926800414657
 20
-4.391145101782541
 10
4.07926800414657
 20
-6.891145101782541
 97
        0
 75
     0
 76
     1
 47
0.0398277943677868
 98
        1
 10
4.589689734415287
 20
-5.732163331855076
450
        0
451
        0
460
0.0
461
0.0
452
        1
462
1.0
453
        2
463
0.0
 63
     5
421
      255
463
1.0
 63
     7
421
 16777215
470
LINEAR
1001
ACAD
1010
0.0
1020
0.0
1030
0.0
  0
LINE
  5
7C12
330
7C0A
100
AcDbEntity
  8
mark
100
AcDbLine
 10
5.32926800414657
 20
-5.641145101782569
 30
0.0
 11
9.07926800414657
 21
-5.641145101782569
 31
0.0
  0
LINE
  5
7C13
330
7C0A
100
AcDbEntity
  8
mark
100
AcDbLine
 10
5.32926800414657
 20
-5.641145101782569
 30
0.0
 11
4.07926800414657
 21
-4.391145101782569
 31
0.0
  0
LINE
  5
7C14
330
7C0A
100
AcDbEntity
  8
mark
100
AcDbLine
 10
5.32926800414657
 20
-5.641145101782569
 30
0.0
 11
4.07926800414657
 21
-6.891145101782569
 31
0.0
  0
ENDBLK
  5
7C15
330
7C0A
100
AcDbEntity
  8
0
100
AcDbBlockEnd
  0
BLOCK
  5
8E76
330
8E72
100
AcDbEntity
  8
0
100
AcDbBlockBegin
  2
LS
 70
     0
 10
0.0
 20
0.0
 30
0.0
  3
LS
  1

  0
LINE
  5
8E78
330
8E72
100
AcDbEntity
  8
contour
100
AcDbLine
 10
310.7457309951603
 20
181.0160360664828
 30
0.0
 11
310.7457309951603
 21
184.7160360664827
 31
0.0
  0
LINE
  5
8E79
330
8E72
100
AcDbEntity
  8
contour
100
AcDbLine
 10
310.7457309951603
 20
184.7160360664827
 30
0.0
 11
303.7457309951603
 21
184.7160360664827
 31
0.0
  0
LINE
  5
8E7A
330
8E72
100
AcDbEntity
  8
contour
100
AcDbLine
 10
308.4457309951603
 20
196.7160360664827
 30
0.0
 11
306.0457309951603
 21
196.7160360664826
 31
0.0
  0
LINE
  5
8E7B
330
8E72
100
AcDbEntity
  8
contour
100
AcDbLine
 10
309.2457309951603
 20
195.9160360664826
 30
0.0
 11
308.4457309951603
 21
196.7160360664826
 31
0.0
  0
LINE
  5
8E7C
330
8E72
100
AcDbEntity
  8
contour
100
AcDbLine
 10
303.7457309951603
 20
184.7160360664827
 30
0.0
 11
303.7457309951603
 21
181.0160360664827
 31
0.0
  0
LINE
  5
8E7D
330
8E72
100
AcDbEntity
  8
contour
100
AcDbLine
 10
304.0457309951603
 20
180.7160360664827
 30
0.0
 11
310.4457309951603
 21
180.7160360664828
 31
0.0
  0
LINE
  5
8E7E
330
8E72
100
AcDbEntity
  8
contour
100
AcDbLine
 10
310.7457309951603
 20
181.0160360664828
 30
0.0
 11
310.4457309951603
 21
180.7160360664828
 31
0.0
  0
LINE
  5
8E7F
330
8E72
100
AcDbEntity
  8
contour
100
AcDbLine
 10
303.7457309951603
 20
181.0160360664827
 30
0.0
 11
304.0457309951603
 21
180.7160360664827
 31
0.0
  0
LINE
  5
8E80
330
8E72
100
AcDbEntity
  8
contour
100
AcDbLine
 10
309.2457309951603
 20
184.7160360664826
 30
0.0
 11
309.2457309951603
 21
195.9160360664827
 31
0.0
  0
LINE
  5
8E81
330
8E72
100
AcDbEntity
  8
contour
100
AcDbLine
 10
305.2457309951603
 20
184.7160360664826
 30
0.0
 11
305.2457309951603
 21
195.9160360664827
 31
0.0
  0
LINE
  5
8E82
330
8E72
100
AcDbEntity
  8
contour
100
AcDbLine
 10
306.0457309951603
 20
196.7160360664826
 30
0.0
 11
305.2457309951603
 21
195.9160360664826
 31
0.0
  0
LINE
  5
8E83
330
8E72
100
AcDbEntity
  8
contour
100
AcDbLine
 10
309.2457309951603
 20
195.9160360664827
 30
0.0
 11
305.2457309951603
 21
195.9160360664827
 31
0.0
  0
LINE
  5
8E84
330
8E72
100
AcDbEntity
  8
contour
 62
     4
100
AcDbLine
 10
308.8667309951603
 20
185.3724833225513
 30
0.0
 11
308.8667309951603
 21
196.2950360664826
 31
0.0
  0
LINE
  5
8E85
330
8E72
100
AcDbEntity
  8
contour
 62
     4
100
AcDbLine
 10
305.6247309951603
 20
185.3724833225513
 30
0.0
 11
305.6247309951603
 21
196.2950360664826
 31
0.0
  0
LINE
  5
8E86
330
8E72
100
AcDbEntity
  8
contour
100
AcDbLine
 10
310.7457309951603
 20
181.0160360664828
 30
0.0
 11
303.7457309951603
 21
181.0160360664828
 31
0.0
  0
LINE
  5
8E87
330
8E72
100
AcDbEntity
  8
bowle
 48
0.1
100
AcDbLine
 10
308.1117563989447
 20
180.7160360664827
 30
0.0
 11
308.1117563989447
 21
182.9160360664827
 31
0.0
  0
LINE
  5
8E88
330
8E72
100
AcDbEntity
  8
bowle
 48
0.1
100
AcDbLine
 10
308.9777818027293
 20
180.7160360664827
 30
0.0
 11
308.9777818027293
 21
182.9160360664827
 31
0.0
  0
LINE
  5
8E89
330
8E72
100
AcDbEntity
  8
bowle
 48
0.1
100
AcDbLine
 10
306.3797055913759
 20
180.7160360664827
 30
0.0
 11
306.3797055913759
 21
182.9160360664826
 31
0.0
  0
LINE
  5
8E8A
330
8E72
100
AcDbEntity
  8
bowle
 48
0.1
100
AcDbLine
 10
305.5136801875914
 20
180.7160360664827
 30
0.0
 11
305.5136801875914
 21
182.9160360664826
 31
0.0
  0
LINE
  5
8E8B
330
8E72
100
AcDbEntity
  8
bowle
 48
0.1
100
AcDbLine
 10
308.9777818027292
 20
182.9160360664827
 30
0.0
 11
305.5136801875914
 21
182.9160360664827
 31
0.0
  0
LINE
  5
8E8C
330
8E72
100
AcDbEntity
  8
bowle
 48
0.1
100
AcDbLine
 10
305.5136801875914
 20
182.9160360664826
 30
0.0
 11
307.2457309951603
 21
183.9160360664826
 31
0.0
  0
LINE
  5
8E8D
330
8E72
100
AcDbEntity
  8
bowle
 48
0.1
100
AcDbLine
 10
308.9777818027292
 20
182.9160360664826
 30
0.0
 11
307.2457309951603
 21
183.9160360664826
 31
0.0
  0
LINE
  5
8E8E
330
8E72
100
AcDbEntity
  8
contour
 62
     4
100
AcDbLine
 10
305.6247309951603
 20
185.3724833225513
 30
0.0
 11
305.2457309951603
 21
184.7160360664826
 31
0.0
  0
LINE
  5
8E8F
330
8E72
100
AcDbEntity
  8
contour
100
AcDbLine
 10
305.2457309951603
 20
185.3724833225513
 30
0.0
 11
309.2457309951603
 21
185.3724833225513
 31
0.0
  0
LINE
  5
8E90
330
8E72
100
AcDbEntity
  8
contour
 62
     4
100
AcDbLine
 10
309.2457309951603
 20
184.7160360664827
 30
0.0
 11
308.8667309951603
 21
185.3724833225513
 31
0.0
  0
ENDBLK
  5
8E77
330
8E72
100
AcDbEntity
  8
0
100
AcDbBlockEnd
  0
BLOCK
  5
9D19
330
9D15
100
AcDbEntity
  8
0
100
AcDbBlockBegin
  2
LS2
 70
     0
 10
0.0
 20
0.0
 30
0.0
  3
LS2
  1

  0
LINE
  5
9D1B
330
9D15
100
AcDbEntity
  8
contour
100
AcDbLine
 10
143.2797554375081
 20
0.0655328110734672
 30
0.0
 11
143.2797554375081
 21
3.765532811073398
 31
0.0
  0
LINE
  5
9D1C
330
9D15
100
AcDbEntity
  8
contour
100
AcDbLine
 10
143.2797554375081
 20
3.765532811073398
 30
0.0
 11
136.2797554375081
 21
3.765532811073398
 31
0.0
  0
LINE
  5
9D1D
330
9D15
100
AcDbEntity
  8
contour
100
AcDbLine
 10
140.979755437508
 20
19.7655328110734
 30
0.0
 11
138.5797554375081
 21
19.76553281107334
 31
0.0
  0
LINE
  5
9D1E
330
9D15
100
AcDbEntity
  8
contour
100
AcDbLine
 10
141.7797554375081
 20
18.96553281107333
 30
0.0
 11
140.9797554375081
 21
19.76553281107334
 31
0.0
  0
LINE
  5
9D1F
330
9D15
100
AcDbEntity
  8
contour
100
AcDbLine
 10
136.2797554375081
 20
3.765532811073398
 30
0.0
 11
136.2797554375081
 21
0.0655328110733535
 31
0.0
  0
LINE
  5
9D20
330
9D15
100
AcDbEntity
  8
contour
100
AcDbLine
 10
136.5797554375081
 20
-0.2344671889266578
 30
0.0
 11
142.9797554375081
 21
-0.2344671889265442
 31
0.0
  0
LINE
  5
9D21
330
9D15
100
AcDbEntity
  8
contour
100
AcDbLine
 10
143.2797554375081
 20
0.0655328110734672
 30
0.0
 11
142.9797554375081
 21
-0.2344671889265442
 31
0.0
  0
LINE
  5
9D22
330
9D15
100
AcDbEntity
  8
contour
100
AcDbLine
 10
136.2797554375081
 20
0.0655328110733535
 30
0.0
 11
136.5797554375081
 21
-0.2344671889266578
 31
0.0
  0
LINE
  5
9D23
330
9D15
100
AcDbEntity
  8
contour
100
AcDbLine
 10
141.7797554375081
 20
3.765532811073342
 30
0.0
 11
141.7797554375081
 21
18.96553281107339
 31
0.0
  0
LINE
  5
9D24
330
9D15
100
AcDbEntity
  8
contour
100
AcDbLine
 10
137.7797554375081
 20
3.765532811073342
 30
0.0
 11
137.7797554375081
 21
18.96553281107339
 31
0.0
  0
LINE
  5
9D25
330
9D15
100
AcDbEntity
  8
contour
100
AcDbLine
 10
138.5797554375081
 20
19.76553281107334
 30
0.0
 11
137.7797554375081
 21
18.96553281107333
 31
0.0
  0
LINE
  5
9D26
330
9D15
100
AcDbEntity
  8
contour
100
AcDbLine
 10
141.7797554375081
 20
18.96553281107339
 30
0.0
 11
137.7797554375081
 21
18.96553281107339
 31
0.0
  0
LINE
  5
9D27
330
9D15
100
AcDbEntity
  8
contour
 62
     4
100
AcDbLine
 10
141.400755437508
 20
4.42198006714193
 30
0.0
 11
141.4007554375081
 21
19.34453281107327
 31
0.0
  0
LINE
  5
9D28
330
9D15
100
AcDbEntity
  8
contour
 62
     4
100
AcDbLine
 10
138.1587554375081
 20
4.42198006714193
 30
0.0
 11
138.1587554375081
 21
19.34453281107336
 31
0.0
  0
LINE
  5
9D29
330
9D15
100
AcDbEntity
  8
contour
100
AcDbLine
 10
143.2797554375081
 20
0.0655328110734672
 30
0.0
 11
136.2797554375081
 21
0.0655328110735241
 31
0.0
  0
LINE
  5
9D2A
330
9D15
100
AcDbEntity
  8
bowle
 48
0.1
100
AcDbLine
 10
140.6457808412925
 20
-0.234467188926601
 30
0.0
 11
140.6457808412925
 21
1.965532811073387
 31
0.0
  0
LINE
  5
9D2B
330
9D15
100
AcDbEntity
  8
bowle
 48
0.1
100
AcDbLine
 10
141.511806245077
 20
-0.2344671889266578
 30
0.0
 11
141.511806245077
 21
1.965532811073387
 31
0.0
  0
LINE
  5
9D2C
330
9D15
100
AcDbEntity
  8
bowle
 48
0.1
100
AcDbLine
 10
138.9137300337237
 20
-0.234467188926601
 30
0.0
 11
138.9137300337237
 21
1.96553281107333
 31
0.0
  0
LINE
  5
9D2D
330
9D15
100
AcDbEntity
  8
bowle
 48
0.1
100
AcDbLine
 10
138.0477046299392
 20
-0.2344671889266578
 30
0.0
 11
138.0477046299391
 21
1.96553281107333
 31
0.0
  0
LINE
  5
9D2E
330
9D15
100
AcDbEntity
  8
bowle
 48
0.1
100
AcDbLine
 10
141.511806245077
 20
1.965532811073387
 30
0.0
 11
138.0477046299391
 21
1.965532811073387
 31
0.0
  0
LINE
  5
9D2F
330
9D15
100
AcDbEntity
  8
bowle
 48
0.1
100
AcDbLine
 10
138.0477046299391
 20
1.96553281107333
 30
0.0
 11
139.779755437508
 21
2.96553281107333
 31
0.0
  0
LINE
  5
9D30
330
9D15
100
AcDbEntity
  8
bowle
 48
0.1
100
AcDbLine
 10
141.511806245077
 20
1.96553281107333
 30
0.0
 11
139.779755437508
 21
2.96553281107333
 31
0.0
  0
LINE
  5
9D31
330
9D15
100
AcDbEntity
  8
contour
 62
     4
100
AcDbLine
 10
138.1587554375081
 20
4.421980067141987
 30
0.0
 11
137.7797554375081
 21
3.765532811073342
 31
0.0
  0
LINE
  5
9D32
330
9D15
100
AcDbEntity
  8
contour
100
AcDbLine
 10
137.7797554375081
 20
4.42198006714193
 30
0.0
 11
141.7797554375081
 21
4.42198006714193
 31
0.0
  0
LINE
  5
9D33
330
9D15
100
AcDbEntity
  8
contour
 62
     4
100
AcDbLine
 10
141.7797554375081
 20
3.765532811073398
 30
0.0
 11
141.400755437508
 21
4.42198006714193
 31
0.0
  0
ENDBLK
  5
9D1A
330
9D15
100
AcDbEntity
  8
0
100
AcDbBlockEnd
  0
BLOCK
  5
A51C
330
A518
100
AcDbEntity
  8
0
100
AcDbBlockBegin
  2
LS3
 70
     0
 10
0.0
 20
0.0
 30
0.0
  3
LS3
  1

  0
LINE
  5
A51E
330
A518
100
AcDbEntity
  8
contour
100
AcDbLine
 10
329.8877449821333
 20
4.477662871771769
 30
0.0
 11
329.8877449821333
 21
8.177662871771701
 31
0.0
  0
LINE
  5
A51F
330
A518
100
AcDbEntity
  8
contour
100
AcDbLine
 10
329.8877449821333
 20
8.177662871771701
 30
0.0
 11
336.8877449821333
 21
8.177662871771701
 31
0.0
  0
LINE
  5
A520
330
A518
100
AcDbEntity
  8
contour
100
AcDbLine
 10
332.1877449821334
 20
26.1776628717717
 30
0.0
 11
334.5877449821334
 21
26.17766287177165
 31
0.0
  0
LINE
  5
A521
330
A518
100
AcDbEntity
  8
contour
100
AcDbLine
 10
331.3877449821333
 20
25.37766287177163
 30
0.0
 11
332.1877449821334
 21
26.17766287177165
 31
0.0
  0
LINE
  5
A522
330
A518
100
AcDbEntity
  8
contour
100
AcDbLine
 10
336.8877449821333
 20
8.177662871771701
 30
0.0
 11
336.8877449821333
 21
4.477662871771656
 31
0.0
  0
LINE
  5
A523
330
A518
100
AcDbEntity
  8
contour
100
AcDbLine
 10
336.5877449821334
 20
4.177662871771644
 30
0.0
 11
330.1877449821334
 21
4.177662871771758
 31
0.0
  0
LINE
  5
A524
330
A518
100
AcDbEntity
  8
contour
100
AcDbLine
 10
329.8877449821333
 20
4.477662871771769
 30
0.0
 11
330.1877449821334
 21
4.177662871771758
 31
0.0
  0
LINE
  5
A525
330
A518
100
AcDbEntity
  8
contour
100
AcDbLine
 10
336.8877449821333
 20
4.477662871771656
 30
0.0
 11
336.5877449821334
 21
4.177662871771644
 31
0.0
  0
LINE
  5
A526
330
A518
100
AcDbEntity
  8
contour
100
AcDbLine
 10
331.3877449821333
 20
8.177662871771644
 30
0.0
 11
331.3877449821334
 21
25.37766287177168
 31
0.0
  0
LINE
  5
A527
330
A518
100
AcDbEntity
  8
contour
100
AcDbLine
 10
335.3877449821333
 20
8.177662871771644
 30
0.0
 11
335.3877449821333
 21
25.37766287177166
 31
0.0
  0
LINE
  5
A528
330
A518
100
AcDbEntity
  8
contour
100
AcDbLine
 10
334.5877449821334
 20
26.17766287177165
 30
0.0
 11
335.3877449821333
 21
25.37766287177163
 31
0.0
  0
LINE
  5
A529
330
A518
100
AcDbEntity
  8
contour
100
AcDbLine
 10
331.3877449821333
 20
25.37766287177169
 30
0.0
 11
335.3877449821333
 21
25.37766287177169
 31
0.0
  0
LINE
  5
A52A
330
A518
100
AcDbEntity
  8
contour
 62
     4
100
AcDbLine
 10
331.7667449821333
 20
8.834110127840233
 30
0.0
 11
331.7667449821333
 21
25.75666287177167
 31
0.0
  0
LINE
  5
A52B
330
A518
100
AcDbEntity
  8
contour
 62
     4
100
AcDbLine
 10
335.0087449821333
 20
8.834110127840233
 30
0.0
 11
335.0087449821334
 21
25.75666287177161
 31
0.0
  0
LINE
  5
A52C
330
A518
100
AcDbEntity
  8
contour
100
AcDbLine
 10
329.8877449821333
 20
4.477662871771769
 30
0.0
 11
336.8877449821333
 21
4.477662871771826
 31
0.0
  0
LINE
  5
A52D
330
A518
100
AcDbEntity
  8
bowle
 48
0.1
100
AcDbLine
 10
332.5217195783489
 20
4.177662871771701
 30
0.0
 11
332.5217195783489
 21
6.37766287177169
 31
0.0
  0
LINE
  5
A52E
330
A518
100
AcDbEntity
  8
bowle
 48
0.1
100
AcDbLine
 10
331.6556941745643
 20
4.177662871771644
 30
0.0
 11
331.6556941745643
 21
6.37766287177169
 31
0.0
  0
LINE
  5
A52F
330
A518
100
AcDbEntity
  8
bowle
 48
0.1
100
AcDbLine
 10
334.2537703859177
 20
4.177662871771701
 30
0.0
 11
334.2537703859177
 21
6.377662871771633
 31
0.0
  0
LINE
  5
A530
330
A518
100
AcDbEntity
  8
bowle
 48
0.1
100
AcDbLine
 10
335.1197957897023
 20
4.177662871771644
 30
0.0
 11
335.1197957897023
 21
6.377662871771633
 31
0.0
  0
LINE
  5
A531
330
A518
100
AcDbEntity
  8
bowle
 48
0.1
100
AcDbLine
 10
331.6556941745645
 20
6.37766287177169
 30
0.0
 11
335.1197957897023
 21
6.37766287177169
 31
0.0
  0
LINE
  5
A532
330
A518
100
AcDbEntity
  8
bowle
 48
0.1
100
AcDbLine
 10
335.1197957897023
 20
6.377662871771633
 30
0.0
 11
333.3877449821334
 21
7.377662871771633
 31
0.0
  0
LINE
  5
A533
330
A518
100
AcDbEntity
  8
bowle
 48
0.1
100
AcDbLine
 10
331.6556941745645
 20
6.377662871771633
 30
0.0
 11
333.3877449821334
 21
7.377662871771633
 31
0.0
  0
LINE
  5
A534
330
A518
100
AcDbEntity
  8
contour
 62
     4
100
AcDbLine
 10
335.0087449821333
 20
8.83411012784029
 30
0.0
 11
335.3877449821333
 21
8.177662871771644
 31
0.0
  0
LINE
  5
A535
330
A518
100
AcDbEntity
  8
contour
100
AcDbLine
 10
335.3877449821333
 20
8.834110127840233
 30
0.0
 11
331.3877449821333
 21
8.834110127840233
 31
0.0
  0
LINE
  5
A536
330
A518
100
AcDbEntity
  8
contour
 62
     4
100
AcDbLine
 10
331.3877449821333
 20
8.177662871771701
 30
0.0
 11
331.7667449821333
 21
8.834110127840233
 31
0.0
  0
ENDBLK
  5
A51D
330
A518
100
AcDbEntity
  8
0
100
AcDbBlockEnd
  0
BLOCK
  5
AC3A
330
AC30
100
AcDbEntity
  8
0
100
AcDbBlockBegin
  2
*D6
 70
     1
 10
0.0
 20
0.0
 30
0.0
  3
*D6
  1

  0
LINE
  5
B1C6
330
AC30
100
AcDbEntity
  8
mark
370
    -2
100
AcDbLine
 10
59.00000000000005
 20
129.7413086737984
 30
0.0
 11
59.00000000000005
 21
137.0831771065883
 31
0.0
  0
LINE
  5
B1C7
330
AC30
100
AcDbEntity
  8
mark
370
    -2
100
AcDbLine
 10
131.0
 20
129.7413086737984
 30
0.0
 11
131.0
 21
137.0831771065883
 31
0.0
  0
LINE
  5
B1C8
330
AC30
100
AcDbEntity
  8
mark
370
    -2
100
AcDbLine
 10
61.50000000000005
 20
136.2831771065883
 30
0.0
 11
128.5
 21
136.2831771065883
 31
0.0
  0
INSERT
  5
B1C9
330
AC30
100
AcDbEntity
  8
mark
370
    -2
100
AcDbBlockReference
  2
_Open30
 10
59.00000000000005
 20
136.2831771065883
 30
0.0
 41
2.5
 42
2.5
 43
2.5
 50
180.0
  0
INSERT
  5
B1CA
330
AC30
100
AcDbEntity
  8
mark
370
    -2
100
AcDbBlockReference
  2
_Open30
 10
131.0
 20
136.2831771065883
 30
0.0
 41
2.5
 42
2.5
 43
2.5
  0
MTEXT
  5
B1CB
330
AC30
100
AcDbEntity
  8
mark
 62
     3
100
AcDbMText
 10
95.00000000000003
 20
138.3331771065883
 30
0.0
 40
2.5
 41
0.0
 71
     5
 72
     1
  1
\A1;%%C72
 73
     1
 44
1.0
  0
POINT
  5
B1CC
330
AC30
100
AcDbEntity
  8
DEFPOINTS
 62
     0
100
AcDbPoint
 10
59.00000000000005
 20
128.9413086737984
 30
0.0
  0
POINT
  5
B1CD
330
AC30
100
AcDbEntity
  8
DEFPOINTS
 62
     0
100
AcDbPoint
 10
131.0
 20
128.9413086737984
 30
0.0
  0
POINT
  5
B1CE
330
AC30
100
AcDbEntity
  8
DEFPOINTS
 62
     0
100
AcDbPoint
 10
131.0
 20
136.2831771065883
 30
0.0
  0
ENDBLK
  5
AC3B
330
AC30
100
AcDbEntity
  8
0
100
AcDbBlockEnd
  0
BLOCK
  5
AC46
330
AC45
100
AcDbEntity
  8
0
100
AcDbBlockBegin
  2
*D7
 70
     1
 10
0.0
 20
0.0
 30
0.0
  3
*D7
  1

  0
LINE
  5
AC47
330
AC45
100
AcDbEntity
  8
mark
370
    -2
100
AcDbLine
 10
129.3406849548574
 20
117.0552648763453
 30
0.0
 11
137.9717387633591
 21
117.0552648763453
 31
0.0
  0
LINE
  5
AC48
330
AC45
100
AcDbEntity
  8
mark
370
    -2
100
AcDbLine
 10
129.3406849548573
 20
102.1552648763453
 30
0.0
 11
137.9717387633591
 21
102.1552648763453
 31
0.0
  0
LINE
  5
AC49
330
AC45
100
AcDbEntity
  8
mark
370
    -2
100
AcDbLine
 10
137.1717387633591
 20
114.5552648763453
 30
0.0
 11
137.1717387633591
 21
104.6552648763453
 31
0.0
  0
INSERT
  5
AC4A
330
AC45
100
AcDbEntity
  8
mark
370
    -2
100
AcDbBlockReference
  2
_Open30
 10
137.1717387633591
 20
117.0552648763453
 30
0.0
 41
2.5
 42
2.5
 43
2.5
 50
90.0
  0
INSERT
  5
AC4B
330
AC45
100
AcDbEntity
  8
mark
370
    -2
100
AcDbBlockReference
  2
_Open30
 10
137.1717387633591
 20
102.1552648763453
 30
0.0
 41
2.5
 42
2.5
 43
2.5
 50
270.0
  0
MTEXT
  5
AC4C
330
AC45
100
AcDbEntity
  8
mark
 62
     3
100
AcDbMText
 10
135.1217387633591
 20
109.6052648763453
 30
0.0
 40
2.5
 41
0.0
 71
     5
 72
     1
  1
\A1;14.9
 11
0.0000000000000001
 21
1.0
 31
0.0
 73
     1
 44
1.0
  0
POINT
  5
AC4D
330
AC45
100
AcDbEntity
  8
DEFPOINTS
 62
     0
100
AcDbPoint
 10
128.5406849548574
 20
117.0552648763453
 30
0.0
  0
POINT
  5
AC4E
330
AC45
100
AcDbEntity
  8
DEFPOINTS
 62
     0
100
AcDbPoint
 10
128.5406849548573
 20
102.1552648763453
 30
0.0
  0
POINT
  5
AC4F
330
AC45
100
AcDbEntity
  8
DEFPOINTS
 62
     0
100
AcDbPoint
 10
137.1717387633591
 20
102.1552648763453
 30
0.0
  0
ENDBLK
  5
AC50
330
AC45
100
AcDbEntity
  8
0
100
AcDbBlockEnd
  0
BLOCK
  5
AC52
330
AC51
100
AcDbEntity
  8
0
100
AcDbBlockBegin
  2
*D8
 70
     1
 10
0.0
 20
0.0
 30
0.0
  3
*D8
  1

  0
LINE
  5
AC53
330
AC51
100
AcDbEntity
  8
mark
370
    -2
100
AcDbLine
 10
129.3406849548574
 20
117.0552648763453
 30
0.0
 11
145.3994345173715
 21
117.0552648763453
 31
0.0
  0
LINE
  5
AC54
330
AC51
100
AcDbEntity
  8
mark
370
    -2
100
AcDbLine
 10
129.3406849548574
 20
95.05526487634529
 30
0.0
 11
145.3994345173715
 21
95.05526487634529
 31
0.0
  0
LINE
  5
AC55
330
AC51
100
AcDbEntity
  8
mark
370
    -2
100
AcDbLine
 10
144.5994345173715
 20
114.5552648763453
 30
0.0
 11
144.5994345173715
 21
97.55526487634529
 31
0.0
  0
INSERT
  5
AC56
330
AC51
100
AcDbEntity
  8
mark
370
    -2
100
AcDbBlockReference
  2
_Open30
 10
144.5994345173715
 20
117.0552648763453
 30
0.0
 41
2.5
 42
2.5
 43
2.5
 50
90.0
  0
INSERT
  5
AC57
330
AC51
100
AcDbEntity
  8
mark
370
    -2
100
AcDbBlockReference
  2
_Open30
 10
144.5994345173715
 20
95.05526487634529
 30
0.0
 41
2.5
 42
2.5
 43
2.5
 50
270.0
  0
MTEXT
  5
AC58
330
AC51
100
AcDbEntity
  8
mark
 62
     3
100
AcDbMText
 10
142.5494345173714
 20
106.0552648763453
 30
0.0
 40
2.5
 41
0.0
 71
     5
 72
     1
  1
\A1;22%%P0.2
 11
0.0000000000000001
 21
1.0
 31
0.0
 73
     1
 44
1.0
  0
POINT
  5
AC59
330
AC51
100
AcDbEntity
  8
DEFPOINTS
 62
     0
100
AcDbPoint
 10
128.5406849548574
 20
117.0552648763453
 30
0.0
  0
POINT
  5
AC5A
330
AC51
100
AcDbEntity
  8
DEFPOINTS
 62
     0
100
AcDbPoint
 10
128.5406849548574
 20
95.05526487634529
 30
0.0
  0
POINT
  5
AC5B
330
AC51
100
AcDbEntity
  8
DEFPOINTS
 62
     0
100
AcDbPoint
 10
144.5994345173715
 20
95.05526487634529
 30
0.0
  0
ENDBLK
  5
AC5C
330
AC51
100
AcDbEntity
  8
0
100
AcDbBlockEnd
  0
BLOCK
  5
AC5E
330
AC5D
100
AcDbEntity
  8
0
100
AcDbBlockBegin
  2
*D9
 70
     1
 10
0.0
 20
0.0
 30
0.0
  3
*D9
  1

  0
LINE
  5
AC5F
330
AC5D
100
AcDbEntity
  8
mark
370
    -2
100
AcDbLine
 10
73.0406849548574
 20
94.94326487634527
 30
0.0
 11
73.0406849548574
 21
80.73289000642906
 31
0.0
  0
LINE
  5
AC60
330
AC5D
100
AcDbEntity
  8
mark
370
    -2
100
AcDbLine
 10
118.0406849548574
 20
94.94326487634527
 30
0.0
 11
118.0406849548574
 21
80.73289000642906
 31
0.0
  0
LINE
  5
AC61
330
AC5D
100
AcDbEntity
  8
mark
370
    -2
100
AcDbLine
 10
75.5406849548574
 20
81.53289000642905
 30
0.0
 11
115.5406849548574
 21
81.53289000642905
 31
0.0
  0
INSERT
  5
AC62
330
AC5D
100
AcDbEntity
  8
mark
370
    -2
100
AcDbBlockReference
  2
_Open30
 10
73.0406849548574
 20
81.53289000642905
 30
0.0
 41
2.5
 42
2.5
 43
2.5
 50
180.0
  0
INSERT
  5
AC63
330
AC5D
100
AcDbEntity
  8
mark
370
    -2
100
AcDbBlockReference
  2
_Open30
 10
118.0406849548574
 20
81.53289000642905
 30
0.0
 41
2.5
 42
2.5
 43
2.5
  0
MTEXT
  5
AC64
330
AC5D
100
AcDbEntity
  8
mark
 62
     3
100
AcDbMText
 10
95.5406849548574
 20
83.58289000642905
 30
0.0
 40
2.5
 41
0.0
 71
     5
 72
     1
  1
\A1;M45X1.5P
 73
     1
 44
1.0
  0
POINT
  5
AC65
330
AC5D
100
AcDbEntity
  8
DEFPOINTS
 62
     0
100
AcDbPoint
 10
73.0406849548574
 20
95.74326487634527
 30
0.0
  0
POINT
  5
AC66
330
AC5D
100
AcDbEntity
  8
DEFPOINTS
 62
     0
100
AcDbPoint
 10
118.0406849548574
 20
95.74326487634527
 30
0.0
  0
POINT
  5
AC67
330
AC5D
100
AcDbEntity
  8
DEFPOINTS
 62
     0
100
AcDbPoint
 10
118.0406849548574
 20
81.53289000642905
 30
0.0
  0
ENDBLK
  5
AC68
330
AC5D
100
AcDbEntity
  8
0
100
AcDbBlockEnd
  0
BLOCK
  5
AC6A
330
AC69
100
AcDbEntity
  8
0
100
AcDbBlockBegin
  2
*D10
 70
     1
 10
0.0
 20
0.0
 30
0.0
  3
*D10
  1

  0
LINE
  5
AC6B
330
AC69
100
AcDbEntity
  8
mark
370
    -2
100
AcDbLine
 10
61.74068495485743
 20
117.0552648763453
 30
0.0
 11
52.98397539527147
 21
117.0552648763453
 31
0.0
  0
LINE
  5
AC6C
330
AC69
100
AcDbEntity
  8
mark
370
    -2
100
AcDbLine
 10
58.74068495485743
 20
110.5552648763453
 30
0.0
 11
52.98397539527147
 21
110.5552648763453
 31
0.0
  0
LINE
  5
AC6D
330
AC69
100
AcDbEntity
  8
mark
370
    -2
100
AcDbLine
 10
53.78397539527147
 20
119.5552648763453
 30
0.0
 11
53.78397539527147
 21
122.0552648763453
 31
0.0
  0
LINE
  5
AC6E
330
AC69
100
AcDbEntity
  8
mark
370
    -2
100
AcDbLine
 10
53.78397539527147
 20
108.0552648763453
 30
0.0
 11
53.78397539527147
 21
105.5552648763453
 31
0.0
  0
LINE
  5
AC6F
330
AC69
100
AcDbEntity
  8
mark
370
    -2
100
AcDbLine
 10
53.78397539527147
 20
117.0552648763453
 30
0.0
 11
53.78397539527147
 21
110.5552648763453
 31
0.0
  0
INSERT
  5
AC70
330
AC69
100
AcDbEntity
  8
mark
370
    -2
100
AcDbBlockReference
  2
_Open30
 10
53.78397539527147
 20
117.0552648763453
 30
0.0
 41
2.5
 42
2.5
 43
2.5
 50
270.0
  0
INSERT
  5
AC71
330
AC69
100
AcDbEntity
  8
mark
370
    -2
100
AcDbBlockReference
  2
_Open30
 10
53.78397539527147
 20
110.5552648763453
 30
0.0
 41
2.5
 42
2.5
 43
2.5
 50
90.0
  0
MTEXT
  5
AC72
330
AC69
100
AcDbEntity
  8
mark
 62
     3
100
AcDbMText
 10
51.73397539527146
 20
113.8052648763453
 30
0.0
 40
2.5
 41
0.0
 71
     5
 72
     1
  1
\A1;6.5
 11
0.0000000000000001
 21
1.0
 31
0.0
 73
     1
 44
1.0
  0
POINT
  5
AC73
330
AC69
100
AcDbEntity
  8
DEFPOINTS
 62
     0
100
AcDbPoint
 10
62.54068495485743
 20
117.0552648763453
 30
0.0
  0
POINT
  5
AC74
330
AC69
100
AcDbEntity
  8
DEFPOINTS
 62
     0
100
AcDbPoint
 10
59.54068495485742
 20
110.5552648763453
 30
0.0
  0
POINT
  5
AC75
330
AC69
100
AcDbEntity
  8
DEFPOINTS
 62
     0
100
AcDbPoint
 10
53.78397539527147
 20
110.5552648763453
 30
0.0
  0
ENDBLK
  5
AC76
330
AC69
100
AcDbEntity
  8
0
100
AcDbBlockEnd
  0
BLOCK
  5
AC78
330
AC77
100
AcDbEntity
  8
0
100
AcDbBlockBegin
  2
*D11
 70
     1
 10
0.0
 20
0.0
 30
0.0
  3
*D11
  1

  0
LINE
  5
AC79
330
AC77
100
AcDbEntity
  8
mark
370
    -2
100
AcDbLine
 10
129.5406849548574
 20
116.855264876345
 30
0.0
 11
129.5406849548574
 21
124.7619354840709
 31
0.0
  0
LINE
  5
AC7A
330
AC77
100
AcDbEntity
  8
mark
370
    -2
100
AcDbLine
 10
61.54068495485742
 20
116.855264876345
 30
0.0
 11
61.54068495485742
 21
124.7619354840709
 31
0.0
  0
LINE
  5
AC7B
330
AC77
100
AcDbEntity
  8
mark
370
    -2
100
AcDbLine
 10
127.0406849548574
 20
123.9619354840709
 30
0.0
 11
64.04068495485742
 21
123.9619354840709
 31
0.0
  0
INSERT
  5
AC7C
330
AC77
100
AcDbEntity
  8
mark
370
    -2
100
AcDbBlockReference
  2
_Open30
 10
129.5406849548574
 20
123.9619354840709
 30
0.0
 41
2.5
 42
2.5
 43
2.5
  0
INSERT
  5
AC7D
330
AC77
100
AcDbEntity
  8
mark
370
    -2
100
AcDbBlockReference
  2
_Open30
 10
61.54068495485742
 20
123.9619354840709
 30
0.0
 41
2.5
 42
2.5
 43
2.5
 50
180.0
  0
MTEXT
  5
AC7E
330
AC77
100
AcDbEntity
  8
mark
 62
     3
100
AcDbMText
 10
95.54068495485742
 20
126.0119354840709
 30
0.0
 40
2.5
 41
0.0
 71
     5
 72
     1
  1
\A1;%%C68
 73
     1
 44
1.0
  0
POINT
  5
AC7F
330
AC77
100
AcDbEntity
  8
DEFPOINTS
 62
     0
100
AcDbPoint
 10
129.5406849548574
 20
116.055264876345
 30
0.0
  0
POINT
  5
AC80
330
AC77
100
AcDbEntity
  8
DEFPOINTS
 62
     0
100
AcDbPoint
 10
61.54068495485742
 20
116.055264876345
 30
0.0
  0
POINT
  5
AC81
330
AC77
100
AcDbEntity
  8
DEFPOINTS
 62
     0
100
AcDbPoint
 10
61.54068495485742
 20
123.9619354840709
 30
0.0
  0
ENDBLK
  5
AC82
330
AC77
100
AcDbEntity
  8
0
100
AcDbBlockEnd
  0
BLOCK
  5
AC84
330
AC83
100
AcDbEntity
  8
0
100
AcDbBlockBegin
  2
*D12
 70
     1
 10
0.0
 20
0.0
 30
0.0
  3
*D12
  1

  0
LINE
  5
AC85
330
AC83
100
AcDbEntity
  8
mark
370
    -2
100
AcDbLine
 10
54.80965081388429
 20
88.32423073537251
 30
0.0
 11
60.06581122070443
 21
93.58039114219238
 31
0.0
  0
MTEXT
  5
AC86
330
AC83
100
AcDbEntity
  8
mark
 62
     3
100
AcDbMText
 10
55.10427863937877
 20
91.51799636373175
 30
0.0
 40
2.5
 41
0.0
 71
     5
 72
     1
  1
\A1;R1
 11
0.7071067811865654
 21
0.7071067811865298
 31
0.0
 73
     1
 44
1.0
  0
LINE
  5
AC87
330
AC83
100
AcDbEntity
  8
mark
370
    -2
100
AcDbLine
 10
62.54068495485741
 20
96.05526487634522
 30
0.0
 11
61.83357817367085
 21
95.34815809515871
 31
0.0
  0
INSERT
  5
AC88
330
AC83
100
AcDbEntity
  8
mark
370
    -2
100
AcDbBlockReference
  2
_Open30
 10
61.83357817367085
 20
95.34815809515871
 30
0.0
 41
2.5
 42
2.5
 43
2.5
 50
44.99999999999857
  0
POINT
  5
AC89
330
AC83
100
AcDbEntity
  8
DEFPOINTS
 62
     0
100
AcDbPoint
 10
61.83357817367085
 20
95.34815809515871
 30
0.0
  0
POINT
  5
AC8A
330
AC83
100
AcDbEntity
  8
DEFPOINTS
 62
     0
100
AcDbPoint
 10
62.54068495485741
 20
96.05526487634522
 30
0.0
  0
ENDBLK
  5
AC8B
330
AC83
100
AcDbEntity
  8
0
100
AcDbBlockEnd
  0
BLOCK
  5
AC8D
330
AC8C
100
AcDbEntity
  8
0
100
AcDbBlockBegin
  2
*D13
 70
     1
 10
0.0
 20
0.0
 30
0.0
  3
*D13
  1

  0
LINE
  5
AC8E
330
AC8C
100
AcDbEntity
  8
mark
370
    -2
100
AcDbLine
 10
148.6283704054037
 20
199.2399547420852
 30
0.0
 11
125.0920519265633
 21
193.2286114990919
 31
0.0
  0
LINE
  5
AC8F
330
AC8C
100
AcDbEntity
  8
mark
370
    -2
100
AcDbLine
 10
65.98931798315149
 20
178.1333526270396
 30
0.0
 11
63.56707478874936
 21
177.5146944765456
 31
0.0
  0
MTEXT
  5
AC90
330
AC8C
100
AcDbEntity
  8
mark
 62
     3
100
AcDbMText
 10
139.6755161175165
 20
199.069139410106
 30
0.0
 40
2.5
 41
0.0
 71
     5
 72
     1
  1
\A1;P.C.D 56
 11
0.9688972777608498
 21
0.2474632601975788
 31
0.0
 73
     1
 44
1.0
  0
LINE
  5
AC91
330
AC8C
100
AcDbEntity
  8
mark
370
    -2
100
AcDbLine
 10
68.4115611775536
 20
178.7520107775335
 30
0.0
 11
122.6698087321612
 21
192.6099533485979
 31
0.0
  0
INSERT
  5
AC92
330
AC8C
100
AcDbEntity
  8
mark
370
    -2
100
AcDbBlockReference
  2
_Open30
 10
68.4115611775536
 20
178.7520107775335
 30
0.0
 41
2.5
 42
2.5
 43
2.5
 50
14.32745161451835
  0
INSERT
  5
AC93
330
AC8C
100
AcDbEntity
  8
mark
370
    -2
100
AcDbBlockReference
  2
_Open30
 10
122.6698087321612
 20
192.6099533485979
 30
0.0
 41
2.5
 42
2.5
 43
2.5
 50
194.3274516145183
  0
POINT
  5
AC94
330
AC8C
100
AcDbEntity
  8
DEFPOINTS
 62
     0
100
AcDbPoint
 10
122.6698087321612
 20
192.6099533485979
 30
0.0
  0
POINT
  5
AC95
330
AC8C
100
AcDbEntity
  8
DEFPOINTS
 62
     0
100
AcDbPoint
 10
68.4115611775536
 20
178.7520107775335
 30
0.0
  0
ENDBLK
  5
AC96
330
AC8C
100
AcDbEntity
  8
0
100
AcDbBlockEnd
  0
BLOCK
  5
AC98
330
AC97
100
AcDbEntity
  8
0
100
AcDbBlockBegin
  2
*D14
 70
     1
 10
0.0
 20
0.0
 30
0.0
  3
*D14
  1

  0
LINE
  5
AC99
330
AC97
100
AcDbEntity
  8
mark
370
    -2
100
AcDbLine
 10
42.6743112500185
 20
201.3661251992405
 30
0.0
 11
65.34181893184585
 21
194.6408085638523
 31
0.0
  0
LINE
  5
AC9A
330
AC97
100
AcDbEntity
  8
mark
370
    -2
100
AcDbLine
 10
125.7395509778689
 20
176.7211555622791
 30
0.0
 11
128.1362863765207
 21
176.0100582209469
 31
0.0
  0
MTEXT
  5
AC9B
330
AC97
100
AcDbEntity
  8
mark
 62
     3
100
AcDbMText
 10
51.61402849320995
 20
200.8520888293565
 30
0.0
 40
2.5
 41
0.0
 71
     5
 72
     1
  1
\A1;P.C.D 58
 11
0.9586941594606848
 21
-0.284438936532907
 31
0.0
 73
     1
 44
1.0
  0
LINE
  5
AC9C
330
AC97
100
AcDbEntity
  8
mark
370
    -2
100
AcDbLine
 10
123.3428155792172
 20
177.4322529036114
 30
0.0
 11
67.73855433049755
 21
193.92971122252
 31
0.0
  0
INSERT
  5
AC9D
330
AC97
100
AcDbEntity
  8
mark
370
    -2
100
AcDbBlockReference
  2
_Open30
 10
123.3428155792172
 20
177.4322529036114
 30
0.0
 41
2.5
 42
2.5
 43
2.5
 50
163.4746859475553
  0
INSERT
  5
AC9E
330
AC97
100
AcDbEntity
  8
mark
370
    -2
100
AcDbBlockReference
  2
_Open30
 10
67.73855433049755
 20
193.92971122252
 30
0.0
 41
2.5
 42
2.5
 43
2.5
 50
343.4746859475553
  0
POINT
  5
AC9F
330
AC97
100
AcDbEntity
  8
DEFPOINTS
 62
     0
100
AcDbPoint
 10
67.73855433049755
 20
193.92971122252
 30
0.0
  0
POINT
  5
ACA0
330
AC97
100
AcDbEntity
  8
DEFPOINTS
 62
     0
100
AcDbPoint
 10
123.3428155792172
 20
177.4322529036114
 30
0.0
  0
ENDBLK
  5
ACA1
330
AC97
100
AcDbEntity
  8
0
100
AcDbBlockEnd
  0
BLOCK
  5
ADC5
330
ACA2
100
AcDbEntity
  8
0
100
AcDbBlockBegin
  2
A$C027945E2
 70
     0
 10
0.0
 20
0.0
 30
0.0
  3
A$C027945E2
  1

  0
LWPOLYLINE
  5
ACA3
330
ACA2
100
AcDbEntity
  8
frame
100
AcDbPolyline
 90
        4
 70
     1
 43
0.0
 10
190.0000002329675
 20
279.9999998857602
 10
0.0000002329675226
 20
279.9999998857602
 10
0.0000002329675226
 20
-0.0000001142398105
 10
190.0000002329675
 20
-0.0000001142398105
  0
MTEXT
  5
ACA4
330
ACA2
100
AcDbEntity
  8
0
100
AcDbMText
 10
17.09950391985927
 20
19.07605890192633
 30
0.0
 40
4.5
 41
0.0
 71
     1
 72
     5
  1
{\Ftxt,bigfont|c128;林彦旭}
  7
JL
 73
     1
 44
1.0
1001
ACAD
1000
ACAD_MTEXT_DEFINED_HEIGHT_BEGIN
1070
    46
1040
0.0
1000
ACAD_MTEXT_DEFINED_HEIGHT_END
  0
MTEXT
  5
ACA5
330
ACA2
100
AcDbEntity
  8
0
100
AcDbMText
 10
77.95294752525603
 20
28.93578968446695
 30
0.0
 40
4.5
 41
0.0
 71
     1
 72
     5
  1
{\Ftxt,bigfont|c128;1 : 1}
  7
JL
 73
     1
 44
1.0
1001
ACAD
1000
ACAD_MTEXT_DEFINED_HEIGHT_BEGIN
1070
    46
1040
0.0
1000
ACAD_MTEXT_DEFINED_HEIGHT_END
  0
MTEXT
  5
ACA6
330
ACA2
100
AcDbEntity
  8
0
 48
2.0
370
    25
100
AcDbMText
 10
140.2194502795331
 20
3.490021540394081
 30
0.0
 40
4.5
 41
0.0
 71
     5
 72
     1
  1
{\Ftxt,bigfont|c128;N L 4 0 2 7 6}
 73
     1
 44
1.0
1001
ACAD
1000
ACAD_MTEXT_DEFINED_HEIGHT_BEGIN
1070
    46
1040
0.0
1000
ACAD_MTEXT_DEFINED_HEIGHT_END
  0
MTEXT
  5
ACA7
330
ACA2
100
AcDbEntity
  8
0
 48
2.0
100
AcDbMText
 10
170.9329001974006
 20
21.76437116399711
 30
0.0
 40
4.318181818181822
 41
0.0
 71
     5
 72
     1
  1
\P{\Ftxt,bigfont|c128;MKR45X1.5P}
 73
     1
 44
1.0
1001
ACAD
1000
ACAD_MTEXT_DEFINED_HEIGHT_BEGIN
1070
    46
1040
0.0
1000
ACAD_MTEXT_DEFINED_HEIGHT_END
  0
MTEXT
  5
ACA8
330
ACA2
100
AcDbEntity
  8
0
100
AcDbMText
 10
15.37606794664492
 20
28.37740348410728
 30
0.0
 40
4.5
 41
0.0
 71
     1
 72
     5
  1
{\Ftxt,bigfont|c128;06.07.05}
  7
JL
 73
     1
 44
1.0
1001
ACAD
1000
ACAD_MTEXT_DEFINED_HEIGHT_BEGIN
1070
    46
1040
0.0
1000
ACAD_MTEXT_DEFINED_HEIGHT_END
  0
LINE
  5
ACA9
330
ACA2
100
AcDbEntity
  8
0
 62
     7
 48
5.0
100
AcDbLine
 39
3.838383838383842
 10
47.92942437289286
 20
27.65712895592105
 30
0.0
 11
53.04580167584607
 21
28.93622328165941
 31
0.0
  0
MTEXT
  5
ACAA
330
ACA2
100
AcDbEntity
  8
0
100
AcDbMText
 10
14.91235571623167
 20
9.242194935809493
 30
0.0
 40
6.0
 41
0.0
 71
     1
 72
     5
  1
\Ftxt.shx,bigfont.shx|c128;日機株式会社
  7
LKK
 73
     1
 44
1.0
  0
LINE
  5
ACAB
330
ACA2
100
AcDbEntity
  8
frame
100
AcDbLine
 10
0.0000002329675226
 20
11.99999988576019
 30
0.0
 11
190.0000002329675
 21
11.99999988576024
 31
0.0
  0
LINE
  5
ACAC
330
ACA2
100
AcDbEntity
  8
frame
100
AcDbLine
 10
0.0000002329675226
 20
21.99999988576019
 30
0.0
 11
92.12121235417976
 21
21.99999988576019
 31
0.0
  0
LINE
  5
ACAD
330
ACA2
100
AcDbEntity
  8
frame
100
AcDbLine
 10
0.0000002329675226
 20
31.99999988576019
 30
0.0
 11
190.0000002329675
 21
31.99999988576019
 31
0.0
  0
LINE
  5
ACAE
330
ACA2
100
AcDbEntity
  8
frame
100
AcDbLine
 10
12.19077355790551
 20
31.99999988576019
 30
0.0
 11
12.19077355790551
 21
11.99999988576019
 31
0.0
  0
LINE
  5
ACAF
330
ACA2
100
AcDbEntity
  8
frame
100
AcDbLine
 10
30.70707094003819
 20
31.99999988576019
 30
0.0
 11
30.70707094003831
 21
11.99999988576019
 31
0.0
  0
MTEXT
  5
ACB0
330
ACA2
100
AcDbEntity
  8
0
100
AcDbMText
 10
2.830275017189478
 20
29.0819007815885
 30
0.0
 40
4.5
 41
0.0
 71
     1
 72
     5
  1
\Ftxt.shx,bigfont.shx|c128;日 付
  7
JL
 73
     1
 44
1.0
  0
MTEXT
  5
ACB1
330
ACA2
100
AcDbEntity
  8
0
100
AcDbMText
 10
2.970633310406412
 20
19.52163831502656
 30
0.0
 40
4.5
 41
0.0
 71
     1
 72
     5
  1
\Ftxt.shx,bigfont.shx|c128;製 図
  7
JL
 73
     1
 44
1.0
  0
LINE
  5
ACB2
330
ACA2
100
AcDbEntity
  8
0
 62
     7
370
    25
100
AcDbLine
 10
53.04580167584607
 20
23.81984597870616
 30
0.0
 11
53.04580167584607
 21
28.93622328165941
 31
0.0
  0
MTEXT
  5
ACB3
330
ACA2
100
AcDbEntity
  8
0
100
AcDbMText
 10
64.00748875787588
 20
29.12242692368398
 30
0.0
 40
4.5
 41
0.0
 71
     1
 72
     5
  1
\Ftxt.shx,bigfont.shx|c128;尺 度
  7
JL
 73
     1
 44
1.0
  0
LINE
  5
ACB4
330
ACA2
100
AcDbEntity
  8
frame
100
AcDbLine
 10
61.41414164710898
 20
31.99999988576019
 30
0.0
 11
61.41414164710898
 21
11.99999988576019
 31
0.0
  0
LINE
  5
ACB5
330
ACA2
100
AcDbEntity
  8
0
 62
     7
370
    25
100
AcDbLine
 10
39.61531125559373
 20
23.18889006908654
 30
0.0
 11
39.61531125559373
 21
29.36457981005691
 31
0.0
  0
CIRCLE
  5
ACB6
330
ACA2
100
AcDbEntity
  8
0
 62
     7
100
AcDbCircle
 10
39.61531125559373
 20
26.3780346301827
 30
0.0
 40
2.558188651476678
  0
LINE
  5
ACB7
330
ACA2
100
AcDbEntity
  8
0
 62
     7
370
    25
100
AcDbLine
 10
47.19322010216728
 20
26.37803463018281
 30
0.0
 11
53.50512604920993
 21
26.37803463018281
 31
0.0
  0
LINE
  5
ACB8
330
ACA2
100
AcDbEntity
  8
0
 62
     7
100
AcDbLine
 10
47.92942437289286
 20
25.09894030444446
 30
0.0
 11
53.04580167584607
 21
23.81984597870616
 31
0.0
  0
LINE
  5
ACB9
330
ACA2
100
AcDbEntity
  8
frame
100
AcDbLine
 10
42.74224219291852
 20
21.99999988576019
 30
0.0
 11
42.74224219291852
 21
11.99999988576019
 31
0.0
  0
LINE
  5
ACBA
330
ACA2
100
AcDbEntity
  8
0
 62
     7
370
    25
100
AcDbLine
 10
36.41832251783365
 20
26.3780346301827
 30
0.0
 11
43.00325290916021
 21
26.37803463018281
 31
0.0
  0
CIRCLE
  5
ACBB
330
ACA2
100
AcDbEntity
  8
0
 62
     7
100
AcDbCircle
 10
39.61531125559373
 20
26.3780346301827
 30
0.0
 40
1.279094325738339
  0
MTEXT
  5
ACBC
330
ACA2
100
AcDbEntity
  8
0
100
AcDbMText
 10
33.7018405575916
 20
19.41013804361285
 30
0.0
 40
4.5
 41
0.0
 71
     1
 72
     5
  1
\Ftxt.shx,bigfont.shx|c128;検 図
  7
JL
 73
     1
 44
1.0
  0
LINE
  5
ACBD
330
ACA2
100
AcDbEntity
  8
0
 62
     7
370
    25
100
AcDbLine
 10
47.92942437289286
 20
25.09894030444446
 30
0.0
 11
47.92942437289286
 21
27.65712895592105
 31
0.0
  0
MTEXT
  5
ACBE
330
ACA2
100
AcDbEntity
  8
0
100
AcDbMText
 10
64.28820273216581
 20
19.320585233249
 30
0.0
 40
4.5
 41
0.0
 71
     1
 72
     5
  1
\Ftxt.shx,bigfont.shx|c128;承 認
  7
JL
 73
     1
 44
1.0
  0
MTEXT
  5
ACBF
330
ACA2
100
AcDbEntity
  8
0
100
AcDbMText
 10
93.7112873890345
 20
10.70268208195159
 30
0.0
 40
4.5
 41
0.0
 71
     1
 72
     5
  1
\Ftxt.shx,bigfont.shx|c128;図  面  番  号
  7
JL
 73
     1
 44
1.0
  0
MTEXT
  5
ACC0
330
ACA2
100
AcDbEntity
  8
0
 48
2.0
100
AcDbMText
 10
116.9038192351059
 20
21.87574720071859
 30
0.0
 40
4.5
 41
0.0
 71
     5
 72
     1
  1
\P\Ftxt.shx,bigfont.shx|c128;    精密ロックナット
 73
     1
 44
1.0
  0
MTEXT
  5
ACC1
330
ACA2
100
AcDbEntity
  8
0
100
AcDbMText
 10
94.80836153609073
 20
29.03862446549295
 30
0.0
 40
4.5
 41
0.0
 71
     1
 72
     5
  1
\Ftxt.shx,bigfont.shx|c128;品  名
  7
JL
 73
     1
 44
1.0
  0
LINE
  5
ACC2
330
ACA2
100
AcDbEntity
  8
frame
100
AcDbLine
 10
92.12121235417976
 20
31.99999988576019
 30
0.0
 11
92.12121235417976
 21
0.1833226437186681
 31
0.0
  0
LINE
  5
ACC3
330
ACA2
100
AcDbEntity
  8
frame
100
AcDbLine
 10
73.41414164710897
 20
31.99999988576019
 30
0.0
 11
73.41414164710897
 21
11.99999988576019
 31
0.0
  0
LINE
  5
ACC4
330
ACA2
100
AcDbEntity
  8
frame
100
AcDbLine
 10
147.0327095070331
 20
31.99999988576019
 30
0.0
 11
147.0327095070332
 21
11.99999988576019
 31
0.0
  0
MTEXT
  5
ACC5
330
ACA2
100
AcDbEntity
  8
0
100
AcDbMText
 10
150.8959596797406
 20
29.0451777140641
 30
0.0
 40
4.5
 41
0.0
 71
     1
 72
     5
  1
\Ftxt.shx,bigfont.shx|c128;型  番
  7
JL
 73
     1
 44
1.0
  0
MTEXT
  5
ACC6
330
ACA2
100
AcDbEntity
  8
0
100
AcDbMText
 10
165.8059617140001
 20
10.78298163547583
 30
0.0
 40
4.5
 41
0.0
 71
     1
 72
     5
  1
\Ftxt.shx,bigfont.shx|c128;変更
  7
JL
 73
     1
 44
1.0
  0
LINE
  5
ACC7
330
ACA2
100
AcDbEntity
  8
frame
100
AcDbLine
 10
164.0909093238767
 20
11.99999988576024
 30
0.0
 11
164.0909093238768
 21
-0.0000001142398105
 31
0.0
  0
LINE
  5
ACC8
330
ACA2
100
AcDbEntity
  8
frame
100
AcDbLine
 10
124.6157903116068
 20
43.13491337500511
 30
0.0
 11
184.6157903116068
 21
43.134913375005
 31
0.0
  0
LINE
  5
ACC9
330
ACA2
100
AcDbEntity
  8
frame
100
AcDbLine
 10
124.6157903116068
 20
50.33491337500516
 30
0.0
 11
184.6157903116068
 21
50.33491337500516
 31
0.0
  0
LINE
  5
ACCA
330
ACA2
100
AcDbEntity
  8
frame
100
AcDbLine
 10
124.6157903116068
 20
57.53491337500509
 30
0.0
 11
184.6157903116068
 21
57.53491337500498
 31
0.0
  0
LINE
  5
ACCB
330
ACA2
100
AcDbEntity
  8
frame
100
AcDbLine
 10
124.6157903116068
 20
64.73491337500513
 30
0.0
 11
184.6157903116068
 21
64.73491337500502
 31
0.0
  0
LINE
  5
ACCC
330
ACA2
100
AcDbEntity
  8
frame
100
AcDbLine
 10
124.6157903116068
 20
35.93491337500507
 30
0.0
 11
184.6157903116068
 21
35.93491337500507
 31
0.0
  0
MTEXT
  5
ACCD
330
ACA2
100
AcDbEntity
  8
0
 62
     7
 48
2.0
100
AcDbMText
 10
154.5011902774781
 20
65.52808178558928
 30
0.0
 40
4.8
 41
0.0
 71
     5
 72
     1
  1
\P\Ftxt.shx,bigfont.shx|c128;諸　　　　元
 73
     1
 44
1.0
  0
LINE
  5
ACCE
330
ACA2
100
AcDbEntity
  8
frame
100
AcDbLine
 10
124.6157903116068
 20
64.73491337500502
 30
0.0
 11
124.6157903116068
 21
35.93491337500507
 31
0.0
  0
MTEXT
  5
ACCF
330
ACA2
100
AcDbEntity
  8
0
100
AcDbMText
 10
128.138226125287
 20
56.00840420788427
 30
0.0
 40
4.4
 41
163.916286842249
 71
     1
 72
     5
  1
\Ftxt.shx,bigfont.shx|c128;熱　処　理
  7
JL
 73
     1
 44
1.0
  0
LINE
  5
ACD0
330
ACA2
100
AcDbEntity
  8
frame
100
AcDbLine
 10
148.6157903116068
 20
57.53491337500498
 30
0.0
 11
148.6157903116068
 21
35.93491337500507
 31
0.0
  0
MTEXT
  5
ACD1
330
ACA2
100
AcDbEntity
  8
0
100
AcDbMText
 10
127.8579517579078
 20
49.00617576062415
 30
0.0
 40
4.4
 41
163.6058628849672
 71
     1
 72
     5
  1
\Ftxt.shx,bigfont.shx|c128;表 面 処 理
  7
JL
 73
     1
 44
1.0
  0
MTEXT
  5
ACD2
330
ACA2
100
AcDbEntity
  8
0
100
AcDbMText
 10
128.1480176063428
 20
41.71770290701624
 30
0.0
 40
4.4
 41
166.1718
 71
     1
 72
     5
  1
\Ftxt.shx,bigfont.shx|c128;等     　級
  7
JL
 73
     1
 44
1.0
  0
LINE
  5
ACD3
330
ACA2
100
AcDbEntity
  8
frame
100
AcDbLine
 10
184.6157903116068
 20
64.73491337500502
 30
0.0
 11
184.6157903116068
 21
35.93491337500518
 31
0.0
  0
MTEXT
  5
ACD4
330
ACA2
100
AcDbEntity
  8
0
100
AcDbMText
 10
153.3627936210494
 20
55.83344630047463
 30
0.0
 40
4.4
 41
291.8960056857887
 71
     1
 72
     5
  1
\Ftxt.shx,bigfont.shx|c128;調質　HRC30%%d%%p２%%d
  7
JL
 73
     1
 44
1.0
  0
MTEXT
  5
ACD5
330
ACA2
100
AcDbEntity
  8
0
100
AcDbMText
 10
153.6234326224858
 20
41.71831347846739
 30
0.0
 40
4.4
 41
290.783364796891
 71
     1
 72
     5
  1
\Ftxt.shx,bigfont.shx|c128;ＩＳＯ - ４Ｈ
  7
JL
 73
     1
 44
1.0
  0
MTEXT
  5
ACD6
330
ACA2
100
AcDbEntity
  8
0
100
AcDbMText
 10
153.7978938206161
 20
48.65328282366931
 30
0.0
 40
4.4
 41
291.4548
 71
     1
 72
     5
  1
\Ftxt.shx,bigfont.shx|c128;黒  　    染
  7
JL
 73
     1
 44
1.0
  0
MTEXT
  5
ACD7
330
ACA2
100
AcDbEntity
  8
0
100
AcDbMText
 10
57.63639084631177
 20
260.9000582137075
 30
0.0
 40
5.0
 41
0.0
 71
     1
 72
     5
  1
{\Ftxt,bigfont|c128;M4X0.7P-16L}
  7
JL
 73
     1
 44
1.0
1001
ACAD
1000
ACAD_MTEXT_DEFINED_HEIGHT_BEGIN
1070
    46
1040
0.0
1000
ACAD_MTEXT_DEFINED_HEIGHT_END
  0
LINE
  5
ACD8
330
ACA2
100
AcDbEntity
  8
frame
100
AcDbLine
 10
0.0000002329675226
 20
253.9999998857602
 30
0.0
 11
190.0000002329675
 21
253.9999998857602
 31
0.0
  0
LINE
  5
ACD9
330
ACA2
100
AcDbEntity
  8
frame
100
AcDbLine
 10
0.0000002329675226
 20
261.9999998857602
 30
0.0
 11
190.0000002329675
 21
261.9999998857602
 31
0.0
  0
LINE
  5
ACDA
330
ACA2
100
AcDbEntity
  8
frame
 62
     9
100
AcDbLine
 10
0.0000002329675226
 20
269.9999998857602
 30
0.0
 11
190.0000002329675
 21
269.9999998857602
 31
0.0
  0
MTEXT
  5
ACDB
330
ACA2
100
AcDbEntity
  8
0
100
AcDbMText
 10
57.01564413900462
 20
277.4240558906643
 30
0.0
 40
5.0
 41
0.0
 71
     1
 72
     5
  1
\Ftxt.shx,bigfont.shx|c128;図    番 / 規　　格
  7
JL
 73
     1
 44
1.0
  0
LINE
  5
ACDC
330
ACA2
100
AcDbEntity
  8
frame
100
AcDbLine
 10
0.0000002329675226
 20
253.9999998857602
 30
0.0
 11
190.0000002329675
 21
253.9999998857602
 31
0.0
  0
MTEXT
  5
ACDD
330
ACA2
100
AcDbEntity
  8
0
100
AcDbMText
 10
21.12488072220185
 20
277.4637980244345
 30
0.0
 40
5.0
 41
0.0
 71
     1
 72
     5
  1
\Ftxt.shx,bigfont.shx|c128;品　          名
  7
JL
 73
     1
 44
1.0
  0
MTEXT
  5
ACDE
330
ACA2
100
AcDbEntity
  8
0
100
AcDbMText
 10
18.10281410406884
 20
260.7907236146713
 30
0.0
 40
5.0
 41
0.0
 71
     1
 72
     5
  1
\Ftxt.shx,bigfont.shx|c128;セットスクリュ-
  7
JL
 73
     1
 44
1.0
  0
MTEXT
  5
ACDF
330
ACA2
100
AcDbEntity
  8
0
100
AcDbMText
 10
17.9150950415991
 20
268.8361229140566
 30
0.0
 40
5.0
 41
0.0
 71
     1
 72
     5
  1
\Ftxt.shx,bigfont.shx|c128;ロックナット　  
  7
JL
 73
     1
 44
1.0
  0
LINE
  5
ACE0
330
ACA2
100
AcDbEntity
  8
frame
 62
     9
100
AcDbLine
 10
14.3939396269069
 20
279.9999998857601
 30
0.0
 11
14.39393962690716
 21
253.9999998857602
 31
0.0
  0
LINE
  5
ACE1
330
ACA2
100
AcDbEntity
  8
frame
 62
     9
100
AcDbLine
 10
14.3939396269069
 20
279.9999998857601
 30
0.0
 11
14.3939396269069
 21
255.0505049362653
 31
0.0
  0
MTEXT
  5
ACE2
330
ACA2
100
AcDbEntity
  8
0
100
AcDbMText
 10
6.815009500981318
 20
268.7281673291723
 30
0.0
 40
5.0
 41
0.0
 71
     1
 72
     5
  1
\Ftxt.shx,bigfont.shx|c128;1
  7
JL
 73
     1
 44
1.0
  0
MTEXT
  5
ACE3
330
ACA2
100
AcDbEntity
  8
0
100
AcDbMText
 10
2.119828305947748
 20
277.4734781497093
 30
0.0
 40
5.0
 41
0.0
 71
     1
 72
     5
  1
\Ftxt.shx,bigfont.shx|c128;照   号
  7
JL
 73
     1
 44
1.0
  0
LINE
  5
ACE4
330
ACA2
100
AcDbEntity
  8
frame
 62
     9
100
AcDbLine
 10
52.77777801074535
 20
279.9999998857601
 30
0.0
 11
52.77777801074536
 21
253.9999998857602
 31
0.0
  0
MTEXT
  5
ACE5
330
ACA2
100
AcDbEntity
  8
0
100
AcDbMText
 10
145.5736376702526
 20
277.6781662751796
 30
0.0
 40
5.0
 41
0.0
 71
     1
 72
     5
  1
\Ftxt.shx,bigfont.shx|c128;備           考
  7
JL
 73
     1
 44
1.0
  0
LINE
  5
ACE6
330
ACA2
100
AcDbEntity
  8
frame
 62
     9
100
AcDbLine
 10
91.16161639458368
 20
279.9999998857602
 30
0.0
 11
91.1616163945837
 21
253.9999998857602
 31
0.0
  0
MTEXT
  5
ACE7
330
ACA2
100
AcDbEntity
  8
0
100
AcDbMText
 10
92.87341112476122
 20
268.8361229140566
 30
0.0
 40
5.0
 41
0.0
 71
     1
 72
     5
  1
\Ftxt.shx,bigfont.shx|c128;SCM-440
  7
JL
 73
     1
 44
1.0
  0
MTEXT
  5
ACE8
330
ACA2
100
AcDbEntity
  8
0
100
AcDbMText
 10
92.87341112476122
 20
260.7650018983441
 30
0.0
 40
5.0
 41
0.0
 71
     1
 72
     5
  1
\Ftxt.shx,bigfont.shx|c128;SCM435
  7
JL
 73
     1
 44
1.0
  0
MTEXT
  5
ACE9
330
ACA2
100
AcDbEntity
  8
0
100
AcDbMText
 10
95.76798886400945
 20
277.5645498340521
 30
0.0
 40
5.0
 41
0.0
 71
     1
 72
     5
  1
\Ftxt.shx,bigfont.shx|c128;材　質
  7
JL
 73
     1
 44
1.0
  0
LINE
  5
ACEA
330
ACA2
100
AcDbEntity
  8
frame
 62
     9
100
AcDbLine
 10
110.353535586503
 20
279.9999998857602
 30
0.0
 11
110.353535586503
 21
253.9999998857602
 31
0.0
  0
LINE
  5
ACEB
330
ACA2
100
AcDbEntity
  8
frame
100
AcDbLine
 10
124.7474749804422
 20
279.9999998857602
 30
0.0
 11
124.7474749804423
 21
253.9999998857602
 31
0.0
  0
MTEXT
  5
ACEC
330
ACA2
100
AcDbEntity
  8
0
100
AcDbMText
 10
117.1685448545166
 20
269.0412710537533
 30
0.0
 40
5.0
 41
0.0
 71
     1
 72
     5
  1
\Ftxt.shx,bigfont.shx|c128;1
  7
JL
 73
     1
 44
1.0
  0
MTEXT
  5
ACED
330
ACA2
100
AcDbEntity
  8
0
100
AcDbMText
 10
116.5939072596559
 20
260.5092289008281
 30
0.0
 40
5.0
 41
0.0
 71
     1
 72
     5
  1
{\Ftxt,bigfont|c128;6}
  7
JL
 73
     1
 44
1.0
1001
ACAD
1000
ACAD_MTEXT_DEFINED_HEIGHT_BEGIN
1070
    46
1040
0.0
1000
ACAD_MTEXT_DEFINED_HEIGHT_END
  0
MTEXT
  5
ACEE
330
ACA2
100
AcDbEntity
  8
0
100
AcDbMText
 10
112.4223898248938
 20
277.5645498340521
 30
0.0
 40
5.0
 41
0.0
 71
     1
 72
     5
  1
\Ftxt.shx,bigfont.shx|c128;数   量
  7
JL
 73
     1
 44
1.0
  0
MTEXT
  5
ACEF
330
ACA2
100
AcDbEntity
  8
0
100
AcDbMText
 10
6.404019932023516
 20
260.7281673291723
 30
0.0
 40
5.0
 41
0.0
 71
     1
 72
     5
  1
{\Ftxt,bigfont|c128;2}
  7
JL
 73
     1
 44
1.0
1001
ACAD
1000
ACAD_MTEXT_DEFINED_HEIGHT_BEGIN
1070
    46
1040
0.0
1000
ACAD_MTEXT_DEFINED_HEIGHT_END
  0
HATCH
  5
ACF0
330
ACA2
100
AcDbEntity
  8
section
100
AcDbHatch
 10
0.0
 20
0.0
 30
0.0
210
0.0
220
0.0
230
1.0
  2
ANSI31
 70
     0
 71
     1
 91
       12
 92
        7
 72
     1
 73
     1
 93
       28
 10
73.04068518782486
 20
116.3672647621055
 42
0.0
 10
72.35268518782494
 20
117.0552647621055
 42
0.0
 10
62.54068518782495
 20
117.0552647621055
 42
0.4142135623730951
 10
61.54068518782494
 20
116.0552647621055
 42
0.0
 10
61.54068518782494
 20
114.0552647621054
 42
0.0
 10
62.0406851878249
 20
113.5552647621055
 42
0.0
 10
66.80863438025605
 20
113.5552647621055
 42
0.0
 10
68.54068518782496
 20
110.5552647621054
 42
0.0
 10
66.80863438025607
 20
107.5552647621054
 42
0.0
 10
62.04068518782491
 20
107.5552647621055
 42
0.0
 10
61.54068518782494
 20
107.0552647621055
 42
0.0
 10
61.54068518782494
 20
103.1552647621055
 42
0.4142135623730951
 10
62.54068518782495
 20
102.1552647621055
 42
0.0
 10
71.0406851878249
 20
102.1552647621055
 42
0.0
 10
71.04068518782492
 20
100.1552647621055
 42
0.0
 10
66.54068518782492
 20
100.1552647621055
 42
0.0
 10
66.54068518782492
 20
99.05526476210548
 42
0.0
 10
68.69068518782501
 20
97.81396168334772
 42
0.0
 10
68.69068518782498
 20
95.55526476210548
 42
0.0
 10
69.19068518782497
 20
95.05526476210549
 42
0.0
 10
72.35268518782494
 20
95.05526476210548
 42
0.0
 10
73.04068518782492
 20
95.74326476210544
 42
0.0
 10
73.04068518782489
 20
102.2672647621055
 42
0.0
 10
72.3526851878249
 20
102.9552647621055
 42
0.0
 10
64.54068518782491
 20
102.9552647621055
 42
0.0
 10
64.54068518782491
 20
104.9552647621055
 42
0.0
 10
72.35268518782489
 20
104.9552647621055
 42
0.0
 10
73.04068518782488
 20
105.6432647621054
 42
0.0
 97
       27
330
AD17
330
AD15
330
AD2A
330
AD28
330
AD36
330
AD33
330
AD34
330
AD35
330
AD31
330
AD32
330
AD29
330
AD21
330
AD2B
330
AD1F
330
AD5E
330
AD2F
330
AD3B
330
AD3C
330
AD1C
330
AD49
330
AD4A
330
AD23
330
AD22
330
AD2E
330
AD24
330
AD48
330
AD4C
 92
        7
 72
     1
 73
     1
 93
        9
 10
66.54068518782492
 20
99.05526476210548
 42
0.0
 10
66.54068518782491
 20
100.1552647621054
 42
0.0
 10
62.54068518782492
 20
100.1552647621055
 42
0.4142135623730951
 10
61.54068518782492
 20
99.15526476210548
 42
0.0
 10
61.54068518782494
 20
96.05526476210549
 42
0.4142135623730951
 10
62.54068518782495
 20
95.05526476210548
 42
0.0
 10
63.89068518782489
 20
95.05526476210549
 42
0.0
 10
64.39068518782487
 20
95.55526476210548
 42
0.0
 10
64.39068518782494
 20
97.81396168334776
 42
0.0
 97
        9
330
AD5E
330
AD1F
330
AD27
330
AD25
330
AD26
330
AD1C
330
AD3A
330
AD39
330
AD3D
 92
        7
 72
     0
 73
     1
 93
        4
 10
73.85268518782492
 20
101.4552647621054
 10
73.04068518782489
 20
102.2672647621055
 10
73.0406851878249
 20
95.74326476210545
 10
73.85268518782488
 20
96.55526476210544
 97
        4
330
AD23
330
AD4A
330
AD49
330
AD47
 92
        7
 72
     0
 73
     1
 93
        4
 10
73.85268518782493
 20
115.5552647621055
 10
73.04068518782485
 20
116.3672647621055
 10
73.04068518782489
 20
105.6432647621055
 10
73.8526851878249
 20
106.4552647621054
 97
        4
330
AD17
330
AD4C
330
AD48
330
AD4B
 92
        7
 72
     0
 73
     1
 93
        7
 10
121.5406851878249
 20
114.2552647621055
 10
121.540685187825
 20
117.0552647621055
 10
118.7286851878249
 20
117.0552647621055
 10
118.040685187825
 20
116.3672647621055
 10
118.0406851878249
 20
105.6432647621055
 10
118.7286851878249
 20
104.9552647621054
 10
121.5406851878249
 20
104.9552647621054
 97
        7
330
AD43
330
AD15
330
AD4D
330
AD54
330
AD50
330
AD24
330
ACF1
 92
        7
 72
     1
 73
     1
 93
       11
 10
129.5406851878249
 20
116.0552647621055
 42
0.4142135623730951
 10
128.5406851878249
 20
117.0552647621055
 42
0.0
 10
125.5406851878249
 20
117.0552647621055
 42
0.0
 10
125.5406851878249
 20
114.2552647621054
 42
0.0
 10
125.5406851878249
 20
104.9552647621054
 42
0.0
 10
126.5406851878249
 20
104.9552647621054
 42
0.0
 10
126.5406851878249
 20
102.9552647621054
 42
0.0
 10
125.5406851878249
 20
102.9552647621054
 42
0.0
 10
125.5406851878249
 20
102.1552647621055
 42
0.0
 10
128.5406851878248
 20
102.1552647621055
 42
0.4142135623730951
 10
129.5406851878248
 20
103.1552647621055
 42
0.0
 97
       10
330
AD16
330
AD15
330
AD44
330
ACF1
330
AD59
330
AD2D
330
AD5A
330
AD20
330
AD19
330
AD18
 92
        7
 72
     1
 73
     1
 93
        9
 10
129.5406851878249
 20
99.15526476210549
 42
0.4142135623730909
 10
128.5406851878249
 20
100.1552647621055
 42
0.0
 10
125.5406851878249
 20
100.1552647621054
 42
0.0
 10
125.5406851878249
 20
99.05526476210548
 42
0.0
 10
127.0406851878249
 20
99.05526476210548
 42
0.0
 10
127.0406851878249
 20
95.35526476210543
 42
0.0
 10
127.0406851878251
 20
95.05526476210548
 42
0.0
 10
128.5406851878249
 20
95.05526476210548
 42
0.4142135623730951
 10
129.5406851878249
 20
96.05526476210549
 42
0.0
 97
        7
330
AD1E
330
AD1D
330
ACF1
330
AD42
330
AD1C
330
AD1B
330
AD1A
 92
        7
 72
     0
 73
     1
 93
       13
 10
121.5406851878249
 20
100.1552647621055
 10
120.0406851878249
 20
100.1552647621055
 10
120.0406851878249
 20
102.1552647621054
 10
121.5406851878249
 20
102.1552647621055
 10
121.5406851878249
 20
102.9552647621055
 10
118.7286851878249
 20
102.9552647621055
 10
118.0406851878249
 20
102.2672647621055
 10
118.0406851878249
 20
95.74326476210549
 10
118.7286851878248
 20
95.05526476210549
 10
120.0406851878249
 20
95.05526476210549
 10
120.0406851878249
 20
95.35526476210554
 10
120.0406851878249
 20
99.05526476210548
 10
121.5406851878249
 20
99.05526476210548
 97
       10
330
AD5C
330
AD2C
330
AD5B
330
ACF1
330
AD22
330
AD4E
330
AD52
330
AD51
330
AD1C
330
AD41
 92
        7
 72
     0
 73
     1
 93
        4
 10
118.0406851878249
 20
102.2672647621055
 10
117.2286851878249
 20
101.4552647621054
 10
117.2286851878249
 20
96.55526476210548
 10
118.0406851878249
 20
95.74326476210549
 97
        4
330
AD4E
330
AD4F
330
AD51
330
AD52
 92
        7
 72
     0
 73
     1
 93
        4
 10
118.040685187825
 20
116.3672647621055
 10
117.2286851878249
 20
115.5552647621055
 10
117.2286851878249
 20
106.4552647621054
 10
118.0406851878249
 20
105.6432647621054
 97
        4
330
AD4D
330
AD53
330
AD50
330
AD54
 92
        7
 72
     0
 73
     1
 93
        4
 10
121.940685187825
 20
117.0552647621055
 10
121.540685187825
 20
117.0552647621055
 10
121.540685187825
 20
114.2552647621055
 10
121.9406851878249
 20
114.6552647621054
 97
        4
330
AD15
330
AD43
330
ACF1
330
AD46
 92
        7
 72
     0
 73
     1
 93
        4
 10
125.5406851878249
 20
117.0552647621054
 10
125.1406851878249
 20
117.0552647621054
 10
125.1406851878249
 20
114.6552647621054
 10
125.5406851878249
 20
114.2552647621054
 97
        4
330
AD15
330
AD45
330
ACF1
330
AD44
 75
     0
 76
     1
 52
0.0
 41
0.5
 77
     0
 78
     1
 53
45.0
 43
0.0000002329675226
 44
-0.0000001142398105
 45
-1.122532015133643
 46
1.122532015133644
 79
     0
 47
0.1272550979106113
 98
       12
 10
66.69066173510862
 20
115.0191345393756
 10
63.00085756505916
 20
98.73515602940415
 10
73.1703173702964
 20
99.18499006880892
 10
73.44030382179823
 20
108.5415300431843
 10
119.1206980772903
 20
110.7115680031417
 10
126.0503300649335
 20
110.801534942912
 10
128.7501871129522
 20
97.75635901075919
 10
118.9407081763366
 20
99.10585981008104
 10
117.8607655704719
 20
99.01589287031084
 10
117.5007847018504
 20
108.1025326848219
 10
121.7065735041289
 20
115.144906115986
 10
125.4692587940709
 20
115.3935998017458
1001
ACAD
1010
0.0
1020
0.0
1030
0.0
  0
INSERT
  5
ACF1
102
{ACAD_REACTORS
330
ACF0
102
}
330
ACA2
100
AcDbEntity
  8
contour
100
AcDbBlockReference
  2
LS2
 10
263.3204406253331
 20
95.28973195103208
 30
0.0
 41
-1.0
  0
CIRCLE
  5
ACF2
330
ACA2
100
AcDbEntity
  8
contour
100
AcDbCircle
 10
95.54068518782491
 20
185.6809819488259
 30
0.0
 40
34.0
  0
CIRCLE
  5
ACF3
330
ACA2
100
AcDbEntity
  8
center
 48
0.3
100
AcDbCircle
 10
95.54068518782491
 20
185.6809819488259
 30
0.0
 40
28.0
  0
ARC
  5
ACF4
330
ACA2
100
AcDbEntity
  8
contour
 62
     4
100
AcDbCircle
 10
95.54068518782491
 20
185.6809819488259
 30
0.0
 40
22.5
100
AcDbArc
 50
169.7596516788128
 51
100.2403483211862
  0
CIRCLE
  5
ACF5
330
ACA2
100
AcDbEntity
  8
contour
100
AcDbCircle
 10
95.54068518782491
 20
185.6809819488259
 30
0.0
 40
21.688
  0
LINE
  5
ACF6
330
ACA2
100
AcDbEntity
  8
center
 48
0.3
100
AcDbLine
 10
95.54068518782491
 20
221.6809819488259
 30
0.0
 11
95.54068518782486
 21
149.6809819488259
 31
0.0
  0
LINE
  5
ACF7
330
ACA2
100
AcDbEntity
  8
center
 48
0.3
100
AcDbLine
 10
59.54068518782491
 20
185.6809819488259
 30
0.0
 11
131.5406851878249
 21
185.6809819488259
 31
0.0
  0
CIRCLE
  5
ACF8
330
ACA2
100
AcDbEntity
  8
bowle
 48
0.2
100
AcDbCircle
 10
123.5406851878249
 20
185.6809819488259
 30
0.0
 40
3.5
  0
ARC
  5
ACF9
330
ACA2
100
AcDbEntity
  8
contour
 62
     4
100
AcDbCircle
 10
123.5406851878249
 20
185.6809819488259
 30
0.0
 40
2.0
100
AcDbArc
 50
165.5224878140701
 51
104.47751218593
  0
CIRCLE
  5
ACFA
330
ACA2
100
AcDbEntity
  8
contour
100
AcDbCircle
 10
123.5406851878249
 20
185.6809819488259
 30
0.0
 40
1.62099999999998
  0
CIRCLE
  5
ACFB
330
ACA2
100
AcDbEntity
  8
bowle
 48
0.2
100
AcDbCircle
 10
109.5406851878249
 20
209.9296932547901
 30
0.0
 40
3.5
  0
CIRCLE
  5
ACFC
330
ACA2
100
AcDbEntity
  8
contour
100
AcDbCircle
 10
109.5406851878249
 20
209.9296932547901
 30
0.0
 40
1.62099999999998
  0
CIRCLE
  5
ACFD
330
ACA2
100
AcDbEntity
  8
bowle
 48
0.2
100
AcDbCircle
 10
81.54068518782493
 20
209.9296932547903
 30
0.0
 40
3.499999999999999
  0
CIRCLE
  5
ACFE
330
ACA2
100
AcDbEntity
  8
contour
100
AcDbCircle
 10
81.54068518782493
 20
209.9296932547903
 30
0.0
 40
1.62099999999998
  0
CIRCLE
  5
ACFF
330
ACA2
100
AcDbEntity
  8
bowle
 48
0.2
100
AcDbCircle
 10
67.54068518782489
 20
185.680981948826
 30
0.0
 40
3.5
  0
CIRCLE
  5
AD00
330
ACA2
100
AcDbEntity
  8
contour
100
AcDbCircle
 10
67.54068518782489
 20
185.680981948826
 30
0.0
 40
1.62099999999998
  0
CIRCLE
  5
AD01
330
ACA2
100
AcDbEntity
  8
bowle
 48
0.2
100
AcDbCircle
 10
81.5406851878248
 20
161.4322706428617
 30
0.0
 40
3.5
  0
CIRCLE
  5
AD02
330
ACA2
100
AcDbEntity
  8
contour
100
AcDbCircle
 10
81.5406851878248
 20
161.4322706428617
 30
0.0
 40
1.62099999999998
  0
CIRCLE
  5
AD03
330
ACA2
100
AcDbEntity
  8
bowle
 48
0.2
100
AcDbCircle
 10
109.5406851878248
 20
161.4322706428616
 30
0.0
 40
3.5
  0
CIRCLE
  5
AD04
330
ACA2
100
AcDbEntity
  8
contour
100
AcDbCircle
 10
109.5406851878248
 20
161.4322706428616
 30
0.0
 40
1.62099999999998
  0
ARC
  5
AD05
330
ACA2
100
AcDbEntity
  8
contour
 62
     4
100
AcDbCircle
 10
109.5406851878249
 20
209.9296932547901
 30
0.0
 40
2.0
100
AcDbArc
 50
165.5224878140701
 51
104.47751218593
  0
ARC
  5
AD06
330
ACA2
100
AcDbEntity
  8
contour
 62
     4
100
AcDbCircle
 10
81.54068518782493
 20
209.9296932547903
 30
0.0
 40
2.0
100
AcDbArc
 50
165.5224878140694
 51
104.47751218593
  0
ARC
  5
AD07
330
ACA2
100
AcDbEntity
  8
contour
 62
     4
100
AcDbCircle
 10
67.54068518782489
 20
185.680981948826
 30
0.0
 40
2.0
100
AcDbArc
 50
165.5224878140701
 51
104.47751218593
  0
ARC
  5
AD08
330
ACA2
100
AcDbEntity
  8
contour
 62
     4
100
AcDbCircle
 10
81.5406851878248
 20
161.4322706428617
 30
0.0
 40
2.0
100
AcDbArc
 50
165.5224878140694
 51
104.47751218593
  0
ARC
  5
AD09
330
ACA2
100
AcDbEntity
  8
contour
 62
     4
100
AcDbCircle
 10
109.5406851878248
 20
161.4322706428616
 30
0.0
 40
2.0
100
AcDbArc
 50
165.5224878140701
 51
104.47751218593
  0
ARC
  5
AD0A
330
ACA2
100
AcDbEntity
  8
center
 48
0.2
100
AcDbCircle
 10
95.54068518782491
 20
185.6809819488259
 30
0.0
 40
29.0
100
AcDbArc
 50
138.8606586065801
 51
168.7026312825347
  0
LINE
  5
AD0B
330
ACA2
100
AcDbEntity
  8
center
 48
0.2
100
AcDbLine
 10
126.7175997240646
 20
167.6809819488259
 30
0.0
 11
112.5909933375329
 21
175.8369819488258
 31
0.0
  0
LINE
  5
AD0C
330
ACA2
100
AcDbEntity
  8
bowle
 48
0.2
100
AcDbLine
 10
123.0525362146036
 20
166.3329057374725
 30
0.0
 11
118.9233710900047
 21
168.7168803336881
 31
0.0
  0
LINE
  5
AD0D
330
ACA2
100
AcDbEntity
  8
bowle
 48
0.2
100
AcDbLine
 10
123.1755020807089
 20
165.8739908775709
 30
0.0
 11
123.0525362146036
 21
166.3329057374725
 31
0.0
  0
LINE
  5
AD0E
330
ACA2
100
AcDbEntity
  8
bowle
 48
0.2
100
AcDbLine
 10
126.0525362146036
 20
171.5290581601791
 30
0.0
 11
121.9233710900047
 21
173.9130327563947
 31
0.0
  0
LINE
  5
AD0F
330
ACA2
100
AcDbEntity
  8
bowle
 48
0.2
100
AcDbLine
 10
118.9233710900047
 20
172.1809819488258
 30
0.0
 11
121.9233710900047
 21
173.9130327563947
 31
0.0
  0
LINE
  5
AD10
330
ACA2
100
AcDbEntity
  8
bowle
 48
0.2
100
AcDbLine
 10
118.9233710900047
 20
172.1809819488258
 30
0.0
 11
118.9233710900047
 21
168.7168803336881
 31
0.0
  0
LINE
  5
AD11
330
ACA2
100
AcDbEntity
  8
bowle
 48
0.2
100
AcDbLine
 10
126.5114510745052
 20
171.6520240262844
 30
0.0
 11
126.0525362146036
 21
171.5290581601791
 31
0.0
  0
LINE
  5
AD12
330
ACA2
100
AcDbEntity
  8
bowle
 48
0.2
100
AcDbLine
 10
126.0525362146036
 20
171.5290581601791
 30
0.0
 11
123.0525362146036
 21
166.3329057374725
 31
0.0
  0
CIRCLE
  5
AD13
330
ACA2
100
AcDbEntity
  8
bowle
 48
0.2
100
AcDbCircle
 10
120.6554218975736
 20
171.1809819488259
 30
0.0
 40
2.149999999999999
  0
LINE
  5
AD14
330
ACA2
100
AcDbEntity
  8
bowle
 48
0.2
100
AcDbLine
 10
121.9233710900047
 20
173.9130327563947
 30
0.0
 11
118.9233710900048
 21
168.716880333688
 31
0.0
  0
LINE
  5
AD15
102
{ACAD_REACTORS
330
ACF0
102
}
330
ACA2
100
AcDbEntity
  8
contour
100
AcDbLine
 10
62.54068518782495
 20
117.0552647621055
 30
0.0
 11
128.5406851878249
 21
117.0552647621055
 31
0.0
  0
ARC
  5
AD16
102
{ACAD_REACTORS
330
ACF0
102
}
330
ACA2
100
AcDbEntity
  8
contour
100
AcDbCircle
 10
128.5406851878249
 20
116.0552647621055
 30
0.0
 40
1.0
100
AcDbArc
 50
0.0
 51
90.0
  0
LINE
  5
AD17
102
{ACAD_REACTORS
330
ACF0
102
}
330
ACA2
100
AcDbEntity
  8
contour
100
AcDbLine
 10
73.85268518782493
 20
115.5552647621055
 30
0.0
 11
72.35268518782493
 21
117.0552647621055
 31
0.0
  0
LINE
  5
AD18
102
{ACAD_REACTORS
330
ACF0
102
}
330
ACA2
100
AcDbEntity
  8
contour
100
AcDbLine
 10
129.5406851878249
 20
116.0552647621055
 30
0.0
 11
129.5406851878248
 21
103.1552647621055
 31
0.0
  0
ARC
  5
AD19
102
{ACAD_REACTORS
330
ACF0
102
}
330
ACA2
100
AcDbEntity
  8
contour
100
AcDbCircle
 10
128.5406851878248
 20
103.1552647621055
 30
0.0
 40
1.0
100
AcDbArc
 50
270.0
 51
0.0
  0
LINE
  5
AD1A
102
{ACAD_REACTORS
330
ACF0
102
}
330
ACA2
100
AcDbEntity
  8
contour
100
AcDbLine
 10
129.5406851878249
 20
99.15526476210549
 30
0.0
 11
129.5406851878249
 21
96.05526476210549
 31
0.0
  0
ARC
  5
AD1B
102
{ACAD_REACTORS
330
ACF0
102
}
330
ACA2
100
AcDbEntity
  8
contour
100
AcDbCircle
 10
128.5406851878249
 20
96.05526476210549
 30
0.0
 40
1.0
100
AcDbArc
 50
270.0
 51
0.0
  0
LINE
  5
AD1C
102
{ACAD_REACTORS
330
ACF0
102
}
330
ACA2
100
AcDbEntity
  8
contour
100
AcDbLine
 10
128.5406851878249
 20
95.05526476210548
 30
0.0
 11
62.54068518782495
 21
95.05526476210548
 31
0.0
  0
LINE
  5
AD1D
102
{ACAD_REACTORS
330
ACF0
102
}
330
ACA2
100
AcDbEntity
  8
contour
100
AcDbLine
 10
128.5406851878249
 20
100.1552647621055
 30
0.0
 11
125.5406851878249
 21
100.1552647621055
 31
0.0
  0
ARC
  5
AD1E
102
{ACAD_REACTORS
330
ACF0
102
}
330
ACA2
100
AcDbEntity
  8
contour
100
AcDbCircle
 10
128.5406851878249
 20
99.15526476210548
 30
0.0
 40
1.0
100
AcDbArc
 50
0.0
 51
90.0
  0
LINE
  5
AD1F
102
{ACAD_REACTORS
330
ACF0
102
}
330
ACA2
100
AcDbEntity
  8
contour
100
AcDbLine
 10
71.04068518782489
 20
100.1552647621055
 30
0.0
 11
62.54068518782492
 21
100.1552647621055
 31
0.0
  0
LINE
  5
AD20
102
{ACAD_REACTORS
330
ACF0
102
}
330
ACA2
100
AcDbEntity
  8
contour
100
AcDbLine
 10
128.5406851878248
 20
102.1552647621055
 30
0.0
 11
125.5406851878249
 21
102.1552647621055
 31
0.0
  0
LINE
  5
AD21
102
{ACAD_REACTORS
330
ACF0
102
}
330
ACA2
100
AcDbEntity
  8
contour
100
AcDbLine
 10
71.04068518782489
 20
102.1552647621055
 30
0.0
 11
62.54068518782495
 21
102.1552647621055
 31
0.0
  0
LINE
  5
AD22
102
{ACAD_REACTORS
330
ACF0
102
}
330
ACA2
100
AcDbEntity
  8
contour
100
AcDbLine
 10
121.5406851878249
 20
102.9552647621054
 30
0.0
 11
64.54068518782491
 21
102.9552647621055
 31
0.0
  0
LINE
  5
AD23
102
{ACAD_REACTORS
330
ACF0
102
}
330
ACA2
100
AcDbEntity
  8
contour
100
AcDbLine
 10
73.8526851878249
 20
101.4552647621055
 30
0.0
 11
72.3526851878249
 21
102.9552647621055
 31
0.0
  0
LINE
  5
AD24
102
{ACAD_REACTORS
330
ACF0
102
}
330
ACA2
100
AcDbEntity
  8
contour
100
AcDbLine
 10
121.5406851878249
 20
104.9552647621054
 30
0.0
 11
64.54068518782491
 21
104.9552647621055
 31
0.0
  0
LINE
  5
AD25
102
{ACAD_REACTORS
330
ACF0
102
}
330
ACA2
100
AcDbEntity
  8
contour
100
AcDbLine
 10
61.54068518782494
 20
96.05526476210549
 30
0.0
 11
61.54068518782492
 21
99.15526476210548
 31
0.0
  0
ARC
  5
AD26
102
{ACAD_REACTORS
330
ACF0
102
}
330
ACA2
100
AcDbEntity
  8
contour
100
AcDbCircle
 10
62.54068518782495
 20
96.05526476210549
 30
0.0
 40
1.0
100
AcDbArc
 50
180.0
 51
270.0
  0
ARC
  5
AD27
102
{ACAD_REACTORS
330
ACF0
102
}
330
ACA2
100
AcDbEntity
  8
contour
100
AcDbCircle
 10
62.54068518782492
 20
99.15526476210548
 30
0.0
 40
1.0
100
AcDbArc
 50
90.0
 51
180.0
  0
LINE
  5
AD28
102
{ACAD_REACTORS
330
ACF0
102
}
330
ACA2
100
AcDbEntity
  8
contour
100
AcDbLine
 10
61.54068518782494
 20
103.1552647621055
 30
0.0
 11
61.54068518782494
 21
116.0552647621055
 31
0.0
  0
ARC
  5
AD29
102
{ACAD_REACTORS
330
ACF0
102
}
330
ACA2
100
AcDbEntity
  8
contour
100
AcDbCircle
 10
62.54068518782495
 20
103.1552647621055
 30
0.0
 40
1.0
100
AcDbArc
 50
180.0
 51
270.0
  0
ARC
  5
AD2A
102
{ACAD_REACTORS
330
ACF0
102
}
330
ACA2
100
AcDbEntity
  8
contour
100
AcDbCircle
 10
62.54068518782495
 20
116.0552647621055
 30
0.0
 40
1.0
100
AcDbArc
 50
90.0
 51
180.0
  0
LINE
  5
AD2B
102
{ACAD_REACTORS
330
ACF0
102
}
330
ACA2
100
AcDbEntity
  8
contour
100
AcDbLine
 10
71.04068518782492
 20
100.1552647621055
 30
0.0
 11
71.04068518782492
 21
102.1552647621055
 31
0.0
  0
LINE
  5
AD2C
102
{ACAD_REACTORS
330
ACF0
102
}
330
ACA2
100
AcDbEntity
  8
contour
100
AcDbLine
 10
120.0406851878249
 20
100.1552647621055
 30
0.0
 11
120.0406851878249
 21
102.1552647621055
 31
0.0
  0
LINE
  5
AD2D
102
{ACAD_REACTORS
330
ACF0
102
}
330
ACA2
100
AcDbEntity
  8
contour
100
AcDbLine
 10
126.5406851878249
 20
104.9552647621054
 30
0.0
 11
126.5406851878249
 21
102.9552647621054
 31
0.0
  0
LINE
  5
AD2E
102
{ACAD_REACTORS
330
ACF0
102
}
330
ACA2
100
AcDbEntity
  8
contour
100
AcDbLine
 10
64.54068518782491
 20
104.9552647621055
 30
0.0
 11
64.54068518782491
 21
102.9552647621055
 31
0.0
  0
LINE
  5
AD2F
102
{ACAD_REACTORS
330
ACF0
102
}
330
ACA2
100
AcDbEntity
  8
contour
100
AcDbLine
 10
66.54068518782492
 20
99.05526476210548
 30
0.0
 11
68.69068518782495
 21
97.81396168334774
 31
0.0
  0
LINE
  5
AD30
330
ACA2
100
AcDbEntity
  8
center
 48
0.2
100
AcDbLine
 10
59.54068518782495
 20
110.5552647621055
 30
0.0
 11
70.54068518782497
 21
110.5552647621054
 31
0.0
  0
LINE
  5
AD31
102
{ACAD_REACTORS
330
ACF0
102
}
330
ACA2
100
AcDbEntity
  8
contour
100
AcDbLine
 10
62.04068518782491
 20
107.5552647621055
 30
0.0
 11
66.80863438025605
 21
107.5552647621054
 31
0.0
  0
LINE
  5
AD32
102
{ACAD_REACTORS
330
ACF0
102
}
330
ACA2
100
AcDbEntity
  8
contour
100
AcDbLine
 10
61.54068518782494
 20
107.0552647621055
 30
0.0
 11
62.04068518782491
 21
107.5552647621055
 31
0.0
  0
LINE
  5
AD33
102
{ACAD_REACTORS
330
ACF0
102
}
330
ACA2
100
AcDbEntity
  8
contour
100
AcDbLine
 10
62.04068518782486
 20
113.5552647621055
 30
0.0
 11
66.80863438025602
 21
113.5552647621055
 31
0.0
  0
LINE
  5
AD34
102
{ACAD_REACTORS
330
ACF0
102
}
330
ACA2
100
AcDbEntity
  8
contour
100
AcDbLine
 10
68.54068518782497
 20
110.5552647621054
 30
0.0
 11
66.80863438025605
 21
113.5552647621055
 31
0.0
  0
LINE
  5
AD35
102
{ACAD_REACTORS
330
ACF0
102
}
330
ACA2
100
AcDbEntity
  8
contour
100
AcDbLine
 10
68.54068518782497
 20
110.5552647621054
 30
0.0
 11
66.80863438025608
 21
107.5552647621055
 31
0.0
  0
LINE
  5
AD36
102
{ACAD_REACTORS
330
ACF0
102
}
330
ACA2
100
AcDbEntity
  8
contour
100
AcDbLine
 10
61.54068518782494
 20
114.0552647621054
 30
0.0
 11
62.04068518782491
 21
113.5552647621055
 31
0.0
  0
LINE
  5
AD37
330
ACA2
100
AcDbEntity
  8
contour
100
AcDbLine
 10
62.04068518782491
 20
113.5552647621055
 30
0.0
 11
62.04068518782491
 21
107.5552647621055
 31
0.0
  0
LINE
  5
AD38
330
ACA2
100
AcDbEntity
  8
contour
100
AcDbLine
 10
66.80863438025602
 20
113.5552647621055
 30
0.0
 11
66.808634380256
 21
107.5552647621054
 31
0.0
  0
LINE
  5
AD39
102
{ACAD_REACTORS
330
ACF0
102
}
330
ACA2
100
AcDbEntity
  8
contour
100
AcDbLine
 10
64.39068518782494
 20
97.81396168334774
 30
0.0
 11
64.39068518782488
 21
95.55526476210548
 31
0.0
  0
LINE
  5
AD3A
102
{ACAD_REACTORS
330
ACF0
102
}
330
ACA2
100
AcDbEntity
  8
contour
100
AcDbLine
 10
63.89068518782488
 20
95.05526476210548
 30
0.0
 11
64.39068518782488
 21
95.55526476210548
 31
0.0
  0
LINE
  5
AD3B
102
{ACAD_REACTORS
330
ACF0
102
}
330
ACA2
100
AcDbEntity
  8
contour
100
AcDbLine
 10
68.69068518782501
 20
97.81396168334774
 30
0.0
 11
68.69068518782498
 21
95.55526476210548
 31
0.0
  0
LINE
  5
AD3C
102
{ACAD_REACTORS
330
ACF0
102
}
330
ACA2
100
AcDbEntity
  8
contour
100
AcDbLine
 10
69.19068518782498
 20
95.05526476210548
 30
0.0
 11
68.69068518782498
 21
95.55526476210548
 31
0.0
  0
LINE
  5
AD3D
102
{ACAD_REACTORS
330
ACF0
102
}
330
ACA2
100
AcDbEntity
  8
contour
100
AcDbLine
 10
66.54068518782492
 20
99.05526476210548
 30
0.0
 11
64.39068518782491
 21
97.81396168334774
 31
0.0
  0
LINE
  5
AD3E
330
ACA2
100
AcDbEntity
  8
contour
100
AcDbLine
 10
68.69068518782495
 20
97.81396168334774
 30
0.0
 11
64.39068518782491
 21
97.81396168334774
 31
0.0
  0
LINE
  5
AD3F
330
ACA2
100
AcDbEntity
  8
contour
100
AcDbLine
 10
68.69068518782498
 20
95.55526476210548
 30
0.0
 11
64.39068518782486
 21
95.55526476210559
 31
0.0
  0
LINE
  5
AD40
330
ACA2
100
AcDbEntity
  8
center
 48
0.3
100
AcDbLine
 10
123.5406851878251
 20
119.0552647621055
 30
0.0
 11
123.5406851878251
 21
93.05526476210548
 31
0.0
  0
LINE
  5
AD41
102
{ACAD_REACTORS
330
ACF0
102
}
330
ACA2
100
AcDbEntity
  8
contour
100
AcDbLine
 10
120.0406851878249
 20
95.35526476210554
 30
0.0
 11
120.0406851878249
 21
95.05526476210548
 31
0.0
  0
LINE
  5
AD42
102
{ACAD_REACTORS
330
ACF0
102
}
330
ACA2
100
AcDbEntity
  8
contour
100
AcDbLine
 10
127.0406851878251
 20
95.35526476210561
 30
0.0
 11
127.0406851878251
 21
95.05526476210548
 31
0.0
  0
LINE
  5
AD43
102
{ACAD_REACTORS
330
ACF0
102
}
330
ACA2
100
AcDbEntity
  8
contour
 62
     4
100
AcDbLine
 10
121.540685187825
 20
114.2552647621055
 30
0.0
 11
121.540685187825
 21
117.0552647621055
 31
0.0
  0
LINE
  5
AD44
102
{ACAD_REACTORS
330
ACF0
102
}
330
ACA2
100
AcDbEntity
  8
contour
 62
     4
100
AcDbLine
 10
125.5406851878249
 20
114.2552647621054
 30
0.0
 11
125.5406851878249
 21
117.0552647621055
 31
0.0
  0
LINE
  5
AD45
102
{ACAD_REACTORS
330
ACF0
102
}
330
ACA2
100
AcDbEntity
  8
contour
100
AcDbLine
 10
125.1406851878249
 20
114.6552647621054
 30
0.0
 11
125.1406851878249
 21
117.0552647621055
 31
0.0
  0
LINE
  5
AD46
102
{ACAD_REACTORS
330
ACF0
102
}
330
ACA2
100
AcDbEntity
  8
contour
100
AcDbLine
 10
121.9406851878249
 20
114.6552647621054
 30
0.0
 11
121.940685187825
 21
117.0552647621055
 31
0.0
  0
LINE
  5
AD47
102
{ACAD_REACTORS
330
ACF0
102
}
330
ACA2
100
AcDbEntity
  8
contour
100
AcDbLine
 10
73.85268518782493
 20
101.4552647621054
 30
0.0
 11
73.8526851878249
 21
96.55526476210546
 31
0.0
  0
LINE
  5
AD48
102
{ACAD_REACTORS
330
ACF0
102
}
330
ACA2
100
AcDbEntity
  8
contour
100
AcDbLine
 10
72.3526851878249
 20
104.9552647621055
 30
0.0
 11
73.8526851878249
 21
106.4552647621055
 31
0.0
  0
LINE
  5
AD49
102
{ACAD_REACTORS
330
ACF0
102
}
330
ACA2
100
AcDbEntity
  8
contour
100
AcDbLine
 10
72.35268518782493
 20
95.05526476210548
 30
0.0
 11
73.85268518782493
 21
96.55526476210548
 31
0.0
  0
LINE
  5
AD4A
102
{ACAD_REACTORS
330
ACF0
102
}
330
ACA2
100
AcDbEntity
  8
contour
 62
     4
100
AcDbLine
 10
73.04068518782489
 20
102.2672647621055
 30
0.0
 11
73.04068518782492
 21
95.74326476210545
 31
0.0
  0
LINE
  5
AD4B
102
{ACAD_REACTORS
330
ACF0
102
}
330
ACA2
100
AcDbEntity
  8
contour
100
AcDbLine
 10
73.8526851878249
 20
106.4552647621055
 30
0.0
 11
73.85268518782493
 21
115.5552647621055
 31
0.0
  0
LINE
  5
AD4C
102
{ACAD_REACTORS
330
ACF0
102
}
330
ACA2
100
AcDbEntity
  8
contour
 62
     4
100
AcDbLine
 10
73.04068518782489
 20
105.6432647621055
 30
0.0
 11
73.04068518782486
 21
116.3672647621055
 31
0.0
  0
LINE
  5
AD4D
102
{ACAD_REACTORS
330
ACF0
102
}
330
ACA2
100
AcDbEntity
  8
contour
100
AcDbLine
 10
117.2286851878249
 20
115.5552647621055
 30
0.0
 11
118.7286851878249
 21
117.0552647621055
 31
0.0
  0
LINE
  5
AD4E
102
{ACAD_REACTORS
330
ACF0
102
}
330
ACA2
100
AcDbEntity
  8
contour
100
AcDbLine
 10
117.2286851878249
 20
101.4552647621055
 30
0.0
 11
118.7286851878249
 21
102.9552647621055
 31
0.0
  0
LINE
  5
AD4F
102
{ACAD_REACTORS
330
ACF0
102
}
330
ACA2
100
AcDbEntity
  8
contour
100
AcDbLine
 10
117.2286851878249
 20
101.4552647621054
 30
0.0
 11
117.2286851878249
 21
96.55526476210546
 31
0.0
  0
LINE
  5
AD50
102
{ACAD_REACTORS
330
ACF0
102
}
330
ACA2
100
AcDbEntity
  8
contour
100
AcDbLine
 10
118.7286851878249
 20
104.9552647621055
 30
0.0
 11
117.2286851878249
 21
106.4552647621055
 31
0.0
  0
LINE
  5
AD51
102
{ACAD_REACTORS
330
ACF0
102
}
330
ACA2
100
AcDbEntity
  8
contour
100
AcDbLine
 10
118.7286851878249
 20
95.05526476210548
 30
0.0
 11
117.2286851878249
 21
96.55526476210548
 31
0.0
  0
LINE
  5
AD52
102
{ACAD_REACTORS
330
ACF0
102
}
330
ACA2
100
AcDbEntity
  8
contour
 62
     4
100
AcDbLine
 10
118.0406851878249
 20
102.2672647621055
 30
0.0
 11
118.0406851878249
 21
95.74326476210545
 31
0.0
  0
LINE
  5
AD53
102
{ACAD_REACTORS
330
ACF0
102
}
330
ACA2
100
AcDbEntity
  8
contour
100
AcDbLine
 10
117.2286851878249
 20
106.4552647621055
 30
0.0
 11
117.2286851878249
 21
115.5552647621055
 31
0.0
  0
LINE
  5
AD54
102
{ACAD_REACTORS
330
ACF0
102
}
330
ACA2
100
AcDbEntity
  8
contour
 62
     4
100
AcDbLine
 10
118.0406851878249
 20
105.6432647621055
 30
0.0
 11
118.040685187825
 21
116.3672647621055
 31
0.0
  0
LINE
  5
AD55
330
ACA2
100
AcDbEntity
  8
contour
100
AcDbLine
 10
73.85268518782493
 20
115.5552647621055
 30
0.0
 11
117.2286851878249
 21
115.5552647621055
 31
0.0
  0
LINE
  5
AD56
330
ACA2
100
AcDbEntity
  8
contour
100
AcDbLine
 10
117.2286851878249
 20
106.4552647621055
 30
0.0
 11
73.8526851878249
 21
106.4552647621056
 31
0.0
  0
LINE
  5
AD57
330
ACA2
100
AcDbEntity
  8
contour
100
AcDbLine
 10
73.85268518782493
 20
101.4552647621054
 30
0.0
 11
117.2286851878249
 21
101.4552647621054
 31
0.0
  0
LINE
  5
AD58
330
ACA2
100
AcDbEntity
  8
contour
100
AcDbLine
 10
117.2286851878249
 20
96.55526476210548
 30
0.0
 11
73.8526851878249
 21
96.55526476210546
 31
0.0
  0
LINE
  5
AD59
102
{ACAD_REACTORS
330
ACF0
102
}
330
ACA2
100
AcDbEntity
  8
contour
100
AcDbLine
 10
126.5406851878249
 20
104.9552647621054
 30
0.0
 11
125.5406851878249
 21
104.9552647621054
 31
0.0
  0
LINE
  5
AD5A
102
{ACAD_REACTORS
330
ACF0
102
}
330
ACA2
100
AcDbEntity
  8
contour
100
AcDbLine
 10
126.5406851878249
 20
102.9552647621054
 30
0.0
 11
125.5406851878249
 21
102.9552647621054
 31
0.0
  0
LINE
  5
AD5B
102
{ACAD_REACTORS
330
ACF0
102
}
330
ACA2
100
AcDbEntity
  8
contour
100
AcDbLine
 10
120.0406851878249
 20
102.1552647621055
 30
0.0
 11
121.5406851878249
 21
102.1552647621055
 31
0.0
  0
LINE
  5
AD5C
102
{ACAD_REACTORS
330
ACF0
102
}
330
ACA2
100
AcDbEntity
  8
contour
100
AcDbLine
 10
120.0406851878249
 20
100.1552647621055
 30
0.0
 11
121.5406851878249
 21
100.1552647621055
 31
0.0
  0
LINE
  5
AD5D
330
ACA2
100
AcDbEntity
  8
center
 48
0.3
100
AcDbLine
 10
95.54068518782491
 20
119.0552647621055
 30
0.0
 11
95.54068518782491
 21
93.05526476210548
 31
0.0
  0
LINE
  5
AD5E
102
{ACAD_REACTORS
330
ACF0
102
}
330
ACA2
100
AcDbEntity
  8
center
 48
0.1
100
AcDbLine
 10
66.54068518782492
 20
101.0552647621055
 30
0.0
 11
66.54068518782492
 21
93.05526476210548
 31
0.0
  0
CIRCLE
  5
AD5F
330
ACA2
100
AcDbEntity
  8
bowle
 48
0.2
100
AcDbCircle
 10
120.6554218975736
 20
171.1809819488259
 30
0.0
 40
2.649999999999999
  0
LINE
  5
AD60
330
ACA2
100
AcDbEntity
  8
center
 48
0.2
100
AcDbLine
 10
126.7175997240647
 20
203.6809819488258
 30
0.0
 11
112.5909933375329
 21
195.5249819488258
 31
0.0
  0
LINE
  5
AD61
330
ACA2
100
AcDbEntity
  8
bowle
 48
0.2
100
AcDbLine
 10
126.0525362146036
 20
199.8329057374725
 30
0.0
 11
121.9233710900048
 21
197.4489311412569
 31
0.0
  0
LINE
  5
AD62
330
ACA2
100
AcDbEntity
  8
bowle
 48
0.2
100
AcDbLine
 10
126.5114510745052
 20
199.7099398713673
 30
0.0
 11
126.0525362146036
 21
199.8329057374725
 31
0.0
  0
LINE
  5
AD63
330
ACA2
100
AcDbEntity
  8
bowle
 48
0.2
100
AcDbLine
 10
123.0525362146037
 20
205.0290581601792
 30
0.0
 11
118.9233710900048
 21
202.6450835639636
 31
0.0
  0
LINE
  5
AD64
330
ACA2
100
AcDbEntity
  8
bowle
 48
0.2
100
AcDbLine
 10
118.9233710900047
 20
199.1809819488258
 30
0.0
 11
118.9233710900048
 21
202.6450835639636
 31
0.0
  0
LINE
  5
AD65
330
ACA2
100
AcDbEntity
  8
bowle
 48
0.2
100
AcDbLine
 10
118.9233710900047
 20
199.1809819488258
 30
0.0
 11
121.9233710900047
 21
197.4489311412569
 31
0.0
  0
LINE
  5
AD66
330
ACA2
100
AcDbEntity
  8
bowle
 48
0.2
100
AcDbLine
 10
123.1755020807089
 20
205.4879730200808
 30
0.0
 11
123.0525362146036
 21
205.0290581601792
 31
0.0
  0
LINE
  5
AD67
330
ACA2
100
AcDbEntity
  8
bowle
 48
0.2
100
AcDbLine
 10
123.0525362146036
 20
205.0290581601792
 30
0.0
 11
126.0525362146036
 21
199.8329057374725
 31
0.0
  0
CIRCLE
  5
AD68
330
ACA2
100
AcDbEntity
  8
bowle
 48
0.2
100
AcDbCircle
 10
120.6554218975736
 20
200.1809819488259
 30
0.0
 40
2.149999999999999
  0
LINE
  5
AD69
330
ACA2
100
AcDbEntity
  8
bowle
 48
0.2
100
AcDbLine
 10
118.9233710900048
 20
202.6450835639636
 30
0.0
 11
121.9233710900049
 21
197.448931141257
 31
0.0
  0
CIRCLE
  5
AD6A
330
ACA2
100
AcDbEntity
  8
bowle
 48
0.2
100
AcDbCircle
 10
120.6554218975736
 20
200.1809819488259
 30
0.0
 40
2.649999999999999
  0
LINE
  5
AD6B
330
ACA2
100
AcDbEntity
  8
center
 48
0.2
100
AcDbLine
 10
95.54068518782498
 20
221.6809819488259
 30
0.0
 11
95.54068518782504
 21
210.6809819488259
 31
0.0
  0
LINE
  5
AD6C
330
ACA2
100
AcDbEntity
  8
bowle
 48
0.2
100
AcDbLine
 10
98.54068518782497
 20
219.1809819488259
 30
0.0
 11
98.54068518782504
 21
214.4130327563948
 31
0.0
  0
LINE
  5
AD6D
330
ACA2
100
AcDbEntity
  8
bowle
 48
0.2
100
AcDbLine
 10
98.87663418162128
 20
219.5169309426223
 30
0.0
 11
98.54068518782497
 21
219.1809819488259
 31
0.0
  0
LINE
  5
AD6E
330
ACA2
100
AcDbEntity
  8
bowle
 48
0.2
100
AcDbLine
 10
92.54068518782492
 20
219.180981948826
 30
0.0
 11
92.54068518782498
 21
214.4130327563948
 31
0.0
  0
LINE
  5
AD6F
330
ACA2
100
AcDbEntity
  8
bowle
 48
0.2
100
AcDbLine
 10
95.54068518782504
 20
212.6809819488259
 30
0.0
 11
92.54068518782498
 21
214.4130327563948
 31
0.0
  0
LINE
  5
AD70
330
ACA2
100
AcDbEntity
  8
bowle
 48
0.2
100
AcDbLine
 10
95.54068518782504
 20
212.6809819488259
 30
0.0
 11
98.54068518782497
 21
214.4130327563948
 31
0.0
  0
LINE
  5
AD71
330
ACA2
100
AcDbEntity
  8
bowle
 48
0.2
100
AcDbLine
 10
92.20473619402866
 20
219.5169309426223
 30
0.0
 11
92.54068518782498
 21
219.1809819488259
 31
0.0
  0
LINE
  5
AD72
330
ACA2
100
AcDbEntity
  8
bowle
 48
0.2
100
AcDbLine
 10
92.54068518782498
 20
219.1809819488259
 30
0.0
 11
98.54068518782497
 21
219.1809819488259
 31
0.0
  0
CIRCLE
  5
AD73
330
ACA2
100
AcDbEntity
  8
bowle
 48
0.2
100
AcDbCircle
 10
95.54068518782491
 20
214.6809819488259
 30
0.0
 40
2.149999999999999
  0
LINE
  5
AD74
330
ACA2
100
AcDbEntity
  8
bowle
 48
0.2
100
AcDbLine
 10
92.54068518782498
 20
214.4130327563948
 30
0.0
 11
98.54068518782497
 21
214.4130327563948
 31
0.0
  0
CIRCLE
  5
AD75
330
ACA2
100
AcDbEntity
  8
bowle
 48
0.2
100
AcDbCircle
 10
95.54068518782491
 20
214.6809819488259
 30
0.0
 40
2.649999999999999
  0
LINE
  5
AD76
330
ACA2
100
AcDbEntity
  8
center
 48
0.2
100
AcDbLine
 10
64.36377065158518
 20
203.680981948826
 30
0.0
 11
78.49037703811695
 21
195.524981948826
 31
0.0
  0
LINE
  5
AD77
330
ACA2
100
AcDbEntity
  8
bowle
 48
0.2
100
AcDbLine
 10
68.02883416104624
 20
205.0290581601793
 30
0.0
 11
72.15799928564511
 21
202.6450835639638
 31
0.0
  0
LINE
  5
AD78
330
ACA2
100
AcDbEntity
  8
bowle
 48
0.2
100
AcDbLine
 10
67.90586829494094
 20
205.4879730200809
 30
0.0
 11
68.02883416104624
 21
205.0290581601793
 31
0.0
  0
LINE
  5
AD79
330
ACA2
100
AcDbEntity
  8
bowle
 48
0.2
100
AcDbLine
 10
65.02883416104618
 20
199.8329057374727
 30
0.0
 11
69.15799928564507
 21
197.4489311412571
 31
0.0
  0
LINE
  5
AD7A
330
ACA2
100
AcDbEntity
  8
bowle
 48
0.2
100
AcDbLine
 10
72.15799928564516
 20
199.180981948826
 30
0.0
 11
69.1579992856451
 21
197.4489311412571
 31
0.0
  0
LINE
  5
AD7B
330
ACA2
100
AcDbEntity
  8
bowle
 48
0.2
100
AcDbLine
 10
72.15799928564516
 20
199.180981948826
 30
0.0
 11
72.15799928564513
 21
202.6450835639638
 31
0.0
  0
LINE
  5
AD7C
330
ACA2
100
AcDbEntity
  8
bowle
 48
0.2
100
AcDbLine
 10
64.56991930114464
 20
199.7099398713674
 30
0.0
 11
65.02883416104626
 21
199.8329057374727
 31
0.0
  0
LINE
  5
AD7D
330
ACA2
100
AcDbEntity
  8
bowle
 48
0.2
100
AcDbLine
 10
65.02883416104626
 20
199.8329057374727
 30
0.0
 11
68.02883416104624
 21
205.0290581601793
 31
0.0
  0
CIRCLE
  5
AD7E
330
ACA2
100
AcDbEntity
  8
bowle
 48
0.2
100
AcDbCircle
 10
70.4259484780762
 20
200.180981948826
 30
0.0
 40
2.149999999999999
  0
LINE
  5
AD7F
330
ACA2
100
AcDbEntity
  8
bowle
 48
0.2
100
AcDbLine
 10
69.15799928564507
 20
197.4489311412571
 30
0.0
 11
72.15799928564504
 21
202.6450835639638
 31
0.0
  0
CIRCLE
  5
AD80
330
ACA2
100
AcDbEntity
  8
bowle
 48
0.2
100
AcDbCircle
 10
70.4259484780762
 20
200.180981948826
 30
0.0
 40
2.649999999999999
  0
LINE
  5
AD81
330
ACA2
100
AcDbEntity
  8
center
 48
0.2
100
AcDbLine
 10
64.36377065158513
 20
167.680981948826
 30
0.0
 11
78.49037703811678
 21
175.836981948826
 31
0.0
  0
LINE
  5
AD82
330
ACA2
100
AcDbEntity
  8
bowle
 48
0.2
100
AcDbLine
 10
65.02883416104618
 20
171.5290581601793
 30
0.0
 11
69.15799928564502
 21
173.9130327563949
 31
0.0
  0
LINE
  5
AD83
330
ACA2
100
AcDbEntity
  8
bowle
 48
0.2
100
AcDbLine
 10
64.56991930114458
 20
171.6520240262846
 30
0.0
 11
65.02883416104618
 21
171.5290581601793
 31
0.0
  0
LINE
  5
AD84
330
ACA2
100
AcDbEntity
  8
bowle
 48
0.2
100
AcDbLine
 10
68.02883416104612
 20
166.3329057374726
 30
0.0
 11
72.15799928564499
 21
168.7168803336883
 31
0.0
  0
LINE
  5
AD85
330
ACA2
100
AcDbEntity
  8
bowle
 48
0.2
100
AcDbLine
 10
72.15799928564507
 20
172.180981948826
 30
0.0
 11
72.15799928564502
 21
168.7168803336883
 31
0.0
  0
LINE
  5
AD86
330
ACA2
100
AcDbEntity
  8
bowle
 48
0.2
100
AcDbLine
 10
72.15799928564507
 20
172.180981948826
 30
0.0
 11
69.15799928564505
 21
173.9130327563949
 31
0.0
  0
LINE
  5
AD87
330
ACA2
100
AcDbEntity
  8
bowle
 48
0.2
100
AcDbLine
 10
67.90586829494088
 20
165.8739908775711
 30
0.0
 11
68.02883416104617
 21
166.3329057374727
 31
0.0
  0
LINE
  5
AD88
330
ACA2
100
AcDbEntity
  8
bowle
 48
0.2
100
AcDbLine
 10
68.02883416104617
 20
166.3329057374727
 30
0.0
 11
65.02883416104618
 21
171.5290581601793
 31
0.0
  0
CIRCLE
  5
AD89
330
ACA2
100
AcDbEntity
  8
bowle
 48
0.2
100
AcDbCircle
 10
70.42594847807618
 20
171.180981948826
 30
0.0
 40
2.149999999999999
  0
LINE
  5
AD8A
330
ACA2
100
AcDbEntity
  8
bowle
 48
0.2
100
AcDbLine
 10
72.15799928564499
 20
168.7168803336883
 30
0.0
 11
69.15799928564496
 21
173.9130327563949
 31
0.0
  0
CIRCLE
  5
AD8B
330
ACA2
100
AcDbEntity
  8
bowle
 48
0.2
100
AcDbCircle
 10
70.42594847807618
 20
171.180981948826
 30
0.0
 40
2.649999999999999
  0
LINE
  5
AD8C
330
ACA2
100
AcDbEntity
  8
center
 48
0.2
100
AcDbLine
 10
95.5406851878248
 20
149.6809819488259
 30
0.0
 11
95.5406851878248
 21
160.6809819488259
 31
0.0
  0
LINE
  5
AD8D
330
ACA2
100
AcDbEntity
  8
bowle
 48
0.2
100
AcDbLine
 10
92.5406851878248
 20
152.1809819488259
 30
0.0
 11
92.5406851878248
 21
156.948931141257
 31
0.0
  0
LINE
  5
AD8E
330
ACA2
100
AcDbEntity
  8
bowle
 48
0.2
100
AcDbLine
 10
92.20473619402856
 20
151.8450329550295
 30
0.0
 11
92.5406851878248
 21
152.1809819488259
 31
0.0
  0
LINE
  5
AD8F
330
ACA2
100
AcDbEntity
  8
bowle
 48
0.2
100
AcDbLine
 10
98.54068518782487
 20
152.1809819488258
 30
0.0
 11
98.54068518782481
 21
156.948931141257
 31
0.0
  0
LINE
  5
AD90
330
ACA2
100
AcDbEntity
  8
bowle
 48
0.2
100
AcDbLine
 10
95.5406851878248
 20
158.6809819488259
 30
0.0
 11
98.54068518782481
 21
156.948931141257
 31
0.0
  0
LINE
  5
AD91
330
ACA2
100
AcDbEntity
  8
bowle
 48
0.2
100
AcDbLine
 10
95.5406851878248
 20
158.6809819488259
 30
0.0
 11
92.5406851878248
 21
156.948931141257
 31
0.0
  0
LINE
  5
AD92
330
ACA2
100
AcDbEntity
  8
bowle
 48
0.2
100
AcDbLine
 10
98.87663418162118
 20
151.8450329550295
 30
0.0
 11
98.54068518782481
 21
152.1809819488259
 31
0.0
  0
LINE
  5
AD93
330
ACA2
100
AcDbEntity
  8
bowle
 48
0.2
100
AcDbLine
 10
98.54068518782481
 20
152.1809819488259
 30
0.0
 11
92.5406851878248
 21
152.1809819488259
 31
0.0
  0
CIRCLE
  5
AD94
330
ACA2
100
AcDbEntity
  8
bowle
 48
0.2
100
AcDbCircle
 10
95.54068518782486
 20
156.6809819488259
 30
0.0
 40
2.149999999999999
  0
LINE
  5
AD95
330
ACA2
100
AcDbEntity
  8
bowle
 48
0.2
100
AcDbLine
 10
98.54068518782481
 20
156.948931141257
 30
0.0
 11
92.5406851878248
 21
156.9489311412569
 31
0.0
  0
CIRCLE
  5
AD96
330
ACA2
100
AcDbEntity
  8
bowle
 48
0.2
100
AcDbCircle
 10
95.54068518782486
 20
156.6809819488259
 30
0.0
 40
2.649999999999999
  0
CIRCLE
  5
AD97
330
ACA2
100
AcDbEntity
  8
contour
100
AcDbCircle
 10
95.54068518782491
 20
185.6809819488259
 30
0.0
 40
23.18799999999999
  0
LINE
  5
AD98
330
ACA2
100
AcDbEntity
  8
center
 48
0.2
100
AcDbLine
 10
113.5406851878249
 20
216.8578964850657
 30
0.0
 11
105.3846851878249
 21
202.7312900985339
 31
0.0
  0
LINE
  5
AD99
330
ACA2
100
AcDbEntity
  8
center
 48
0.2
100
AcDbLine
 10
77.54068518782492
 20
216.8578964850657
 30
0.0
 11
85.69668518782492
 21
202.7312900985339
 31
0.0
  0
LINE
  5
AD9A
330
ACA2
100
AcDbEntity
  8
center
 48
0.2
100
AcDbLine
 10
113.5406851878249
 20
154.5040674125861
 30
0.0
 11
105.3846851878249
 21
168.6306737991179
 31
0.0
  0
LINE
  5
AD9B
330
ACA2
100
AcDbEntity
  8
center
 48
0.2
100
AcDbLine
 10
77.54068518782492
 20
154.5040674125861
 30
0.0
 11
85.69668518782492
 21
168.6306737991179
 31
0.0
  0
ARC
  5
AD9C
330
ACA2
100
AcDbEntity
  8
center
 48
0.2
100
AcDbCircle
 10
95.54068518782498
 20
185.6809819488259
 30
0.0
 40
29.0
100
AcDbArc
 50
258.8606586065811
 51
281.1393413934189
  0
ARC
  5
AD9D
330
ACA2
100
AcDbEntity
  8
center
 48
0.2
100
AcDbCircle
 10
95.54068518782495
 20
185.6809819488259
 30
0.0
 40
29.0
100
AcDbArc
 50
318.8606586065795
 51
348.7026312825346
  0
ARC
  5
AD9E
330
ACA2
100
AcDbEntity
  8
center
 48
0.2
100
AcDbCircle
 10
95.54068518782491
 20
185.6809819488259
 30
0.0
 40
29.0
100
AcDbArc
 50
78.86065860658034
 51
101.1393413934196
  0
DIMENSION
  5
AD9F
330
ACA2
100
AcDbEntity
  8
mark
100
AcDbDimension
  2
*D7
 10
137.1717389963266
 20
102.1552647621055
 30
0.0
 11
135.1217389963266
 21
109.6052647621055
 31
0.0
 12
0.0000002329675226
 22
-0.0000001142398105
 32
0.0
 71
     5
 42
14.9
  3
STANDARD
100
AcDbAlignedDimension
 13
128.5406851878249
 23
117.0552647621055
 33
0.0
 14
128.5406851878248
 24
102.1552647621055
 34
0.0
 50
90.0
100
AcDbRotatedDimension
  0
LINE
  5
ADA0
330
ACA2
100
AcDbEntity
  8
mark
100
AcDbLine
 10
129.3406851878248
 20
102.1552647621055
 30
0.0
 11
137.9717389963267
 21
102.1552647621055
 31
0.0
  0
LINE
  5
ADA1
330
ACA2
100
AcDbEntity
  8
mark
100
AcDbLine
 10
129.3406851878248
 20
100.1552647621055
 30
0.0
 11
137.9717389963267
 21
100.1552647621055
 31
0.0
  0
LINE
  5
ADA2
330
ACA2
100
AcDbEntity
  8
mark
100
AcDbLine
 10
137.1717389963267
 20
104.6552647621054
 30
0.0
 11
137.1717389963267
 21
107.1552647621055
 31
0.0
  0
LINE
  5
ADA3
330
ACA2
100
AcDbEntity
  8
mark
100
AcDbLine
 10
137.1717389963267
 20
97.65526476210547
 30
0.0
 11
137.1717389963267
 21
96.40526476210547
 31
0.0
  0
LINE
  5
ADA4
330
ACA2
100
AcDbEntity
  8
mark
100
AcDbLine
 10
137.1717389963267
 20
102.1552647621055
 30
0.0
 11
137.1717389963267
 21
100.1552647621055
 31
0.0
  0
INSERT
  5
ADA5
330
ACA2
100
AcDbEntity
  8
mark
100
AcDbBlockReference
  2
_Open30
 10
137.1717389963267
 20
102.1552647621055
 30
0.0
 41
2.5
 42
2.5
 43
2.5
 50
270.0
  0
INSERT
  5
ADA6
330
ACA2
100
AcDbEntity
  8
mark
100
AcDbBlockReference
  2
_Open30
 10
137.1717389963267
 20
100.1552647621055
 30
0.0
 41
2.5
 42
2.5
 43
2.5
 50
90.0
  0
MTEXT
  5
ADA7
330
ACA2
100
AcDbEntity
  8
mark
 62
     3
100
AcDbMText
 10
135.1217389963266
 20
101.1552647621055
 30
0.0
 40
2.5
 41
0.0
 71
     5
 72
     1
  1
\A1;2
 11
0.0000000000000001
 21
1.0
 31
0.0
 73
     1
 44
1.0
  0
DIMENSION
  5
ADA8
330
ACA2
100
AcDbEntity
  8
mark
100
AcDbDimension
  2
*D8
 10
144.599434750339
 20
95.05526476210548
 30
0.0
 11
142.549434750339
 21
106.0552647621055
 31
0.0
 12
0.0000002329675226
 22
-0.0000001142398105
 32
0.0
  1
22%%P0.2
 71
     5
 42
22.0
  3
STANDARD
100
AcDbAlignedDimension
 13
128.5406851878249
 23
117.0552647621055
 33
0.0
 14
128.5406851878249
 24
95.05526476210548
 34
0.0
 50
90.0
100
AcDbRotatedDimension
  0
MTEXT
  5
ADA9
330
ACA2
100
AcDbEntity
  8
mark
 62
     3
100
AcDbMText
 10
110.0953455309517
 20
90.47323426916678
 30
0.0
 40
2.5
 41
0.0
 71
     5
 72
     1
  1
C1.5
 11
0.7071067811865478
 21
0.7071067811865474
 31
0.0
 73
     1
 44
1.0
1001
ACAD
1000
ACAD_MTEXT_DEFINED_HEIGHT_BEGIN
1070
    46
1040
0.0
1000
ACAD_MTEXT_DEFINED_HEIGHT_END
  0
LEADER
  5
ADAA
330
ACA2
100
AcDbEntity
  8
mark
100
AcDbLeader
  3
STANDARD
 76
     2
 10
117.9786851878249
 20
95.80526476210547
 30
0.0
 10
108.9083454206301
 20
86.73492499491056
 30
0.0
211
0.0000000000000095
221
-1.0
231
0.0
1001
ACAD
1000
DSTYLE
1002
{
1070
   147
1040
0.8
1070
    77
1070
     0
1002
}
  0
DIMENSION
  5
ADAB
330
ACA2
100
AcDbEntity
  8
mark
100
AcDbDimension
  2
*D9
 10
118.0406851878249
 20
81.53288989218925
 30
0.0
 11
95.54068518782491
 21
83.58288989218925
 31
0.0
 12
0.0000002329675226
 22
-0.0000001142398105
 32
0.0
  1
M45X1.5P
 71
     5
 42
45.0
  3
STANDARD
100
AcDbAlignedDimension
 13
73.04068518782492
 23
95.74326476210545
 33
0.0
 14
118.0406851878249
 24
95.74326476210545
 34
0.0
100
AcDbRotatedDimension
  0
DIMENSION
  5
ADAC
330
ACA2
100
AcDbEntity
  8
mark
100
AcDbDimension
  2
*D10
 10
53.78397562823899
 20
110.5552647621055
 30
0.0
 11
53.78397562823898
 21
113.8052647621055
 31
0.0
 12
0.0000002329675226
 22
-0.0000001142398105
 32
0.0
 70
   128
 71
     5
 42
6.5
  3
STANDARD
100
AcDbAlignedDimension
 13
62.54068518782495
 23
117.0552647621055
 33
0.0
 14
59.54068518782495
 24
110.5552647621055
 34
0.0
 50
90.0
100
AcDbRotatedDimension
  0
LEADER
  5
ADAD
330
ACA2
100
AcDbEntity
  8
mark
100
AcDbLeader
  3
STANDARD
 76
     3
 10
61.54068518782494
 20
110.5552647621055
 30
0.0
 10
51.64068518782497
 20
100.6552647621055
 30
0.0
 10
32.96076751161354
 20
100.6552647621055
 30
0.0
1001
ACAD
1000
DSTYLE
1002
{
1070
   147
1040
0.4
1070
    77
1070
     0
1002
}
  0
TEXT
  5
ADAE
330
ACA2
100
AcDbEntity
  8
dim
100
AcDbText
 10
33.08942181661334
 20
101.1686017531497
 30
0.0
 40
2.5
  1
6-%%C6深さ7
  7
TXT
100
AcDbText
  0
DIMENSION
  5
ADAF
330
ACA2
100
AcDbEntity
  8
mark
100
AcDbDimension
  2
*D11
 10
61.54068518782494
 20
123.9619353698311
 30
0.0
 11
95.54068518782493
 21
126.0119353698311
 31
0.0
 12
0.0000002329675226
 22
-0.0000001142398105
 32
0.0
  1
%%C68
 71
     5
 42
67.99999999999997
  3
STANDARD
100
AcDbAlignedDimension
 13
129.5406851878249
 23
116.0552647621051
 33
0.0
 14
61.54068518782494
 24
116.0552647621051
 34
0.0
100
AcDbRotatedDimension
  0
MTEXT
  5
ADB0
330
ACA2
100
AcDbEntity
  8
mark
 62
     3
100
AcDbMText
 10
99.66189116687814
 20
126.2641713974646
 30
0.0
 40
1.25
 41
0.0
 71
     4
 72
     1
  1
+0\P-0.2
 73
     1
 44
1.0
1001
ACAD
1000
ACAD_MTEXT_DEFINED_HEIGHT_BEGIN
1070
    46
1040
0.0
1000
ACAD_MTEXT_DEFINED_HEIGHT_END
  0
LEADER
  5
ADB1
330
ACA2
100
AcDbEntity
  8
mark
100
AcDbLeader
  3
STANDARD
 76
     3
 10
66.54068518782492
 20
95.05526476210548
 30
0.0
 10
54.64068518782495
 20
83.1552647621055
 30
0.0
 10
32.8266009817811
 20
83.1552647621055
 30
0.0
1001
ACAD
1000
DSTYLE
1002
{
1070
   147
1040
0.4
1070
    77
1070
     0
1002
}
  0
TEXT
  5
ADB2
330
ACA2
100
AcDbEntity
  8
dim
100
AcDbText
 10
33.10497566843782
 20
84.31134472072551
 30
0.0
 40
2.5
  1
6-%%C4.3深さ4
  7
TXT
100
AcDbText
  0
DIMENSION
  5
ADB3
330
ACA2
100
AcDbEntity
  8
mark
100
AcDbDimension
  2
*D12
 10
62.54068518782493
 20
96.05526476210542
 30
0.0
 11
55.10427887234629
 21
91.51799624949195
 31
0.0
 12
0.0000002329675226
 22
-0.0000001142398105
 32
0.0
 70
     4
 71
     5
  3
STANDARD
100
AcDbRadialDimension
 15
61.83357840663837
 25
95.34815798091889
 35
0.0
 40
0.0
1001
ACAD
1000
DSTYLE
1002
{
1070
   279
1070
     1
1070
   288
1070
     1
1002
}
  0
DIMENSION
  5
ADB4
330
ACA2
100
AcDbEntity
  8
mark
100
AcDbDimension
  2
*D13
 10
68.41156141052113
 20
178.7520106632937
 30
0.0
 11
140.1828160338891
 21
197.0828998764565
 31
0.0
 12
0.0000002329675226
 22
-0.0000001142398105
 32
0.0
 70
   131
  1
P.C.D 56
 71
     5
 42
55.99999999999998
  3
STANDARD
100
AcDbDiametricDimension
 15
122.6698089651287
 25
192.6099532343581
 35
0.0
 40
0.0
1001
ACAD
1000
DSTYLE
1002
{
1070
   288
1070
     1
1002
}
  0
DIMENSION
  5
ADB5
330
ACA2
100
AcDbEntity
  8
mark
100
AcDbDimension
  2
*D14
 10
123.3428158121848
 20
177.4322527893716
 30
0.0
 11
51.03092890628501
 21
198.8867656882222
 31
0.0
 12
0.0000002329675226
 22
-0.0000001142398105
 32
0.0
 70
   131
  1
P.C.D 58
 71
     5
 42
57.99999999999998
  3
STANDARD
100
AcDbDiametricDimension
 15
67.73855456346507
 25
193.9297111082802
 35
0.0
 40
0.0
1001
ACAD
1000
DSTYLE
1002
{
1070
   288
1070
     1
1002
}
  0
ARC
  5
ADB6
330
ACA2
100
AcDbEntity
  8
center
 48
0.2
100
AcDbCircle
 10
95.54068518782491
 20
185.680981948826
 30
0.0
 40
29.0
100
AcDbArc
 50
198.8606586065799
 51
221.1393413934203
  0
ARC
  5
ADB7
330
ACA2
100
AcDbEntity
  8
center
 48
0.2
100
AcDbCircle
 10
95.54068518782486
 20
185.6809819488259
 30
0.0
 40
29.0
100
AcDbArc
 50
18.86065860658025
 51
41.13934139341995
  0
TOLERANCE
  5
ADB8
330
ACA2
100
AcDbEntity
  8
mark
100
AcDbFcf
  3
STANDARD
 10
149.599434750339
 20
122.0552647621055
 30
0.0
  1
{\Fgdt;h}%%v0.005%%v%%vA%%v%%v
  0
LINE
  5
ADB9
330
ACA2
100
AcDbEntity
  8
mark
100
AcDbLine
 10
144.599434750339
 20
117.0552647621055
 30
0.0
 11
144.599434750339
 21
122.0552647621055
 31
0.0
  0
LINE
  5
ADBA
330
ACA2
100
AcDbEntity
  8
mark
100
AcDbLine
 10
144.599434750339
 20
122.0552647621055
 30
0.0
 11
149.599434750339
 21
122.0552647621055
 31
0.0
  0
TOLERANCE
  5
ADBB
330
ACA2
100
AcDbEntity
  8
mark
100
AcDbFcf
  3
STANDARD
 10
83.04068518782491
 20
70.73288989218925
 30
0.0
  1
%%v%%v%%vA%%v%%v
  0
HATCH
  5
ADBC
330
ACA2
100
AcDbEntity
  8
mark
100
AcDbHatch
 10
0.0
 20
0.0
 30
0.0
210
0.0
220
0.0
230
1.0
  2
SOLID
 70
     1
 71
     1
 91
        1
 92
        7
 72
     0
 73
     1
 93
        4
 10
73.04068518782492
 20
73.23288989218925
 10
73.04068518782492
 20
70.73288989218925
 10
73.04068518782492
 20
68.23288989218925
 10
75.54068518782492
 20
70.73288989218925
 97
        4
330
ADBD
330
ADC1
330
ADC0
330
ADBF
 75
     0
 76
     1
 47
0.0383085416812868
 98
        1
 10
74.62801263242511
 20
70.93674952539709
450
        0
451
        0
460
0.0
461
0.0
452
        1
462
1.0
453
        2
463
0.0
 63
     5
421
      255
463
1.0
 63
     7
421
 16777215
470
LINEAR
1001
ACAD
1010
0.0
1020
0.0
1030
0.0
  0
LINE
  5
ADBD
102
{ACAD_REACTORS
330
ADBC
102
}
330
ACA2
100
AcDbEntity
  8
mark
100
AcDbLine
 10
73.04068518782492
 20
80.73288989218925
 30
0.0
 11
73.04068518782492
 21
70.73288989218925
 31
0.0
  0
LINE
  5
ADBE
330
ACA2
100
AcDbEntity
  8
mark
100
AcDbLine
 10
75.54068518782492
 20
70.73288989218925
 30
0.0
 11
83.04068518782491
 21
70.73288989218925
 31
0.0
  0
LINE
  5
ADBF
102
{ACAD_REACTORS
330
ADBC
102
}
330
ACA2
100
AcDbEntity
  8
mark
100
AcDbLine
 10
73.04068518782492
 20
73.23288989218925
 30
0.0
 11
75.54068518782492
 21
70.73288989218925
 31
0.0
  0
LINE
  5
ADC0
102
{ACAD_REACTORS
330
ADBC
102
}
330
ACA2
100
AcDbEntity
  8
mark
100
AcDbLine
 10
75.54068518782492
 20
70.73288989218925
 30
0.0
 11
73.04068518782492
 21
68.23288989218925
 31
0.0
  0
LINE
  5
ADC1
102
{ACAD_REACTORS
330
ADBC
102
}
330
ACA2
100
AcDbEntity
  8
mark
100
AcDbLine
 10
73.04068518782492
 20
68.23288989218925
 30
0.0
 11
73.04068518782492
 21
70.73288989218925
 31
0.0
  0
LEADER
  5
ADC2
330
ACA2
100
AcDbEntity
  8
mark
100
AcDbLeader
  3
STANDARD
 76
     2
 10
119.5823157481676
 20
161.6393513884833
 30
0.0
 10
134.3645776724831
 20
146.8570894641677
 30
0.0
211
0.7071067811865474
221
-0.7071067811865478
231
0.0
1001
ACAD
1000
DSTYLE
1002
{
1070
   147
1040
0.8
1070
    77
1070
     0
1002
}
  0
ENDBLK
  5
ADC6
330
ACA2
100
AcDbEntity
  8
0
100
AcDbBlockEnd
  0
BLOCK
  5
ADD3
330
ADC9
100
AcDbEntity
  8
0
100
AcDbBlockBegin
  2
*D16
 70
     1
 10
0.0
 20
0.0
 30
0.0
  3
*D16
  1

  0
LINE
  5
B1CF
330
ADC9
100
AcDbEntity
  8
mark
370
    -2
100
AcDbLine
 10
130.8
 20
129.9413086737984
 30
0.0
 11
140.4010287976194
 21
129.9413086737984
 31
0.0
  0
LINE
  5
B1D0
330
ADC9
100
AcDbEntity
  8
mark
370
    -2
100
AcDbLine
 10
130.8
 20
112.0413086737984
 30
0.0
 11
140.4010287976194
 21
112.0413086737984
 31
0.0
  0
LINE
  5
B1D1
330
ADC9
100
AcDbEntity
  8
mark
370
    -2
100
AcDbLine
 10
139.6010287976194
 20
127.4413086737984
 30
0.0
 11
139.6010287976194
 21
114.5413086737984
 31
0.0
  0
INSERT
  5
B1D2
330
ADC9
100
AcDbEntity
  8
mark
370
    -2
100
AcDbBlockReference
  2
_Open30
 10
139.6010287976194
 20
129.9413086737984
 30
0.0
 41
2.5
 42
2.5
 43
2.5
 50
90.0
  0
INSERT
  5
B1D3
330
ADC9
100
AcDbEntity
  8
mark
370
    -2
100
AcDbBlockReference
  2
_Open30
 10
139.6010287976194
 20
112.0413086737984
 30
0.0
 41
2.5
 42
2.5
 43
2.5
 50
270.0
  0
MTEXT
  5
B1D4
330
ADC9
100
AcDbEntity
  8
mark
 62
     3
100
AcDbMText
 10
137.5510287976193
 20
120.9913086737984
 30
0.0
 40
2.5
 41
0.0
 71
     5
 72
     1
  1
\A1;17.9
 11
0.0000000000000001
 21
1.0
 31
0.0
 73
     1
 44
1.0
  0
POINT
  5
B1D5
330
ADC9
100
AcDbEntity
  8
DEFPOINTS
 62
     0
100
AcDbPoint
 10
130.0
 20
129.9413086737984
 30
0.0
  0
POINT
  5
B1D6
330
ADC9
100
AcDbEntity
  8
DEFPOINTS
 62
     0
100
AcDbPoint
 10
130.0
 20
112.0413086737984
 30
0.0
  0
POINT
  5
B1D7
330
ADC9
100
AcDbEntity
  8
DEFPOINTS
 62
     0
100
AcDbPoint
 10
139.6010287976194
 20
112.0413086737984
 30
0.0
  0
ENDBLK
  5
ADD4
330
ADC9
100
AcDbEntity
  8
0
100
AcDbBlockEnd
  0
BLOCK
  5
ADFA
330
ADF0
100
AcDbEntity
  8
0
100
AcDbBlockBegin
  2
*D17
 70
     1
 10
0.0
 20
0.0
 30
0.0
  3
*D17
  1

  0
LINE
  5
B1D8
330
ADF0
100
AcDbEntity
  8
mark
370
    -2
100
AcDbLine
 10
130.8
 20
129.9413086737984
 30
0.0
 11
147.0063564337968
 21
129.9413086737984
 31
0.0
  0
LINE
  5
B1D9
330
ADF0
100
AcDbEntity
  8
mark
370
    -2
100
AcDbLine
 10
130.7999999999996
 20
104.9413086737983
 30
0.0
 11
147.0063564337968
 21
104.9413086737983
 31
0.0
  0
LINE
  5
B1DA
330
ADF0
100
AcDbEntity
  8
mark
370
    -2
100
AcDbLine
 10
146.2063564337968
 20
127.4413086737984
 30
0.0
 11
146.2063564337968
 21
107.4413086737983
 31
0.0
  0
INSERT
  5
B1DB
330
ADF0
100
AcDbEntity
  8
mark
370
    -2
100
AcDbBlockReference
  2
_Open30
 10
146.2063564337968
 20
129.9413086737984
 30
0.0
 41
2.5
 42
2.5
 43
2.5
 50
90.0
  0
INSERT
  5
B1DC
330
ADF0
100
AcDbEntity
  8
mark
370
    -2
100
AcDbBlockReference
  2
_Open30
 10
146.2063564337968
 20
104.9413086737983
 30
0.0
 41
2.5
 42
2.5
 43
2.5
 50
270.0
  0
MTEXT
  5
B1DD
330
ADF0
100
AcDbEntity
  8
mark
 62
     3
100
AcDbMText
 10
144.1563564337968
 20
117.4413086737984
 30
0.0
 40
2.5
 41
0.0
 71
     5
 72
     1
  1
\A1;25%%P0.2
 11
0.0000000000000001
 21
1.0
 31
0.0
 73
     1
 44
1.0
  0
POINT
  5
B1DE
330
ADF0
100
AcDbEntity
  8
DEFPOINTS
 62
     0
100
AcDbPoint
 10
130.0
 20
129.9413086737984
 30
0.0
  0
POINT
  5
B1DF
330
ADF0
100
AcDbEntity
  8
DEFPOINTS
 62
     0
100
AcDbPoint
 10
129.9999999999996
 20
104.9413086737983
 30
0.0
  0
POINT
  5
B1E0
330
ADF0
100
AcDbEntity
  8
DEFPOINTS
 62
     0
100
AcDbPoint
 10
146.2063564337968
 20
104.9413086737983
 30
0.0
  0
ENDBLK
  5
ADFB
330
ADF0
100
AcDbEntity
  8
0
100
AcDbBlockEnd
  0
BLOCK
  5
AE16
330
AE0C
100
AcDbEntity
  8
0
100
AcDbBlockBegin
  2
*D18
 70
     1
 10
0.0
 20
0.0
 30
0.0
  3
*D18
  1

  0
LINE
  5
B1E1
330
AE0C
100
AcDbEntity
  8
mark
370
    -2
100
AcDbLine
 10
69.00000000000005
 20
104.8293086737984
 30
0.0
 11
69.00000000000005
 21
91.44779995701041
 31
0.0
  0
LINE
  5
B1E2
330
AE0C
100
AcDbEntity
  8
mark
370
    -2
100
AcDbLine
 10
121.0
 20
104.8293086737984
 30
0.0
 11
121.0
 21
91.44779995701041
 31
0.0
  0
LINE
  5
B1E3
330
AE0C
100
AcDbEntity
  8
mark
370
    -2
100
AcDbLine
 10
71.50000000000005
 20
92.24779995701041
 30
0.0
 11
118.5
 21
92.24779995701041
 31
0.0
  0
INSERT
  5
B1E4
330
AE0C
100
AcDbEntity
  8
mark
370
    -2
100
AcDbBlockReference
  2
_Open30
 10
69.00000000000005
 20
92.24779995701041
 30
0.0
 41
2.5
 42
2.5
 43
2.5
 50
180.0
  0
INSERT
  5
B1E5
330
AE0C
100
AcDbEntity
  8
mark
370
    -2
100
AcDbBlockReference
  2
_Open30
 10
121.0
 20
92.24779995701041
 30
0.0
 41
2.5
 42
2.5
 43
2.5
  0
MTEXT
  5
B1E6
330
AE0C
100
AcDbEntity
  8
mark
 62
     3
100
AcDbMText
 10
95.00000000000003
 20
94.29779995701041
 30
0.0
 40
2.5
 41
0.0
 71
     5
 72
     1
  1
\A1;M52X1.5P
 73
     1
 44
1.0
  0
POINT
  5
B1E7
330
AE0C
100
AcDbEntity
  8
DEFPOINTS
 62
     0
100
AcDbPoint
 10
69.00000000000005
 20
105.6293086737984
 30
0.0
  0
POINT
  5
B1E8
330
AE0C
100
AcDbEntity
  8
DEFPOINTS
 62
     0
100
AcDbPoint
 10
121.0
 20
105.6293086737984
 30
0.0
  0
POINT
  5
B1E9
330
AE0C
100
AcDbEntity
  8
DEFPOINTS
 62
     0
100
AcDbPoint
 10
121.0
 20
92.24779995701041
 30
0.0
  0
ENDBLK
  5
AE17
330
AE0C
100
AcDbEntity
  8
0
100
AcDbBlockEnd
  0
BLOCK
  5
AE23
330
AE19
100
AcDbEntity
  8
0
100
AcDbBlockBegin
  2
*D19
 70
     1
 10
0.0
 20
0.0
 30
0.0
  3
*D19
  1

  0
LINE
  5
B1EA
330
AE19
100
AcDbEntity
  8
mark
370
    -2
100
AcDbLine
 10
56.19999999999994
 20
120.9413086737984
 30
0.0
 11
52.63602994611161
 21
120.9413086737984
 31
0.0
  0
LINE
  5
B1EB
330
AE19
100
AcDbEntity
  8
mark
370
    -2
100
AcDbLine
 10
59.20000000000006
 20
129.9413086737984
 30
0.0
 11
52.63602994611161
 21
129.9413086737984
 31
0.0
  0
LINE
  5
B1EC
330
AE19
100
AcDbEntity
  8
mark
370
    -2
100
AcDbLine
 10
53.4360299461116
 20
123.4413086737984
 30
0.0
 11
53.4360299461116
 21
127.4413086737984
 31
0.0
  0
INSERT
  5
B1ED
330
AE19
100
AcDbEntity
  8
mark
370
    -2
100
AcDbBlockReference
  2
_Open30
 10
53.4360299461116
 20
120.9413086737984
 30
0.0
 41
2.5
 42
2.5
 43
2.5
 50
270.0
  0
INSERT
  5
B1EE
330
AE19
100
AcDbEntity
  8
mark
370
    -2
100
AcDbBlockReference
  2
_Open30
 10
53.4360299461116
 20
129.9413086737984
 30
0.0
 41
2.5
 42
2.5
 43
2.5
 50
90.0
  0
MTEXT
  5
B1EF
330
AE19
100
AcDbEntity
  8
mark
 62
     3
100
AcDbMText
 10
51.38602994611158
 20
125.4413086737984
 30
0.0
 40
2.5
 41
0.0
 71
     5
 72
     1
  1
\A1;9
 11
0.0000000000000001
 21
1.0
 31
0.0
 73
     1
 44
1.0
  0
POINT
  5
B1F0
330
AE19
100
AcDbEntity
  8
DEFPOINTS
 62
     0
100
AcDbPoint
 10
56.99999999999994
 20
120.9413086737984
 30
0.0
  0
POINT
  5
B1F1
330
AE19
100
AcDbEntity
  8
DEFPOINTS
 62
     0
100
AcDbPoint
 10
60.00000000000006
 20
129.9413086737984
 30
0.0
  0
POINT
  5
B1F2
330
AE19
100
AcDbEntity
  8
DEFPOINTS
 62
     0
100
AcDbPoint
 10
53.4360299461116
 20
129.9413086737984
 30
0.0
  0
ENDBLK
  5
AE24
330
AE19
100
AcDbEntity
  8
0
100
AcDbBlockEnd
  0
BLOCK
  5
B1FD
330
B1F4
100
AcDbEntity
  8
0
100
AcDbBlockBegin
  2
*D20
 70
     1
 10
0.0
 20
0.0
 30
0.0
  3
*D20
  1

  0
LINE
  5
B1F5
330
B1F4
100
AcDbEntity
  8
mark
370
    -2
100
AcDbLine
 10
150.3810270940734
 20
214.4522969497775
 30
0.0
 11
127.6324925516865
 21
209.1721351703998
 31
0.0
  0
LINE
  5
B1F6
330
B1F4
100
AcDbEntity
  8
mark
370
    -2
100
AcDbLine
 10
62.36750744831354
 20
194.0234811227126
 30
0.0
 11
59.93224681012799
 21
193.4582328373511
 31
0.0
  0
MTEXT
  5
B1F7
330
B1F4
100
AcDbEntity
  8
mark
 62
     3
100
AcDbMText
 10
141.42658140827
 20
214.4783783181293
 30
0.0
 40
2.5
 41
0.0
 71
     5
 72
     1
  1
\A1;P.C.D 62
 11
0.9741042552742227
 21
0.2260993141445855
 31
0.0
 73
     1
 44
1.0
  0
LINE
  5
B1F8
330
B1F4
100
AcDbEntity
  8
mark
370
    -2
100
AcDbLine
 10
64.8027680864991
 20
194.5887294080741
 30
0.0
 11
125.1972319135009
 21
208.6068868850384
 31
0.0
  0
INSERT
  5
B1F9
330
B1F4
100
AcDbEntity
  8
mark
370
    -2
100
AcDbBlockReference
  2
_Open30
 10
64.8027680864991
 20
194.5887294080741
 30
0.0
 41
2.5
 42
2.5
 43
2.5
 50
13.06753020255121
  0
INSERT
  5
B1FA
330
B1F4
100
AcDbEntity
  8
mark
370
    -2
100
AcDbBlockReference
  2
_Open30
 10
125.1972319135009
 20
208.6068868850384
 30
0.0
 41
2.5
 42
2.5
 43
2.5
 50
193.0675302025512
  0
POINT
  5
B1FB
330
B1F4
100
AcDbEntity
  8
DEFPOINTS
 62
     0
100
AcDbPoint
 10
125.1972319135009
 20
208.6068868850384
 30
0.0
  0
POINT
  5
B1FC
330
B1F4
100
AcDbEntity
  8
DEFPOINTS
 62
     0
100
AcDbPoint
 10
64.8027680864991
 20
194.5887294080741
 30
0.0
  0
ENDBLK
  5
B1FE
330
B1F4
100
AcDbEntity
  8
0
100
AcDbBlockEnd
  0
BLOCK
  5
B20A
330
B201
100
AcDbEntity
  8
0
100
AcDbBlockBegin
  2
*D21
 70
     1
 10
0.0
 20
0.0
 30
0.0
  3
*D21
  1

  0
LINE
  5
B20C
330
B201
100
AcDbEntity
  8
mark
370
    -2
100
AcDbLine
 10
38.50883274668002
 20
217.0065369262008
 30
0.0
 11
61.95714305024854
 21
210.6106936222655
 31
0.0
  0
LINE
  5
B20D
330
B201
100
AcDbEntity
  8
mark
370
    -2
100
AcDbLine
 10
128.0428569497516
 20
192.5849226708466
 30
0.0
 11
130.4547443183467
 21
191.927047818605
 31
0.0
  0
MTEXT
  5
B20E
330
B201
100
AcDbEntity
  8
mark
 62
     3
100
AcDbMText
 10
49.06566232974935
 20
216.2519110154721
 30
0.0
 40
2.5
 41
0.0
 71
     5
 72
     1
  1
\A1;P.C.D 63.5
 11
0.9647549474380021
 21
-0.2631499408966261
 31
0.0
 73
     1
 44
1.0
  0
LINE
  5
B20F
330
B201
100
AcDbEntity
  8
mark
370
    -2
100
AcDbLine
 10
125.6309695811566
 20
193.2427975230882
 30
0.0
 11
64.36903041884355
 21
209.952818770024
 31
0.0
  0
INSERT
  5
B210
330
B201
100
AcDbEntity
  8
mark
370
    -2
100
AcDbBlockReference
  2
_Open30
 10
125.6309695811566
 20
193.2427975230882
 30
0.0
 41
2.5
 42
2.5
 43
2.5
 50
164.7429490802621
  0
INSERT
  5
B211
330
B201
100
AcDbEntity
  8
mark
370
    -2
100
AcDbBlockReference
  2
_Open30
 10
64.36903041884355
 20
209.952818770024
 30
0.0
 41
2.5
 42
2.5
 43
2.5
 50
344.7429490802621
  0
POINT
  5
B212
330
B201
100
AcDbEntity
  8
DEFPOINTS
 62
     0
100
AcDbPoint
 10
64.36903041884355
 20
209.952818770024
 30
0.0
  0
POINT
  5
B213
330
B201
100
AcDbEntity
  8
DEFPOINTS
 62
     0
100
AcDbPoint
 10
125.6309695811566
 20
193.2427975230882
 30
0.0
  0
ENDBLK
  5
B20B
330
B201
100
AcDbEntity
  8
0
100
AcDbBlockEnd
  0
BLOCK
  5
B2C9
330
B2C2
100
AcDbEntity
  8
0
100
AcDbBlockBegin
  2
*D22
 70
     1
 10
0.0
 20
0.0
 30
0.0
  3
*D22
  1

  0
LINE
  5
B2D1
330
B2C2
100
AcDbEntity
  8
mark
370
    -2
100
AcDbLine
 10
52.32573522319538
 20
98.15391900117552
 30
0.0
 11
57.54329938547413
 21
103.4483942968917
 31
0.0
  0
MTEXT
  5
B2D2
330
B2C2
100
AcDbEntity
  8
mark
 62
     3
100
AcDbMText
 10
52.59698866410158
 20
101.3497547315035
 30
0.0
 40
2.5
 41
0.0
 71
     5
 72
     1
  1
\A1;R1
 11
0.7019144612931062
 21
0.7122612505447763
 31
0.0
 73
     1
 44
1.0
  0
LINE
  5
B2D3
330
B2C2
100
AcDbEntity
  8
mark
370
    -2
100
AcDbLine
 10
60.00000000000004
 20
105.9413086737984
 30
0.0
 11
59.2980855387069
 21
105.2290474232536
 31
0.0
  0
INSERT
  5
B2D4
330
B2C2
100
AcDbEntity
  8
mark
370
    -2
100
AcDbBlockReference
  2
_Open30
 10
59.2980855387069
 20
105.2290474232536
 30
0.0
 41
2.5
 42
2.5
 43
2.5
 50
45.41919598308578
  0
POINT
  5
B2D5
330
B2C2
100
AcDbEntity
  8
DEFPOINTS
 62
     0
100
AcDbPoint
 10
59.2980855387069
 20
105.2290474232536
 30
0.0
  0
POINT
  5
B2D6
330
B2C2
100
AcDbEntity
  8
DEFPOINTS
 62
     0
100
AcDbPoint
 10
60.00000000000004
 20
105.9413086737984
 30
0.0
  0
ENDBLK
  5
B2CA
330
B2C2
100
AcDbEntity
  8
0
100
AcDbBlockEnd
  0
ENDSEC
  0
SECTION
  2
ENTITIES
  0
MTEXT
  5
C0
330
18
100
AcDbEntity
  8
0
100
AcDbMText
 10
41.26970765600413
 20
233.6950877649332
 30
0.0
 40
2.5
 41
0.0
 71
     1
 72
     5
  1

  7
ISOCP3
 73
     1
 44
1.0
  0
LWPOLYLINE
  5
7D6C
330
18
100
AcDbEntity
  8
frame
100
AcDbPolyline
 90
        4
 70
     1
 43
0.0
 10
190.0
 20
280.0
 10
0.0
 20
280.0
 10
0.0
 20
0.0
 10
190.0
 20
0.0
  0
MTEXT
  5
7D6D
330
18
100
AcDbEntity
  8
0
100
AcDbMText
 10
17.09950368689175
 20
19.07605901616614
 30
0.0
 40
4.5
 41
0.0
 71
     1
 72
     5
  1
{\Ftxt,bigfont|c128;林彦旭}
  7
JL
 73
     1
 44
1.0
1001
ACAD
1000
ACAD_MTEXT_DEFINED_HEIGHT_BEGIN
1070
    46
1040
0.0
1000
ACAD_MTEXT_DEFINED_HEIGHT_END
  0
MTEXT
  5
7D6E
330
18
100
AcDbEntity
  8
0
100
AcDbMText
 10
77.95294729228851
 20
28.93578979870677
 30
0.0
 40
4.5
 41
0.0
 71
     1
 72
     5
  1
{\Ftxt,bigfont|c128;1 : 1}
  7
JL
 73
     1
 44
1.0
1001
ACAD
1000
ACAD_MTEXT_DEFINED_HEIGHT_BEGIN
1070
    46
1040
0.0
1000
ACAD_MTEXT_DEFINED_HEIGHT_END
  0
MTEXT
  5
7D6F
330
18
100
AcDbEntity
  8
0
 48
2.0
370
    25
100
AcDbMText
 10
140.2194500465656
 20
3.490021654633892
 30
0.0
 40
4.5
 41
0.0
 71
     5
 72
     1
  1
{\Ftxt,bigfont|c128;N L 4 0 2 7 9}
 73
     1
 44
1.0
1001
ACAD
1000
ACAD_MTEXT_DEFINED_HEIGHT_BEGIN
1070
    46
1040
0.0
1000
ACAD_MTEXT_DEFINED_HEIGHT_END
  0
MTEXT
  5
7D70
330
18
100
AcDbEntity
  8
0
 48
2.0
100
AcDbMText
 10
170.9328999644331
 20
21.76437127823692
 30
0.0
 40
4.318181818181822
 41
0.0
 71
     5
 72
     1
  1
\P{\Ftxt,bigfont|c128;MKR52X1.5P}
 73
     1
 44
1.0
1001
ACAD
1000
ACAD_MTEXT_DEFINED_HEIGHT_BEGIN
1070
    46
1040
0.0
1000
ACAD_MTEXT_DEFINED_HEIGHT_END
  0
MTEXT
  5
7D71
330
18
100
AcDbEntity
  8
0
100
AcDbMText
 10
15.3760677136774
 20
28.37740359834709
 30
0.0
 40
4.5
 41
0.0
 71
     1
 72
     5
  1
{\Ftxt,bigfont|c128;06.07.05}
  7
JL
 73
     1
 44
1.0
1001
ACAD
1000
ACAD_MTEXT_DEFINED_HEIGHT_BEGIN
1070
    46
1040
0.0
1000
ACAD_MTEXT_DEFINED_HEIGHT_END
  0
MTEXT
  5
7D73
330
18
100
AcDbEntity
  8
0
100
AcDbMText
 10
14.91235548326415
 20
9.242195050049303
 30
0.0
 40
6.0
 41
0.0
 71
     1
 72
     5
  1
\Ftxt.shx,bigfont.shx|c128;日機株式会社
  7
LKK
 73
     1
 44
1.0
  0
LINE
  5
7D74
330
18
100
AcDbEntity
  8
frame
100
AcDbLine
 10
0.0
 20
12.0
 30
0.0
 11
190.0
 21
12.00000000000005
 31
0.0
  0
LINE
  5
7D75
330
18
100
AcDbEntity
  8
frame
100
AcDbLine
 10
0.0
 20
22.0
 30
0.0
 11
92.12121212121223
 21
22.0
 31
0.0
  0
LINE
  5
7D76
330
18
100
AcDbEntity
  8
frame
100
AcDbLine
 10
0.0
 20
32.0
 30
0.0
 11
190.0
 21
32.0
 31
0.0
  0
LINE
  5
7D77
330
18
100
AcDbEntity
  8
frame
100
AcDbLine
 10
12.19077332493799
 20
32.0
 30
0.0
 11
12.19077332493799
 21
12.0
 31
0.0
  0
LINE
  5
7D78
330
18
100
AcDbEntity
  8
frame
100
AcDbLine
 10
30.70707070707067
 20
32.0
 30
0.0
 11
30.70707070707078
 21
12.0
 31
0.0
  0
MTEXT
  5
7D79
330
18
100
AcDbEntity
  8
0
100
AcDbMText
 10
2.830274784221955
 20
29.08190089582831
 30
0.0
 40
4.5
 41
0.0
 71
     1
 72
     5
  1
\Ftxt.shx,bigfont.shx|c128;日 付
  7
JL
 73
     1
 44
1.0
  0
MTEXT
  5
7D7A
330
18
100
AcDbEntity
  8
0
100
AcDbMText
 10
2.97063307743889
 20
19.52163842926637
 30
0.0
 40
4.5
 41
0.0
 71
     1
 72
     5
  1
\Ftxt.shx,bigfont.shx|c128;製 図
  7
JL
 73
     1
 44
1.0
  0
LINE
  5
7D7B
330
18
100
AcDbEntity
  8
0
 62
     7
370
    25
100
AcDbLine
 10
53.04580144287854
 20
23.81984609294597
 30
0.0
 11
53.04580144287854
 21
28.93622339589922
 31
0.0
  0
MTEXT
  5
7D7C
330
18
100
AcDbEntity
  8
0
100
AcDbMText
 10
64.00748852490835
 20
29.12242703792379
 30
0.0
 40
4.5
 41
0.0
 71
     1
 72
     5
  1
\Ftxt.shx,bigfont.shx|c128;尺 度
  7
JL
 73
     1
 44
1.0
  0
LINE
  5
7D7D
330
18
100
AcDbEntity
  8
frame
100
AcDbLine
 10
61.41414141414145
 20
32.0
 30
0.0
 11
61.41414141414145
 21
12.0
 31
0.0
  0
LINE
  5
7D7E
330
18
100
AcDbEntity
  8
0
 62
     7
370
    25
100
AcDbLine
 10
39.6153110226262
 20
23.18889018332635
 30
0.0
 11
39.6153110226262
 21
29.36457992429672
 31
0.0
  0
CIRCLE
  5
7D7F
330
18
100
AcDbEntity
  8
0
 62
     7
100
AcDbCircle
 10
39.6153110226262
 20
26.37803474442251
 30
0.0
 40
2.558188651476678
  0
LINE
  5
7D80
330
18
100
AcDbEntity
  8
0
 62
     7
370
    25
100
AcDbLine
 10
47.19321986919976
 20
26.37803474442262
 30
0.0
 11
53.50512581624241
 21
26.37803474442262
 31
0.0
  0
LINE
  5
7D81
330
18
100
AcDbEntity
  8
0
 62
     7
100
AcDbLine
 10
47.92942413992534
 20
25.09894041868427
 30
0.0
 11
53.04580144287854
 21
23.81984609294597
 31
0.0
  0
LINE
  5
7D82
330
18
100
AcDbEntity
  8
frame
100
AcDbLine
 10
42.742241959951
 20
22.0
 30
0.0
 11
42.742241959951
 21
12.0
 31
0.0
  0
LINE
  5
7D83
330
18
100
AcDbEntity
  8
0
 62
     7
370
    25
100
AcDbLine
 10
36.41832228486612
 20
26.37803474442251
 30
0.0
 11
43.00325267619268
 21
26.37803474442262
 31
0.0
  0
CIRCLE
  5
7D84
330
18
100
AcDbEntity
  8
0
 62
     7
100
AcDbCircle
 10
39.6153110226262
 20
26.37803474442251
 30
0.0
 40
1.279094325738339
  0
MTEXT
  5
7D85
330
18
100
AcDbEntity
  8
0
100
AcDbMText
 10
33.70184032462407
 20
19.41013815785266
 30
0.0
 40
4.5
 41
0.0
 71
     1
 72
     5
  1
\Ftxt.shx,bigfont.shx|c128;検 図
  7
JL
 73
     1
 44
1.0
  0
LINE
  5
7D86
330
18
100
AcDbEntity
  8
0
 62
     7
370
    25
100
AcDbLine
 10
47.92942413992534
 20
25.09894041868427
 30
0.0
 11
47.92942413992534
 21
27.65712907016086
 31
0.0
  0
MTEXT
  5
7D87
330
18
100
AcDbEntity
  8
0
100
AcDbMText
 10
64.28820249919829
 20
19.32058534748881
 30
0.0
 40
4.5
 41
0.0
 71
     1
 72
     5
  1
\Ftxt.shx,bigfont.shx|c128;承 認
  7
JL
 73
     1
 44
1.0
  0
MTEXT
  5
7D88
330
18
100
AcDbEntity
  8
0
100
AcDbMText
 10
93.71128715606699
 20
10.7026821961914
 30
0.0
 40
4.5
 41
0.0
 71
     1
 72
     5
  1
\Ftxt.shx,bigfont.shx|c128;図  面  番  号
  7
JL
 73
     1
 44
1.0
  0
MTEXT
  5
7D89
330
18
100
AcDbEntity
  8
0
 48
2.0
100
AcDbMText
 10
116.9038190021384
 20
21.8757473149584
 30
0.0
 40
4.5
 41
0.0
 71
     5
 72
     1
  1
\P\Ftxt.shx,bigfont.shx|c128;    精密ロックナット
 73
     1
 44
1.0
  0
MTEXT
  5
7D8A
330
18
100
AcDbEntity
  8
0
100
AcDbMText
 10
94.8083613031232
 20
29.03862457973275
 30
0.0
 40
4.5
 41
0.0
 71
     1
 72
     5
  1
\Ftxt.shx,bigfont.shx|c128;品  名
  7
JL
 73
     1
 44
1.0
  0
LINE
  5
7D8B
330
18
100
AcDbEntity
  8
frame
100
AcDbLine
 10
92.12121212121223
 20
32.0
 30
0.0
 11
92.12121212121223
 21
0.1833227579584786
 31
0.0
  0
LINE
  5
7D8C
330
18
100
AcDbEntity
  8
frame
100
AcDbLine
 10
73.41414141414145
 20
32.0
 30
0.0
 11
73.41414141414145
 21
12.0
 31
0.0
  0
LINE
  5
7D8D
330
18
100
AcDbEntity
  8
frame
100
AcDbLine
 10
147.0327092740656
 20
32.0
 30
0.0
 11
147.0327092740657
 21
12.0
 31
0.0
  0
MTEXT
  5
7D8E
330
18
100
AcDbEntity
  8
0
100
AcDbMText
 10
150.895959446773
 20
29.04517782830391
 30
0.0
 40
4.5
 41
0.0
 71
     1
 72
     5
  1
\Ftxt.shx,bigfont.shx|c128;型  番
  7
JL
 73
     1
 44
1.0
  0
MTEXT
  5
7D8F
330
18
100
AcDbEntity
  8
0
100
AcDbMText
 10
165.8059614810325
 20
10.78298174971564
 30
0.0
 40
4.5
 41
0.0
 71
     1
 72
     5
  1
\Ftxt.shx,bigfont.shx|c128;変更
  7
JL
 73
     1
 44
1.0
  0
LINE
  5
7D90
330
18
100
AcDbEntity
  8
frame
100
AcDbLine
 10
164.0909090909092
 20
12.00000000000005
 30
0.0
 11
164.0909090909093
 21
0.0
 31
0.0
  0
LINE
  5
7D91
330
18
100
AcDbEntity
  8
frame
100
AcDbLine
 10
124.6157900786393
 20
43.13491348924492
 30
0.0
 11
184.6157900786393
 21
43.13491348924481
 31
0.0
  0
LINE
  5
7D92
330
18
100
AcDbEntity
  8
frame
100
AcDbLine
 10
124.6157900786393
 20
50.33491348924497
 30
0.0
 11
184.6157900786393
 21
50.33491348924497
 31
0.0
  0
LINE
  5
7D93
330
18
100
AcDbEntity
  8
frame
100
AcDbLine
 10
124.6157900786393
 20
57.5349134892449
 30
0.0
 11
184.6157900786393
 21
57.53491348924478
 31
0.0
  0
LINE
  5
7D94
330
18
100
AcDbEntity
  8
frame
100
AcDbLine
 10
124.6157900786393
 20
64.73491348924494
 30
0.0
 11
184.6157900786393
 21
64.73491348924483
 31
0.0
  0
LINE
  5
7D95
330
18
100
AcDbEntity
  8
frame
100
AcDbLine
 10
124.6157900786393
 20
35.93491348924488
 30
0.0
 11
184.6157900786393
 21
35.93491348924488
 31
0.0
  0
MTEXT
  5
7D96
330
18
100
AcDbEntity
  8
0
 62
     7
 48
2.0
100
AcDbMText
 10
154.5011900445106
 20
65.52808189982909
 30
0.0
 40
4.8
 41
0.0
 71
     5
 72
     1
  1
\P\Ftxt.shx,bigfont.shx|c128;諸　　　　元
 73
     1
 44
1.0
  0
LINE
  5
7D97
330
18
100
AcDbEntity
  8
frame
100
AcDbLine
 10
124.6157900786393
 20
64.73491348924483
 30
0.0
 11
124.6157900786393
 21
35.93491348924488
 31
0.0
  0
MTEXT
  5
7D98
330
18
100
AcDbEntity
  8
0
100
AcDbMText
 10
128.1382258923195
 20
56.00840432212407
 30
0.0
 40
4.4
 41
163.916286842249
 71
     1
 72
     5
  1
\Ftxt.shx,bigfont.shx|c128;熱　処　理
  7
JL
 73
     1
 44
1.0
  0
LINE
  5
7D99
330
18
100
AcDbEntity
  8
frame
100
AcDbLine
 10
148.6157900786393
 20
57.53491348924478
 30
0.0
 11
148.6157900786393
 21
35.93491348924488
 31
0.0
  0
MTEXT
  5
7D9A
330
18
100
AcDbEntity
  8
0
100
AcDbMText
 10
127.8579515249403
 20
49.00617587486397
 30
0.0
 40
4.4
 41
163.6058628849672
 71
     1
 72
     5
  1
\Ftxt.shx,bigfont.shx|c128;表 面 処 理
  7
JL
 73
     1
 44
1.0
  0
MTEXT
  5
7D9B
330
18
100
AcDbEntity
  8
0
100
AcDbMText
 10
128.1480173733753
 20
41.71770302125605
 30
0.0
 40
4.4
 41
166.1718
 71
     1
 72
     5
  1
\Ftxt.shx,bigfont.shx|c128;等     　級
  7
JL
 73
     1
 44
1.0
  0
LINE
  5
7D9C
330
18
100
AcDbEntity
  8
frame
100
AcDbLine
 10
184.6157900786393
 20
64.73491348924483
 30
0.0
 11
184.6157900786393
 21
35.93491348924499
 31
0.0
  0
MTEXT
  5
7D9D
330
18
100
AcDbEntity
  8
0
100
AcDbMText
 10
153.3627933880818
 20
55.83344641471445
 30
0.0
 40
4.4
 41
291.8960056857887
 71
     1
 72
     5
  1
\Ftxt.shx,bigfont.shx|c128;調質　HRC30%%d%%p２%%d
  7
JL
 73
     1
 44
1.0
  0
MTEXT
  5
7D9E
330
18
100
AcDbEntity
  8
0
100
AcDbMText
 10
153.6234323895182
 20
41.7183135927072
 30
0.0
 40
4.4
 41
290.783364796891
 71
     1
 72
     5
  1
\Ftxt.shx,bigfont.shx|c128;ＩＳＯ - ４Ｈ
  7
JL
 73
     1
 44
1.0
  0
MTEXT
  5
7D9F
330
18
100
AcDbEntity
  8
0
100
AcDbMText
 10
153.7978935876485
 20
48.65328293790913
 30
0.0
 40
4.4
 41
291.4548
 71
     1
 72
     5
  1
\Ftxt.shx,bigfont.shx|c128;黒  　    染
  7
JL
 73
     1
 44
1.0
  0
MTEXT
  5
7DA0
330
18
100
AcDbEntity
  8
0
100
AcDbMText
 10
57.63639061334425
 20
260.9000583279474
 30
0.0
 40
5.0
 41
0.0
 71
     1
 72
     5
  1
{\Ftxt,bigfont|c128;M4X0.7P-18L}
  7
JL
 73
     1
 44
1.0
1001
ACAD
1000
ACAD_MTEXT_DEFINED_HEIGHT_BEGIN
1070
    46
1040
0.0
1000
ACAD_MTEXT_DEFINED_HEIGHT_END
  0
LINE
  5
7DA2
330
18
100
AcDbEntity
  8
frame
100
AcDbLine
 10
0.0
 20
254.0
 30
0.0
 11
190.0
 21
254.0
 31
0.0
  0
LINE
  5
7DA3
330
18
100
AcDbEntity
  8
frame
100
AcDbLine
 10
0.0
 20
262.0
 30
0.0
 11
190.0
 21
262.0
 31
0.0
  0
LINE
  5
7DA4
330
18
100
AcDbEntity
  8
frame
 62
     9
100
AcDbLine
 10
0.0
 20
270.0
 30
0.0
 11
190.0
 21
270.0
 31
0.0
  0
MTEXT
  5
7DA5
330
18
100
AcDbEntity
  8
0
100
AcDbMText
 10
57.0156439060371
 20
277.4240560049041
 30
0.0
 40
5.0
 41
0.0
 71
     1
 72
     5
  1
\Ftxt.shx,bigfont.shx|c128;図    番 / 規　　格
  7
JL
 73
     1
 44
1.0
  0
LINE
  5
7DA6
330
18
100
AcDbEntity
  8
frame
100
AcDbLine
 10
0.0
 20
254.0
 30
0.0
 11
190.0
 21
254.0
 31
0.0
  0
MTEXT
  5
7DA8
330
18
100
AcDbEntity
  8
0
100
AcDbMText
 10
21.12488048923433
 20
277.4637981386743
 30
0.0
 40
5.0
 41
0.0
 71
     1
 72
     5
  1
\Ftxt.shx,bigfont.shx|c128;品　          名
  7
JL
 73
     1
 44
1.0
  0
MTEXT
  5
7DA9
330
18
100
AcDbEntity
  8
0
100
AcDbMText
 10
18.10281387110132
 20
260.7907237289111
 30
0.0
 40
5.0
 41
0.0
 71
     1
 72
     5
  1
\Ftxt.shx,bigfont.shx|c128;セットスクリュ-
  7
JL
 73
     1
 44
1.0
  0
MTEXT
  5
7DAA
330
18
100
AcDbEntity
  8
0
100
AcDbMText
 10
17.91509480863158
 20
268.8361230282964
 30
0.0
 40
5.0
 41
0.0
 71
     1
 72
     5
  1
\Ftxt.shx,bigfont.shx|c128;ロックナット　  
  7
JL
 73
     1
 44
1.0
  0
LINE
  5
7DAC
330
18
100
AcDbEntity
  8
frame
 62
     9
100
AcDbLine
 10
14.39393939393937
 20
279.9999999999999
 30
0.0
 11
14.39393939393964
 21
254.0
 31
0.0
  0
LINE
  5
7DAD
330
18
100
AcDbEntity
  8
frame
 62
     9
100
AcDbLine
 10
14.39393939393937
 20
279.9999999999999
 30
0.0
 11
14.39393939393937
 21
255.0505050505051
 31
0.0
  0
MTEXT
  5
7DAE
330
18
100
AcDbEntity
  8
0
100
AcDbMText
 10
6.815009268013795
 20
268.7281674434121
 30
0.0
 40
5.0
 41
0.0
 71
     1
 72
     5
  1
\Ftxt.shx,bigfont.shx|c128;1
  7
JL
 73
     1
 44
1.0
  0
MTEXT
  5
7DAF
330
18
100
AcDbEntity
  8
0
100
AcDbMText
 10
2.119828072980226
 20
277.4734782639491
 30
0.0
 40
5.0
 41
0.0
 71
     1
 72
     5
  1
\Ftxt.shx,bigfont.shx|c128;照   号
  7
JL
 73
     1
 44
1.0
  0
LINE
  5
7DB0
330
18
100
AcDbEntity
  8
frame
 62
     9
100
AcDbLine
 10
52.77777777777783
 20
279.9999999999999
 30
0.0
 11
52.77777777777784
 21
254.0
 31
0.0
  0
MTEXT
  5
7DB1
330
18
100
AcDbEntity
  8
0
100
AcDbMText
 10
145.5736374372851
 20
277.6781663894194
 30
0.0
 40
5.0
 41
0.0
 71
     1
 72
     5
  1
\Ftxt.shx,bigfont.shx|c128;備           考
  7
JL
 73
     1
 44
1.0
  0
LINE
  5
7DB2
330
18
100
AcDbEntity
  8
frame
 62
     9
100
AcDbLine
 10
91.16161616161617
 20
280.0
 30
0.0
 11
91.16161616161617
 21
254.0
 31
0.0
  0
MTEXT
  5
7DB4
330
18
100
AcDbEntity
  8
0
100
AcDbMText
 10
92.87341089179369
 20
268.8361230282964
 30
0.0
 40
5.0
 41
0.0
 71
     1
 72
     5
  1
\Ftxt.shx,bigfont.shx|c128;SCM-440
  7
JL
 73
     1
 44
1.0
  0
MTEXT
  5
7DB5
330
18
100
AcDbEntity
  8
0
100
AcDbMText
 10
92.87341089179369
 20
260.765002012584
 30
0.0
 40
5.0
 41
0.0
 71
     1
 72
     5
  1
\Ftxt.shx,bigfont.shx|c128;SCM435
  7
JL
 73
     1
 44
1.0
  0
MTEXT
  5
7DB6
330
18
100
AcDbEntity
  8
0
100
AcDbMText
 10
95.76798863104192
 20
277.5645499482919
 30
0.0
 40
5.0
 41
0.0
 71
     1
 72
     5
  1
\Ftxt.shx,bigfont.shx|c128;材　質
  7
JL
 73
     1
 44
1.0
  0
LINE
  5
7DB7
330
18
100
AcDbEntity
  8
frame
 62
     9
100
AcDbLine
 10
110.3535353535354
 20
280.0
 30
0.0
 11
110.3535353535354
 21
254.0
 31
0.0
  0
LINE
  5
7DB8
330
18
100
AcDbEntity
  8
frame
100
AcDbLine
 10
124.7474747474747
 20
280.0
 30
0.0
 11
124.7474747474748
 21
254.0
 31
0.0
  0
MTEXT
  5
7DBA
330
18
100
AcDbEntity
  8
0
100
AcDbMText
 10
117.1685446215491
 20
269.0412711679932
 30
0.0
 40
5.0
 41
0.0
 71
     1
 72
     5
  1
\Ftxt.shx,bigfont.shx|c128;1
  7
JL
 73
     1
 44
1.0
  0
MTEXT
  5
7DBB
330
18
100
AcDbEntity
  8
0
100
AcDbMText
 10
116.5939070266884
 20
260.5092290150679
 30
0.0
 40
5.0
 41
0.0
 71
     1
 72
     5
  1
{\Ftxt,bigfont|c128;6}
  7
JL
 73
     1
 44
1.0
1001
ACAD
1000
ACAD_MTEXT_DEFINED_HEIGHT_BEGIN
1070
    46
1040
0.0
1000
ACAD_MTEXT_DEFINED_HEIGHT_END
  0
MTEXT
  5
7DBC
330
18
100
AcDbEntity
  8
0
100
AcDbMText
 10
112.4223895919262
 20
277.5645499482919
 30
0.0
 40
5.0
 41
0.0
 71
     1
 72
     5
  1
\Ftxt.shx,bigfont.shx|c128;数   量
  7
JL
 73
     1
 44
1.0
  0
MTEXT
  5
7DBD
330
18
100
AcDbEntity
  8
0
100
AcDbMText
 10
6.404019699055993
 20
260.7281674434121
 30
0.0
 40
5.0
 41
0.0
 71
     1
 72
     5
  1
{\Ftxt,bigfont|c128;2}
  7
JL
 73
     1
 44
1.0
1001
ACAD
1000
ACAD_MTEXT_DEFINED_HEIGHT_BEGIN
1070
    46
1040
0.0
1000
ACAD_MTEXT_DEFINED_HEIGHT_END
  0
CIRCLE
  5
A46D
330
18
100
AcDbEntity
  8
contour
100
AcDbCircle
 10
95.0
 20
201.5978081465562
 30
0.0
 40
36.0
  0
CIRCLE
  5
A46E
330
18
100
AcDbEntity
  8
center
 48
0.3
100
AcDbCircle
 10
95.0
 20
201.5978081465562
 30
0.0
 40
31.0
  0
ARC
  5
A46F
330
18
100
AcDbEntity
  8
contour
 62
     4
100
AcDbCircle
 10
95.0
 20
201.5978081465562
 30
0.0
 40
26.0
100
AcDbArc
 50
166.6576362029121
 51
103.342363797088
  0
CIRCLE
  5
A470
330
18
100
AcDbEntity
  8
contour
100
AcDbCircle
 10
95.0
 20
201.5978081465562
 30
0.0
 40
25.18800000000001
  0
LINE
  5
A471
330
18
100
AcDbEntity
  8
center
 48
0.3
100
AcDbLine
 10
95.00000000000012
 20
239.5978081465563
 30
0.0
 11
95.00000000000005
 21
163.5978081465562
 31
0.0
  0
LINE
  5
A472
330
18
100
AcDbEntity
  8
center
 48
0.3
100
AcDbLine
 10
57.00000000000006
 20
201.5978081465562
 30
0.0
 11
133.0000000000001
 21
201.5978081465562
 31
0.0
  0
CIRCLE
  5
A47A
330
18
100
AcDbEntity
  8
bowle
 48
0.2
100
AcDbCircle
 10
126.0000000000001
 20
201.5978081465562
 30
0.0
 40
3.5
  0
ARC
  5
A47B
330
18
100
AcDbEntity
  8
contour
 62
     4
100
AcDbCircle
 10
126.0000000000001
 20
201.5978081465562
 30
0.0
 40
2.0
100
AcDbArc
 50
165.5224878140701
 51
104.4775121859299
  0
CIRCLE
  5
A47C
330
18
100
AcDbEntity
  8
contour
100
AcDbCircle
 10
126.0000000000001
 20
201.5978081465562
 30
0.0
 40
1.62099999999998
  0
CIRCLE
  5
A480
330
18
100
AcDbEntity
  8
bowle
 48
0.2
100
AcDbCircle
 10
110.5
 20
228.4445956638737
 30
0.0
 40
3.5
  0
CIRCLE
  5
A481
330
18
100
AcDbEntity
  8
contour
100
AcDbCircle
 10
110.5
 20
228.4445956638737
 30
0.0
 40
1.62099999999998
  0
CIRCLE
  5
A482
330
18
100
AcDbEntity
  8
bowle
 48
0.2
100
AcDbCircle
 10
79.50000000000006
 20
228.4445956638737
 30
0.0
 40
3.499999999999999
  0
CIRCLE
  5
A483
330
18
100
AcDbEntity
  8
contour
100
AcDbCircle
 10
79.50000000000006
 20
228.4445956638737
 30
0.0
 40
1.62099999999998
  0
CIRCLE
  5
A484
330
18
100
AcDbEntity
  8
bowle
 48
0.2
100
AcDbCircle
 10
64.0
 20
201.5978081465561
 30
0.0
 40
3.5
  0
CIRCLE
  5
A485
330
18
100
AcDbEntity
  8
contour
100
AcDbCircle
 10
64.0
 20
201.5978081465561
 30
0.0
 40
1.62099999999998
  0
CIRCLE
  5
A486
330
18
100
AcDbEntity
  8
bowle
 48
0.2
100
AcDbCircle
 10
79.5
 20
174.7510206292384
 30
0.0
 40
3.5
  0
CIRCLE
  5
A487
330
18
100
AcDbEntity
  8
contour
100
AcDbCircle
 10
79.5
 20
174.7510206292384
 30
0.0
 40
1.62099999999998
  0
CIRCLE
  5
A488
330
18
100
AcDbEntity
  8
bowle
 48
0.2
100
AcDbCircle
 10
110.5
 20
174.7510206292386
 30
0.0
 40
3.5
  0
CIRCLE
  5
A489
330
18
100
AcDbEntity
  8
contour
100
AcDbCircle
 10
110.5
 20
174.7510206292386
 30
0.0
 40
1.62099999999998
  0
ARC
  5
A48A
330
18
100
AcDbEntity
  8
contour
 62
     4
100
AcDbCircle
 10
110.5
 20
228.4445956638737
 30
0.0
 40
2.0
100
AcDbArc
 50
165.5224878140701
 51
104.4775121859299
  0
ARC
  5
A48B
330
18
100
AcDbEntity
  8
contour
 62
     4
100
AcDbCircle
 10
79.50000000000006
 20
228.4445956638737
 30
0.0
 40
2.0
100
AcDbArc
 50
165.5224878140701
 51
104.4775121859299
  0
ARC
  5
A48C
330
18
100
AcDbEntity
  8
contour
 62
     4
100
AcDbCircle
 10
64.00000000000005
 20
201.5978081465562
 30
0.0
 40
2.0
100
AcDbArc
 50
165.5224878140701
 51
104.4775121859299
  0
ARC
  5
A48D
330
18
100
AcDbEntity
  8
contour
 62
     4
100
AcDbCircle
 10
79.5
 20
174.7510206292384
 30
0.0
 40
2.0
100
AcDbArc
 50
165.5224878140701
 51
104.4775121859299
  0
ARC
  5
A48E
330
18
100
AcDbEntity
  8
contour
 62
     4
100
AcDbCircle
 10
110.5
 20
174.7510206292386
 30
0.0
 40
2.0
100
AcDbArc
 50
165.5224878140701
 51
104.4775121859299
  0
CIRCLE
  5
A490
330
18
100
AcDbEntity
  8
bowle
 48
0.2
100
AcDbCircle
 10
122.4963065701559
 20
185.7228081465562
 30
0.0
 40
2.149999999999999
  0
CIRCLE
  5
A492
330
18
100
AcDbEntity
  8
bowle
 48
0.2
100
AcDbCircle
 10
122.4963065701559
 20
185.7228081465562
 30
0.0
 40
2.649999999999999
  0
LINE
  5
A495
330
18
100
AcDbEntity
  8
bowle
 48
0.2
100
AcDbLine
 10
127.2439018343476
 20
186.4458843579095
 30
0.0
 11
123.1147367097487
 21
188.8298589541251
 31
0.0
  0
LINE
  5
A496
330
18
100
AcDbEntity
  8
bowle
 48
0.2
100
AcDbLine
 10
120.1147367097487
 20
187.0978081465562
 30
0.0
 11
120.1147367097487
 21
183.6337065314184
 31
0.0
  0
LINE
  5
A497
330
18
100
AcDbEntity
  8
bowle
 48
0.2
100
AcDbLine
 10
120.1147367097487
 20
183.6337065314184
 30
0.0
 11
124.2439018343476
 21
181.2497319352028
 31
0.0
  0
LINE
  5
A498
330
18
100
AcDbEntity
  8
bowle
 48
0.2
100
AcDbLine
 10
120.1147367097487
 20
187.0978081465562
 30
0.0
 11
123.1147367097487
 21
188.8298589541251
 31
0.0
  0
LINE
  5
A499
330
18
100
AcDbEntity
  8
bowle
 48
0.2
100
AcDbLine
 10
123.1147367097487
 20
188.8298589541251
 30
0.0
 11
120.1147367097487
 21
183.6337065314184
 31
0.0
  0
LINE
  5
A49A
330
18
100
AcDbEntity
  8
bowle
 48
0.2
100
AcDbLine
 10
127.2439018343476
 20
186.4458843579095
 30
0.0
 11
127.714256014585
 21
186.5719153806607
 31
0.0
  0
LINE
  5
A49B
330
18
100
AcDbEntity
  8
bowle
 48
0.2
100
AcDbLine
 10
124.2439018343476
 20
181.2497319352029
 30
0.0
 11
124.3699328570989
 21
180.7793777549655
 31
0.0
  0
LINE
  5
A49C
330
18
100
AcDbEntity
  8
bowle
 48
0.2
100
AcDbLine
 10
124.2439018343476
 20
181.2497319352029
 30
0.0
 11
127.2439018343476
 21
186.4458843579095
 31
0.0
  0
CIRCLE
  5
A49D
330
18
100
AcDbEntity
  8
bowle
 48
0.2
100
AcDbCircle
 10
122.4963065701559
 20
217.4728081465562
 30
0.0
 40
2.149999999999999
  0
CIRCLE
  5
A49E
330
18
100
AcDbEntity
  8
bowle
 48
0.2
100
AcDbCircle
 10
122.4963065701559
 20
217.4728081465562
 30
0.0
 40
2.649999999999999
  0
LINE
  5
A49F
330
18
100
AcDbEntity
  8
bowle
 48
0.2
100
AcDbLine
 10
124.2439018343476
 20
221.9458843579095
 30
0.0
 11
124.3699328570988
 21
222.4162385381469
 31
0.0
  0
LINE
  5
A4A0
330
18
100
AcDbEntity
  8
bowle
 48
0.2
100
AcDbLine
 10
124.2439018343476
 20
221.9458843579095
 30
0.0
 11
120.1147367097487
 21
219.561909761694
 31
0.0
  0
LINE
  5
A4A1
330
18
100
AcDbEntity
  8
bowle
 48
0.2
100
AcDbLine
 10
120.1147367097487
 20
216.0978081465561
 30
0.0
 11
123.1147367097487
 21
214.3657573389873
 31
0.0
  0
LINE
  5
A4A2
330
18
100
AcDbEntity
  8
bowle
 48
0.2
100
AcDbLine
 10
123.1147367097487
 20
214.3657573389873
 30
0.0
 11
127.2439018343477
 21
216.7497319352029
 31
0.0
  0
LINE
  5
A4A3
330
18
100
AcDbEntity
  8
bowle
 48
0.2
100
AcDbLine
 10
120.1147367097487
 20
216.0978081465561
 30
0.0
 11
120.1147367097487
 21
219.561909761694
 31
0.0
  0
LINE
  5
A4A4
330
18
100
AcDbEntity
  8
bowle
 48
0.2
100
AcDbLine
 10
120.1147367097487
 20
219.561909761694
 30
0.0
 11
123.1147367097487
 21
214.3657573389873
 31
0.0
  0
LINE
  5
A4A5
330
18
100
AcDbEntity
  8
bowle
 48
0.2
100
AcDbLine
 10
127.2439018343476
 20
216.7497319352029
 30
0.0
 11
127.7142560145849
 21
216.6237009124518
 31
0.0
  0
LINE
  5
A4A6
330
18
100
AcDbEntity
  8
bowle
 48
0.2
100
AcDbLine
 10
127.2439018343476
 20
216.7497319352029
 30
0.0
 11
124.2439018343477
 21
221.9458843579095
 31
0.0
  0
CIRCLE
  5
A4A7
330
18
100
AcDbEntity
  8
bowle
 48
0.2
100
AcDbCircle
 10
95.0
 20
233.3478081465562
 30
0.0
 40
2.149999999999999
  0
CIRCLE
  5
A4A8
330
18
100
AcDbEntity
  8
bowle
 48
0.2
100
AcDbCircle
 10
95.0
 20
233.3478081465562
 30
0.0
 40
2.649999999999999
  0
LINE
  5
A4A9
330
18
100
AcDbEntity
  8
bowle
 48
0.2
100
AcDbLine
 10
92.0
 20
237.0978081465563
 30
0.0
 11
91.6556768425139
 21
237.4421313040425
 31
0.0
  0
LINE
  5
A4AA
330
18
100
AcDbEntity
  8
bowle
 48
0.2
100
AcDbLine
 10
92.0
 20
237.0978081465563
 30
0.0
 11
92.0
 21
232.3298589541251
 31
0.0
  0
LINE
  5
A4AB
330
18
100
AcDbEntity
  8
bowle
 48
0.2
100
AcDbLine
 10
95.00000000000012
 20
230.5978081465561
 30
0.0
 11
98.0
 21
232.3298589541251
 31
0.0
  0
LINE
  5
A4AC
330
18
100
AcDbEntity
  8
bowle
 48
0.2
100
AcDbLine
 10
98.0
 20
232.3298589541251
 30
0.0
 11
98.00000000000006
 21
237.0978081465563
 31
0.0
  0
LINE
  5
A4AD
330
18
100
AcDbEntity
  8
bowle
 48
0.2
100
AcDbLine
 10
95.00000000000012
 20
230.5978081465561
 30
0.0
 11
92.0
 21
232.3298589541251
 31
0.0
  0
LINE
  5
A4AE
330
18
100
AcDbEntity
  8
bowle
 48
0.2
100
AcDbLine
 10
92.0
 20
232.3298589541251
 30
0.0
 11
98.0
 21
232.3298589541251
 31
0.0
  0
LINE
  5
A4AF
330
18
100
AcDbEntity
  8
bowle
 48
0.2
100
AcDbLine
 10
98.0
 20
237.0978081465563
 30
0.0
 11
98.34432315748621
 21
237.4421313040424
 31
0.0
  0
LINE
  5
A4B0
330
18
100
AcDbEntity
  8
bowle
 48
0.2
100
AcDbLine
 10
98.0
 20
237.0978081465563
 30
0.0
 11
92.00000000000006
 21
237.0978081465563
 31
0.0
  0
CIRCLE
  5
A4B1
330
18
100
AcDbEntity
  8
bowle
 48
0.2
100
AcDbCircle
 10
67.50369342984402
 20
217.4728081465562
 30
0.0
 40
2.149999999999999
  0
CIRCLE
  5
A4B2
330
18
100
AcDbEntity
  8
bowle
 48
0.2
100
AcDbCircle
 10
67.50369342984402
 20
217.4728081465562
 30
0.0
 40
2.649999999999999
  0
LINE
  5
A4B3
330
18
100
AcDbEntity
  8
bowle
 48
0.2
100
AcDbLine
 10
62.75609816565236
 20
216.7497319352029
 30
0.0
 11
62.28574398541502
 21
216.6237009124517
 31
0.0
  0
LINE
  5
A4B4
330
18
100
AcDbEntity
  8
bowle
 48
0.2
100
AcDbLine
 10
62.75609816565236
 20
216.7497319352029
 30
0.0
 11
66.88526329025126
 21
214.3657573389873
 31
0.0
  0
LINE
  5
A4B5
330
18
100
AcDbEntity
  8
bowle
 48
0.2
100
AcDbLine
 10
69.88526329025131
 20
216.0978081465561
 30
0.0
 11
69.88526329025126
 21
219.561909761694
 31
0.0
  0
LINE
  5
A4B6
330
18
100
AcDbEntity
  8
bowle
 48
0.2
100
AcDbLine
 10
69.88526329025126
 20
219.561909761694
 30
0.0
 11
65.75609816565236
 21
221.9458843579095
 31
0.0
  0
LINE
  5
A4B7
330
18
100
AcDbEntity
  8
bowle
 48
0.2
100
AcDbLine
 10
69.88526329025131
 20
216.0978081465561
 30
0.0
 11
66.88526329025126
 21
214.3657573389873
 31
0.0
  0
LINE
  5
A4B8
330
18
100
AcDbEntity
  8
bowle
 48
0.2
100
AcDbLine
 10
66.88526329025126
 20
214.3657573389873
 30
0.0
 11
69.88526329025126
 21
219.561909761694
 31
0.0
  0
LINE
  5
A4B9
330
18
100
AcDbEntity
  8
bowle
 48
0.2
100
AcDbLine
 10
65.75609816565236
 20
221.9458843579095
 30
0.0
 11
65.63006714290117
 21
222.4162385381469
 31
0.0
  0
LINE
  5
A4BA
330
18
100
AcDbEntity
  8
bowle
 48
0.2
100
AcDbLine
 10
65.75609816565236
 20
221.9458843579095
 30
0.0
 11
62.75609816565236
 21
216.7497319352029
 31
0.0
  0
CIRCLE
  5
A4BB
330
18
100
AcDbEntity
  8
bowle
 48
0.2
100
AcDbCircle
 10
67.50369342984408
 20
185.7228081465562
 30
0.0
 40
2.149999999999999
  0
CIRCLE
  5
A4BC
330
18
100
AcDbEntity
  8
bowle
 48
0.2
100
AcDbCircle
 10
67.50369342984408
 20
185.7228081465562
 30
0.0
 40
2.649999999999999
  0
LINE
  5
A4BD
330
18
100
AcDbEntity
  8
bowle
 48
0.2
100
AcDbLine
 10
65.75609816565242
 20
181.2497319352028
 30
0.0
 11
65.63006714290117
 21
180.7793777549654
 31
0.0
  0
LINE
  5
A4BE
330
18
100
AcDbEntity
  8
bowle
 48
0.2
100
AcDbLine
 10
65.75609816565242
 20
181.2497319352028
 30
0.0
 11
69.88526329025131
 21
183.6337065314184
 31
0.0
  0
LINE
  5
A4BF
330
18
100
AcDbEntity
  8
bowle
 48
0.2
100
AcDbLine
 10
69.88526329025131
 20
187.0978081465562
 30
0.0
 11
66.88526329025132
 21
188.829858954125
 31
0.0
  0
LINE
  5
A4C0
330
18
100
AcDbEntity
  8
bowle
 48
0.2
100
AcDbLine
 10
66.88526329025132
 20
188.829858954125
 30
0.0
 11
62.75609816565236
 21
186.4458843579095
 31
0.0
  0
LINE
  5
A4C1
330
18
100
AcDbEntity
  8
bowle
 48
0.2
100
AcDbLine
 10
69.88526329025131
 20
187.0978081465562
 30
0.0
 11
69.88526329025131
 21
183.6337065314184
 31
0.0
  0
LINE
  5
A4C2
330
18
100
AcDbEntity
  8
bowle
 48
0.2
100
AcDbLine
 10
69.88526329025131
 20
183.6337065314184
 30
0.0
 11
66.88526329025132
 21
188.829858954125
 31
0.0
  0
LINE
  5
A4C3
330
18
100
AcDbEntity
  8
bowle
 48
0.2
100
AcDbLine
 10
62.75609816565242
 20
186.4458843579094
 30
0.0
 11
62.28574398541502
 21
186.5719153806606
 31
0.0
  0
LINE
  5
A4C4
330
18
100
AcDbEntity
  8
bowle
 48
0.2
100
AcDbLine
 10
62.75609816565242
 20
186.4458843579094
 30
0.0
 11
65.75609816565236
 21
181.2497319352028
 31
0.0
  0
CIRCLE
  5
A4C5
330
18
100
AcDbEntity
  8
bowle
 48
0.2
100
AcDbCircle
 10
95.00000000000005
 20
169.8478081465562
 30
0.0
 40
2.149999999999999
  0
CIRCLE
  5
A4C6
330
18
100
AcDbEntity
  8
bowle
 48
0.2
100
AcDbCircle
 10
95.00000000000005
 20
169.8478081465562
 30
0.0
 40
2.649999999999999
  0
LINE
  5
A4C7
330
18
100
AcDbEntity
  8
bowle
 48
0.2
100
AcDbLine
 10
98.0
 20
166.0978081465562
 30
0.0
 11
98.34432315748614
 21
165.75348498907
 31
0.0
  0
LINE
  5
A4C8
330
18
100
AcDbEntity
  8
bowle
 48
0.2
100
AcDbLine
 10
98.0
 20
166.0978081465562
 30
0.0
 11
98.0
 21
170.8657573389873
 31
0.0
  0
LINE
  5
A4C9
330
18
100
AcDbEntity
  8
bowle
 48
0.2
100
AcDbLine
 10
95.0
 20
172.5978081465562
 30
0.0
 11
92.0
 21
170.8657573389873
 31
0.0
  0
LINE
  5
A4CA
330
18
100
AcDbEntity
  8
bowle
 48
0.2
100
AcDbLine
 10
92.0
 20
170.8657573389873
 30
0.0
 11
92.0
 21
166.0978081465561
 31
0.0
  0
LINE
  5
A4CB
330
18
100
AcDbEntity
  8
bowle
 48
0.2
100
AcDbLine
 10
95.0
 20
172.5978081465562
 30
0.0
 11
98.0
 21
170.8657573389873
 31
0.0
  0
LINE
  5
A4CC
330
18
100
AcDbEntity
  8
bowle
 48
0.2
100
AcDbLine
 10
98.0
 20
170.8657573389873
 30
0.0
 11
92.0
 21
170.8657573389873
 31
0.0
  0
LINE
  5
A4CD
330
18
100
AcDbEntity
  8
bowle
 48
0.2
100
AcDbLine
 10
92.0
 20
166.0978081465562
 30
0.0
 11
91.6556768425139
 21
165.75348498907
 31
0.0
  0
LINE
  5
A4CE
330
18
100
AcDbEntity
  8
bowle
 48
0.2
100
AcDbLine
 10
92.0
 20
166.0978081465562
 30
0.0
 11
98.0
 21
166.0978081465561
 31
0.0
  0
LINE
  5
A4D0
102
{ACAD_REACTORS
330
B2A5
102
}
330
18
100
AcDbEntity
  8
contour
100
AcDbLine
 10
59.00000000000005
 20
128.9413086737984
 30
0.0
 11
59.0
 21
113.0413086737984
 31
0.0
  0
LINE
  5
A4D1
102
{ACAD_REACTORS
330
B2A5
102
}
330
18
100
AcDbEntity
  8
contour
100
AcDbLine
 10
60.0
 20
104.9413086737984
 30
0.0
 11
130.0
 21
104.9413086737984
 31
0.0
  0
LINE
  5
A4D2
102
{ACAD_REACTORS
330
B2A5
102
}
330
18
100
AcDbEntity
  8
contour
100
AcDbLine
 10
131.0
 20
105.9413086737984
 30
0.0
 11
131.0
 21
109.0413086737984
 31
0.0
  0
LINE
  5
A4D3
102
{ACAD_REACTORS
330
B2A5
102
}
330
18
100
AcDbEntity
  8
contour
100
AcDbLine
 10
130.0
 20
129.9413086737984
 30
0.0
 11
60.00000000000006
 21
129.9413086737984
 31
0.0
  0
LINE
  5
A4D4
102
{ACAD_REACTORS
330
B2A5
102
}
330
18
100
AcDbEntity
  8
contour
100
AcDbLine
 10
60.0
 20
110.0413086737984
 30
0.0
 11
67.0
 21
110.0413086737984
 31
0.0
  0
LINE
  5
A4D5
102
{ACAD_REACTORS
330
B2A5
102
}
330
18
100
AcDbEntity
  8
contour
100
AcDbLine
 10
60.0
 20
112.0413086737984
 30
0.0
 11
67.0
 21
112.0413086737984
 31
0.0
  0
LINE
  5
A4D6
330
18
100
AcDbEntity
  8
center
 48
0.3
100
AcDbLine
 10
95.0
 20
131.9413086737984
 30
0.0
 11
95.0
 21
102.9413086737984
 31
0.0
  0
LINE
  5
A4D8
102
{ACAD_REACTORS
330
B2A5
102
}
330
18
100
AcDbEntity
  8
contour
100
AcDbLine
 10
67.0
 20
110.0413086737984
 30
0.0
 11
67.0
 21
112.0413086737984
 31
0.0
  0
LINE
  5
A4D9
102
{ACAD_REACTORS
330
B2A5
102
}
330
18
100
AcDbEntity
  8
contour
100
AcDbLine
 10
123.0
 20
110.0413086737984
 30
0.0
 11
123.0
 21
112.0413086737984
 31
0.0
  0
LINE
  5
A4DA
102
{ACAD_REACTORS
330
B2A5
102
}
330
18
100
AcDbEntity
  8
contour
100
AcDbLine
 10
59.0
 20
109.0413086737984
 30
0.0
 11
59.0
 21
105.9413086737984
 31
0.0
  0
LINE
  5
A4DB
102
{ACAD_REACTORS
330
B2A5
102
}
330
18
100
AcDbEntity
  8
contour
100
AcDbLine
 10
131.0
 20
113.0413086737984
 30
0.0
 11
131.0
 21
128.9413086737984
 31
0.0
  0
LINE
  5
A4DC
102
{ACAD_REACTORS
330
B2A5
102
}
330
18
100
AcDbEntity
  8
contour
100
AcDbLine
 10
127.9999999999999
 20
112.0413086737984
 30
0.0
 11
130.0
 21
112.0413086737984
 31
0.0
  0
LINE
  5
A4DD
102
{ACAD_REACTORS
330
B2A5
102
}
330
18
100
AcDbEntity
  8
contour
100
AcDbLine
 10
127.9999999999999
 20
110.0413086737984
 30
0.0
 11
130.0
 21
110.0413086737984
 31
0.0
  0
LINE
  5
A4DE
102
{ACAD_REACTORS
330
B2A5
102
}
330
18
100
AcDbEntity
  8
contour
100
AcDbLine
 10
61.0
 20
112.8413086737984
 30
0.0
 11
123.9999999999999
 21
112.8413086737984
 31
0.0
  0
LINE
  5
A4DF
102
{ACAD_REACTORS
330
B2A5
102
}
330
18
100
AcDbEntity
  8
contour
100
AcDbLine
 10
61.0
 20
114.8413086737984
 30
0.0
 11
123.9999999999999
 21
114.8413086737984
 31
0.0
  0
LINE
  5
A4E2
102
{ACAD_REACTORS
330
B2A5
102
}
330
18
100
AcDbEntity
  8
contour
100
AcDbLine
 10
61.0
 20
114.8413086737984
 30
0.0
 11
61.0
 21
112.8413086737984
 31
0.0
  0
LINE
  5
A4E3
330
18
100
AcDbEntity
  8
center
 48
0.3
100
AcDbLine
 10
95.0
 20
131.9413086737984
 30
0.0
 11
95.0
 21
102.9413086737984
 31
0.0
  0
LINE
  5
A4E4
102
{ACAD_REACTORS
330
B2A5
102
}
330
18
100
AcDbEntity
  8
contour
100
AcDbLine
 10
129.0
 20
114.8413086737984
 30
0.0
 11
129.0
 21
112.8413086737984
 31
0.0
  0
LINE
  5
A4E8
102
{ACAD_REACTORS
330
B2A5
102
}
330
18
100
AcDbEntity
  8
contour
100
AcDbLine
 10
59.49999999999988
 20
117.9413086737984
 30
0.0
 11
59.0
 21
117.4413086737985
 31
0.0
  0
LINE
  5
A4E9
102
{ACAD_REACTORS
330
B2A5
102
}
330
18
100
AcDbEntity
  8
contour
100
AcDbLine
 10
59.49999999999988
 20
117.9413086737984
 30
0.0
 11
64.26794919243104
 21
117.9413086737984
 31
0.0
  0
LINE
  5
A4EA
102
{ACAD_REACTORS
330
B2A5
102
}
330
18
100
AcDbEntity
  8
contour
100
AcDbLine
 10
66.0
 20
120.9413086737984
 30
0.0
 11
64.26794919243104
 21
123.9413086737984
 31
0.0
  0
LINE
  5
A4EB
102
{ACAD_REACTORS
330
B2A5
102
}
330
18
100
AcDbEntity
  8
contour
100
AcDbLine
 10
64.26794919243104
 20
123.9413086737984
 30
0.0
 11
59.49999999999988
 21
123.9413086737984
 31
0.0
  0
LINE
  5
A4EC
102
{ACAD_REACTORS
330
B2A5
102
}
330
18
100
AcDbEntity
  8
contour
100
AcDbLine
 10
66.0
 20
120.9413086737984
 30
0.0
 11
64.26794919243104
 21
117.9413086737984
 31
0.0
  0
LINE
  5
A4ED
330
18
100
AcDbEntity
  8
contour
100
AcDbLine
 10
64.26794919243104
 20
117.9413086737984
 30
0.0
 11
64.26794919243104
 21
123.9413086737984
 31
0.0
  0
LINE
  5
A4EE
102
{ACAD_REACTORS
330
B2A5
102
}
330
18
100
AcDbEntity
  8
contour
100
AcDbLine
 10
59.49999999999988
 20
123.9413086737984
 30
0.0
 11
59.0
 21
124.4413086737983
 31
0.0
  0
LINE
  5
A4EF
330
18
100
AcDbEntity
  8
contour
100
AcDbLine
 10
59.49999999999988
 20
123.9413086737984
 30
0.0
 11
59.49999999999988
 21
117.9413086737984
 31
0.0
  0
LINE
  5
A4FD
330
18
100
AcDbEntity
  8
center
 48
0.2
100
AcDbLine
 10
68.0
 20
120.9413086737984
 30
0.0
 11
56.99999999999994
 21
120.9413086737984
 31
0.0
  0
LINE
  5
A4FE
330
18
100
AcDbEntity
  8
center
 48
0.3
100
AcDbLine
 10
126.0000000000002
 20
131.9413086737984
 30
0.0
 11
126.0000000000002
 21
102.9413086737984
 31
0.0
  0
INSERT
  5
A537
102
{ACAD_REACTORS
330
B2A5
102
}
330
18
100
AcDbEntity
  8
contour
100
AcDbBlockReference
  2
LS3
 10
-207.3877449821334
 20
100.7636458020267
 30
0.0
  0
LINE
  5
A538
102
{ACAD_REACTORS
330
B2A5
102
}
330
18
100
AcDbEntity
  8
contour
100
AcDbLine
 10
122.4999999999999
 20
105.2413086737985
 30
0.0
 11
122.4999999999999
 21
104.9413086737984
 31
0.0
  0
LINE
  5
A539
102
{ACAD_REACTORS
330
B2A5
102
}
330
18
100
AcDbEntity
  8
contour
100
AcDbLine
 10
129.4999999999999
 20
105.2413086737985
 30
0.0
 11
129.4999999999999
 21
104.9413086737984
 31
0.0
  0
LINE
  5
A53F
102
{ACAD_REACTORS
330
B2A5
102
}
330
18
100
AcDbEntity
  8
contour
 62
     4
100
AcDbLine
 10
124.0
 20
126.1413086737984
 30
0.0
 11
124.0
 21
129.9413086737984
 31
0.0
  0
LINE
  5
A540
102
{ACAD_REACTORS
330
B2A5
102
}
330
18
100
AcDbEntity
  8
contour
 62
     4
100
AcDbLine
 10
127.9999999999999
 20
126.1413086737984
 30
0.0
 11
127.9999999999999
 21
129.9413086737984
 31
0.0
  0
LINE
  5
A541
102
{ACAD_REACTORS
330
B2A5
102
}
330
18
100
AcDbEntity
  8
contour
100
AcDbLine
 10
127.5999999999999
 20
126.5413086737984
 30
0.0
 11
127.5999999999999
 21
129.9413086737984
 31
0.0
  0
LINE
  5
A542
102
{ACAD_REACTORS
330
B2A5
102
}
330
18
100
AcDbEntity
  8
contour
100
AcDbLine
 10
124.3999999999999
 20
126.5413086737984
 30
0.0
 11
124.3999999999999
 21
129.9413086737984
 31
0.0
  0
LINE
  5
A543
102
{ACAD_REACTORS
330
B2A5
102
}
330
18
100
AcDbEntity
  8
contour
100
AcDbLine
 10
123.0
 20
112.0413086737984
 30
0.0
 11
123.9999999999999
 21
112.0413086737984
 31
0.0
  0
LINE
  5
A544
102
{ACAD_REACTORS
330
B2A5
102
}
330
18
100
AcDbEntity
  8
contour
100
AcDbLine
 10
123.0
 20
110.0413086737984
 30
0.0
 11
123.9999999999999
 21
110.0413086737984
 31
0.0
  0
LINE
  5
A545
102
{ACAD_REACTORS
330
B2A5
102
}
330
18
100
AcDbEntity
  8
contour
100
AcDbLine
 10
129.0
 20
114.8413086737984
 30
0.0
 11
127.9999999999999
 21
114.8413086737984
 31
0.0
  0
LINE
  5
A546
102
{ACAD_REACTORS
330
B2A5
102
}
330
18
100
AcDbEntity
  8
contour
100
AcDbLine
 10
129.0
 20
112.8413086737984
 30
0.0
 11
127.9999999999999
 21
112.8413086737984
 31
0.0
  0
ARC
  5
A548
102
{ACAD_REACTORS
330
B2A5
102
}
330
18
100
AcDbEntity
  8
contour
100
AcDbCircle
 10
60.0
 20
105.9413086737984
 30
0.0
 40
1.0
100
AcDbArc
 50
180.0
 51
270.0
  0
ARC
  5
A549
102
{ACAD_REACTORS
330
B2A5
102
}
330
18
100
AcDbEntity
  8
contour
100
AcDbCircle
 10
60.0
 20
109.0413086737984
 30
0.0
 40
1.0
100
AcDbArc
 50
90.0
 51
180.0
  0
ARC
  5
A54A
102
{ACAD_REACTORS
330
B2A5
102
}
330
18
100
AcDbEntity
  8
contour
100
AcDbCircle
 10
60.0
 20
113.0413086737984
 30
0.0
 40
1.0
100
AcDbArc
 50
180.0
 51
270.0
  0
ARC
  5
A54B
102
{ACAD_REACTORS
330
B2A5
102
}
330
18
100
AcDbEntity
  8
contour
100
AcDbCircle
 10
60.00000000000006
 20
128.9413086737984
 30
0.0
 40
1.0
100
AcDbArc
 50
90.0
 51
180.0
  0
ARC
  5
A54C
102
{ACAD_REACTORS
330
B2A5
102
}
330
18
100
AcDbEntity
  8
contour
100
AcDbCircle
 10
130.0
 20
128.9413086737984
 30
0.0
 40
1.0
100
AcDbArc
 50
0.0
 51
90.0
  0
ARC
  5
A54D
102
{ACAD_REACTORS
330
B2A5
102
}
330
18
100
AcDbEntity
  8
contour
100
AcDbCircle
 10
130.0
 20
113.0413086737984
 30
0.0
 40
1.0
100
AcDbArc
 50
270.0
 51
0.0
  0
ARC
  5
A54E
102
{ACAD_REACTORS
330
B2A5
102
}
330
18
100
AcDbEntity
  8
contour
100
AcDbCircle
 10
130.0
 20
109.0413086737984
 30
0.0
 40
1.0
100
AcDbArc
 50
0.0
 51
90.0
  0
ARC
  5
A54F
102
{ACAD_REACTORS
330
B2A5
102
}
330
18
100
AcDbEntity
  8
contour
100
AcDbCircle
 10
130.0
 20
105.9413086737984
 30
0.0
 40
1.0
100
AcDbArc
 50
270.0
 51
0.0
  0
LINE
  5
A550
102
{ACAD_REACTORS
330
B2A5
102
}
330
18
100
AcDbEntity
  8
contour
 62
     4
100
AcDbLine
 10
69.00000000000005
 20
129.2533086737983
 30
0.0
 11
69.00000000000005
 21
115.5293086737984
 31
0.0
  0
LINE
  5
A551
102
{ACAD_REACTORS
330
B2A5
102
}
330
18
100
AcDbEntity
  8
contour
100
AcDbLine
 10
69.81200000000001
 20
128.4413086737984
 30
0.0
 11
69.81200000000001
 21
116.3413086737984
 31
0.0
  0
LINE
  5
A552
102
{ACAD_REACTORS
330
B2A5
102
}
330
18
100
AcDbEntity
  8
contour
100
AcDbLine
 10
68.31200000000001
 20
104.9413086737984
 30
0.0
 11
69.81200000000001
 21
106.4413086737984
 31
0.0
  0
LINE
  5
A553
102
{ACAD_REACTORS
330
B2A5
102
}
330
18
100
AcDbEntity
  8
contour
100
AcDbLine
 10
68.31200000000001
 20
112.8413086737984
 30
0.0
 11
69.81200000000001
 21
111.3413086737984
 31
0.0
  0
LINE
  5
A554
102
{ACAD_REACTORS
330
B2A5
102
}
330
18
100
AcDbEntity
  8
contour
100
AcDbLine
 10
68.31200000000001
 20
114.8413086737984
 30
0.0
 11
69.81200000000001
 21
116.3413086737984
 31
0.0
  0
LINE
  5
A555
102
{ACAD_REACTORS
330
B2A5
102
}
330
18
100
AcDbEntity
  8
contour
100
AcDbLine
 10
68.31200000000001
 20
129.9413086737984
 30
0.0
 11
69.81200000000001
 21
128.4413086737984
 31
0.0
  0
LINE
  5
A559
102
{ACAD_REACTORS
330
B2A5
102
}
330
18
100
AcDbEntity
  8
contour
100
AcDbLine
 10
69.81200000000001
 20
111.3413086737985
 30
0.0
 11
69.81200000000001
 21
106.4413086737984
 31
0.0
  0
LINE
  5
A55A
102
{ACAD_REACTORS
330
B2A5
102
}
330
18
100
AcDbEntity
  8
contour
 62
     4
100
AcDbLine
 10
69.00000000000005
 20
112.1533086737984
 30
0.0
 11
69.00000000000005
 21
105.6293086737984
 31
0.0
  0
LINE
  5
A55B
102
{ACAD_REACTORS
330
B2A5
102
}
330
18
100
AcDbEntity
  8
contour
 62
     4
100
AcDbLine
 10
121.0
 20
129.2533086737983
 30
0.0
 11
121.0
 21
115.5293086737984
 31
0.0
  0
LINE
  5
A55C
102
{ACAD_REACTORS
330
B2A5
102
}
330
18
100
AcDbEntity
  8
contour
 62
     4
100
AcDbLine
 10
121.0
 20
112.1533086737984
 30
0.0
 11
121.0
 21
105.6293086737984
 31
0.0
  0
LINE
  5
A55D
102
{ACAD_REACTORS
330
B2A5
102
}
330
18
100
AcDbEntity
  8
contour
100
AcDbLine
 10
120.188
 20
128.4413086737984
 30
0.0
 11
120.188
 21
116.3413086737984
 31
0.0
  0
LINE
  5
A55E
102
{ACAD_REACTORS
330
B2A5
102
}
330
18
100
AcDbEntity
  8
contour
100
AcDbLine
 10
120.188
 20
111.3413086737985
 30
0.0
 11
120.188
 21
106.4413086737984
 31
0.0
  0
LINE
  5
A55F
102
{ACAD_REACTORS
330
B2A5
102
}
330
18
100
AcDbEntity
  8
contour
100
AcDbLine
 10
121.688
 20
104.9413086737984
 30
0.0
 11
120.188
 21
106.4413086737984
 31
0.0
  0
LINE
  5
A560
102
{ACAD_REACTORS
330
B2A5
102
}
330
18
100
AcDbEntity
  8
contour
100
AcDbLine
 10
121.688
 20
112.8413086737984
 30
0.0
 11
120.188
 21
111.3413086737984
 31
0.0
  0
LINE
  5
A561
102
{ACAD_REACTORS
330
B2A5
102
}
330
18
100
AcDbEntity
  8
contour
100
AcDbLine
 10
121.688
 20
114.8413086737984
 30
0.0
 11
120.188
 21
116.3413086737984
 31
0.0
  0
LINE
  5
A562
102
{ACAD_REACTORS
330
B2A5
102
}
330
18
100
AcDbEntity
  8
contour
100
AcDbLine
 10
121.688
 20
129.9413086737984
 30
0.0
 11
120.188
 21
128.4413086737984
 31
0.0
  0
LINE
  5
A563
330
18
100
AcDbEntity
  8
contour
100
AcDbLine
 10
69.81200000000001
 20
128.4413086737984
 30
0.0
 11
120.188
 21
128.4413086737984
 31
0.0
  0
LINE
  5
A564
330
18
100
AcDbEntity
  8
contour
100
AcDbLine
 10
120.188
 20
116.3413086737984
 30
0.0
 11
69.81200000000001
 21
116.3413086737984
 31
0.0
  0
LINE
  5
A565
330
18
100
AcDbEntity
  8
contour
100
AcDbLine
 10
69.81200000000001
 20
111.3413086737984
 30
0.0
 11
120.188
 21
111.3413086737984
 31
0.0
  0
LINE
  5
A566
330
18
100
AcDbEntity
  8
contour
100
AcDbLine
 10
120.188
 20
106.4413086737984
 30
0.0
 11
69.81200000000001
 21
106.4413086737984
 31
0.0
  0
LINE
  5
A567
330
18
100
AcDbEntity
  8
0
 62
     7
100
AcDbLine
 10
47.92942413992534
 20
27.65712907016098
 30
0.0
 11
53.04580144287854
 21
28.93622339589928
 31
0.0
  0
ARC
  5
A56B
330
18
100
AcDbEntity
  8
center
 48
0.1
100
AcDbCircle
 10
95.0
 20
201.5978081465561
 30
0.0
 40
31.75
100
AcDbArc
 50
81.60113184292102
 51
98.39886815707899
  0
ARC
  5
A56C
330
18
100
AcDbEntity
  8
center
 48
0.1
100
AcDbCircle
 10
95.00000000000012
 20
201.5978081465561
 30
0.0
 40
31.75
100
AcDbArc
 50
141.6011318429211
 51
168.2146579229762
  0
ARC
  5
A56E
330
18
100
AcDbEntity
  8
center
 48
0.1
100
AcDbCircle
 10
95.00000000000023
 20
201.5978081465563
 30
0.0
 40
31.75
100
AcDbArc
 50
261.601131842921
 51
278.398868157079
  0
ARC
  5
A56F
330
18
100
AcDbEntity
  8
center
 48
0.1
100
AcDbCircle
 10
95.00000000000012
 20
201.5978081465564
 30
0.0
 40
31.75
100
AcDbArc
 50
321.6011318429205
 51
348.2146579229763
  0
LINE
  5
A572
330
18
100
AcDbEntity
  8
center
 48
0.1
100
AcDbLine
 10
115.0813970629537
 20
213.1918081465559
 30
0.0
 11
127.9089653438086
 21
220.5978081465564
 31
0.0
  0
LINE
  5
A57A
330
18
100
AcDbEntity
  8
center
 48
0.1
100
AcDbLine
 10
115.0813970629537
 20
190.0038081465565
 30
0.0
 11
127.9089653438086
 21
182.597808146556
 31
0.0
  0
LINE
  5
A57B
330
18
100
AcDbEntity
  8
center
 48
0.1
100
AcDbLine
 10
74.91860293704627
 20
213.191808146556
 30
0.0
 11
62.09103465619159
 21
220.5978081465564
 31
0.0
  0
LINE
  5
A57C
330
18
100
AcDbEntity
  8
center
 48
0.1
100
AcDbLine
 10
74.91860293704633
 20
190.0038081465564
 30
0.0
 11
62.09103465619159
 21
182.597808146556
 31
0.0
  0
LINE
  5
A57D
330
18
100
AcDbEntity
  8
center
 48
0.1
100
AcDbLine
 10
83.40600000000007
 20
221.6792052095098
 30
0.0
 11
76.0
 21
234.5067734903649
 31
0.0
  0
CIRCLE
  5
A581
330
18
100
AcDbEntity
  8
contour
100
AcDbCircle
 10
95.00000000000012
 20
201.5978081465562
 30
0.0
 40
26.68800000000016
  0
LINE
  5
A583
330
18
100
AcDbEntity
  8
center
 48
0.1
100
AcDbLine
 10
83.40600000000007
 20
181.5164110836026
 30
0.0
 11
76.0
 21
168.6888428027476
 31
0.0
  0
LINE
  5
A584
330
18
100
AcDbEntity
  8
center
 48
0.1
100
AcDbLine
 10
106.5940000000002
 20
221.6792052095098
 30
0.0
 11
114.0000000000003
 21
234.5067734903649
 31
0.0
  0
LINE
  5
A585
330
18
100
AcDbEntity
  8
center
 48
0.1
100
AcDbLine
 10
106.5940000000002
 20
181.5164110836026
 30
0.0
 11
114.0000000000003
 21
168.6888428027476
 31
0.0
  0
LINE
  5
A59E
102
{ACAD_REACTORS
330
B2A5
102
}
330
18
100
AcDbEntity
  8
contour
100
AcDbLine
 10
65.39999999999986
 20
105.4413086737984
 30
0.0
 11
65.89999999999986
 21
104.9413086737984
 31
0.0
  0
LINE
  5
A59F
102
{ACAD_REACTORS
330
B2A5
102
}
330
18
100
AcDbEntity
  8
contour
100
AcDbLine
 10
65.39999999999986
 20
107.7000055950408
 30
0.0
 11
63.24999999999988
 21
108.9413086737984
 31
0.0
  0
LINE
  5
A5A0
102
{ACAD_REACTORS
330
B2A5
102
}
330
18
100
AcDbEntity
  8
contour
100
AcDbLine
 10
61.09999999999996
 20
107.7000055950408
 30
0.0
 11
61.09999999999996
 21
105.4413086737984
 31
0.0
  0
LINE
  5
A5A1
102
{ACAD_REACTORS
330
B2A5
102
}
330
18
100
AcDbEntity
  8
contour
100
AcDbLine
 10
60.59999999999996
 20
104.9413086737984
 30
0.0
 11
61.09999999999996
 21
105.4413086737984
 31
0.0
  0
LINE
  5
A5A2
102
{ACAD_REACTORS
330
B2A5
102
}
330
18
100
AcDbEntity
  8
contour
100
AcDbLine
 10
65.39999999999981
 20
107.7000055950408
 30
0.0
 11
65.39999999999986
 21
105.4413086737985
 31
0.0
  0
LINE
  5
A5A3
102
{ACAD_REACTORS
330
B2A5
102
}
330
18
100
AcDbEntity
  8
contour
100
AcDbLine
 10
61.09999999999996
 20
107.7000055950408
 30
0.0
 11
63.24999999999988
 21
108.9413086737984
 31
0.0
  0
LINE
  5
A5A4
330
18
100
AcDbEntity
  8
contour
100
AcDbLine
 10
61.09999999999996
 20
107.7000055950408
 30
0.0
 11
65.39999999999986
 21
107.7000055950408
 31
0.0
  0
LINE
  5
A5A5
330
18
100
AcDbEntity
  8
contour
100
AcDbLine
 10
61.09999999999996
 20
105.4413086737984
 30
0.0
 11
65.39999999999986
 21
105.4413086737985
 31
0.0
  0
LINE
  5
A5A6
102
{ACAD_REACTORS
330
B2A5
102
}
330
18
100
AcDbEntity
  8
center
 48
0.2
100
AcDbLine
 10
63.24999999999988
 20
110.9413086737984
 30
0.0
 11
63.24999999999988
 21
102.9413086737984
 31
0.0
  0
MTEXT
  5
AB6F
330
18
100
AcDbEntity
  8
mark
 62
     3
100
AcDbMText
 10
113.0546603431268
 20
100.3592781808597
 30
0.0
 40
2.5
 41
0.0
 71
     5
 72
     1
  1
C1.5
 11
0.7071067811865478
 21
0.7071067811865474
 31
0.0
 73
     1
 44
1.0
1001
ACAD
1000
ACAD_MTEXT_DEFINED_HEIGHT_BEGIN
1070
    46
1040
0.0
1000
ACAD_MTEXT_DEFINED_HEIGHT_END
  0
LEADER
  5
AB70
330
18
100
AcDbEntity
  8
mark
100
AcDbLeader
  3
STANDARD
 76
     2
 10
120.938
 20
105.6913086737984
 30
0.0
 10
111.8676602328053
 20
96.6209689066035
 30
0.0
211
0.0000000000000095
221
-1.0
231
0.0
1001
ACAD
1000
DSTYLE
1002
{
1070
   147
1040
0.8
1070
    77
1070
     0
1002
}
  0
LEADER
  5
AB73
330
18
100
AcDbEntity
  8
mark
100
AcDbLeader
  3
STANDARD
 76
     3
 10
59.0
 20
120.9413086737984
 30
0.0
 10
49.10000000000002
 20
111.0413086737984
 30
0.0
 10
30.42008232378862
 20
111.0413086737984
 30
0.0
1001
ACAD
1000
DSTYLE
1002
{
1070
   147
1040
0.4
1070
    77
1070
     0
1002
}
  0
TEXT
  5
AB74
330
18
100
AcDbEntity
  8
dim
100
AcDbText
 10
30.54873662878845
 20
111.5546456648426
 30
0.0
 40
2.5
  1
6-%%C6深さ7
  7
TXT
100
AcDbText
  0
LEADER
  5
AB77
330
18
100
AcDbEntity
  8
mark
100
AcDbLeader
  3
STANDARD
 76
     3
 10
63.24999999999988
 20
104.9413086737984
 30
0.0
 10
51.3499999999999
 20
93.04130867379845
 30
0.0
 10
29.53591579395606
 20
93.04130867379845
 30
0.0
1001
ACAD
1000
DSTYLE
1002
{
1070
   147
1040
0.4
1070
    77
1070
     0
1002
}
  0
TEXT
  5
AB78
330
18
100
AcDbEntity
  8
dim
100
AcDbText
 10
29.81429048061284
 20
94.19738863241846
 30
0.0
 40
2.5
  1
6-%%C4.3深さ4
  7
TXT
100
AcDbText
  0
TOLERANCE
  5
AB7E
330
18
100
AcDbEntity
  8
mark
100
AcDbFcf
  3
STANDARD
 10
151.2063564337968
 20
134.9413086737984
 30
0.0
  1
{\Fgdt;h}%%v0.005%%v%%vA%%v%%v
  0
LINE
  5
AB7F
330
18
100
AcDbEntity
  8
mark
100
AcDbLine
 10
146.2063564337968
 20
129.9413086737984
 30
0.0
 11
146.2063564337968
 21
134.9413086737984
 31
0.0
  0
LINE
  5
AB80
330
18
100
AcDbEntity
  8
mark
100
AcDbLine
 10
146.2063564337968
 20
134.9413086737984
 30
0.0
 11
151.2063564337968
 21
134.9413086737984
 31
0.0
  0
TOLERANCE
  5
AB81
330
18
100
AcDbEntity
  8
mark
100
AcDbFcf
  3
STANDARD
 10
79.00000000000005
 20
81.44779995701041
 30
0.0
  1
%%v%%v%%vA%%v%%v
  0
HATCH
  5
AB82
330
18
100
AcDbEntity
  8
mark
100
AcDbHatch
 10
0.0
 20
0.0
 30
0.0
210
0.0
220
0.0
230
1.0
  2
SOLID
 70
     1
 71
     1
 91
        1
 92
        7
 72
     0
 73
     1
 93
        4
 10
69.00000000000005
 20
83.94779995701039
 10
69.00000000000005
 20
81.44779995701041
 10
69.00000000000005
 20
78.94779995701039
 10
71.50000000000005
 20
81.44779995701041
 97
        4
330
AB83
330
AB87
330
AB86
330
AB85
 75
     0
 76
     1
 47
0.0383085416812868
 98
        1
 10
70.58732744460025
 20
81.65165959021825
450
        0
451
        0
460
0.0
461
0.0
452
        1
462
1.0
453
        2
463
0.0
 63
     5
421
      255
463
1.0
 63
     7
421
 16777215
470
LINEAR
1001
ACAD
1010
0.0
1020
0.0
1030
0.0
  0
LINE
  5
AB83
102
{ACAD_REACTORS
330
AB82
102
}
330
18
100
AcDbEntity
  8
mark
100
AcDbLine
 10
69.00000000000005
 20
91.44779995701041
 30
0.0
 11
69.00000000000005
 21
81.44779995701041
 31
0.0
  0
LINE
  5
AB84
330
18
100
AcDbEntity
  8
mark
100
AcDbLine
 10
71.50000000000005
 20
81.44779995701041
 30
0.0
 11
79.00000000000005
 21
81.44779995701041
 31
0.0
  0
LINE
  5
AB85
102
{ACAD_REACTORS
330
AB82
102
}
330
18
100
AcDbEntity
  8
mark
100
AcDbLine
 10
69.00000000000005
 20
83.94779995701041
 30
0.0
 11
71.50000000000005
 21
81.44779995701041
 31
0.0
  0
LINE
  5
AB86
102
{ACAD_REACTORS
330
AB82
102
}
330
18
100
AcDbEntity
  8
mark
100
AcDbLine
 10
71.50000000000005
 20
81.44779995701041
 30
0.0
 11
69.00000000000005
 21
78.9477999570104
 31
0.0
  0
LINE
  5
AB87
102
{ACAD_REACTORS
330
AB82
102
}
330
18
100
AcDbEntity
  8
mark
100
AcDbLine
 10
69.00000000000005
 20
78.9477999570104
 30
0.0
 11
69.00000000000005
 21
81.44779995701041
 31
0.0
  0
ARC
  5
AC2C
330
18
100
AcDbEntity
  8
center
 48
0.1
100
AcDbCircle
 10
95.00000000000012
 20
201.5978081465561
 30
0.0
 40
31.75
100
AcDbArc
 50
21.60113184292347
 51
38.39886815707887
  0
ARC
  5
AC2D
330
18
100
AcDbEntity
  8
center
 48
0.1
100
AcDbCircle
 10
95.00000000000012
 20
201.5978081465563
 30
0.0
 40
31.75
100
AcDbArc
 50
201.601131842921
 51
218.3988681570805
  0
DIMENSION
  5
AC2F
330
18
100
AcDbEntity
  8
mark
100
AcDbDimension
  2
*D6
 10
131.0
 20
136.2831771065883
 30
0.0
 11
95.00000000000003
 21
138.3331771065883
 31
0.0
 70
    32
  1
%%C72
 71
     5
 42
71.99999999999994
  3
STANDARD
100
AcDbAlignedDimension
 13
59.00000000000005
 23
128.9413086737984
 33
0.0
 14
131.0
 24
128.9413086737984
 34
0.0
100
AcDbRotatedDimension
  0
MTEXT
  5
ADC7
330
18
100
AcDbEntity
  8
mark
 62
     3
100
AcDbMText
 10
99.12120597905323
 20
138.5854131342218
 30
0.0
 40
1.25
 41
0.0
 71
     4
 72
     1
  1
+0\P-0.2
 73
     1
 44
1.0
1001
ACAD
1000
ACAD_MTEXT_DEFINED_HEIGHT_BEGIN
1070
    46
1040
0.0
1000
ACAD_MTEXT_DEFINED_HEIGHT_END
  0
DIMENSION
  5
ADC8
330
18
100
AcDbEntity
  8
mark
100
AcDbDimension
  2
*D16
 10
139.6010287976194
 20
112.0413086737984
 30
0.0
 11
137.5510287976193
 21
120.9913086737984
 31
0.0
 70
    32
 71
     5
 42
17.89999999999998
  3
STANDARD
100
AcDbAlignedDimension
 13
130.0
 23
129.9413086737984
 33
0.0
 14
130.0
 24
112.0413086737984
 34
0.0
 50
90.0
100
AcDbRotatedDimension
  0
DIMENSION
  5
ADEF
330
18
100
AcDbEntity
  8
mark
100
AcDbDimension
  2
*D17
 10
146.2063564337968
 20
104.9413086737983
 30
0.0
 11
144.1563564337968
 21
117.4413086737984
 31
0.0
 70
    32
  1
25%%P0.2
 71
     5
 42
25.00000000000009
  3
STANDARD
100
AcDbAlignedDimension
 13
130.0
 23
129.9413086737984
 33
0.0
 14
129.9999999999996
 24
104.9413086737983
 34
0.0
 50
90.0
100
AcDbRotatedDimension
  0
LINE
  5
ADFC
330
18
100
AcDbEntity
  8
mark
100
AcDbLine
 10
130.8
 20
112.0413086737984
 30
0.0
 11
140.4010287976194
 21
112.0413086737984
 31
0.0
  0
LINE
  5
ADFD
330
18
100
AcDbEntity
  8
mark
100
AcDbLine
 10
130.8
 20
110.0413086737984
 30
0.0
 11
140.4010287976194
 21
110.0413086737984
 31
0.0
  0
LINE
  5
ADFE
330
18
100
AcDbEntity
  8
mark
100
AcDbLine
 10
139.6010287976194
 20
114.5413086737984
 30
0.0
 11
139.6010287976194
 21
117.0413086737984
 31
0.0
  0
LINE
  5
ADFF
330
18
100
AcDbEntity
  8
mark
100
AcDbLine
 10
139.6010287976194
 20
107.5413086737984
 30
0.0
 11
139.6010287976194
 21
106.2913086737984
 31
0.0
  0
LINE
  5
AE00
330
18
100
AcDbEntity
  8
mark
100
AcDbLine
 10
139.6010287976194
 20
112.0413086737984
 30
0.0
 11
139.6010287976194
 21
110.0413086737984
 31
0.0
  0
INSERT
  5
AE01
330
18
100
AcDbEntity
  8
mark
100
AcDbBlockReference
  2
_Open30
 10
139.6010287976194
 20
112.0413086737984
 30
0.0
 41
2.5
 42
2.5
 43
2.5
 50
270.0
  0
INSERT
  5
AE02
330
18
100
AcDbEntity
  8
mark
100
AcDbBlockReference
  2
_Open30
 10
139.6010287976194
 20
110.0413086737984
 30
0.0
 41
2.5
 42
2.5
 43
2.5
 50
90.0
  0
MTEXT
  5
AE03
330
18
100
AcDbEntity
  8
mark
 62
     3
100
AcDbMText
 10
137.5510287976194
 20
111.0413086737985
 30
0.0
 40
2.5
 41
0.0
 71
     5
 72
     1
  1
\A1;2
 11
0.0000000000000001
 21
1.0
 31
0.0
 73
     1
 44
1.0
  0
DIMENSION
  5
AE0B
330
18
100
AcDbEntity
  8
mark
100
AcDbDimension
  2
*D18
 10
121.0
 20
92.24779995701041
 30
0.0
 11
95.00000000000003
 21
94.29779995701041
 31
0.0
 70
    32
  1
M52X1.5P
 71
     5
 42
51.99999999999994
  3
STANDARD
100
AcDbAlignedDimension
 13
69.00000000000005
 23
105.6293086737984
 33
0.0
 14
121.0
 24
105.6293086737984
 34
0.0
100
AcDbRotatedDimension
  0
DIMENSION
  5
AE18
330
18
100
AcDbEntity
  8
mark
100
AcDbDimension
  2
*D19
 10
53.4360299461116
 20
129.9413086737984
 30
0.0
 11
51.38602994611158
 21
125.4413086737984
 31
0.0
 70
    32
 71
     5
 42
8.999999999999985
  3
STANDARD
100
AcDbAlignedDimension
 13
56.99999999999994
 23
120.9413086737984
 33
0.0
 14
60.00000000000006
 24
129.9413086737984
 34
0.0
 50
90.0
100
AcDbRotatedDimension
  0
DIMENSION
  5
B1F3
330
18
100
AcDbEntity
  8
mark
100
AcDbDimension
  2
*D20
 10
64.8027680864991
 20
194.5887294080741
 30
0.0
 11
141.8900850022664
 21
212.4814645948172
 31
0.0
 70
   163
  1
P.C.D 62
 71
     5
 42
62.0
  3
STANDARD
100
AcDbDiametricDimension
 15
125.1972319135009
 25
208.6068868850384
 35
0.0
 40
0.0
1001
ACAD
1000
DSTYLE
1002
{
1070
   288
1070
     1
1002
}
  0
DIMENSION
  5
B200
330
18
100
AcDbEntity
  8
mark
100
AcDbDimension
  2
*D21
 10
125.6309695811566
 20
193.2427975230882
 30
0.0
 11
48.52620495091128
 21
214.2741633732242
 31
0.0
 70
   163
  1
P.C.D 63.5
 71
     5
 42
63.49999999999997
  3
STANDARD
100
AcDbDiametricDimension
 15
64.36903041884355
 25
209.952818770024
 35
0.0
 40
0.0
1001
ACAD
1000
DSTYLE
1002
{
1070
   288
1070
     1
1002
}
  0
HATCH
  5
B2A5
330
18
100
AcDbEntity
  8
section
100
AcDbHatch
 10
0.0
 20
0.0
 30
0.0
210
0.0
220
0.0
230
1.0
  2
ANSI31
 70
     0
 71
     1
 91
       12
 92
        7
 72
     1
 73
     1
 93
       28
 10
69.00000000000007
 20
129.2533086737984
 42
0.0
 10
68.31200000000001
 20
129.9413086737984
 42
0.0
 10
60.00000000000006
 20
129.9413086737984
 42
0.4142135623730951
 10
59.00000000000005
 20
128.9413086737984
 42
0.0
 10
59.00000000000005
 20
124.4413086737983
 42
0.0
 10
59.49999999999985
 20
123.9413086737984
 42
0.0
 10
64.26794919243106
 20
123.9413086737984
 42
0.0
 10
66.0
 20
120.9413086737984
 42
0.0
 10
64.26794919243106
 20
117.9413086737984
 42
0.0
 10
59.49999999999988
 20
117.9413086737984
 42
0.0
 10
59.00000000000002
 20
117.4413086737985
 42
0.0
 10
59.0
 20
113.0413086737984
 42
0.4142135623730951
 10
60.0
 20
112.0413086737984
 42
0.0
 10
67.0
 20
112.0413086737984
 42
0.0
 10
67.0
 20
110.0413086737984
 42
0.0
 10
63.24999999999988
 20
110.0413086737984
 42
0.0
 10
63.24999999999988
 20
108.9413086737984
 42
0.0
 10
65.39999999999977
 20
107.7000055950408
 42
0.0
 10
65.39999999999984
 20
105.4413086737984
 42
0.0
 10
65.89999999999986
 20
104.9413086737984
 42
0.0
 10
68.31199999999999
 20
104.9413086737984
 42
0.0
 10
69.00000000000005
 20
105.6293086737985
 42
0.0
 10
69.00000000000005
 20
112.1533086737984
 42
0.0
 10
68.31200000000001
 20
112.8413086737984
 42
0.0
 10
60.99999999999999
 20
112.8413086737984
 42
0.0
 10
61.00000000000001
 20
114.8413086737984
 42
0.0
 10
68.31200000000004
 20
114.8413086737985
 42
0.0
 10
69.00000000000007
 20
115.5293086737985
 42
0.0
 97
       27
330
A555
330
A4D3
330
A54B
330
A4D0
330
A4EE
330
A4EB
330
A4EA
330
A4EC
330
A4E9
330
A4E8
330
A54A
330
A4D5
330
A4D8
330
A4D4
330
A5A6
330
A59F
330
A5A2
330
A59E
330
A4D1
330
A552
330
A55A
330
A553
330
A4DE
330
A4E2
330
A4DF
330
A554
330
A550
 92
        7
 72
     1
 73
     1
 93
        9
 10
63.24999999999989
 20
108.9413086737985
 42
0.0
 10
63.24999999999988
 20
110.0413086737984
 42
0.0
 10
60.0
 20
110.0413086737984
 42
0.4142135623730951
 10
59.0
 20
109.0413086737984
 42
0.0
 10
59.0
 20
105.9413086737984
 42
0.4142135623730951
 10
60.0
 20
104.9413086737984
 42
0.0
 10
60.59999999999996
 20
104.9413086737984
 42
0.0
 10
61.09999999999995
 20
105.4413086737984
 42
0.0
 10
61.09999999999998
 20
107.7000055950408
 42
0.0
 97
        9
330
A5A6
330
A4D4
330
A549
330
A4DA
330
A548
330
A4D1
330
A5A1
330
A5A0
330
A5A3
 92
        7
 72
     0
 73
     1
 93
        4
 10
69.81200000000001
 20
111.3413086737985
 10
69.00000000000005
 20
112.1533086737984
 10
69.00000000000005
 20
105.6293086737984
 10
69.81200000000001
 20
106.4413086737984
 97
        4
330
A553
330
A55A
330
A552
330
A559
 92
        7
 72
     0
 73
     1
 93
        4
 10
69.81200000000001
 20
128.4413086737984
 10
69.00000000000005
 20
129.2533086737984
 10
69.00000000000005
 20
115.5293086737985
 10
69.81200000000002
 20
116.3413086737984
 97
        4
330
A555
330
A550
330
A554
330
A551
 92
        7
 72
     0
 73
     1
 93
        4
 10
121.0
 20
129.2533086737984
 10
120.188
 20
128.4413086737984
 10
120.188
 20
116.3413086737984
 10
121.0
 20
115.5293086737984
 97
        4
330
A562
330
A55D
330
A561
330
A55B
 92
        7
 72
     0
 73
     1
 93
        7
 10
124.0
 20
126.1413086737984
 10
124.0
 20
129.9413086737984
 10
121.688
 20
129.9413086737984
 10
121.0
 20
129.2533086737984
 10
121.0
 20
115.5293086737985
 10
121.688
 20
114.8413086737984
 10
123.9999999999999
 20
114.8413086737984
 97
        7
330
A53F
330
A4D3
330
A562
330
A55B
330
A561
330
A4DF
330
A537
 92
        7
 72
     1
 73
     1
 93
       11
 10
131.0
 20
128.9413086737984
 42
0.4142135623730951
 10
130.0
 20
129.9413086737984
 42
0.0
 10
127.9999999999999
 20
129.9413086737984
 42
0.0
 10
127.9999999999999
 20
126.1413086737984
 42
0.0
 10
127.9999999999999
 20
114.8413086737984
 42
0.0
 10
129.0
 20
114.8413086737984
 42
0.0
 10
129.0
 20
112.8413086737984
 42
0.0
 10
127.9999999999999
 20
112.8413086737984
 42
0.0
 10
127.9999999999999
 20
112.0413086737984
 42
0.0
 10
130.0
 20
112.0413086737984
 42
0.4142135623730951
 10
131.0
 20
113.0413086737984
 42
0.0
 97
       10
330
A54C
330
A4D3
330
A540
330
A537
330
A545
330
A4E4
330
A546
330
A4DC
330
A54D
330
A4DB
 92
        7
 72
     1
 73
     1
 93
        9
 10
130.0
 20
110.0413086737984
 42
0.0
 10
127.9999999999999
 20
110.0413086737984
 42
0.0
 10
127.9999999999999
 20
108.9413086737984
 42
0.0
 10
129.4999999999999
 20
108.9413086737984
 42
0.0
 10
129.4999999999999
 20
105.2413086737984
 42
0.0
 10
129.4999999999999
 20
104.9413086737984
 42
0.0
 10
130.0
 20
104.9413086737984
 42
0.4142135623730992
 10
131.0
 20
105.9413086737984
 42
0.0
 10
131.0
 20
109.0413086737984
 42
0.4142135623730951
 97
        7
330
A4DD
330
A537
330
A539
330
A4D1
330
A54F
330
A4D2
330
A54E
 92
        7
 72
     0
 73
     1
 93
       13
 10
123.9999999999999
 20
110.0413086737984
 10
123.0
 20
110.0413086737984
 10
123.0
 20
112.0413086737984
 10
123.9999999999999
 20
112.0413086737984
 10
123.9999999999999
 20
112.8413086737985
 10
121.6880000000001
 20
112.8413086737985
 10
121.0
 20
112.1533086737984
 10
121.0
 20
105.6293086737985
 10
121.688
 20
104.9413086737984
 10
122.4999999999998
 20
104.9413086737984
 10
122.4999999999999
 20
105.2413086737985
 10
122.4999999999999
 20
108.9413086737984
 10
123.9999999999999
 20
108.9413086737984
 97
       10
330
A544
330
A4D9
330
A543
330
A537
330
A4DE
330
A560
330
A55C
330
A55F
330
A4D1
330
A538
 92
        7
 72
     0
 73
     1
 93
        4
 10
121.0
 20
112.1533086737984
 10
120.188
 20
111.3413086737984
 10
120.188
 20
106.4413086737985
 10
121.0
 20
105.6293086737985
 97
        4
330
A560
330
A55E
330
A55F
330
A55C
 92
        7
 72
     0
 73
     1
 93
        4
 10
127.9999999999999
 20
129.9413086737984
 10
127.5999999999999
 20
129.9413086737984
 10
127.5999999999999
 20
126.5413086737983
 10
127.9999999999999
 20
126.1413086737984
 97
        4
330
A4D3
330
A541
330
A537
330
A540
 92
        7
 72
     0
 73
     1
 93
        4
 10
124.3999999999999
 20
129.9413086737984
 10
124.0
 20
129.9413086737984
 10
124.0
 20
126.1413086737984
 10
124.4
 20
126.5413086737984
 97
        4
330
A4D3
330
A53F
330
A537
330
A542
 75
     0
 76
     1
 52
0.0
 41
0.5
 77
     0
 78
     1
 53
45.0
 43
0.0
 44
0.0
 45
-1.122532015133643
 46
1.122532015133644
 79
     0
 47
0.0645337388835592
 98
       12
 10
66.64141675155701
 20
124.4405842063806
 10
59.95647098056565
 20
108.8300933385387
 10
69.65771181972423
 20
109.2232621807354
 10
69.52661401583305
 20
119.0524888263573
 10
120.8475545324927
 20
123.5204330938852
 10
122.2896303752952
 20
123.6514889087257
 10
128.7134261171752
 20
122.2098693547789
 10
129.5000129405221
 20
109.4974022035881
 10
121.7652391597307
 20
109.890571045785
 10
120.5853589247103
 20
109.890571045785
 10
127.712522476015
 20
128.0798272527927
 10
124.2911511288453
 20
127.8862254706703
1001
ACAD
1010
0.0
1020
0.0
1030
0.0
  0
DIMENSION
  5
B2C1
330
18
100
AcDbEntity
  8
mark
100
AcDbDimension
  2
*D22
 10
60.00000000000004
 20
105.9413086737984
 30
0.0
 11
52.59698866410158
 21
101.3497547315035
 31
0.0
 70
    36
 71
     5
 42
1.000000000000056
  3
STANDARD
100
AcDbRadialDimension
 15
59.2980855387069
 25
105.2290474232536
 35
0.0
 40
0.0
1001
ACAD
1000
DSTYLE
1002
{
1070
   288
1070
     1
1002
}
  0
LEADER
  5
B2E6
330
18
100
AcDbEntity
  8
mark
100
AcDbLeader
  3
STANDARD
 76
     2
 10
120.4558441227153
 20
176.1419640238401
 30
0.0
 10
140.7638115741928
 20
155.8339965723626
 30
0.0
211
0.7071067811865474
221
-0.7071067811865478
231
0.0
1001
ACAD
1000
DSTYLE
1002
{
1070
   147
1040
0.8
1070
    77
1070
     0
1002
}
  0
MTEXT
  5
B2E7
330
18
100
AcDbEntity
  8
mark
 62
     3
100
AcDbMText
 10
141.8847863796019
 20
156.3066944401279
 30
0.0
 40
5.0
 41
0.0
 71
     4
 72
     1
  1
1
 73
     1
 44
1.0
1001
ACAD
1000
ACAD_MTEXT_DEFINED_HEIGHT_BEGIN
1070
    46
1040
0.0
1000
ACAD_MTEXT_DEFINED_HEIGHT_END
  0
LEADER
  5
B2E8
330
18
100
AcDbEntity
  8
mark
100
AcDbLeader
  3
STANDARD
 76
     2
 10
126.0000000000002
 20
104.9413086737984
 30
0.0
 10
140.7638115741928
 20
90.17749709960583
 30
0.0
211
0.7071067811865474
221
-0.7071067811865478
231
0.0
1001
ACAD
1000
DSTYLE
1002
{
1070
   147
1040
0.8
1070
    77
1070
     0
1002
}
  0
MTEXT
  5
B2EA
330
18
100
AcDbEntity
  8
mark
 62
     3
100
AcDbMText
 10
141.8847863796019
 20
90.65019496737111
 30
0.0
 40
5.0
 41
0.0
 71
     4
 72
     1
  1
2
 73
     1
 44
1.0
1001
ACAD
1000
ACAD_MTEXT_DEFINED_HEIGHT_BEGIN
1070
    46
1040
0.0
1000
ACAD_MTEXT_DEFINED_HEIGHT_END
  0
MTEXT
  5
B2F6
330
18
100
AcDbEntity
  8
0
100
AcDbMText
 10
47.65097232190476
 20
19.07605901616614
 30
0.0
 40
4.5
 41
0.0
 71
     1
 72
     5
  1
{\Ftxt,bigfont|c128;小\~柳}
  7
JL
 73
     1
 44
1.0
1001
ACAD
1000
ACAD_MTEXT_DEFINED_HEIGHT_BEGIN
1070
    46
1040
0.0
1000
ACAD_MTEXT_DEFINED_HEIGHT_END
  0
MTEXT
  5
B31F
330
18
100
AcDbEntity
  8
dim
100
AcDbMText
 10
9.558833789227151
 20
39.86140454676752
 30
0.0
 40
4.5
 41
0.0
 71
     1
 72
     5
  1
{\Ftxt,bigfont|c128;07.10.03\~寸法一部変更  林}
  7
JL
 73
     1
 44
1.0
1001
ACAD
1000
ACAD_MTEXT_DEFINED_HEIGHT_BEGIN
1070
    46
1040
0.0
1000
ACAD_MTEXT_DEFINED_HEIGHT_END
  0
CIRCLE
  5
B322
330
18
100
AcDbEntity
  8
dim
100
AcDbCircle
 10
44.0134945012162
 20
37.53881110237023
 30
0.0
 40
2.750054604459023
  0
LWPOLYLINE
  5
B325
330
18
100
AcDbEntity
  8
mark
100
AcDbPolyline
 90
        3
 70
     1
 43
0.0
 10
131.3208425116431
 20
114.9487968855931
 10
135.8208425116431
 20
112.3507206742397
 10
135.8208425116431
 20
117.5468730969464
  0
TEXT
  5
B326
330
18
100
AcDbEntity
  8
dim
100
AcDbText
 10
135.2616275756996
 20
114.5680332812819
 30
0.0
 40
2.5
  1
1
 50
90.0
  7
TXT
100
AcDbText
  0
MTEXT
  5
B342
330
18
100
AcDbEntity
  8
mark
 62
     3
100
AcDbMText
 10
134.3870621222815
 20
122.6903629579322
 30
0.0
 40
2.5
 41
0.0
 71
     5
 72
     1
  1
17.25
 11
0.0000000000000001
 21
1.0
 31
0.0
 73
     1
 44
1.0
1001
ACAD
1000
ACAD_MTEXT_DEFINED_HEIGHT_BEGIN
1070
    46
1040
0.0
1000
ACAD_MTEXT_DEFINED_HEIGHT_END
  0
LINE
  5
B343
330
18
100
AcDbEntity
  8
mark
 62
     1
100
AcDbLine
 10
136.9926387876376
 20
124.6397140093303
 30
0.0
 11
136.9926387876376
 21
117.3331313378579
 31
0.0
  0
LINE
  5
B344
330
18
100
AcDbEntity
  8
mark
 62
     1
100
AcDbLine
 10
137.9311892637318
 20
124.6397140093303
 30
0.0
 11
137.9311892637318
 21
117.3331313378579
 31
0.0
  0
LWPOLYLINE
  5
B383
330
18
100
AcDbEntity
  8
mark
100
AcDbPolyline
 90
        3
 70
     1
 43
0.0
 10
7.790077994702251
 20
42.52665147886247
 10
4.903326648754136
 20
47.52665147886247
 10
2.016575302805996
 20
42.52665147886247
  0
MTEXT
  5
B384
330
18
100
AcDbEntity
  8
dim
100
AcDbMText
 10
4.111627989035275
 20
45.56441599974968
 30
0.0
 40
2.5
 41
9.163114146879252
 71
     1
 72
     5
  1
2
 73
     1
 44
1.0
1001
ACAD
1000
ACAD_MTEXT_DEFINED_HEIGHT_BEGIN
1070
    46
1040
0.0
1000
ACAD_MTEXT_DEFINED_HEIGHT_END
  0
MTEXT
  5
B385
330
18
100
AcDbEntity
  8
dim
100
AcDbMText
 10
9.553276506173915
 20
46.98720946131277
 30
0.0
 40
4.5
 41
0.0
 71
     1
 72
     5
  1
{\Ftxt,bigfont|c128;08.08.08 振れ精度の変更  林}
  7
JL
 73
     1
 44
1.0
1001
ACAD
1000
ACAD_MTEXT_DEFINED_HEIGHT_BEGIN
1070
    46
1040
0.0
1000
ACAD_MTEXT_DEFINED_HEIGHT_END
  0
CIRCLE
  5
B386
330
18
100
AcDbEntity
  8
dim
100
AcDbCircle
 10
47.32757980019965
 20
44.67739084134598
 30
0.0
 40
2.762409708108862
  0
LWPOLYLINE
  5
B387
330
18
100
AcDbEntity
  8
mark
100
AcDbPolyline
 90
        3
 70
     1
 43
0.0
 10
7.795635277755486
 20
35.40084656431722
 10
4.908883931807372
 20
40.40084656431722
 10
2.022132585859232
 20
35.40084656431722
  0
MTEXT
  5
B388
330
18
100
AcDbEntity
  8
dim
100
AcDbMText
 10
4.594750594087519
 20
38.65073840711156
 30
0.0
 40
2.5
 41
9.163114146879252
 71
     1
 72
     5
  1
1
 73
     1
 44
1.0
1001
ACAD
1000
ACAD_MTEXT_DEFINED_HEIGHT_BEGIN
1070
    46
1040
0.0
1000
ACAD_MTEXT_DEFINED_HEIGHT_END
  0
LWPOLYLINE
  5
B389
330
18
100
AcDbEntity
  8
mark
100
AcDbPolyline
 90
        3
 70
     1
 43
0.0
 10
157.4572968932184
 20
138.5425351729328
 10
154.5705455472703
 20
143.5425351729328
 10
151.6837942013221
 20
138.5425351729328
  0
MTEXT
  5
B38A
330
18
100
AcDbEntity
  8
dim
100
AcDbMText
 10
153.7788468875514
 20
141.58029969382
 30
0.0
 40
2.5
 41
9.163114146879252
 71
     1
 72
     5
  1
2
 73
     1
 44
1.0
1001
ACAD
1000
ACAD_MTEXT_DEFINED_HEIGHT_BEGIN
1070
    46
1040
0.0
1000
ACAD_MTEXT_DEFINED_HEIGHT_END
  0
MTEXT
  5
B38B
330
18
100
AcDbEntity
  8
dim
100
AcDbMText
 10
158.5493228788186
 20
141.58029969382
 30
0.0
 40
2.5
 41
9.163114146879252
 71
     1
 72
     5
  1
0.007
 73
     1
 44
1.0
1001
ACAD
1000
ACAD_MTEXT_DEFINED_HEIGHT_BEGIN
1070
    46
1040
0.0
1000
ACAD_MTEXT_DEFINED_HEIGHT_END
  0
LINE
  5
B38C
330
18
100
AcDbEntity
  8
mark
 62
     1
100
AcDbLine
 10
158.1630079213564
 20
135.3124995736075
 30
0.0
 11
168.0141701732188
 21
135.3124995736075
 31
0.0
  0
LINE
  5
B38D
330
18
100
AcDbEntity
  8
mark
 62
     1
100
AcDbLine
 10
158.1630079213564
 20
134.5173830080783
 30
0.0
 11
168.0141701732188
 21
134.5173830080783
 31
0.0
  0
LWPOLYLINE
  5
B38E
330
18
100
AcDbEntity
  8
mark
100
AcDbPolyline
 90
        3
 70
     1
 43
0.0
 10
181.247534981542
 20
2.848349561688337
 10
178.3607836355938
 20
7.848349561688337
 10
175.4740322896457
 20
2.848349561688337
  0
MTEXT
  5
B38F
330
18
100
AcDbEntity
  8
dim
100
AcDbMText
 10
177.569084975875
 20
5.886114082575545
 30
0.0
 40
2.5
 41
9.163114146879252
 71
     1
 72
     5
  1
2
 73
     1
 44
1.0
1001
ACAD
1000
ACAD_MTEXT_DEFINED_HEIGHT_BEGIN
1070
    46
1040
0.0
1000
ACAD_MTEXT_DEFINED_HEIGHT_END
  0
ENDSEC
  0
SECTION
  2
OBJECTS
  0
DICTIONARY
  5
C
330
0
100
AcDbDictionary
281
     1
  3
ACAD_COLOR
350
7873
  3
ACAD_GROUP
350
D
  3
ACAD_LAYOUT
350
5CF3
  3
ACAD_MATERIAL
350
7872
  3
ACAD_MLINESTYLE
350
1B
  3
ACAD_PLOTSETTINGS
350
5CF4
  3
ACAD_PLOTSTYLENAME
350
5CF1
  3
ACAD_TABLESTYLE
350
7874
  3
AcadDim
350
9A73
  3
ACDBVARIABLEDICTIONARY
350
45D
  0
DICTIONARY
  5
7BFE
330
2
100
AcDbDictionary
280
     1
281
     1
  3
ACAD_LAYERFILTERS
360
7C00
  3
ACLYDICTIONARY
360
7BFF
  0
DICTIONARY
  5
45F
330
18
100
AcDbDictionary
280
     1
281
     1
  3
ACAD_LAYOUTSELFREF
360
5D8B
  3
ACAD_SORTENTS
360
460
  0
DICTIONARY
  5
5D89
330
15
100
AcDbDictionary
280
     1
281
     1
  3
ACAD_LAYOUTSELFREF
360
5D8A
  0
DICTIONARY
  5
7C0B
330
7C0A
100
AcDbDictionary
280
     1
281
     1
  3
AcDbBlockTableRecordData
360
7C0C
  0
DICTIONARY
  5
8E73
330
8E72
100
AcDbDictionary
280
     1
281
     1
  3
AcDbBlockTableRecordData
360
8E74
  0
DICTIONARY
  5
9D16
330
9D15
100
AcDbDictionary
280
     1
281
     1
  3
AcDbBlockTableRecordData
360
9D17
  0
DICTIONARY
  5
A519
330
A518
100
AcDbDictionary
280
     1
281
     1
  3
AcDbBlockTableRecordData
360
A51A
  0
DICTIONARY
  5
ADC3
330
ACA2
100
AcDbDictionary
280
     1
281
     1
  3
ACAD_SORTENTS
360
ADC4
  0
DICTIONARY
  5
7873
102
{ACAD_REACTORS
330
C
102
}
330
C
100
AcDbDictionary
281
     1
  0
DICTIONARY
  5
D
102
{ACAD_REACTORS
330
C
102
}
330
C
100
AcDbDictionary
281
     1
  0
DICTIONARY
  5
5CF3
102
{ACAD_REACTORS
330
C
102
}
330
C
100
AcDbDictionary
281
     1
  3
Model
350
5CF5
  3
配置1
350
5CF6
  0
DICTIONARY
  5
7872
102
{ACAD_REACTORS
330
C
102
}
330
C
100
AcDbDictionary
281
     1
  0
DICTIONARY
  5
1B
102
{ACAD_REACTORS
330
C
102
}
330
C
100
AcDbDictionary
281
     1
  3
STANDARD
350
1C
  0
DICTIONARY
  5
5CF4
102
{ACAD_REACTORS
330
C
102
}
330
C
100
AcDbDictionary
281
     1
  0
ACDBDICTIONARYWDFLT
  5
5CF1
102
{ACAD_REACTORS
330
C
102
}
330
C
100
AcDbDictionary
281
     1
  3
Normal
350
5CF2
100
AcDbDictionaryWithDefault
340
5CF2
  0
DICTIONARY
  5
7874
102
{ACAD_REACTORS
330
C
102
}
330
C
100
AcDbDictionary
281
     1
  3
Standard
350
7875
  0
XRECORD
  5
9A73
102
{ACAD_REACTORS
330
C
102
}
330
C
100
AcDbXrecord
280
     1
 90
   990106
  3

 60
     0
 61
     0
 62
     1
 63
     3
 64
     0
 65
     0
 66
     0
 67
     3
 68
     1
 69
     0
 70
     0
 71
     0
 72
     0
 40
0.0
170
     0
  0
DICTIONARY
  5
45D
102
{ACAD_REACTORS
330
C
102
}
330
C
100
AcDbDictionary
281
     1
  3
CTABLESTYLE
350
7880
  3
SORTENTS
350
45E
  0
DICTIONARY
  5
7C00
102
{ACAD_REACTORS
330
7BFE
102
}
330
7BFE
100
AcDbDictionary
281
     1
  0
DICTIONARY
  5
7BFF
102
{ACAD_REACTORS
330
7BFE
102
}
330
7BFE
100
AcDbDictionary
281
     1
1001
ACAD
1000
<All
  0
XRECORD
  5
5D8B
102
{ACAD_REACTORS
330
45F
102
}
330
45F
100
AcDbXrecord
280
     1
340
18
  0
SORTENTSTABLE
  5
460
102
{ACAD_REACTORS
330
45F
102
}
330
45F
100
AcDbSortentsTable
330
18
331
A4C0
  5
A4E5
331
A489
  5
A4AB
331
7D9C
  5
7D9C
331
A4C8
  5
A4EF
331
C0
  5
CB
331
7D6D
  5
7D6D
331
7DA4
  5
7DA4
331
A55E
  5
A565
331
A4D0
  5
A4FB
331
7D75
  5
7D75
331
7DAC
  5
7DAC
331
A499
  5
A4B8
331
A566
  5
A56F
331
ADFD
  5
ADFD
331
B2EA
  5
B2EA
331
A537
  5
A54C
331
A4D8
  5
A517
331
7DB4
  5
7DB4
331
A56E
  5
A57B
331
B322
  5
B322
331
A4A1
  5
A4C1
331
7D7D
  5
7D7D
331
7DBC
  5
7DBC
331
A4E8
  5
A539
331
A4A9
  5
A4C9
331
A472
  5
A49D
331
7D85
  5
7D85
331
A53F
  5
A54F
331
AB85
  5
AB86
331
A4B1
  5
A4D2
331
A47A
  5
A49F
331
7D8D
  5
7D8D
331
AC2D
  5
AC2F
331
B342
  5
B342
331
A59E
  5
A59F
331
A4B9
  5
A4DB
331
7D95
  5
7D95
331
A482
  5
A4A4
331
A54F
  5
A503
331
A5A6
  5
AB6F
331
A4C1
  5
A4E8
331
A48A
  5
A4AC
331
7D9D
  5
7D9D
331
A4C9
  5
A4F0
331
A492
  5
A4B2
331
7DA5
  5
7DA5
331
7D6E
  5
7D6E
331
A55F
  5
A566
331
A4D1
  5
A502
331
7D76
  5
7D76
331
7DAD
  5
7DAD
331
A49A
  5
A4B3
331
A567
  5
A572
331
ADFE
  5
ADFE
331
A4D9
  5
A537
331
7DB5
  5
7DB5
331
A56F
  5
A57C
331
AB7E
  5
AB7F
331
ADC7
  5
ADC8
331
A4A2
  5
A4C2
331
7D7E
  5
7D7E
331
7DBD
  5
7DBD
331
A538
  5
A54D
331
A4E9
  5
A53A
331
A4AA
  5
A4CA
331
7D86
  5
7D86
331
A540
  5
A550
331
AB86
  5
AB87
331
A4B2
  5
A4D3
331
A47B
  5
A4A0
331
7D8E
  5
7D8E
331
A548
  5
A500
331
A59F
  5
A5A0
331
A4BA
  5
A4DC
331
A483
  5
A4A5
331
7D96
  5
7D96
331
A550
  5
A55A
331
ADEF
  5
AE0B
331
A4C2
  5
A4E9
331
A48B
  5
A4AD
331
7D9E
  5
7D9E
331
AB6F
  5
AB70
331
A4CA
  5
A4F1
331
7DA6
  5
7DA6
331
7D6F
  5
7D6F
331
A560
  5
A567
331
A4D2
  5
A50B
331
7D77
  5
7D77
331
7DAE
  5
7DAE
331
A49B
  5
A4BA
331
AB77
  5
AB78
331
ADFF
  5
ADFF
331
A4DA
  5
A4FE
331
7DB6
  5
7DB6
331
AB7F
  5
AB80
331
B2A5
  5
A4FA
331
A4E2
  5
A515
331
A4A3
  5
A4C3
331
7D7F
  5
7D7F
331
A539
  5
A54E
331
AB87
  5
AC2C
331
A4EA
  5
A53B
331
A4AB
  5
A4CB
331
7D87
  5
7D87
331
A541
  5
A551
331
ADC8
  5
ADEF
331
AC2F
  5
ADC7
331
A4B3
  5
A4D4
331
A47C
  5
A4A1
331
7D8F
  5
7D8F
331
A549
  5
A505
331
A5A0
  5
A5A1
331
A4BB
  5
A4E0
331
7D97
  5
7D97
331
A484
  5
A4A6
331
A551
  5
A55C
331
A4C3
  5
A4EA
331
A48C
  5
A4AE
331
7D9F
  5
7D9F
331
A559
  5
A55D
331
AB70
  5
AB73
331
A4CB
  5
A4F4
331
7D70
  5
7D70
331
A561
  5
A56A
331
A4D3
  5
A510
331
7DAF
  5
7DAF
331
A49C
  5
A4BC
331
AB78
  5
AB7E
331
AE00
  5
AE00
331
A4DB
  5
A50D
331
7DB7
  5
7DB7
331
B325
  5
B325
331
7D78
  5
7D78
331
A4E3
  5
A516
331
A4A4
  5
A4C4
331
A46D
  5
A490
331
7D80
  5
7D80
331
AB80
  5
AB81
331
A581
  5
A584
331
A4EB
  5
A53C
331
A4AC
  5
A4CC
331
7D88
  5
7D88
331
A542
  5
A552
331
A4B4
  5
A4D5
331
7D90
  5
7D90
331
A54A
  5
A4FD
331
AE18
  5
B1F3
331
A5A1
  5
A5A2
331
A4BC
  5
A4E1
331
A485
  5
A4A7
331
A552
  5
A55E
331
B2E6
  5
B2E6
331
7D98
  5
7D98
331
A4C4
  5
A4EB
331
A48D
  5
A4AF
331
7DA0
  5
7DA0
331
A55A
  5
A55B
331
A4CC
  5
A4F6
331
A495
  5
A4B4
331
7DA8
  5
7DA8
331
7D71
  5
7D71
331
A562
  5
A56B
331
A4D4
  5
A504
331
7DB0
  5
7DB0
331
A49D
  5
A4BD
331
AE01
  5
AE01
331
A4DC
  5
A50A
331
A572
  5
A57D
331
B2F6
  5
B2F6
331
B326
  5
B326
331
7D79
  5
7D79
331
7DB8
  5
7DB8
331
A4E4
  5
A538
331
A4A5
  5
A4C5
331
A46E
  5
A497
331
7D81
  5
7D81
331
A57A
  5
A57E
331
AB81
  5
AB82
331
A4EC
  5
A53D
331
A4AD
  5
A4CD
331
7D89
  5
7D89
331
A543
  5
A553
331
A4B5
  5
A4D6
331
7D91
  5
7D91
331
A54B
  5
A513
331
A5A2
  5
A5A3
331
A4BD
  5
A4E2
331
A486
  5
A4A8
331
A553
  5
A55F
331
B200
  5
B21A
331
B2E7
  5
B2E7
331
7D99
  5
7D99
331
A4C5
  5
A4EC
331
A48E
  5
A4B0
331
A55B
  5
A562
331
A4CD
  5
A4F8
331
A496
  5
A4B5
331
7DA9
  5
7DA9
331
A563
  5
A56C
331
A4D5
  5
A507
331
7DB1
  5
7DB1
331
A49E
  5
A4BE
331
A56B
  5
A573
331
AE02
  5
AE02
331
A4DD
  5
A506
331
B31F
  5
B31F
331
7D7A
  5
7D7A
331
A4A6
  5
A4C6
331
A46F
  5
A498
331
7D82
  5
7D82
331
A57B
  5
A57F
331
AB82
  5
AB83
331
A583
  5
A585
331
A4ED
  5
A53F
331
A4AE
  5
A4CE
331
7D8A
  5
7D8A
331
A544
  5
A554
331
A4FD
  5
A54A
331
A4B6
  5
A4D8
331
7D92
  5
7D92
331
A54C
  5
A50F
331
A5A3
  5
A5A4
331
A4BE
  5
A4E3
331
A487
  5
A4A9
331
A554
  5
A560
331
7D9A
  5
7D9A
331
A4C6
  5
A4ED
331
7DA2
  5
7DA2
331
A55C
  5
A563
331
A4CE
  5
A4F9
331
A497
  5
A4B6
331
7D73
  5
7D73
331
7DAA
  5
7DAA
331
A564
  5
A56D
331
AB73
  5
AB74
331
B2E8
  5
B2E8
331
A4D6
  5
A514
331
7DB2
  5
7DB2
331
A49F
  5
A4BF
331
A56C
  5
A57A
331
AE03
  5
AE03
331
A4DE
  5
A508
331
AE0B
  5
AE18
331
7D7B
  5
7D7B
331
7DBA
  5
7DBA
331
A4A7
  5
A4C7
331
A470
  5
A499
331
7D83
  5
7D83
331
A57C
  5
A581
331
AB83
  5
AB84
331
A584
  5
A586
331
A4EE
  5
A540
331
A4AF
  5
A4D0
331
7D8B
  5
7D8B
331
A545
  5
A555
331
B2C1
  5
B2C1
331
A4FE
  5
A54B
331
A4B7
  5
A4D9
331
7D93
  5
7D93
331
A480
  5
A4A2
331
A54D
  5
A50E
331
A5A4
  5
A5A5
331
A4BF
  5
A4E4
331
A555
  5
A561
331
A488
  5
A4AA
331
7D9B
  5
7D9B
331
A4C7
  5
A4EE
331
A490
  5
A4B1
331
7D6C
  5
7D6C
331
7DA3
  5
7DA3
331
A55D
  5
A564
331
7D74
  5
7D74
331
A498
  5
A4B7
331
A565
  5
A56E
331
AB74
  5
AB77
331
ADFC
  5
ADFC
331
A4DF
  5
A509
331
A4A0
  5
A4C0
331
7DBB
  5
7DBB
331
7D7C
  5
7D7C
331
A4A8
  5
A4C8
331
A471
  5
A49C
331
7D84
  5
7D84
331
A57D
  5
A583
331
AB84
  5
AB85
331
AC2C
  5
AC2D
331
A585
  5
A59E
331
A4EF
  5
A549
331
A4B0
  5
A4D1
331
7D8C
  5
7D8C
331
A546
  5
A559
331
A4B8
  5
A4DA
331
7D94
  5
7D94
331
A481
  5
A4A3
331
A54E
  5
A50C
331
B1F3
  5
B200
331
A5A5
  5
A5A6
  0
XRECORD
  5
5D8A
102
{ACAD_REACTORS
330
5D89
102
}
330
5D89
100
AcDbXrecord
280
     1
340
15
  0
DICTIONARY
  5
7C0C
102
{ACAD_REACTORS
330
7C0B
102
}
330
7C0B
100
AcDbDictionary
280
     1
281
     1
  3
Edit
360
7C0D
  0
DICTIONARY
  5
8E74
102
{ACAD_REACTORS
330
8E73
102
}
330
8E73
100
AcDbDictionary
280
     1
281
     1
  3
Edit
360
8E75
  0
DICTIONARY
  5
9D17
102
{ACAD_REACTORS
330
9D16
102
}
330
9D16
100
AcDbDictionary
280
     1
281
     1
  3
Edit
360
9D18
  0
DICTIONARY
  5
A51A
102
{ACAD_REACTORS
330
A519
102
}
330
A519
100
AcDbDictionary
280
     1
281
     1
  3
Edit
360
A51B
  0
SORTENTSTABLE
  5
ADC4
102
{ACAD_REACTORS
330
ADC3
102
}
330
ADC3
100
AcDbSortentsTable
330
ACA2
  0
LAYOUT
  5
5CF5
102
{ACAD_REACTORS
330
5CF3
102
}
330
5CF3
100
AcDbPlotSettings
  1

  2
hp LaserJet 1300 PCL 6
  4
A4
  6

 40
5.027083396911621
 41
5.069413185119628
 42
5.027084350585937
 43
5.027069091796875
 44
209.9733276367187
 45
296.9683227539062
 46
2.628062639917644
 47
0.0
 48
0.0
 49
0.0
140
190.0
141
280.0
142
1.0
143
0.9760456081518363
 70
 11956
 72
     1
 73
     0
 74
     4
  7
LIN.ctb
 75
     0
147
1.02454228741782
 76
     0
 77
     2
 78
   300
148
0.0
149
0.0
100
AcDbLayout
  1
Model
 70
     1
 71
     0
 10
0.0
 20
0.0
 11
12.0
 21
9.0
 12
0.0
 22
0.0
 32
0.0
 14
0.0
 24
0.0
 34
0.0
 15
0.0
 25
0.0
 35
0.0
146
0.0
 13
0.0
 23
0.0
 33
0.0
 16
1.0
 26
0.0
 36
0.0
 17
0.0
 27
1.0
 37
0.0
 76
     0
330
18
1001
ACAD_PSEXT
1000
hp LaserJet 1300 PCL 6
1000
hp LaserJet 1300 PCL 6
1000
HP 1300
1000

1070
     0
  0
LAYOUT
  5
5CF6
102
{ACAD_REACTORS
330
5CF3
102
}
330
5CF3
100
AcDbPlotSettings
  1

  2
EPSON STYLUS COLOR 440
  4

  6

 40
0.0
 41
0.0
 42
0.0
 43
0.0
 44
0.0
 45
0.0
 46
0.0
 47
0.0
 48
0.0
 49
0.0
140
0.0
141
0.0
142
1.0
143
1.0
 70
   688
 72
     0
 73
     0
 74
     5
  7
LIN.ctb
 75
    16
147
1.0
 76
     0
 77
     2
 78
   300
148
0.0
149
0.0
100
AcDbLayout
  1
ｰtｸm1
 70
     1
 71
     1
 10
0.0
 20
0.0
 11
420.0
 21
297.0
 12
0.0
 22
0.0
 32
0.0
 14
1.000000000000000E+20
 24
1.000000000000000E+20
 34
1.000000000000000E+20
 15
-1.000000000000000E+20
 25
-1.000000000000000E+20
 35
-1.000000000000000E+20
146
0.0
 13
0.0
 23
0.0
 33
0.0
 16
1.0
 26
0.0
 36
0.0
 17
0.0
 27
1.0
 37
0.0
 76
     0
330
15
  0
MLINESTYLE
  5
1C
102
{ACAD_REACTORS
330
1B
102
}
330
1B
100
AcDbMlineStyle
  2
STANDARD
 70
     0
  3

 62
   256
 51
90.0
 52
90.0
 71
     2
 49
0.5
 62
   256
  6
BYLAYER
 49
-0.5
 62
   256
  6
BYLAYER
  0
ACDBPLACEHOLDER
  5
5CF2
102
{ACAD_REACTORS
330
5CF1
102
}
330
5CF1
  0
TABLESTYLE
  5
7875
102
{ACAD_REACTORS
330
7874
102
}
330
7874
100
AcDbTableStyle
  3
Standard
 70
     0
 71
     8
 40
1.5
 41
1.5
280
     0
281
     0
  7
STANDARD
140
4.5
170
     2
 62
     0
 63
     7
283
     0
274
    -2
284
     1
 64
     0
275
    -2
285
     1
 65
     0
276
    -2
286
     1
 66
     0
277
    -2
287
     1
 67
     0
278
    -2
288
     1
 68
     0
279
    -2
289
     1
 69
     0
  7
STANDARD
140
6.0
170
     5
 62
     0
 63
     7
283
     0
274
    -2
284
     1
 64
     0
275
    -2
285
     1
 65
     0
276
    -2
286
     1
 66
     0
277
    -2
287
     1
 67
     0
278
    -2
288
     1
 68
     0
279
    -2
289
     1
 69
     0
  7
STANDARD
140
4.5
170
     5
 62
     0
 63
     7
283
     0
274
    -2
284
     1
 64
     0
275
    -2
285
     1
 65
     0
276
    -2
286
     1
 66
     0
277
    -2
287
     1
 67
     0
278
    -2
288
     1
 68
     0
279
    -2
289
     1
 69
     0
  0
DICTIONARYVAR
  5
7880
102
{ACAD_REACTORS
330
45D
102
}
330
45D
100
DictionaryVariables
280
     0
  1
STANDARD
  0
DICTIONARYVAR
  5
45E
102
{ACAD_REACTORS
330
45D
102
}
330
45D
100
DictionaryVariables
280
     0
  1
127
  0
XRECORD
  5
7C0D
102
{ACAD_REACTORS
330
7C0C
102
}
330
7C0C
100
AcDbXrecord
280
     1
1070
     0
1070
     1
1070
     1
  0
XRECORD
  5
8E75
102
{ACAD_REACTORS
330
8E74
102
}
330
8E74
100
AcDbXrecord
280
     1
1070
     0
1070
     1
1070
     1
  0
XRECORD
  5
9D18
102
{ACAD_REACTORS
330
9D17
102
}
330
9D17
100
AcDbXrecord
280
     1
1070
     0
1070
     1
1070
     1
  0
XRECORD
  5
A51B
102
{ACAD_REACTORS
330
A51A
102
}
330
A51A
100
AcDbXrecord
280
     1
1070
     0
1070
     1
1070
     1
  0
ENDSEC
  0
EOF
