  0
SECTION
  2
HEADER
  9
$ACADVER
  1
AC1018
  9
$ACADMAINTVER
 70
    76
  9
$DWGCODEPAGE
  3
ANSI_932
  9
$INSBASE
 10
0.0
 20
0.0
 30
0.0
  9
$EXTMIN
 10
0.0
 20
0.0
 30
0.0
  9
$EXTMAX
 10
95.0
 20
140.0
 30
0.0
  9
$LIMMIN
 10
0.0
 20
0.0
  9
$LIMMAX
 10
420.0
 20
297.0
  9
$ORTHOMODE
 70
     1
  9
$REGENMODE
 70
     1
  9
$FILLMODE
 70
     1
  9
$QTEXTMODE
 70
     0
  9
$MIRRTEXT
 70
     1
  9
$LTSCALE
 40
1.0
  9
$ATTMODE
 70
     1
  9
$TEXTSIZE
 40
2.5
  9
$TRACEWID
 40
1.0
  9
$TEXTSTYLE
  7
STANDARD
  9
$CLAYER
  8
mark
  9
$CELTYPE
  6
BYLAYER
  9
$CECOLOR
 62
   256
  9
$CELTSCALE
 40
1.0
  9
$DISPSILH
 70
     0
  9
$DIMSCALE
 40
0.5
  9
$DIMASZ
 40
2.5
  9
$DIMEXO
 40
0.85
  9
$DIMDLI
 40
0.38
  9
$DIMRND
 40
0.0
  9
$DIMDLE
 40
0.0
  9
$DIMEXE
 40
0.85
  9
$DIMTP
 40
0.0
  9
$DIMTM
 40
0.0
  9
$DIMTXT
 40
2.5
  9
$DIMCEN
 40
0.09
  9
$DIMTSZ
 40
0.0
  9
$DIMTOL
 70
     0
  9
$DIMLIM
 70
     0
  9
$DIMTIH
 70
     0
  9
$DIMTOH
 70
     0
  9
$DIMSE1
 70
     0
  9
$DIMSE2
 70
     0
  9
$DIMTAD
 70
     3
  9
$DIMZIN
 70
     8
  9
$DIMBLK
  1
Open30
  9
$DIMASO
 70
     1
  9
$DIMSHO
 70
     1
  9
$DIMPOST
  1

  9
$DIMAPOST
  1

  9
$DIMALT
 70
     0
  9
$DIMALTD
 70
     2
  9
$DIMALTF
 40
25.4
  9
$DIMLFAC
 40
1.0
  9
$DIMTOFL
 70
     1
  9
$DIMTVP
 40
0.0
  9
$DIMTIX
 70
     0
  9
$DIMSOXD
 70
     0
  9
$DIMSAH
 70
     0
  9
$DIMBLK1
  1

  9
$DIMBLK2
  1

  9
$DIMSTYLE
  2
STANDARD
  9
$DIMCLRD
 70
   256
  9
$DIMCLRE
 70
   256
  9
$DIMCLRT
 70
     3
  9
$DIMTFAC
 40
1.0
  9
$DIMGAP
 40
0.85
  9
$DIMJUST
 70
     0
  9
$DIMSD1
 70
     0
  9
$DIMSD2
 70
     0
  9
$DIMTOLJ
 70
     1
  9
$DIMTZIN
 70
     0
  9
$DIMALTZ
 70
     0
  9
$DIMALTTZ
 70
     0
  9
$DIMUPT
 70
     0
  9
$DIMDEC
 70
     2
  9
$DIMTDEC
 70
     2
  9
$DIMALTU
 70
     2
  9
$DIMALTTD
 70
     2
  9
$DIMTXSTY
  7
STANDARD
  9
$DIMAUNIT
 70
     0
  9
$DIMADEC
 70
     2
  9
$DIMALTRND
 40
0.0
  9
$DIMAZIN
 70
     2
  9
$DIMDSEP
 70
    46
  9
$DIMATFIT
 70
     3
  9
$DIMFRAC
 70
     0
  9
$DIMLDRBLK
  1
Open30
  9
$DIMLUNIT
 70
     2
  9
$DIMLWD
 70
    -2
  9
$DIMLWE
 70
    -2
  9
$DIMTMOVE
 70
     0
  9
$LUNITS
 70
     2
  9
$LUPREC
 70
     2
  9
$SKETCHINC
 40
1.0
  9
$FILLETRAD
 40
1.0
  9
$AUNITS
 70
     0
  9
$AUPREC
 70
     2
  9
$MENU
  1
.
  9
$ELEVATION
 40
0.0
  9
$PELEVATION
 40
0.0
  9
$THICKNESS
 40
0.0
  9
$LIMCHECK
 70
     0
  9
$CHAMFERA
 40
1.0
  9
$CHAMFERB
 40
1.0
  9
$CHAMFERC
 40
1.75
  9
$CHAMFERD
 40
0.0174532925199433
  9
$SKPOLY
 70
     0
  9
$TDCREATE
 40
2451555.620234838
  9
$TDUCREATE
 40
2451555.245234838
  9
$TDUPDATE
 40
2455846.617844236
  9
$TDUUPDATE
 40
2455846.242844236
  9
$TDINDWG
 40
3.0598464699
  9
$TDUSRTIMER
 40
3.0598464699
  9
$USRTIMER
 70
     1
  9
$ANGBASE
 50
0.0
  9
$ANGDIR
 70
     0
  9
$PDMODE
 70
     0
  9
$PDSIZE
 40
0.0
  9
$PLINEWID
 40
0.0
  9
$SPLFRAME
 70
     0
  9
$SPLINETYPE
 70
     6
  9
$SPLINESEGS
 70
     8
  9
$HANDSEED
  5
D585
  9
$SURFTAB1
 70
     6
  9
$SURFTAB2
 70
     6
  9
$SURFTYPE
 70
     6
  9
$SURFU
 70
     6
  9
$SURFV
 70
     6
  9
$UCSBASE
  2

  9
$UCSNAME
  2

  9
$UCSORG
 10
0.0
 20
0.0
 30
0.0
  9
$UCSXDIR
 10
1.0
 20
0.0
 30
0.0
  9
$UCSYDIR
 10
0.0
 20
1.0
 30
0.0
  9
$UCSORTHOREF
  2

  9
$UCSORTHOVIEW
 70
     1
  9
$UCSORGTOP
 10
0.0
 20
0.0
 30
0.0
  9
$UCSORGBOTTOM
 10
0.0
 20
0.0
 30
0.0
  9
$UCSORGLEFT
 10
0.0
 20
0.0
 30
0.0
  9
$UCSORGRIGHT
 10
0.0
 20
0.0
 30
0.0
  9
$UCSORGFRONT
 10
0.0
 20
0.0
 30
0.0
  9
$UCSORGBACK
 10
0.0
 20
0.0
 30
0.0
  9
$PUCSBASE
  2

  9
$PUCSNAME
  2

  9
$PUCSORG
 10
0.0
 20
0.0
 30
0.0
  9
$PUCSXDIR
 10
1.0
 20
0.0
 30
0.0
  9
$PUCSYDIR
 10
0.0
 20
1.0
 30
0.0
  9
$PUCSORTHOREF
  2

  9
$PUCSORTHOVIEW
 70
     0
  9
$PUCSORGTOP
 10
0.0
 20
0.0
 30
0.0
  9
$PUCSORGBOTTOM
 10
0.0
 20
0.0
 30
0.0
  9
$PUCSORGLEFT
 10
0.0
 20
0.0
 30
0.0
  9
$PUCSORGRIGHT
 10
0.0
 20
0.0
 30
0.0
  9
$PUCSORGFRONT
 10
0.0
 20
0.0
 30
0.0
  9
$PUCSORGBACK
 10
0.0
 20
0.0
 30
0.0
  9
$USERI1
 70
     0
  9
$USERI2
 70
     0
  9
$USERI3
 70
     0
  9
$USERI4
 70
     0
  9
$USERI5
 70
     0
  9
$USERR1
 40
0.0
  9
$USERR2
 40
0.0
  9
$USERR3
 40
0.0
  9
$USERR4
 40
0.0
  9
$USERR5
 40
0.0
  9
$WORLDVIEW
 70
     1
  9
$SHADEDGE
 70
     3
  9
$SHADEDIF
 70
    70
  9
$TILEMODE
 70
     1
  9
$MAXACTVP
 70
    48
  9
$PINSBASE
 10
0.0
 20
0.0
 30
0.0
  9
$PLIMCHECK
 70
     0
  9
$PEXTMIN
 10
1.000000000000000E+20
 20
1.000000000000000E+20
 30
1.000000000000000E+20
  9
$PEXTMAX
 10
-1.000000000000000E+20
 20
-1.000000000000000E+20
 30
-1.000000000000000E+20
  9
$PLIMMIN
 10
0.0
 20
0.0
  9
$PLIMMAX
 10
420.0
 20
297.0
  9
$UNITMODE
 70
     0
  9
$VISRETAIN
 70
     1
  9
$PLINEGEN
 70
     0
  9
$PSLTSCALE
 70
     1
  9
$TREEDEPTH
 70
  3020
  9
$CMLSTYLE
  2
STANDARD
  9
$CMLJUST
 70
     0
  9
$CMLSCALE
 40
20.0
  9
$PROXYGRAPHICS
 70
     1
  9
$MEASUREMENT
 70
     1
  9
$CELWEIGHT
370
    -1
  9
$ENDCAPS
280
     0
  9
$JOINSTYLE
280
     0
  9
$LWDISPLAY
290
     0
  9
$INSUNITS
 70
     0
  9
$HYPERLINKBASE
  1

  9
$STYLESHEET
  1
LIN.ctb
  9
$XEDIT
290
     1
  9
$CEPSNTYPE
380
     0
  9
$PSTYLEMODE
290
     1
  9
$FINGERPRINTGUID
  2
{1CF51E8A-A506-11D4-A7D9-AF69F5C20846}
  9
$VERSIONGUID
  2
{1BD59266-5C70-48CE-AC89-5CE1B2B56207}
  9
$EXTNAMES
290
     1
  9
$PSVPSCALE
 40
0.0
  9
$OLESTARTUP
290
     0
  9
$SORTENTS
280
   127
  9
$INDEXCTL
280
     0
  9
$HIDETEXT
280
     0
  9
$XCLIPFRAME
290
     0
  9
$HALOGAP
280
     0
  9
$OBSCOLOR
 70
   257
  9
$OBSLTYPE
280
     0
  9
$INTERSECTIONDISPLAY
280
     0
  9
$INTERSECTIONCOLOR
 70
   257
  9
$DIMASSOC
280
     1
  9
$PROJECTNAME
  1

  0
ENDSEC
  0
SECTION
  2
CLASSES
  0
CLASS
  1
DICTIONARYVAR
  2
AcDbDictionaryVar
  3
ObjectDBX Classes
 90
        0
 91
        2
280
     0
281
     0
  0
CLASS
  1
SORTENTSTABLE
  2
AcDbSortentsTable
  3
ObjectDBX Classes
 90
        0
 91
        1
280
     0
281
     0
  0
CLASS
  1
ACDBDICTIONARYWDFLT
  2
AcDbDictionaryWithDefault
  3
ObjectDBX Classes
 90
        0
 91
        1
280
     0
281
     0
  0
CLASS
  1
TABLESTYLE
  2
AcDbTableStyle
  3
ObjectDBX Classes
 90
     2047
 91
        1
280
     0
281
     0
  0
ENDSEC
  0
SECTION
  2
TABLES
  0
TABLE
  2
VPORT
  5
8
330
0
100
AcDbSymbolTable
 70
     2
  0
VPORT
  5
D584
330
8
100
AcDbSymbolTableRecord
100
AcDbViewportTableRecord
  2
*Active
 70
     0
 10
0.0
 20
0.0
 11
1.0
 21
1.0
 12
122.9930831539215
 22
70.00565601780827
 13
0.0
 23
0.0
 14
10.0
 24
10.0
 15
10.0
 25
10.0
 16
0.0
 26
0.0
 36
1.0
 17
0.0
 27
0.0
 37
0.0
 40
141.7210227740985
 41
2.47104247104247
 42
50.0
 43
0.0
 44
0.0
 50
0.0
 51
0.0
 71
     0
 72
 20000
 73
     1
 74
     1
 75
     0
 76
     0
 77
     0
 78
     0
281
     0
 65
     1
110
0.0
120
0.0
130
0.0
111
1.0
121
0.0
131
0.0
112
0.0
122
1.0
132
0.0
 79
     1
146
0.0
  0
ENDTAB
  0
TABLE
  2
LTYPE
  5
5
330
0
100
AcDbSymbolTable
 70
     7
  0
LTYPE
  5
12
330
5
100
AcDbSymbolTableRecord
100
AcDbLinetypeTableRecord
  2
BYBLOCK
 70
     0
  3

 72
    65
 73
     0
 40
0.0
  0
LTYPE
  5
13
330
5
100
AcDbSymbolTableRecord
100
AcDbLinetypeTableRecord
  2
BYLAYER
 70
     0
  3

 72
    65
 73
     0
 40
0.0
  0
LTYPE
  5
14
330
5
100
AcDbSymbolTableRecord
100
AcDbLinetypeTableRecord
  2
CONTINUOUS
 70
     0
  3
Solid line
 72
    65
 73
     0
 40
0.0
  0
LTYPE
  5
9D
330
5
100
AcDbSymbolTableRecord
100
AcDbLinetypeTableRecord
  2
CENTERX2
 70
     0
  3
Center (2x) ________  __  ________  __  _____
 72
    65
 73
     4
 40
101.6
 49
63.5
 74
     0
 49
-12.7
 74
     0
 49
12.7
 74
     0
 49
-12.7
 74
     0
  0
LTYPE
  5
A1
330
5
100
AcDbSymbolTableRecord
100
AcDbLinetypeTableRecord
  2
DASHED
 70
     0
  3
Dashed __ __ __ __ __ __ __ __ __ __ __ __ __ _
 72
    65
 73
     2
 40
19.05
 49
12.7
 74
     0
 49
-6.349999999999999
 74
     0
  0
LTYPE
  5
A2
330
5
100
AcDbSymbolTableRecord
100
AcDbLinetypeTableRecord
  2
DASHED2
 70
     0
  3
Dashed (.5x) _ _ _ _ _ _ _ _ _ _ _ _ _ _ _ _ _
 72
    65
 73
     2
 40
9.524999999999998
 49
6.349999999999999
 74
     0
 49
-3.174999999999999
 74
     0
  0
LTYPE
  5
A5
330
5
100
AcDbSymbolTableRecord
100
AcDbLinetypeTableRecord
  2
DIVIDE2
 70
     0
  3
Divide (.5x) __..__..__..__..__..__..__..__.._
 72
    65
 73
     6
 40
15.875
 49
6.349999999999999
 74
     0
 49
-3.174999999999999
 74
     0
 49
0.0
 74
     0
 49
-3.174999999999999
 74
     0
 49
0.0
 74
     0
 49
-3.174999999999999
 74
     0
  0
LTYPE
  5
650B
330
5
100
AcDbSymbolTableRecord
100
AcDbLinetypeTableRecord
  2
CENTER
 70
     0
  3
Center ____ _ ____ _ ____ _ ____ _ ____ _ ____
 72
    65
 73
     4
 40
50.8
 49
31.75
 74
     0
 49
-6.349999999999999
 74
     0
 49
6.349999999999999
 74
     0
 49
-6.349999999999999
 74
     0
  0
LTYPE
  5
650C
330
5
100
AcDbSymbolTableRecord
100
AcDbLinetypeTableRecord
  2
HIDDEN
 70
     0
  3
Hidden __ __ __ __ __ __ __ __ __ __ __ __ __ _
 72
    65
 73
     2
 40
9.524999999999998
 49
6.349999999999999
 74
     0
 49
-3.174999999999999
 74
     0
  0
ENDTAB
  0
TABLE
  2
LAYER
  5
2
102
{ACAD_XDICTIONARY
360
7BFE
102
}
330
0
100
AcDbSymbolTable
 70
     9
  0
LAYER
  5
E
330
2
100
AcDbSymbolTableRecord
100
AcDbLayerTableRecord
  2
0
 70
     0
 62
     7
  6
CONTINUOUS
370
    -3
390
5CF2
  0
LAYER
  5
B9
330
2
100
AcDbSymbolTableRecord
100
AcDbLayerTableRecord
  2
dim
 70
     0
 62
     3
  6
CONTINUOUS
370
    -3
390
5CF2
  0
LAYER
  5
F2
330
2
100
AcDbSymbolTableRecord
100
AcDbLayerTableRecord
  2
DEFPOINTS
 70
     0
 62
     4
  6
CONTINUOUS
290
     0
370
    -3
390
5CF2
  0
LAYER
  5
5F8B
330
2
100
AcDbSymbolTableRecord
100
AcDbLayerTableRecord
  2
mark
 70
     0
 62
     6
  6
CONTINUOUS
370
    -3
390
5CF2
  0
LAYER
  5
644E
330
2
100
AcDbSymbolTableRecord
100
AcDbLayerTableRecord
  2
frame
 70
     0
 62
     9
  6
CONTINUOUS
370
    -3
390
5CF2
  0
LAYER
  5
650D
330
2
100
AcDbSymbolTableRecord
100
AcDbLayerTableRecord
  2
center
 70
     0
 62
     1
  6
CENTER
370
    -3
390
5CF2
  0
LAYER
  5
650E
330
2
100
AcDbSymbolTableRecord
100
AcDbLayerTableRecord
  2
bowle
 70
     0
 62
     4
  6
HIDDEN
370
    -3
390
5CF2
  0
LAYER
  5
650F
330
2
100
AcDbSymbolTableRecord
100
AcDbLayerTableRecord
  2
contour
 70
     0
 62
     2
  6
CONTINUOUS
370
    -3
390
5CF2
  0
LAYER
  5
6510
330
2
100
AcDbSymbolTableRecord
100
AcDbLayerTableRecord
  2
section
 70
     0
 62
     5
  6
CONTINUOUS
370
    -3
390
5CF2
  0
ENDTAB
  0
TABLE
  2
STYLE
  5
3
330
0
100
AcDbSymbolTable
 70
     3
  0
STYLE
  5
F
330
3
100
AcDbSymbolTableRecord
100
AcDbTextStyleTableRecord
  2
STANDARD
 70
     0
 40
0.0
 41
1.0
 50
0.0
 71
     0
 42
2.5
  3
txt.shx
  4
bigfont.shx
  0
STYLE
  5
BE
330
3
100
AcDbSymbolTableRecord
100
AcDbTextStyleTableRecord
  2
CN
 70
     0
 40
0.0
 41
1.0
 50
0.0
 71
     0
 42
2.5
  3
txt.shx
  4
gbcbig.shx
  0
STYLE
  5
5DCC
330
3
100
AcDbSymbolTableRecord
100
AcDbTextStyleTableRecord
  2
TW
 70
     0
 40
0.0
 41
1.0
 50
0.0
 71
     0
 42
5.0
  3
txt.shx
  4
chineset.shx
  0
ENDTAB
  0
TABLE
  2
VIEW
  5
6
330
0
100
AcDbSymbolTable
 70
     0
  0
ENDTAB
  0
TABLE
  2
UCS
  5
7
330
0
100
AcDbSymbolTable
 70
     0
  0
ENDTAB
  0
TABLE
  2
APPID
  5
9
330
0
100
AcDbSymbolTable
 70
    11
  0
APPID
  5
10
330
9
100
AcDbSymbolTableRecord
100
AcDbRegAppTableRecord
  2
ACAD
 70
     0
  0
APPID
  5
7C91
330
9
100
AcDbSymbolTableRecord
100
AcDbRegAppTableRecord
  2
ACAD_DSTYLE_DIMEXT_LENGTH
 70
     0
  0
APPID
  5
7C92
330
9
100
AcDbSymbolTableRecord
100
AcDbRegAppTableRecord
  2
ACAD_DSTYLE_DIMEXT_ENABLED
 70
     0
  0
APPID
  5
7C93
330
9
100
AcDbSymbolTableRecord
100
AcDbRegAppTableRecord
  2
ACAD_DSTYLE_DIMJOGGED_JOGANGLE_SYMBOL
 70
     0
  0
APPID
  5
7C94
330
9
100
AcDbSymbolTableRecord
100
AcDbRegAppTableRecord
  2
ACAD_DSTYLE_DIMARC_LENGTH_SYMBOL
 70
     0
  0
APPID
  5
7F1C
330
9
100
AcDbSymbolTableRecord
100
AcDbRegAppTableRecord
  2
ACAD_EXEMPT_FROM_CAD_STANDARDS
 70
     0
  0
APPID
  5
7F49
330
9
100
AcDbSymbolTableRecord
100
AcDbRegAppTableRecord
  2
ACAD_DSTYLE_DIMTEXT_FILL
 70
     0
  0
APPID
  5
7F4C
330
9
100
AcDbSymbolTableRecord
100
AcDbRegAppTableRecord
  2
ACAD_DSTYLE_DIM_LINETYPE
 70
     0
  0
APPID
  5
7F4D
330
9
100
AcDbSymbolTableRecord
100
AcDbRegAppTableRecord
  2
ACAD_DSTYLE_DIM_EXT1_LINETYPE
 70
     0
  0
APPID
  5
7F4E
330
9
100
AcDbSymbolTableRecord
100
AcDbRegAppTableRecord
  2
ACAD_DSTYLE_DIM_EXT2_LINETYPE
 70
     0
  0
APPID
  5
8C73
330
9
100
AcDbSymbolTableRecord
100
AcDbRegAppTableRecord
  2
ACAD_PSEXT
 70
     0
  0
ENDTAB
  0
TABLE
  2
DIMSTYLE
  5
A
330
0
100
AcDbSymbolTable
 70
     1
100
AcDbDimStyleTable
 71
     1
340
1D
  0
DIMSTYLE
105
1D
102
{ACAD_REACTORS
330
D37F
330
D3A8
330
D3B5
330
D3C4
330
D3D4
330
D3E2
330
D420
330
D42C
102
}
330
A
100
AcDbSymbolTableRecord
100
AcDbDimStyleTableRecord
  2
STANDARD
 70
     0
 40
0.5
 41
2.5
 42
0.85
 44
0.85
 73
     0
 74
     0
 77
     3
 78
     8
 79
     2
140
2.5
147
0.85
172
     1
176
   256
177
   256
178
     3
179
     2
271
     2
272
     2
340
F
341
7C04
342
7C04
1001
ACAD_DSTYLE_DIMEXT_LENGTH
1070
   378
1040
0.18
1001
ACAD_DSTYLE_DIMEXT_ENABLED
1070
   383
1070
     0
1001
ACAD_DSTYLE_DIMARC_LENGTH_SYMBOL
1070
   379
1070
     0
1001
ACAD_DSTYLE_DIMJOGGED_JOGANGLE_SYMBOL
1070
   384
1040
1.570796326794896
  0
ENDTAB
  0
TABLE
  2
BLOCK_RECORD
  5
1
330
0
100
AcDbSymbolTable
 70
    15
  0
BLOCK_RECORD
  5
18
102
{ACAD_XDICTIONARY
360
45F
102
}
330
1
100
AcDbSymbolTableRecord
100
AcDbBlockTableRecord
  2
*MODEL_SPACE
340
5CF5
  0
BLOCK_RECORD
  5
15
102
{ACAD_XDICTIONARY
360
5D89
102
}
330
1
100
AcDbSymbolTableRecord
100
AcDbBlockTableRecord
  2
*PAPER_SPACE
340
5CF6
  0
BLOCK_RECORD
  5
639D
330
1
100
AcDbSymbolTableRecord
100
AcDbBlockTableRecord
  2
A$C255C26A2
340
0
  0
BLOCK_RECORD
  5
7C04
330
1
100
AcDbSymbolTableRecord
100
AcDbBlockTableRecord
  2
_Open30
340
0
102
{BLKREFS
331
D494
331
D495
331
D49D
331
D49E
331
D4A8
331
D4A9
331
D4B1
331
D4B2
331
D4BA
331
D4BB
331
D4C3
331
D4C4
331
D4CD
331
D4CE
331
D4D5
331
D4D6
102
}
  0
BLOCK_RECORD
  5
7C0A
102
{ACAD_XDICTIONARY
360
7C0B
102
}
330
1
100
AcDbSymbolTableRecord
100
AcDbBlockTableRecord
  2
A
340
0
310
2800000020000000200000000100080000000000000400000000000000000000000000000000000000000000000080000080000000808000800000008000800080800000C0C0C000C0DCC000F0CAA6000020400000206000002080000020A0000020C0000020E00000400000004020000040400000406000004080000040A0
310
000040C0000040E00000600000006020000060400000606000006080000060A0000060C0000060E00000800000008020000080400000806000008080000080A0000080C0000080E00000A0000000A0200000A0400000A0600000A0800000A0A00000A0C00000A0E00000C0000000C0200000C0400000C0600000C0800000C0
310
A00000C0C00000C0E00000E0000000E0200000E0400000E0600000E0800000E0A00000E0C00000E0E00040000000400020004000400040006000400080004000A0004000C0004000E00040200000402020004020400040206000402080004020A0004020C0004020E000404000004040200040404000404060004040800040
310
40A0004040C0004040E00040600000406020004060400040606000406080004060A0004060C0004060E00040800000408020004080400040806000408080004080A0004080C0004080E00040A0000040A0200040A0400040A0600040A0800040A0A00040A0C00040A0E00040C0000040C0200040C0400040C0600040C08000
310
40C0A00040C0C00040C0E00040E0000040E0200040E0400040E0600040E0800040E0A00040E0C00040E0E00080000000800020008000400080006000800080008000A0008000C0008000E00080200000802020008020400080206000802080008020A0008020C0008020E00080400000804020008040400080406000804080
310
008040A0008040C0008040E00080600000806020008060400080606000806080008060A0008060C0008060E00080800000808020008080400080806000808080008080A0008080C0008080E00080A0000080A0200080A0400080A0600080A0800080A0A00080A0C00080A0E00080C0000080C0200080C0400080C0600080C0
310
800080C0A00080C0C00080C0E00080E0000080E0200080E0400080E0600080E0800080E0A00080E0C00080E0E000C0000000C0002000C0004000C0006000C0008000C000A000C000C000C000E000C0200000C0202000C0204000C0206000C0208000C020A000C020C000C020E000C0400000C0402000C0404000C0406000C0
310
408000C040A000C040C000C040E000C0600000C0602000C0604000C0606000C0608000C060A000C060C000C060E000C0800000C0802000C0804000C0806000C0808000C080A000C080C000C080E000C0A00000C0A02000C0A04000C0A06000C0A08000C0A0A000C0A0C000C0A0E000C0C00000C0C02000C0C04000C0C06000
310
C0C08000C0C0A000F0FBFF00A4A0A000808080000000FF0000FF000000FFFF00FF000000FF00FF00FFFF0000FFFFFF0000000000000000000000000000000000000000000000000000000000000000000000000000000000000000000000000000000000000000000000000000000000000000000000000000000000000000
310
00000000000000000000000000000000000000000000000000000000000000000000000000000000000000000000000000000000000000000000000000000000000000000000000000000000000000000000000000000000000000000000000000000000000000000000000000000000000000000000000000000000000000
310
00000000000000000000000000000000000000000000000000000000000000000000000000000000000000000000000000000000000000000000000000000000000000000000000000000000000000000000000000000000000000000000000000000000000000000000000000000000000000000000000000000000000000
310
000000000000FDFDFDFDFDFDFDFDFDFDFDFD0000FD0000000000000000000000000000000000FD0000FA0000000000FA00FD0000FDFD00000000000000000000000000000000FD0000FA0000000000FA00FD0000FDFDFD000000000000000000000000000000FD0000FA0000000000FA00FD0000FDFDFDFD00000000000000
310
00000000000000FD0000FAFAFAFAFAFAFA00FD0000FDFDFDFDFD00000000000000000000000000FD000000FA00000000FA00FD0000FDFDFDFDFDFDFDFDFDFDFDFDFDFDFDFDFDFDFD000000FA000000FA0000FD0000FDFDFDFDFD00000000000000000000000000FD00000000FA0000FA0000FD0000FDFDFDFD000000000000
310
0000000000000000FD00000000FA00FA000000FD0000FDFD00000000000000000000000000000000FD0000000000FAFA000000FD0000FD0000000000000000000000000000000000FD0000000000FA00000000FD0000000000000000000000000000000000000000FDFDFDFDFDFDFDFDFDFDFDFD0000000000000000000000
310
00000000000000000000000000000000000000000000000000000000000000000000000000000000000000000000000000000000000000000000000000000000000000000000000000000000000000000000000000000000000000000000000000000000000000000000000000000000000000000000000000000000000000
310
00000000000000000000000000000000000000000000000000000000000000000000000000000000000000000000000000000000000000000000000000000000000000000000000000000000000000000000000000000000000000000000000000000000000000000000000000000000000000000000000000000000000000
310
0000000000000000000000000000000000000000000000000000000000000000000000000000000000000000000000000000000000000000
  0
BLOCK_RECORD
  5
8E72
102
{ACAD_XDICTIONARY
360
8E73
102
}
330
1
100
AcDbSymbolTableRecord
100
AcDbBlockTableRecord
  2
LS
340
0
310
2800000020000000200000000100080000000000000400000000000000000000000000000000000000000000000080000080000000808000800000008000800080800000C0C0C000C0DCC000F0CAA6000020400000206000002080000020A0000020C0000020E00000400000004020000040400000406000004080000040A0
310
000040C0000040E00000600000006020000060400000606000006080000060A0000060C0000060E00000800000008020000080400000806000008080000080A0000080C0000080E00000A0000000A0200000A0400000A0600000A0800000A0A00000A0C00000A0E00000C0000000C0200000C0400000C0600000C0800000C0
310
A00000C0C00000C0E00000E0000000E0200000E0400000E0600000E0800000E0A00000E0C00000E0E00040000000400020004000400040006000400080004000A0004000C0004000E00040200000402020004020400040206000402080004020A0004020C0004020E000404000004040200040404000404060004040800040
310
40A0004040C0004040E00040600000406020004060400040606000406080004060A0004060C0004060E00040800000408020004080400040806000408080004080A0004080C0004080E00040A0000040A0200040A0400040A0600040A0800040A0A00040A0C00040A0E00040C0000040C0200040C0400040C0600040C08000
310
40C0A00040C0C00040C0E00040E0000040E0200040E0400040E0600040E0800040E0A00040E0C00040E0E00080000000800020008000400080006000800080008000A0008000C0008000E00080200000802020008020400080206000802080008020A0008020C0008020E00080400000804020008040400080406000804080
310
008040A0008040C0008040E00080600000806020008060400080606000806080008060A0008060C0008060E00080800000808020008080400080806000808080008080A0008080C0008080E00080A0000080A0200080A0400080A0600080A0800080A0A00080A0C00080A0E00080C0000080C0200080C0400080C0600080C0
310
800080C0A00080C0C00080C0E00080E0000080E0200080E0400080E0600080E0800080E0A00080E0C00080E0E000C0000000C0002000C0004000C0006000C0008000C000A000C000C000C000E000C0200000C0202000C0204000C0206000C0208000C020A000C020C000C020E000C0400000C0402000C0404000C0406000C0
310
408000C040A000C040C000C040E000C0600000C0602000C0604000C0606000C0608000C060A000C060C000C060E000C0800000C0802000C0804000C0806000C0808000C080A000C080C000C080E000C0A00000C0A02000C0A04000C0A06000C0A08000C0A0A000C0A0C000C0A0E000C0C00000C0C02000C0C04000C0C06000
310
C0C08000C0C0A000F0FBFF00A4A0A000808080000000FF0000FF000000FFFF00FF000000FF00FF00FFFF0000FFFFFF00000000000000000000000000000000000000000000000000000000000000000000000000000000000000FBFBFEFBFEFBFBFEFBFEFBFB00000000000000000000000000000000000000FBFBFBFEFBFE
310
FBFBFEFBFEFBFBFB000000000000000000000000000000000000FB0000FE00FE0000FE00FE0000FB000000000000000000000000000000000000FB0000FE00FE0000FE00FE0000FB000000000000000000000000000000000000FB0000FEFEFEFEFEFEFEFE0000FB000000000000000000000000000000000000FB000000FE
310
FE0000FEFE000000FB000000000000000000000000000000000000FB0000000000FEFE0000000000FB000000000000000000000000000000000000FBFBFBFEFBFBFBFBFBFBFEFBFBFB000000000000000000000000000000000000000000FBFE0000000000FE000000000000000000000000000000000000000000000000FB
310
FBFBFBFBFBFEFB000000000000000000000000000000000000000000000000FBFE00000000FEFB000000000000000000000000000000000000000000000000FBFE00000000FEFB000000000000000000000000000000000000000000000000FBFE00000000FEFB000000000000000000000000000000000000000000000000
310
FBFE00000000FEFB000000000000000000000000000000000000000000000000FBFE00000000FEFB000000000000000000000000000000000000000000000000FBFE00000000FEFB000000000000000000000000000000000000000000000000FBFE00000000FEFB0000000000000000000000000000000000000000000000
310
00FBFE00000000FEFB000000000000000000000000000000000000000000000000FBFE00000000FEFB000000000000000000000000000000000000000000000000FBFE00000000FEFB000000000000000000000000000000000000000000000000FBFE00000000FEFB00000000000000000000000000000000000000000000
310
0000FBFE00000000FEFB000000000000000000000000000000000000000000000000FBFE00000000FEFB000000000000000000000000000000000000000000000000FBFE00000000FEFB000000000000000000000000000000000000000000000000FBFE00000000FEFB000000000000000000000000000000000000000000
310
000000FBFE00000000FEFB000000000000000000000000000000000000000000000000FBFE00000000FEFB000000000000000000000000000000000000000000000000FBFEFBFBFBFBFEFB00000000000000000000000000000000000000000000000000FE00000000FEFB0000000000000000000000000000000000000000
310
0000000000FBFBFBFBFBFB000000000000000000000000000000000000000000000000000000000000000000000000000000000000000000
102
{BLKREFS
331
D2F3
102
}
  0
BLOCK_RECORD
  5
9D15
102
{ACAD_XDICTIONARY
360
9D16
102
}
330
1
100
AcDbSymbolTableRecord
100
AcDbBlockTableRecord
  2
LS2
340
0
310
2800000020000000200000000100080000000000000400000000000000000000000000000000000000000000000080000080000000808000800000008000800080800000C0C0C000C0DCC000F0CAA6000020400000206000002080000020A0000020C0000020E00000400000004020000040400000406000004080000040A0
310
000040C0000040E00000600000006020000060400000606000006080000060A0000060C0000060E00000800000008020000080400000806000008080000080A0000080C0000080E00000A0000000A0200000A0400000A0600000A0800000A0A00000A0C00000A0E00000C0000000C0200000C0400000C0600000C0800000C0
310
A00000C0C00000C0E00000E0000000E0200000E0400000E0600000E0800000E0A00000E0C00000E0E00040000000400020004000400040006000400080004000A0004000C0004000E00040200000402020004020400040206000402080004020A0004020C0004020E000404000004040200040404000404060004040800040
310
40A0004040C0004040E00040600000406020004060400040606000406080004060A0004060C0004060E00040800000408020004080400040806000408080004080A0004080C0004080E00040A0000040A0200040A0400040A0600040A0800040A0A00040A0C00040A0E00040C0000040C0200040C0400040C0600040C08000
310
40C0A00040C0C00040C0E00040E0000040E0200040E0400040E0600040E0800040E0A00040E0C00040E0E00080000000800020008000400080006000800080008000A0008000C0008000E00080200000802020008020400080206000802080008020A0008020C0008020E00080400000804020008040400080406000804080
310
008040A0008040C0008040E00080600000806020008060400080606000806080008060A0008060C0008060E00080800000808020008080400080806000808080008080A0008080C0008080E00080A0000080A0200080A0400080A0600080A0800080A0A00080A0C00080A0E00080C0000080C0200080C0400080C0600080C0
310
800080C0A00080C0C00080C0E00080E0000080E0200080E0400080E0600080E0800080E0A00080E0C00080E0E000C0000000C0002000C0004000C0006000C0008000C000A000C000C000C000E000C0200000C0202000C0204000C0206000C0208000C020A000C020C000C020E000C0400000C0402000C0404000C0406000C0
310
408000C040A000C040C000C040E000C0600000C0602000C0604000C0606000C0608000C060A000C060C000C060E000C0800000C0802000C0804000C0806000C0808000C080A000C080C000C080E000C0A00000C0A02000C0A04000C0A06000C0A08000C0A0A000C0A0C000C0A0E000C0C00000C0C02000C0C04000C0C06000
310
C0C08000C0C0A000F0FBFF00A4A0A000808080000000FF0000FF000000FFFF00FF000000FF00FF00FFFF0000FFFFFF0000000000000000000000000000000000000000000000000000000000000000000000000000000000000000FBFBFEFEFBFBFEFEFBFB00000000000000000000000000000000000000000000FBFBFEFE
310
FBFBFEFEFBFB00000000000000000000000000000000000000000000FB00FEFE0000FEFE00FB00000000000000000000000000000000000000000000FB00FEFE0000FEFE00FB00000000000000000000000000000000000000000000FB00FEFEFEFEFEFE00FB00000000000000000000000000000000000000000000FB0000
310
FEFEFE000000FB00000000000000000000000000000000000000000000FBFBFEFBFBFBFBFEFBFB000000000000000000000000000000000000000000000000FBFBFBFBFBFE0000000000000000000000000000000000000000000000000000FE00000000FE0000000000000000000000000000000000000000000000000000
310
FE00000000FE0000000000000000000000000000000000000000000000000000FE00000000FE0000000000000000000000000000000000000000000000000000FE00000000FE0000000000000000000000000000000000000000000000000000FE00000000FE00000000000000000000000000000000000000000000000000
310
00FE00000000FE0000000000000000000000000000000000000000000000000000FE00000000FE0000000000000000000000000000000000000000000000000000FE00000000FE0000000000000000000000000000000000000000000000000000FE00000000FE000000000000000000000000000000000000000000000000
310
0000FE00000000FE0000000000000000000000000000000000000000000000000000FE00000000FE0000000000000000000000000000000000000000000000000000FE00000000FE0000000000000000000000000000000000000000000000000000FE00000000FE0000000000000000000000000000000000000000000000
310
000000FE00000000FE0000000000000000000000000000000000000000000000000000FE00000000FE0000000000000000000000000000000000000000000000000000FE00000000FE0000000000000000000000000000000000000000000000000000FE00000000FE00000000000000000000000000000000000000000000
310
00000000FE00000000FE0000000000000000000000000000000000000000000000000000FE00000000FE0000000000000000000000000000000000000000000000000000FEFBFBFBFBFE0000000000000000000000000000000000000000000000000000FEFB000000FE000000000000000000000000000000000000000000
310
000000000000FBFBFBFB00000000000000000000000000000000000000000000000000000000000000000000000000000000000000000000
  0
BLOCK_RECORD
  5
A518
102
{ACAD_XDICTIONARY
360
A519
102
}
330
1
100
AcDbSymbolTableRecord
100
AcDbBlockTableRecord
  2
LS3
340
0
310
2800000020000000200000000100080000000000000400000000000000000000000000000000000000000000000080000080000000808000800000008000800080800000C0C0C000C0DCC000F0CAA6000020400000206000002080000020A0000020C0000020E00000400000004020000040400000406000004080000040A0
310
000040C0000040E00000600000006020000060400000606000006080000060A0000060C0000060E00000800000008020000080400000806000008080000080A0000080C0000080E00000A0000000A0200000A0400000A0600000A0800000A0A00000A0C00000A0E00000C0000000C0200000C0400000C0600000C0800000C0
310
A00000C0C00000C0E00000E0000000E0200000E0400000E0600000E0800000E0A00000E0C00000E0E00040000000400020004000400040006000400080004000A0004000C0004000E00040200000402020004020400040206000402080004020A0004020C0004020E000404000004040200040404000404060004040800040
310
40A0004040C0004040E00040600000406020004060400040606000406080004060A0004060C0004060E00040800000408020004080400040806000408080004080A0004080C0004080E00040A0000040A0200040A0400040A0600040A0800040A0A00040A0C00040A0E00040C0000040C0200040C0400040C0600040C08000
310
40C0A00040C0C00040C0E00040E0000040E0200040E0400040E0600040E0800040E0A00040E0C00040E0E00080000000800020008000400080006000800080008000A0008000C0008000E00080200000802020008020400080206000802080008020A0008020C0008020E00080400000804020008040400080406000804080
310
008040A0008040C0008040E00080600000806020008060400080606000806080008060A0008060C0008060E00080800000808020008080400080806000808080008080A0008080C0008080E00080A0000080A0200080A0400080A0600080A0800080A0A00080A0C00080A0E00080C0000080C0200080C0400080C0600080C0
310
800080C0A00080C0C00080C0E00080E0000080E0200080E0400080E0600080E0800080E0A00080E0C00080E0E000C0000000C0002000C0004000C0006000C0008000C000A000C000C000C000E000C0200000C0202000C0204000C0206000C0208000C020A000C020C000C020E000C0400000C0402000C0404000C0406000C0
310
408000C040A000C040C000C040E000C0600000C0602000C0604000C0606000C0608000C060A000C060C000C060E000C0800000C0802000C0804000C0806000C0808000C080A000C080C000C080E000C0A00000C0A02000C0A04000C0A06000C0A08000C0A0A000C0A0C000C0A0E000C0C00000C0C02000C0C04000C0C06000
310
C0C08000C0C0A000F0FBFF00A4A0A000808080000000FF0000FF000000FFFF00FF000000FF00FF00FFFF0000FFFFFF0000000000000000000000000000000000000000000000000000000000000000000000000000000000000000FBFBFEFEFBFBFEFEFBFB00000000000000000000000000000000000000000000FBFBFEFE
310
FBFBFEFEFBFB00000000000000000000000000000000000000000000FB00FEFE0000FEFE00FB00000000000000000000000000000000000000000000FB00FEFEFEFEFEFE00FB00000000000000000000000000000000000000000000FB0000FEFE00FE0000FB00000000000000000000000000000000000000000000FB0000
310
0000FE000000FB00000000000000000000000000000000000000000000FBFBFEFBFBFBFBFBFBFB000000000000000000000000000000000000000000000000FE00000000FE0000000000000000000000000000000000000000000000000000FE00000000FE0000000000000000000000000000000000000000000000000000
310
FE00000000FE0000000000000000000000000000000000000000000000000000FE00000000FE0000000000000000000000000000000000000000000000000000FE00000000FE0000000000000000000000000000000000000000000000000000FE00000000FE00000000000000000000000000000000000000000000000000
310
00FE00000000FE0000000000000000000000000000000000000000000000000000FE00000000FE0000000000000000000000000000000000000000000000000000FE00000000FE0000000000000000000000000000000000000000000000000000FE00000000FE000000000000000000000000000000000000000000000000
310
0000FE00000000FE0000000000000000000000000000000000000000000000000000FE00000000FE0000000000000000000000000000000000000000000000000000FE00000000FE0000000000000000000000000000000000000000000000000000FE00000000FE0000000000000000000000000000000000000000000000
310
000000FE00000000FE0000000000000000000000000000000000000000000000000000FE00000000FE0000000000000000000000000000000000000000000000000000FE00000000FE0000000000000000000000000000000000000000000000000000FE00000000FE00000000000000000000000000000000000000000000
310
00000000FE00000000FE0000000000000000000000000000000000000000000000000000FE00000000FE0000000000000000000000000000000000000000000000000000FE00000000FE0000000000000000000000000000000000000000000000000000FEFBFBFBFBFE000000000000000000000000000000000000000000
310
000000000000FBFBFBFB00000000000000000000000000000000000000000000000000000000000000000000000000000000000000000000
  0
BLOCK_RECORD
  5
A627
102
{ACAD_XDICTIONARY
360
A628
102
}
330
1
100
AcDbSymbolTableRecord
100
AcDbBlockTableRecord
  2
LS4
340
0
310
2800000020000000200000000100080000000000000400000000000000000000000000000000000000000000000080000080000000808000800000008000800080800000C0C0C000C0DCC000F0CAA6000020400000206000002080000020A0000020C0000020E00000400000004020000040400000406000004080000040A0
310
000040C0000040E00000600000006020000060400000606000006080000060A0000060C0000060E00000800000008020000080400000806000008080000080A0000080C0000080E00000A0000000A0200000A0400000A0600000A0800000A0A00000A0C00000A0E00000C0000000C0200000C0400000C0600000C0800000C0
310
A00000C0C00000C0E00000E0000000E0200000E0400000E0600000E0800000E0A00000E0C00000E0E00040000000400020004000400040006000400080004000A0004000C0004000E00040200000402020004020400040206000402080004020A0004020C0004020E000404000004040200040404000404060004040800040
310
40A0004040C0004040E00040600000406020004060400040606000406080004060A0004060C0004060E00040800000408020004080400040806000408080004080A0004080C0004080E00040A0000040A0200040A0400040A0600040A0800040A0A00040A0C00040A0E00040C0000040C0200040C0400040C0600040C08000
310
40C0A00040C0C00040C0E00040E0000040E0200040E0400040E0600040E0800040E0A00040E0C00040E0E00080000000800020008000400080006000800080008000A0008000C0008000E00080200000802020008020400080206000802080008020A0008020C0008020E00080400000804020008040400080406000804080
310
008040A0008040C0008040E00080600000806020008060400080606000806080008060A0008060C0008060E00080800000808020008080400080806000808080008080A0008080C0008080E00080A0000080A0200080A0400080A0600080A0800080A0A00080A0C00080A0E00080C0000080C0200080C0400080C0600080C0
310
800080C0A00080C0C00080C0E00080E0000080E0200080E0400080E0600080E0800080E0A00080E0C00080E0E000C0000000C0002000C0004000C0006000C0008000C000A000C000C000C000E000C0200000C0202000C0204000C0206000C0208000C020A000C020C000C020E000C0400000C0402000C0404000C0406000C0
310
408000C040A000C040C000C040E000C0600000C0602000C0604000C0606000C0608000C060A000C060C000C060E000C0800000C0802000C0804000C0806000C0808000C080A000C080C000C080E000C0A00000C0A02000C0A04000C0A06000C0A08000C0A0A000C0A0C000C0A0E000C0C00000C0C02000C0C04000C0C06000
310
C0C08000C0C0A000F0FBFF00A4A0A000808080000000FF0000FF000000FFFF00FF000000FF00FF00FFFF0000FFFFFF0000000000000000000000000000000000000000000000000000000000000000000000000000000000000000FBFBFEFEFBFBFEFEFBFB000000000000000000000000000000000000000000FBFBFBFEFE
310
FBFBFEFEFBFBFB0000000000000000000000000000000000000000FB0000FEFE0000FEFE0000FB0000000000000000000000000000000000000000FB0000FEFEFEFEFEFE0000FB0000000000000000000000000000000000000000FB000000FEFE00FE000000FB0000000000000000000000000000000000000000FB000000
310
0000FE00000000FB0000000000000000000000000000000000000000FB00000000000000000000FB0000000000000000000000000000000000000000FBFBFEFEFBFBFBFBFBFBFBFB00000000000000000000000000000000000000000000FBFE00000000FEFB000000000000000000000000000000000000000000000000FB
310
FE00000000FEFB000000000000000000000000000000000000000000000000FBFE00000000FEFB000000000000000000000000000000000000000000000000FBFE00000000FEFB000000000000000000000000000000000000000000000000FBFE00000000FEFB000000000000000000000000000000000000000000000000
310
FBFE00000000FEFB000000000000000000000000000000000000000000000000FBFE00000000FEFB000000000000000000000000000000000000000000000000FBFE00000000FEFB000000000000000000000000000000000000000000000000FBFE00000000FEFB0000000000000000000000000000000000000000000000
310
00FBFE00000000FEFB000000000000000000000000000000000000000000000000FBFE00000000FEFB000000000000000000000000000000000000000000000000FBFE00000000FEFB000000000000000000000000000000000000000000000000FBFE00000000FEFB00000000000000000000000000000000000000000000
310
0000FBFE00000000FEFB000000000000000000000000000000000000000000000000FBFE00000000FEFB000000000000000000000000000000000000000000000000FBFE00000000FEFB000000000000000000000000000000000000000000000000FBFE00000000FEFB000000000000000000000000000000000000000000
310
000000FBFE00000000FEFB000000000000000000000000000000000000000000000000FBFE00000000FEFB000000000000000000000000000000000000000000000000FBFEFBFBFBFBFEFB00000000000000000000000000000000000000000000000000FE00000000FE000000000000000000000000000000000000000000
310
000000000000FBFBFBFB00000000000000000000000000000000000000000000000000000000000000000000000000000000000000000000
  0
BLOCK_RECORD
  5
D380
330
1
100
AcDbSymbolTableRecord
100
AcDbBlockTableRecord
  2
*D7
340
0
  0
BLOCK_RECORD
  5
D3A9
330
1
100
AcDbSymbolTableRecord
100
AcDbBlockTableRecord
  2
*D8
340
0
  0
BLOCK_RECORD
  5
D3B6
330
1
100
AcDbSymbolTableRecord
100
AcDbBlockTableRecord
  2
*D9
340
0
  0
BLOCK_RECORD
  5
D3C5
330
1
100
AcDbSymbolTableRecord
100
AcDbBlockTableRecord
  2
*D10
340
0
  0
BLOCK_RECORD
  5
D3D5
330
1
100
AcDbSymbolTableRecord
100
AcDbBlockTableRecord
  2
*D11
340
0
  0
BLOCK_RECORD
  5
D3E3
330
1
100
AcDbSymbolTableRecord
100
AcDbBlockTableRecord
  2
*D12
340
0
  0
BLOCK_RECORD
  5
D421
330
1
100
AcDbSymbolTableRecord
100
AcDbBlockTableRecord
  2
*D13
340
0
  0
BLOCK_RECORD
  5
D42D
330
1
100
AcDbSymbolTableRecord
100
AcDbBlockTableRecord
  2
*D14
340
0
  0
ENDTAB
  0
ENDSEC
  0
SECTION
  2
BLOCKS
  0
BLOCK
  5
19
330
18
100
AcDbEntity
  8
0
100
AcDbBlockBegin
  2
*MODEL_SPACE
 70
     0
 10
0.0
 20
0.0
 30
0.0
  3
*MODEL_SPACE
  1

  0
ENDBLK
  5
1A
330
18
100
AcDbEntity
  8
0
100
AcDbBlockEnd
  0
BLOCK
  5
16
330
15
100
AcDbEntity
 67
     1
  8
0
100
AcDbBlockBegin
  2
*PAPER_SPACE
 70
     0
 10
0.0
 20
0.0
 30
0.0
  3
*PAPER_SPACE
  1

  0
ENDBLK
  5
17
330
15
100
AcDbEntity
 67
     1
  8
0
100
AcDbBlockEnd
  0
BLOCK
  5
63A1
330
639D
100
AcDbEntity
  8
0
100
AcDbBlockBegin
  2
A$C255C26A2
 70
     0
 10
0.0
 20
0.0
 30
0.0
  3
A$C255C26A2
  1

  0
LWPOLYLINE
  5
639E
330
639D
100
AcDbEntity
  8
0
100
AcDbPolyline
 90
        3
 70
     1
 43
0.0
 10
7.014806023851633
 20
0.0000006939811783
 10
5.611844869720698
 20
2.430000693981241
 10
8.417767177982568
 20
2.430000693981241
  0
LWPOLYLINE
  5
639F
330
639D
100
AcDbEntity
  8
0
100
AcDbPolyline
 90
        3
 70
     1
 43
0.0
 10
4.20888371558999
 20
0.0000006939811783
 10
2.805922561459283
 20
2.430000693981241
 10
5.611844869720698
 20
2.430000693981241
  0
LWPOLYLINE
  5
63A0
330
639D
100
AcDbEntity
  8
0
100
AcDbPolyline
 90
        3
 70
     1
 43
0.0
 10
1.402961407328348
 20
0.0000006939811783
 10
0.0000002531974133
 20
2.430000693981241
 10
2.805922561459283
 20
2.430000693981241
  0
ENDBLK
  5
63A2
330
639D
100
AcDbEntity
  8
0
100
AcDbBlockEnd
  0
BLOCK
  5
7C05
330
7C04
100
AcDbEntity
  8
0
100
AcDbBlockBegin
  2
_Open30
 70
     0
 10
0.0
 20
0.0
 30
0.0
  3
_Open30
  1

  0
LINE
  5
7C06
330
7C04
100
AcDbEntity
  8
0
  6
ByBlock
 62
     0
370
    -2
100
AcDbLine
 10
-1.0
 20
0.26794919
 30
0.0
 11
0.0
 21
0.0
 31
0.0
  0
LINE
  5
7C07
330
7C04
100
AcDbEntity
  8
0
  6
ByBlock
 62
     0
370
    -2
100
AcDbLine
 10
0.0
 20
0.0
 30
0.0
 11
-1.0
 21
-0.26794919
 31
0.0
  0
LINE
  5
7C08
330
7C04
100
AcDbEntity
  8
0
  6
ByBlock
 62
     0
370
    -2
100
AcDbLine
 10
0.0
 20
0.0
 30
0.0
 11
-1.0
 21
0.0
 31
0.0
  0
ENDBLK
  5
7C09
330
7C04
100
AcDbEntity
  8
0
100
AcDbBlockEnd
  0
BLOCK
  5
7C0E
330
7C0A
100
AcDbEntity
  8
0
100
AcDbBlockBegin
  2
A
 70
     0
 10
0.0
 20
0.0
 30
0.0
  3
A
  1

  0
MTEXT
  5
7C0F
330
7C0A
100
AcDbEntity
  8
mark
 62
     3
100
AcDbMText
 10
10.65641897020822
 20
-5.596245361730467
 30
0.0
 40
2.5
 41
0.0
 71
     5
 72
     1
  1
A
 73
     1
 44
1.0
1001
ACAD
1000
ACAD_MTEXT_DEFINED_HEIGHT_BEGIN
1070
    46
1040
0.0
1000
ACAD_MTEXT_DEFINED_HEIGHT_END
  0
LWPOLYLINE
  5
7C10
330
7C0A
100
AcDbEntity
  8
mark
100
AcDbPolyline
 90
        4
 70
     1
 43
0.0
 10
9.07926800414657
 20
-7.141145101782569
 10
12.07926800414657
 20
-7.141145101782569
 10
12.07926800414657
 20
-4.141145101782569
 10
9.07926800414657
 20
-4.141145101782569
  0
HATCH
  5
7C11
330
7C0A
100
AcDbEntity
  8
mark
100
AcDbHatch
 10
0.0
 20
0.0
 30
0.0
210
0.0
220
0.0
230
1.0
  2
SOLID
 70
     1
 71
     0
 91
        1
 92
        7
 72
     0
 73
     1
 93
        3
 10
5.32926800414657
 20
-5.641145101782569
 10
4.07926800414657
 20
-4.391145101782541
 10
4.07926800414657
 20
-6.891145101782541
 97
        0
 75
     0
 76
     1
 47
0.0398277943677868
 98
        1
 10
4.589689734415287
 20
-5.732163331855076
450
        0
451
        0
460
0.0
461
0.0
452
        1
462
1.0
453
        2
463
0.0
 63
     5
421
      255
463
1.0
 63
     7
421
 16777215
470
LINEAR
1001
ACAD
1010
0.0
1020
0.0
1030
0.0
  0
LINE
  5
7C12
330
7C0A
100
AcDbEntity
  8
mark
100
AcDbLine
 10
5.32926800414657
 20
-5.641145101782569
 30
0.0
 11
9.07926800414657
 21
-5.641145101782569
 31
0.0
  0
LINE
  5
7C13
330
7C0A
100
AcDbEntity
  8
mark
100
AcDbLine
 10
5.32926800414657
 20
-5.641145101782569
 30
0.0
 11
4.07926800414657
 21
-4.391145101782569
 31
0.0
  0
LINE
  5
7C14
330
7C0A
100
AcDbEntity
  8
mark
100
AcDbLine
 10
5.32926800414657
 20
-5.641145101782569
 30
0.0
 11
4.07926800414657
 21
-6.891145101782569
 31
0.0
  0
ENDBLK
  5
7C15
330
7C0A
100
AcDbEntity
  8
0
100
AcDbBlockEnd
  0
BLOCK
  5
8E76
330
8E72
100
AcDbEntity
  8
0
100
AcDbBlockBegin
  2
LS
 70
     0
 10
0.0
 20
0.0
 30
0.0
  3
LS
  1

  0
LINE
  5
8E78
330
8E72
100
AcDbEntity
  8
contour
100
AcDbLine
 10
310.7457309951603
 20
181.0160360664828
 30
0.0
 11
310.7457309951603
 21
184.7160360664827
 31
0.0
  0
LINE
  5
8E79
330
8E72
100
AcDbEntity
  8
contour
100
AcDbLine
 10
310.7457309951603
 20
184.7160360664827
 30
0.0
 11
303.7457309951603
 21
184.7160360664827
 31
0.0
  0
LINE
  5
8E7A
330
8E72
100
AcDbEntity
  8
contour
100
AcDbLine
 10
308.4457309951603
 20
196.7160360664827
 30
0.0
 11
306.0457309951603
 21
196.7160360664826
 31
0.0
  0
LINE
  5
8E7B
330
8E72
100
AcDbEntity
  8
contour
100
AcDbLine
 10
309.2457309951603
 20
195.9160360664826
 30
0.0
 11
308.4457309951603
 21
196.7160360664826
 31
0.0
  0
LINE
  5
8E7C
330
8E72
100
AcDbEntity
  8
contour
100
AcDbLine
 10
303.7457309951603
 20
184.7160360664827
 30
0.0
 11
303.7457309951603
 21
181.0160360664827
 31
0.0
  0
LINE
  5
8E7D
330
8E72
100
AcDbEntity
  8
contour
100
AcDbLine
 10
304.0457309951603
 20
180.7160360664827
 30
0.0
 11
310.4457309951603
 21
180.7160360664828
 31
0.0
  0
LINE
  5
8E7E
330
8E72
100
AcDbEntity
  8
contour
100
AcDbLine
 10
310.7457309951603
 20
181.0160360664828
 30
0.0
 11
310.4457309951603
 21
180.7160360664828
 31
0.0
  0
LINE
  5
8E7F
330
8E72
100
AcDbEntity
  8
contour
100
AcDbLine
 10
303.7457309951603
 20
181.0160360664827
 30
0.0
 11
304.0457309951603
 21
180.7160360664827
 31
0.0
  0
LINE
  5
8E80
330
8E72
100
AcDbEntity
  8
contour
100
AcDbLine
 10
309.2457309951603
 20
184.7160360664826
 30
0.0
 11
309.2457309951603
 21
195.9160360664827
 31
0.0
  0
LINE
  5
8E81
330
8E72
100
AcDbEntity
  8
contour
100
AcDbLine
 10
305.2457309951603
 20
184.7160360664826
 30
0.0
 11
305.2457309951603
 21
195.9160360664827
 31
0.0
  0
LINE
  5
8E82
330
8E72
100
AcDbEntity
  8
contour
100
AcDbLine
 10
306.0457309951603
 20
196.7160360664826
 30
0.0
 11
305.2457309951603
 21
195.9160360664826
 31
0.0
  0
LINE
  5
8E83
330
8E72
100
AcDbEntity
  8
contour
100
AcDbLine
 10
309.2457309951603
 20
195.9160360664827
 30
0.0
 11
305.2457309951603
 21
195.9160360664827
 31
0.0
  0
LINE
  5
8E84
330
8E72
100
AcDbEntity
  8
contour
 62
     4
100
AcDbLine
 10
308.8667309951603
 20
185.3724833225513
 30
0.0
 11
308.8667309951603
 21
196.2950360664826
 31
0.0
  0
LINE
  5
8E85
330
8E72
100
AcDbEntity
  8
contour
 62
     4
100
AcDbLine
 10
305.6247309951603
 20
185.3724833225513
 30
0.0
 11
305.6247309951603
 21
196.2950360664826
 31
0.0
  0
LINE
  5
8E86
330
8E72
100
AcDbEntity
  8
contour
100
AcDbLine
 10
310.7457309951603
 20
181.0160360664828
 30
0.0
 11
303.7457309951603
 21
181.0160360664828
 31
0.0
  0
LINE
  5
8E87
330
8E72
100
AcDbEntity
  8
bowle
 48
0.1
100
AcDbLine
 10
308.1117563989447
 20
180.7160360664827
 30
0.0
 11
308.1117563989447
 21
182.9160360664827
 31
0.0
  0
LINE
  5
8E88
330
8E72
100
AcDbEntity
  8
bowle
 48
0.1
100
AcDbLine
 10
308.9777818027293
 20
180.7160360664827
 30
0.0
 11
308.9777818027293
 21
182.9160360664827
 31
0.0
  0
LINE
  5
8E89
330
8E72
100
AcDbEntity
  8
bowle
 48
0.1
100
AcDbLine
 10
306.3797055913759
 20
180.7160360664827
 30
0.0
 11
306.3797055913759
 21
182.9160360664826
 31
0.0
  0
LINE
  5
8E8A
330
8E72
100
AcDbEntity
  8
bowle
 48
0.1
100
AcDbLine
 10
305.5136801875914
 20
180.7160360664827
 30
0.0
 11
305.5136801875914
 21
182.9160360664826
 31
0.0
  0
LINE
  5
8E8B
330
8E72
100
AcDbEntity
  8
bowle
 48
0.1
100
AcDbLine
 10
308.9777818027292
 20
182.9160360664827
 30
0.0
 11
305.5136801875914
 21
182.9160360664827
 31
0.0
  0
LINE
  5
8E8C
330
8E72
100
AcDbEntity
  8
bowle
 48
0.1
100
AcDbLine
 10
305.5136801875914
 20
182.9160360664826
 30
0.0
 11
307.2457309951603
 21
183.9160360664826
 31
0.0
  0
LINE
  5
8E8D
330
8E72
100
AcDbEntity
  8
bowle
 48
0.1
100
AcDbLine
 10
308.9777818027292
 20
182.9160360664826
 30
0.0
 11
307.2457309951603
 21
183.9160360664826
 31
0.0
  0
LINE
  5
8E8E
330
8E72
100
AcDbEntity
  8
contour
 62
     4
100
AcDbLine
 10
305.6247309951603
 20
185.3724833225513
 30
0.0
 11
305.2457309951603
 21
184.7160360664826
 31
0.0
  0
LINE
  5
8E8F
330
8E72
100
AcDbEntity
  8
contour
100
AcDbLine
 10
305.2457309951603
 20
185.3724833225513
 30
0.0
 11
309.2457309951603
 21
185.3724833225513
 31
0.0
  0
LINE
  5
8E90
330
8E72
100
AcDbEntity
  8
contour
 62
     4
100
AcDbLine
 10
309.2457309951603
 20
184.7160360664827
 30
0.0
 11
308.8667309951603
 21
185.3724833225513
 31
0.0
  0
ENDBLK
  5
8E77
330
8E72
100
AcDbEntity
  8
0
100
AcDbBlockEnd
  0
BLOCK
  5
9D19
330
9D15
100
AcDbEntity
  8
0
100
AcDbBlockBegin
  2
LS2
 70
     0
 10
0.0
 20
0.0
 30
0.0
  3
LS2
  1

  0
LINE
  5
9D1B
330
9D15
100
AcDbEntity
  8
contour
100
AcDbLine
 10
143.2797554375081
 20
0.0655328110734672
 30
0.0
 11
143.2797554375081
 21
3.765532811073398
 31
0.0
  0
LINE
  5
9D1C
330
9D15
100
AcDbEntity
  8
contour
100
AcDbLine
 10
143.2797554375081
 20
3.765532811073398
 30
0.0
 11
136.2797554375081
 21
3.765532811073398
 31
0.0
  0
LINE
  5
9D1D
330
9D15
100
AcDbEntity
  8
contour
100
AcDbLine
 10
140.979755437508
 20
19.7655328110734
 30
0.0
 11
138.5797554375081
 21
19.76553281107334
 31
0.0
  0
LINE
  5
9D1E
330
9D15
100
AcDbEntity
  8
contour
100
AcDbLine
 10
141.7797554375081
 20
18.96553281107333
 30
0.0
 11
140.9797554375081
 21
19.76553281107334
 31
0.0
  0
LINE
  5
9D1F
330
9D15
100
AcDbEntity
  8
contour
100
AcDbLine
 10
136.2797554375081
 20
3.765532811073398
 30
0.0
 11
136.2797554375081
 21
0.0655328110733535
 31
0.0
  0
LINE
  5
9D20
330
9D15
100
AcDbEntity
  8
contour
100
AcDbLine
 10
136.5797554375081
 20
-0.2344671889266578
 30
0.0
 11
142.9797554375081
 21
-0.2344671889265442
 31
0.0
  0
LINE
  5
9D21
330
9D15
100
AcDbEntity
  8
contour
100
AcDbLine
 10
143.2797554375081
 20
0.0655328110734672
 30
0.0
 11
142.9797554375081
 21
-0.2344671889265442
 31
0.0
  0
LINE
  5
9D22
330
9D15
100
AcDbEntity
  8
contour
100
AcDbLine
 10
136.2797554375081
 20
0.0655328110733535
 30
0.0
 11
136.5797554375081
 21
-0.2344671889266578
 31
0.0
  0
LINE
  5
9D23
330
9D15
100
AcDbEntity
  8
contour
100
AcDbLine
 10
141.7797554375081
 20
3.765532811073342
 30
0.0
 11
141.7797554375081
 21
18.96553281107339
 31
0.0
  0
LINE
  5
9D24
330
9D15
100
AcDbEntity
  8
contour
100
AcDbLine
 10
137.7797554375081
 20
3.765532811073342
 30
0.0
 11
137.7797554375081
 21
18.96553281107339
 31
0.0
  0
LINE
  5
9D25
330
9D15
100
AcDbEntity
  8
contour
100
AcDbLine
 10
138.5797554375081
 20
19.76553281107334
 30
0.0
 11
137.7797554375081
 21
18.96553281107333
 31
0.0
  0
LINE
  5
9D26
330
9D15
100
AcDbEntity
  8
contour
100
AcDbLine
 10
141.7797554375081
 20
18.96553281107339
 30
0.0
 11
137.7797554375081
 21
18.96553281107339
 31
0.0
  0
LINE
  5
9D27
330
9D15
100
AcDbEntity
  8
contour
 62
     4
100
AcDbLine
 10
141.400755437508
 20
4.42198006714193
 30
0.0
 11
141.4007554375081
 21
19.34453281107327
 31
0.0
  0
LINE
  5
9D28
330
9D15
100
AcDbEntity
  8
contour
 62
     4
100
AcDbLine
 10
138.1587554375081
 20
4.42198006714193
 30
0.0
 11
138.1587554375081
 21
19.34453281107336
 31
0.0
  0
LINE
  5
9D29
330
9D15
100
AcDbEntity
  8
contour
100
AcDbLine
 10
143.2797554375081
 20
0.0655328110734672
 30
0.0
 11
136.2797554375081
 21
0.0655328110735241
 31
0.0
  0
LINE
  5
9D2A
330
9D15
100
AcDbEntity
  8
bowle
 48
0.1
100
AcDbLine
 10
140.6457808412925
 20
-0.234467188926601
 30
0.0
 11
140.6457808412925
 21
1.965532811073387
 31
0.0
  0
LINE
  5
9D2B
330
9D15
100
AcDbEntity
  8
bowle
 48
0.1
100
AcDbLine
 10
141.511806245077
 20
-0.2344671889266578
 30
0.0
 11
141.511806245077
 21
1.965532811073387
 31
0.0
  0
LINE
  5
9D2C
330
9D15
100
AcDbEntity
  8
bowle
 48
0.1
100
AcDbLine
 10
138.9137300337237
 20
-0.234467188926601
 30
0.0
 11
138.9137300337237
 21
1.96553281107333
 31
0.0
  0
LINE
  5
9D2D
330
9D15
100
AcDbEntity
  8
bowle
 48
0.1
100
AcDbLine
 10
138.0477046299392
 20
-0.2344671889266578
 30
0.0
 11
138.0477046299391
 21
1.96553281107333
 31
0.0
  0
LINE
  5
9D2E
330
9D15
100
AcDbEntity
  8
bowle
 48
0.1
100
AcDbLine
 10
141.511806245077
 20
1.965532811073387
 30
0.0
 11
138.0477046299391
 21
1.965532811073387
 31
0.0
  0
LINE
  5
9D2F
330
9D15
100
AcDbEntity
  8
bowle
 48
0.1
100
AcDbLine
 10
138.0477046299391
 20
1.96553281107333
 30
0.0
 11
139.779755437508
 21
2.96553281107333
 31
0.0
  0
LINE
  5
9D30
330
9D15
100
AcDbEntity
  8
bowle
 48
0.1
100
AcDbLine
 10
141.511806245077
 20
1.96553281107333
 30
0.0
 11
139.779755437508
 21
2.96553281107333
 31
0.0
  0
LINE
  5
9D31
330
9D15
100
AcDbEntity
  8
contour
 62
     4
100
AcDbLine
 10
138.1587554375081
 20
4.421980067141987
 30
0.0
 11
137.7797554375081
 21
3.765532811073342
 31
0.0
  0
LINE
  5
9D32
330
9D15
100
AcDbEntity
  8
contour
100
AcDbLine
 10
137.7797554375081
 20
4.42198006714193
 30
0.0
 11
141.7797554375081
 21
4.42198006714193
 31
0.0
  0
LINE
  5
9D33
330
9D15
100
AcDbEntity
  8
contour
 62
     4
100
AcDbLine
 10
141.7797554375081
 20
3.765532811073398
 30
0.0
 11
141.400755437508
 21
4.42198006714193
 31
0.0
  0
ENDBLK
  5
9D1A
330
9D15
100
AcDbEntity
  8
0
100
AcDbBlockEnd
  0
BLOCK
  5
A51C
330
A518
100
AcDbEntity
  8
0
100
AcDbBlockBegin
  2
LS3
 70
     0
 10
0.0
 20
0.0
 30
0.0
  3
LS3
  1

  0
LINE
  5
A51E
330
A518
100
AcDbEntity
  8
contour
100
AcDbLine
 10
329.8877449821333
 20
4.477662871771769
 30
0.0
 11
329.8877449821333
 21
8.177662871771701
 31
0.0
  0
LINE
  5
A51F
330
A518
100
AcDbEntity
  8
contour
100
AcDbLine
 10
329.8877449821333
 20
8.177662871771701
 30
0.0
 11
336.8877449821333
 21
8.177662871771701
 31
0.0
  0
LINE
  5
A520
330
A518
100
AcDbEntity
  8
contour
100
AcDbLine
 10
332.1877449821334
 20
26.1776628717717
 30
0.0
 11
334.5877449821334
 21
26.17766287177165
 31
0.0
  0
LINE
  5
A521
330
A518
100
AcDbEntity
  8
contour
100
AcDbLine
 10
331.3877449821333
 20
25.37766287177163
 30
0.0
 11
332.1877449821334
 21
26.17766287177165
 31
0.0
  0
LINE
  5
A522
330
A518
100
AcDbEntity
  8
contour
100
AcDbLine
 10
336.8877449821333
 20
8.177662871771701
 30
0.0
 11
336.8877449821333
 21
4.477662871771656
 31
0.0
  0
LINE
  5
A523
330
A518
100
AcDbEntity
  8
contour
100
AcDbLine
 10
336.5877449821334
 20
4.177662871771644
 30
0.0
 11
330.1877449821334
 21
4.177662871771758
 31
0.0
  0
LINE
  5
A524
330
A518
100
AcDbEntity
  8
contour
100
AcDbLine
 10
329.8877449821333
 20
4.477662871771769
 30
0.0
 11
330.1877449821334
 21
4.177662871771758
 31
0.0
  0
LINE
  5
A525
330
A518
100
AcDbEntity
  8
contour
100
AcDbLine
 10
336.8877449821333
 20
4.477662871771656
 30
0.0
 11
336.5877449821334
 21
4.177662871771644
 31
0.0
  0
LINE
  5
A526
330
A518
100
AcDbEntity
  8
contour
100
AcDbLine
 10
331.3877449821333
 20
8.177662871771644
 30
0.0
 11
331.3877449821334
 21
25.37766287177168
 31
0.0
  0
LINE
  5
A527
330
A518
100
AcDbEntity
  8
contour
100
AcDbLine
 10
335.3877449821333
 20
8.177662871771644
 30
0.0
 11
335.3877449821333
 21
25.37766287177166
 31
0.0
  0
LINE
  5
A528
330
A518
100
AcDbEntity
  8
contour
100
AcDbLine
 10
334.5877449821334
 20
26.17766287177165
 30
0.0
 11
335.3877449821333
 21
25.37766287177163
 31
0.0
  0
LINE
  5
A529
330
A518
100
AcDbEntity
  8
contour
100
AcDbLine
 10
331.3877449821333
 20
25.37766287177169
 30
0.0
 11
335.3877449821333
 21
25.37766287177169
 31
0.0
  0
LINE
  5
A52A
330
A518
100
AcDbEntity
  8
contour
 62
     4
100
AcDbLine
 10
331.7667449821333
 20
8.834110127840233
 30
0.0
 11
331.7667449821333
 21
25.75666287177167
 31
0.0
  0
LINE
  5
A52B
330
A518
100
AcDbEntity
  8
contour
 62
     4
100
AcDbLine
 10
335.0087449821333
 20
8.834110127840233
 30
0.0
 11
335.0087449821334
 21
25.75666287177161
 31
0.0
  0
LINE
  5
A52C
330
A518
100
AcDbEntity
  8
contour
100
AcDbLine
 10
329.8877449821333
 20
4.477662871771769
 30
0.0
 11
336.8877449821333
 21
4.477662871771826
 31
0.0
  0
LINE
  5
A52D
330
A518
100
AcDbEntity
  8
bowle
 48
0.1
100
AcDbLine
 10
332.5217195783489
 20
4.177662871771701
 30
0.0
 11
332.5217195783489
 21
6.37766287177169
 31
0.0
  0
LINE
  5
A52E
330
A518
100
AcDbEntity
  8
bowle
 48
0.1
100
AcDbLine
 10
331.6556941745643
 20
4.177662871771644
 30
0.0
 11
331.6556941745643
 21
6.37766287177169
 31
0.0
  0
LINE
  5
A52F
330
A518
100
AcDbEntity
  8
bowle
 48
0.1
100
AcDbLine
 10
334.2537703859177
 20
4.177662871771701
 30
0.0
 11
334.2537703859177
 21
6.377662871771633
 31
0.0
  0
LINE
  5
A530
330
A518
100
AcDbEntity
  8
bowle
 48
0.1
100
AcDbLine
 10
335.1197957897023
 20
4.177662871771644
 30
0.0
 11
335.1197957897023
 21
6.377662871771633
 31
0.0
  0
LINE
  5
A531
330
A518
100
AcDbEntity
  8
bowle
 48
0.1
100
AcDbLine
 10
331.6556941745645
 20
6.37766287177169
 30
0.0
 11
335.1197957897023
 21
6.37766287177169
 31
0.0
  0
LINE
  5
A532
330
A518
100
AcDbEntity
  8
bowle
 48
0.1
100
AcDbLine
 10
335.1197957897023
 20
6.377662871771633
 30
0.0
 11
333.3877449821334
 21
7.377662871771633
 31
0.0
  0
LINE
  5
A533
330
A518
100
AcDbEntity
  8
bowle
 48
0.1
100
AcDbLine
 10
331.6556941745645
 20
6.377662871771633
 30
0.0
 11
333.3877449821334
 21
7.377662871771633
 31
0.0
  0
LINE
  5
A534
330
A518
100
AcDbEntity
  8
contour
 62
     4
100
AcDbLine
 10
335.0087449821333
 20
8.83411012784029
 30
0.0
 11
335.3877449821333
 21
8.177662871771644
 31
0.0
  0
LINE
  5
A535
330
A518
100
AcDbEntity
  8
contour
100
AcDbLine
 10
335.3877449821333
 20
8.834110127840233
 30
0.0
 11
331.3877449821333
 21
8.834110127840233
 31
0.0
  0
LINE
  5
A536
330
A518
100
AcDbEntity
  8
contour
 62
     4
100
AcDbLine
 10
331.3877449821333
 20
8.177662871771701
 30
0.0
 11
331.7667449821333
 21
8.834110127840233
 31
0.0
  0
ENDBLK
  5
A51D
330
A518
100
AcDbEntity
  8
0
100
AcDbBlockEnd
  0
BLOCK
  5
A62B
330
A627
100
AcDbEntity
  8
0
100
AcDbBlockBegin
  2
LS4
 70
     0
 10
0.0
 20
0.0
 30
0.0
  3
LS4
  1

  0
LINE
  5
A62D
330
A627
100
AcDbEntity
  8
contour
100
AcDbLine
 10
402.9074768226647
 20
108.9417821167274
 30
0.0
 11
410.8074768226646
 21
108.9417821167274
 31
0.0
  0
LINE
  5
A62E
330
A627
100
AcDbEntity
  8
contour
100
AcDbLine
 10
411.1074768226647
 20
109.2417821167273
 30
0.0
 11
411.1074768226647
 21
113.9417821167274
 31
0.0
  0
LINE
  5
A62F
330
A627
100
AcDbEntity
  8
contour
100
AcDbLine
 10
410.8074768226646
 20
108.9417821167274
 30
0.0
 11
411.1074768226647
 21
109.2417821167273
 31
0.0
  0
LINE
  5
A630
330
A627
100
AcDbEntity
  8
contour
100
AcDbLine
 10
411.1074768226647
 20
113.9417821167274
 30
0.0
 11
402.6074768226647
 21
113.9417821167274
 31
0.0
  0
LINE
  5
A631
330
A627
100
AcDbEntity
  8
contour
100
AcDbLine
 10
408.4574768226646
 20
131.9417821167274
 30
0.0
 11
405.2574768226646
 21
131.9417821167273
 31
0.0
  0
LINE
  5
A632
330
A627
100
AcDbEntity
  8
contour
100
AcDbLine
 10
409.3574768226646
 20
131.0417821167273
 30
0.0
 11
408.4574768226646
 21
131.9417821167274
 31
0.0
  0
LINE
  5
A633
330
A627
100
AcDbEntity
  8
contour
100
AcDbLine
 10
402.6074768226647
 20
113.9417821167274
 30
0.0
 11
402.6074768226647
 21
109.2417821167273
 31
0.0
  0
LINE
  5
A634
330
A627
100
AcDbEntity
  8
contour
100
AcDbLine
 10
402.9074768226647
 20
108.9417821167274
 30
0.0
 11
402.6074768226647
 21
109.2417821167273
 31
0.0
  0
LINE
  5
A635
330
A627
100
AcDbEntity
  8
contour
100
AcDbLine
 10
402.6074768226647
 20
109.2417821167273
 30
0.0
 11
411.1074768226647
 21
109.2417821167273
 31
0.0
  0
LINE
  5
A636
330
A627
100
AcDbEntity
  8
contour
100
AcDbLine
 10
404.3574768226647
 20
113.9417821167274
 30
0.0
 11
404.3574768226647
 21
131.0417821167273
 31
0.0
  0
LINE
  5
A637
330
A627
100
AcDbEntity
  8
contour
100
AcDbLine
 10
405.2574768226646
 20
131.9417821167273
 30
0.0
 11
404.3574768226647
 21
131.0417821167273
 31
0.0
  0
LINE
  5
A638
330
A627
100
AcDbEntity
  8
contour
100
AcDbLine
 10
409.3574768226647
 20
113.9417821167274
 30
0.0
 11
409.3574768226646
 21
131.0417821167273
 31
0.0
  0
LINE
  5
A639
330
A627
100
AcDbEntity
  8
contour
100
AcDbLine
 10
404.3574768226647
 20
131.0417821167273
 30
0.0
 11
409.3574768226646
 21
131.0417821167273
 31
0.0
  0
LINE
  5
A63A
330
A627
100
AcDbEntity
  8
contour
 62
     4
100
AcDbLine
 10
404.7904768226646
 20
114.6917601164047
 30
0.0
 11
404.7904768226647
 21
131.4747821167274
 31
0.0
  0
LINE
  5
A63B
330
A627
100
AcDbEntity
  8
contour
 62
     4
100
AcDbLine
 10
408.9244768226647
 20
114.6917601164048
 30
0.0
 11
408.9244768226647
 21
131.4747821167273
 31
0.0
  0
LINE
  5
A63C
330
A627
100
AcDbEntity
  8
contour
 62
     4
100
AcDbLine
 10
408.9244768226646
 20
114.6917601164048
 30
0.0
 11
409.3574768226647
 21
113.9417821167274
 31
0.0
  0
LINE
  5
A63D
330
A627
100
AcDbEntity
  8
contour
100
AcDbLine
 10
409.3574768226647
 20
114.6917601164048
 30
0.0
 11
404.3574768226647
 21
114.6917601164048
 31
0.0
  0
LINE
  5
A63E
330
A627
100
AcDbEntity
  8
contour
 62
     4
100
AcDbLine
 10
404.7904768226647
 20
114.6917601164048
 30
0.0
 11
404.3574768226647
 21
113.9417821167274
 31
0.0
  0
LINE
  5
A63F
330
A627
100
AcDbEntity
  8
bowle
 48
0.2
100
AcDbLine
 10
404.5480757459062
 20
108.9417821167274
 30
0.0
 11
404.5480757459062
 21
111.4417821167274
 31
0.0
  0
LINE
  5
A640
330
A627
100
AcDbEntity
  8
bowle
 48
0.2
100
AcDbLine
 10
409.1668778994232
 20
108.9417821167274
 30
0.0
 11
409.1668778994232
 21
111.4417821167274
 31
0.0
  0
LINE
  5
A641
330
A627
100
AcDbEntity
  8
bowle
 48
0.2
100
AcDbLine
 10
404.5480757459062
 20
111.4417821167274
 30
0.0
 11
409.1668778994232
 21
111.4417821167274
 31
0.0
  0
LINE
  5
A642
330
A627
100
AcDbEntity
  8
bowle
 48
0.2
100
AcDbLine
 10
405.7027762842854
 20
111.4417821167274
 30
0.0
 11
405.7027762842854
 21
108.9417821167274
 31
0.0
  0
LINE
  5
A643
330
A627
100
AcDbEntity
  8
bowle
 48
0.2
100
AcDbLine
 10
408.0121773610439
 20
111.4417821167274
 30
0.0
 11
408.0121773610439
 21
108.9417821167274
 31
0.0
  0
LINE
  5
A644
330
A627
100
AcDbEntity
  8
bowle
 48
0.2
100
AcDbLine
 10
409.1668778994232
 20
111.4417821167274
 30
0.0
 11
406.8574768226646
 21
112.7751154500606
 31
0.0
  0
LINE
  5
A645
330
A627
100
AcDbEntity
  8
bowle
 48
0.2
100
AcDbLine
 10
404.5480757459062
 20
111.4417821167274
 30
0.0
 11
406.8574768226646
 21
112.7751154500606
 31
0.0
  0
ENDBLK
  5
A62C
330
A627
100
AcDbEntity
  8
0
100
AcDbBlockEnd
  0
BLOCK
  5
D38A
330
D380
100
AcDbEntity
  8
0
100
AcDbBlockBegin
  2
*D7
 70
     1
 10
0.0
 20
0.0
 30
0.0
  3
*D7
  1

  0
LINE
  5
D491
330
D380
100
AcDbEntity
  8
mark
370
    -2
100
AcDbLine
 10
23.05104088715205
 20
60.66839691123099
 30
0.0
 11
23.05104088715205
 21
65.31343350230732
 31
0.0
  0
LINE
  5
D492
330
D380
100
AcDbEntity
  8
mark
370
    -2
100
AcDbLine
 10
68.05104088715205
 20
60.66839691123089
 30
0.0
 11
68.05104088715205
 21
65.31343350230732
 31
0.0
  0
LINE
  5
D493
330
D380
100
AcDbEntity
  8
mark
370
    -2
100
AcDbLine
 10
24.30104088715206
 20
64.88843350230732
 30
0.0
 11
66.80104088715205
 21
64.88843350230732
 31
0.0
  0
INSERT
  5
D494
330
D380
100
AcDbEntity
  8
mark
370
    -2
100
AcDbBlockReference
  2
_Open30
 10
23.05104088715205
 20
64.88843350230732
 30
0.0
 41
1.25
 42
1.25
 43
1.25
 50
180.0
  0
INSERT
  5
D495
330
D380
100
AcDbEntity
  8
mark
370
    -2
100
AcDbBlockReference
  2
_Open30
 10
68.05104088715205
 20
64.88843350230732
 30
0.0
 41
1.25
 42
1.25
 43
1.25
  0
MTEXT
  5
D496
330
D380
100
AcDbEntity
  8
mark
 62
     3
100
AcDbMText
 10
45.55104088715205
 20
65.93843350230732
 30
0.0
 40
1.25
 41
0.0
 71
     5
 72
     1
  1
\A1;%%c45
 73
     1
 44
1.0
  0
POINT
  5
D497
330
D380
100
AcDbEntity
  8
DEFPOINTS
 62
     0
100
AcDbPoint
 10
23.05104088715205
 20
60.243396911231
 30
0.0
  0
POINT
  5
D498
330
D380
100
AcDbEntity
  8
DEFPOINTS
 62
     0
100
AcDbPoint
 10
68.05104088715205
 20
60.24339691123088
 30
0.0
  0
POINT
  5
D499
330
D380
100
AcDbEntity
  8
DEFPOINTS
 62
     0
100
AcDbPoint
 10
68.05104088715205
 20
64.88843350230732
 30
0.0
  0
ENDBLK
  5
D38B
330
D380
100
AcDbEntity
  8
0
100
AcDbBlockEnd
  0
BLOCK
  5
D3B3
330
D3A9
100
AcDbEntity
  8
0
100
AcDbBlockBegin
  2
*D8
 70
     1
 10
0.0
 20
0.0
 30
0.0
  3
*D8
  1

  0
LINE
  5
D49A
330
D3A9
100
AcDbEntity
  8
mark
370
    -2
100
AcDbLine
 10
67.47604088715208
 20
61.243396911231
 30
0.0
 11
73.50539091456146
 21
61.243396911231
 31
0.0
  0
LINE
  5
D49B
330
D3A9
100
AcDbEntity
  8
mark
370
    -2
100
AcDbLine
 10
67.47604088715205
 20
48.99339691123103
 30
0.0
 11
73.50539091456146
 21
48.99339691123103
 31
0.0
  0
LINE
  5
D49C
330
D3A9
100
AcDbEntity
  8
mark
370
    -2
100
AcDbLine
 10
73.08039091456146
 20
59.993396911231
 30
0.0
 11
73.08039091456146
 21
50.24339691123103
 31
0.0
  0
INSERT
  5
D49D
330
D3A9
100
AcDbEntity
  8
mark
370
    -2
100
AcDbBlockReference
  2
_Open30
 10
73.08039091456146
 20
61.243396911231
 30
0.0
 41
1.25
 42
1.25
 43
1.25
 50
90.0
  0
INSERT
  5
D49E
330
D3A9
100
AcDbEntity
  8
mark
370
    -2
100
AcDbBlockReference
  2
_Open30
 10
73.08039091456146
 20
48.99339691123103
 30
0.0
 41
1.25
 42
1.25
 43
1.25
 50
270.0
  0
MTEXT
  5
D49F
330
D3A9
100
AcDbEntity
  8
mark
 62
     3
100
AcDbMText
 10
72.03039091456145
 20
55.11839691123102
 30
0.0
 40
1.25
 41
0.0
 71
     5
 72
     1
  1
\A1;12.25
 11
0.0000000000000001
 21
1.0
 31
0.0
 73
     1
 44
1.0
  0
POINT
  5
D4A0
330
D3A9
100
AcDbEntity
  8
DEFPOINTS
 62
     0
100
AcDbPoint
 10
67.05104088715208
 20
61.243396911231
 30
0.0
  0
POINT
  5
D4A1
330
D3A9
100
AcDbEntity
  8
DEFPOINTS
 62
     0
100
AcDbPoint
 10
67.05104088715206
 20
48.99339691123103
 30
0.0
  0
POINT
  5
D4A2
330
D3A9
100
AcDbEntity
  8
DEFPOINTS
 62
     0
100
AcDbPoint
 10
73.08039091456146
 20
48.99339691123103
 30
0.0
  0
ENDBLK
  5
D3B4
330
D3A9
100
AcDbEntity
  8
0
100
AcDbBlockEnd
  0
BLOCK
  5
D3C2
330
D3B6
100
AcDbEntity
  8
0
100
AcDbBlockBegin
  2
*D9
 70
     1
 10
0.0
 20
0.0
 30
0.0
  3
*D9
  1

  0
LINE
  5
D4A3
330
D3B6
100
AcDbEntity
  8
mark
370
    -2
100
AcDbLine
 10
67.47604088715205
 20
48.99339691123103
 30
0.0
 11
73.50539091456146
 21
48.99339691123103
 31
0.0
  0
LINE
  5
D4A4
330
D3B6
100
AcDbEntity
  8
mark
370
    -2
100
AcDbLine
 10
67.47604088715203
 20
46.993396911231
 30
0.0
 11
73.50539091456146
 21
46.993396911231
 31
0.0
  0
LINE
  5
D4A5
330
D3B6
100
AcDbEntity
  8
mark
370
    -2
100
AcDbLine
 10
73.08039091456146
 20
50.24339691123103
 30
0.0
 11
73.08039091456146
 21
51.49339691123103
 31
0.0
  0
LINE
  5
D4A6
330
D3B6
100
AcDbEntity
  8
mark
370
    -2
100
AcDbLine
 10
73.08039091456146
 20
45.743396911231
 30
0.0
 11
73.08039091456146
 21
44.493396911231
 31
0.0
  0
LINE
  5
D4A7
330
D3B6
100
AcDbEntity
  8
mark
370
    -2
100
AcDbLine
 10
73.08039091456146
 20
48.99339691123103
 30
0.0
 11
73.08039091456146
 21
46.993396911231
 31
0.0
  0
INSERT
  5
D4A8
330
D3B6
100
AcDbEntity
  8
mark
370
    -2
100
AcDbBlockReference
  2
_Open30
 10
73.08039091456146
 20
48.99339691123103
 30
0.0
 41
1.25
 42
1.25
 43
1.25
 50
270.0
  0
INSERT
  5
D4A9
330
D3B6
100
AcDbEntity
  8
mark
370
    -2
100
AcDbBlockReference
  2
_Open30
 10
73.08039091456146
 20
46.993396911231
 30
0.0
 41
1.25
 42
1.25
 43
1.25
 50
90.0
  0
MTEXT
  5
D4AA
330
D3B6
100
AcDbEntity
  8
mark
 62
     3
100
AcDbMText
 10
72.03039091456145
 20
47.99339691123102
 30
0.0
 40
1.25
 41
0.0
 71
     5
 72
     1
  1
\A1;2
 11
0.0000000000000001
 21
1.0
 31
0.0
 73
     1
 44
1.0
  0
POINT
  5
D4AB
330
D3B6
100
AcDbEntity
  8
DEFPOINTS
 62
     0
100
AcDbPoint
 10
67.05104088715206
 20
48.99339691123103
 30
0.0
  0
POINT
  5
D4AC
330
D3B6
100
AcDbEntity
  8
DEFPOINTS
 62
     0
100
AcDbPoint
 10
67.05104088715202
 20
46.993396911231
 30
0.0
  0
POINT
  5
D4AD
330
D3B6
100
AcDbEntity
  8
DEFPOINTS
 62
     0
100
AcDbPoint
 10
73.08039091456146
 20
46.993396911231
 30
0.0
  0
ENDBLK
  5
D3C3
330
D3B6
100
AcDbEntity
  8
0
100
AcDbBlockEnd
  0
BLOCK
  5
D3CF
330
D3C5
100
AcDbEntity
  8
0
100
AcDbBlockBegin
  2
*D10
 70
     1
 10
0.0
 20
0.0
 30
0.0
  3
*D10
  1

  0
LINE
  5
D4AE
330
D3C5
100
AcDbEntity
  8
mark
370
    -2
100
AcDbLine
 10
67.47604088715208
 20
61.243396911231
 30
0.0
 11
78.98850126721452
 21
61.243396911231
 31
0.0
  0
LINE
  5
D4AF
330
D3C5
100
AcDbEntity
  8
mark
370
    -2
100
AcDbLine
 10
67.47604088715205
 20
41.243396911231
 30
0.0
 11
78.98850126721452
 21
41.243396911231
 31
0.0
  0
LINE
  5
D4B0
330
D3C5
100
AcDbEntity
  8
mark
370
    -2
100
AcDbLine
 10
78.56350126721451
 20
59.993396911231
 30
0.0
 11
78.56350126721451
 21
42.493396911231
 31
0.0
  0
INSERT
  5
D4B1
330
D3C5
100
AcDbEntity
  8
mark
370
    -2
100
AcDbBlockReference
  2
_Open30
 10
78.56350126721451
 20
61.243396911231
 30
0.0
 41
1.25
 42
1.25
 43
1.25
 50
90.0
  0
INSERT
  5
D4B2
330
D3C5
100
AcDbEntity
  8
mark
370
    -2
100
AcDbBlockReference
  2
_Open30
 10
78.56350126721451
 20
41.243396911231
 30
0.0
 41
1.25
 42
1.25
 43
1.25
 50
270.0
  0
MTEXT
  5
D4B3
330
D3C5
100
AcDbEntity
  8
mark
 62
     3
100
AcDbMText
 10
77.51350126721451
 20
51.243396911231
 30
0.0
 40
1.25
 41
0.0
 71
     5
 72
     1
  1
\A1;20%%p0.2
 11
0.0000000000000001
 21
1.0
 31
0.0
 73
     1
 44
1.0
  0
POINT
  5
D4B4
330
D3C5
100
AcDbEntity
  8
DEFPOINTS
 62
     0
100
AcDbPoint
 10
67.05104088715208
 20
61.243396911231
 30
0.0
  0
POINT
  5
D4B5
330
D3C5
100
AcDbEntity
  8
DEFPOINTS
 62
     0
100
AcDbPoint
 10
67.05104088715206
 20
41.243396911231
 30
0.0
  0
POINT
  5
D4B6
330
D3C5
100
AcDbEntity
  8
DEFPOINTS
 62
     0
100
AcDbPoint
 10
78.56350126721451
 20
41.243396911231
 30
0.0
  0
ENDBLK
  5
D3D0
330
D3C5
100
AcDbEntity
  8
0
100
AcDbBlockEnd
  0
BLOCK
  5
D3DF
330
D3D5
100
AcDbEntity
  8
0
100
AcDbBlockBegin
  2
*D11
 70
     1
 10
0.0
 20
0.0
 30
0.0
  3
*D11
  1

  0
LINE
  5
D4B7
330
D3D5
100
AcDbEntity
  8
mark
370
    -2
100
AcDbLine
 10
23.62604088715205
 20
61.243396911231
 30
0.0
 11
17.41765584384207
 21
61.243396911231
 31
0.0
  0
LINE
  5
D4B8
330
D3D5
100
AcDbEntity
  8
mark
370
    -2
100
AcDbLine
 10
21.62604088715205
 20
54.743396911231
 30
0.0
 11
17.41765584384206
 21
54.743396911231
 31
0.0
  0
LINE
  5
D4B9
330
D3D5
100
AcDbEntity
  8
mark
370
    -2
100
AcDbLine
 10
17.84265584384207
 20
59.993396911231
 30
0.0
 11
17.84265584384207
 21
55.993396911231
 31
0.0
  0
INSERT
  5
D4BA
330
D3D5
100
AcDbEntity
  8
mark
370
    -2
100
AcDbBlockReference
  2
_Open30
 10
17.84265584384207
 20
61.243396911231
 30
0.0
 41
1.25
 42
1.25
 43
1.25
 50
90.0
  0
INSERT
  5
D4BB
330
D3D5
100
AcDbEntity
  8
mark
370
    -2
100
AcDbBlockReference
  2
_Open30
 10
17.84265584384207
 20
54.743396911231
 30
0.0
 41
1.25
 42
1.25
 43
1.25
 50
270.0
  0
MTEXT
  5
D4BC
330
D3D5
100
AcDbEntity
  8
mark
 62
     3
100
AcDbMText
 10
16.79265584384206
 20
57.99339691123101
 30
0.0
 40
1.25
 41
0.0
 71
     5
 72
     1
  1
\A1;6.5
 11
0.0000000000000001
 21
1.0
 31
0.0
 73
     1
 44
1.0
  0
POINT
  5
D4BD
330
D3D5
100
AcDbEntity
  8
DEFPOINTS
 62
     0
100
AcDbPoint
 10
24.05104088715205
 20
61.243396911231
 30
0.0
  0
POINT
  5
D4BE
330
D3D5
100
AcDbEntity
  8
DEFPOINTS
 62
     0
100
AcDbPoint
 10
22.05104088715206
 20
54.743396911231
 30
0.0
  0
POINT
  5
D4BF
330
D3D5
100
AcDbEntity
  8
DEFPOINTS
 62
     0
100
AcDbPoint
 10
17.84265584384207
 20
54.743396911231
 30
0.0
  0
ENDBLK
  5
D3E0
330
D3D5
100
AcDbEntity
  8
0
100
AcDbBlockEnd
  0
BLOCK
  5
D3ED
330
D3E3
100
AcDbEntity
  8
0
100
AcDbBlockBegin
  2
*D12
 70
     1
 10
0.0
 20
0.0
 30
0.0
  3
*D12
  1

  0
LINE
  5
D4C0
330
D3E3
100
AcDbEntity
  8
mark
370
    -2
100
AcDbLine
 10
58.05104088715205
 20
41.50639691123102
 30
0.0
 11
58.05104088715205
 21
34.09165259789907
 31
0.0
  0
LINE
  5
D4C1
330
D3E3
100
AcDbEntity
  8
mark
370
    -2
100
AcDbLine
 10
33.05104088715206
 20
41.50639691123102
 30
0.0
 11
33.05104088715206
 21
34.09165259789907
 31
0.0
  0
LINE
  5
D4C2
330
D3E3
100
AcDbEntity
  8
mark
370
    -2
100
AcDbLine
 10
56.80104088715205
 20
34.51665259789907
 30
0.0
 11
34.30104088715206
 21
34.51665259789907
 31
0.0
  0
INSERT
  5
D4C3
330
D3E3
100
AcDbEntity
  8
mark
370
    -2
100
AcDbBlockReference
  2
_Open30
 10
58.05104088715205
 20
34.51665259789907
 30
0.0
 41
1.25
 42
1.25
 43
1.25
  0
INSERT
  5
D4C4
330
D3E3
100
AcDbEntity
  8
mark
370
    -2
100
AcDbBlockReference
  2
_Open30
 10
33.05104088715206
 20
34.51665259789907
 30
0.0
 41
1.25
 42
1.25
 43
1.25
 50
180.0
  0
MTEXT
  5
D4C5
330
D3E3
100
AcDbEntity
  8
mark
 62
     3
100
AcDbMText
 10
45.55104088715205
 20
35.56665259789907
 30
0.0
 40
1.25
 41
0.0
 71
     5
 72
     1
  1
\A1;M25x1.5P
 73
     1
 44
1.0
  0
POINT
  5
D4C6
330
D3E3
100
AcDbEntity
  8
DEFPOINTS
 62
     0
100
AcDbPoint
 10
58.05104088715205
 20
41.93139691123102
 30
0.0
  0
POINT
  5
D4C7
330
D3E3
100
AcDbEntity
  8
DEFPOINTS
 62
     0
100
AcDbPoint
 10
33.05104088715206
 20
41.93139691123102
 30
0.0
  0
POINT
  5
D4C8
330
D3E3
100
AcDbEntity
  8
DEFPOINTS
 62
     0
100
AcDbPoint
 10
33.05104088715206
 20
34.51665259789907
 30
0.0
  0
ENDBLK
  5
D3EE
330
D3E3
100
AcDbEntity
  8
0
100
AcDbBlockEnd
  0
BLOCK
  5
D42A
330
D421
100
AcDbEntity
  8
0
100
AcDbBlockBegin
  2
*D13
 70
     1
 10
0.0
 20
0.0
 30
0.0
  3
*D13
  1

  0
LINE
  5
D4C9
330
D421
100
AcDbEntity
  8
mark
370
    -2
100
AcDbLine
 10
74.03038862979977
 20
118.7004038288759
 30
0.0
 11
61.98812478281331
 21
111.0140152869387
 31
0.0
  0
LINE
  5
D4CA
330
D421
100
AcDbEntity
  8
mark
370
    -2
100
AcDbLine
 10
29.11395699149087
 20
90.03094849421325
 30
0.0
 11
28.06029776741002
 21
89.35841430213871
 31
0.0
  0
MTEXT
  5
D4CB
330
D421
100
AcDbEntity
  8
mark
 62
     3
100
AcDbMText
 10
69.27892059144259
 20
116.9132750539276
 30
0.0
 40
1.25
 41
0.0
 71
     5
 72
     1
  1
\A1;P.C.D 36.5
 11
0.8429273792646776
 21
0.538027353659628
 31
0.0
 73
     1
 44
1.0
  0
LINE
  5
D4CC
330
D421
100
AcDbEntity
  8
mark
370
    -2
100
AcDbLine
 10
30.16761621557172
 20
90.70348268628778
 30
0.0
 11
60.93446555873246
 21
110.3414810948642
 31
0.0
  0
INSERT
  5
D4CD
330
D421
100
AcDbEntity
  8
mark
370
    -2
100
AcDbBlockReference
  2
_Open30
 10
30.16761621557172
 20
90.70348268628778
 30
0.0
 41
1.25
 42
1.25
 43
1.25
 50
32.54945296438068
  0
INSERT
  5
D4CE
330
D421
100
AcDbEntity
  8
mark
370
    -2
100
AcDbBlockReference
  2
_Open30
 10
60.93446555873246
 20
110.3414810948642
 30
0.0
 41
1.25
 42
1.25
 43
1.25
 50
212.5494529643807
  0
POINT
  5
D4CF
330
D421
100
AcDbEntity
  8
DEFPOINTS
 62
     0
100
AcDbPoint
 10
60.93446555873246
 20
110.3414810948642
 30
0.0
  0
POINT
  5
D4D0
330
D421
100
AcDbEntity
  8
DEFPOINTS
 62
     0
100
AcDbPoint
 10
30.16761621557172
 20
90.70348268628778
 30
0.0
  0
ENDBLK
  5
D42B
330
D421
100
AcDbEntity
  8
0
100
AcDbBlockEnd
  0
BLOCK
  5
D436
330
D42D
100
AcDbEntity
  8
0
100
AcDbBlockBegin
  2
*D14
 70
     1
 10
0.0
 20
0.0
 30
0.0
  3
*D14
  1

  0
LINE
  5
D4D1
330
D42D
100
AcDbEntity
  8
mark
370
    -2
100
AcDbLine
 10
76.32691469366907
 20
108.1314672472251
 30
0.0
 11
63.26759262685591
 21
104.9026981471548
 31
0.0
  0
LINE
  5
D4D2
330
D42D
100
AcDbEntity
  8
mark
370
    -2
100
AcDbLine
 10
27.83448914744826
 20
96.1422656339973
 30
0.0
 11
26.62102669952334
 21
95.84225082190286
 31
0.0
  0
MTEXT
  5
D4D3
330
D42D
100
AcDbEntity
  8
mark
 62
     3
100
AcDbMText
 10
72.06238642370468
 20
108.1587267248231
 30
0.0
 40
1.25
 41
0.0
 71
     5
 72
     1
  1
\A1;P.C.D 34
 11
0.9707699583399367
 21
0.2400118496755475
 31
0.0
 73
     1
 44
1.0
  0
LINE
  5
D4D4
330
D42D
100
AcDbEntity
  8
mark
370
    -2
100
AcDbLine
 10
29.04795159537318
 20
96.44228044609173
 30
0.0
 11
62.05413017893099
 21
104.6026833350603
 31
0.0
  0
INSERT
  5
D4D5
330
D42D
100
AcDbEntity
  8
mark
370
    -2
100
AcDbBlockReference
  2
_Open30
 10
29.04795159537318
 20
96.44228044609173
 30
0.0
 41
1.25
 42
1.25
 43
1.25
 50
13.88723974085669
  0
INSERT
  5
D4D6
330
D42D
100
AcDbEntity
  8
mark
370
    -2
100
AcDbBlockReference
  2
_Open30
 10
62.05413017893099
 20
104.6026833350603
 30
0.0
 41
1.25
 42
1.25
 43
1.25
 50
193.8872397408567
  0
POINT
  5
D4D7
330
D42D
100
AcDbEntity
  8
DEFPOINTS
 62
     0
100
AcDbPoint
 10
62.05413017893099
 20
104.6026833350603
 30
0.0
  0
POINT
  5
D4D8
330
D42D
100
AcDbEntity
  8
DEFPOINTS
 62
     0
100
AcDbPoint
 10
29.04795159537318
 20
96.44228044609173
 30
0.0
  0
ENDBLK
  5
D437
330
D42D
100
AcDbEntity
  8
0
100
AcDbBlockEnd
  0
ENDSEC
  0
SECTION
  2
ENTITIES
  0
MTEXT
  5
C0
330
18
100
AcDbEntity
  8
0
100
AcDbMText
 10
41.26970765600413
 20
233.6950877649332
 30
0.0
 40
2.5
 41
0.0
 71
     1
 72
     5
  1

  7
CN
 73
     1
 44
1.0
  0
LWPOLYLINE
  5
AF44
330
18
100
AcDbEntity
  8
frame
100
AcDbPolyline
 90
        4
 70
     1
 43
0.0
 10
95.0
 20
140.0
 10
0.0
 20
140.0
 10
0.0
 20
0.0
 10
95.0
 20
0.0
  0
MTEXT
  5
AF45
330
18
100
AcDbEntity
  8
0
100
AcDbMText
 10
8.549751843445875
 20
9.53802950808307
 30
0.0
 40
2.5
 41
0.0
 71
     1
 72
     5
  1
{\Ftxt,bigfont|c128;\W0.5;林彦旭}
 73
     1
 44
1.0
1001
ACAD
1000
ACAD_MTEXT_DEFINED_HEIGHT_BEGIN
1070
    46
1040
0.0
1000
ACAD_MTEXT_DEFINED_HEIGHT_END
  0
MTEXT
  5
AF46
330
18
100
AcDbEntity
  8
0
100
AcDbMText
 10
38.97647364614426
 20
14.46789489935338
 30
0.0
 40
2.25
 41
0.0
 71
     1
 72
     5
  1
{\Ftxt,bigfont|c128;\W0.5;2 : 1}
 73
     1
 44
1.0
1001
ACAD
1000
ACAD_MTEXT_DEFINED_HEIGHT_BEGIN
1070
    46
1040
0.0
1000
ACAD_MTEXT_DEFINED_HEIGHT_END
  0
MTEXT
  5
AF47
330
18
100
AcDbEntity
  8
0
100
AcDbMText
 10
63.18664640888375
 20
4.151631660640134
 30
0.0
 40
2.5
 41
0.0
 71
     1
 72
     5
  1
{\Ftxt,bigfont|c128;\W0.5;N L 4 0 2 6 7}
 73
     1
 44
1.0
1001
ACAD
1000
ACAD_MTEXT_DEFINED_HEIGHT_BEGIN
1070
    46
1040
0.0
1000
ACAD_MTEXT_DEFINED_HEIGHT_END
  0
MTEXT
  5
AF48
330
18
100
AcDbEntity
  8
0
100
AcDbMText
 10
75.78500581007972
 20
13.92609249863494
 30
0.0
 40
2.5
 41
0.0
 71
     1
 72
     5
  1
\P{\Ftxt,bigfont|c128;\W0.5;MKR25X1.5P}
 73
     1
 44
1.0
1001
ACAD
1000
ACAD_MTEXT_DEFINED_HEIGHT_BEGIN
1070
    46
1040
0.0
1000
ACAD_MTEXT_DEFINED_HEIGHT_END
  0
MTEXT
  5
AF49
330
18
100
AcDbEntity
  8
0
100
AcDbMText
 10
7.6880338568387
 20
14.18870179917354
 30
0.0
 40
2.25
 41
0.0
 71
     1
 72
     5
  1
{\Ftxt,bigfont|c128;\W0.5;08.07.02}
 73
     1
 44
1.0
1001
ACAD
1000
ACAD_MTEXT_DEFINED_HEIGHT_BEGIN
1070
    46
1040
0.0
1000
ACAD_MTEXT_DEFINED_HEIGHT_END
  0
MTEXT
  5
AF4A
330
18
100
AcDbEntity
  8
0
100
AcDbMText
 10
4.63818135707055
 20
4.621097525024651
 30
0.0
 40
3.5
 41
0.0
 71
     1
 72
     5
  1
{\Ftxt,bigfont|c128;\W1.5;日機株式会社}
 73
     1
 44
1.0
1001
ACAD
1000
ACAD_MTEXT_DEFINED_HEIGHT_BEGIN
1070
    46
1040
0.0
1000
ACAD_MTEXT_DEFINED_HEIGHT_END
  0
LINE
  5
AF4B
330
18
100
AcDbEntity
  8
frame
100
AcDbLine
 10
0.0
 20
6.0
 30
0.0
 11
95.0
 21
6.000000000000028
 31
0.0
  0
LINE
  5
AF4C
330
18
100
AcDbEntity
  8
frame
100
AcDbLine
 10
0.0
 20
11.0
 30
0.0
 11
46.06060606060611
 21
11.0
 31
0.0
  0
LINE
  5
AF4D
330
18
100
AcDbEntity
  8
frame
100
AcDbLine
 10
0.0
 20
16.0
 30
0.0
 11
95.0
 21
16.0
 31
0.0
  0
LINE
  5
AF4E
330
18
100
AcDbEntity
  8
frame
100
AcDbLine
 10
6.095386662468996
 20
16.0
 30
0.0
 11
6.095386662468996
 21
6.0
 31
0.0
  0
LINE
  5
AF4F
330
18
100
AcDbEntity
  8
frame
100
AcDbLine
 10
15.35353535353533
 20
16.0
 30
0.0
 11
15.35353535353539
 21
6.0
 31
0.0
  0
MTEXT
  5
AF50
330
18
100
AcDbEntity
  8
0
100
AcDbMText
 10
1.415137392110977
 20
14.54095044791415
 30
0.0
 40
2.5
 41
0.0
 71
     1
 72
     5
  1
{\Ftxt,bigfont|c128;\W0.5;日 付}
 73
     1
 44
1.0
1001
ACAD
1000
ACAD_MTEXT_DEFINED_HEIGHT_BEGIN
1070
    46
1040
0.0
1000
ACAD_MTEXT_DEFINED_HEIGHT_END
  0
MTEXT
  5
AF51
330
18
100
AcDbEntity
  8
0
100
AcDbMText
 10
1.485316538719445
 20
9.760819214633187
 30
0.0
 40
2.5
 41
0.0
 71
     1
 72
     5
  1
{\Ftxt,bigfont|c128;\W0.5;製 図}
 73
     1
 44
1.0
1001
ACAD
1000
ACAD_MTEXT_DEFINED_HEIGHT_BEGIN
1070
    46
1040
0.0
1000
ACAD_MTEXT_DEFINED_HEIGHT_END
  0
LINE
  5
AF52
330
18
100
AcDbEntity
  8
0
 62
     7
370
    25
100
AcDbLine
 10
26.52290072143927
 20
11.90992304647298
 30
0.0
 11
26.52290072143927
 21
14.46811169794961
 31
0.0
  0
MTEXT
  5
AF53
330
18
100
AcDbEntity
  8
0
100
AcDbMText
 10
32.00374426245418
 20
14.56121351896189
 30
0.0
 40
2.5
 41
0.0
 71
     1
 72
     5
  1
{\Ftxt,bigfont|c128;\W0.5;尺 度}
 73
     1
 44
1.0
1001
ACAD
1000
ACAD_MTEXT_DEFINED_HEIGHT_BEGIN
1070
    46
1040
0.0
1000
ACAD_MTEXT_DEFINED_HEIGHT_END
  0
LINE
  5
AF54
330
18
100
AcDbEntity
  8
frame
100
AcDbLine
 10
30.70707070707073
 20
16.0
 30
0.0
 11
30.70707070707073
 21
6.0
 31
0.0
  0
LINE
  5
AF55
330
18
100
AcDbEntity
  8
0
 62
     7
370
    25
100
AcDbLine
 10
19.8076555113131
 20
11.59444509166317
 30
0.0
 11
19.8076555113131
 21
14.68228996214836
 31
0.0
  0
CIRCLE
  5
AF56
330
18
100
AcDbEntity
  8
0
 62
     7
100
AcDbCircle
 10
19.8076555113131
 20
13.18901737221125
 30
0.0
 40
1.279094325738339
  0
LINE
  5
AF57
330
18
100
AcDbEntity
  8
0
 62
     7
370
    25
100
AcDbLine
 10
23.59660993459988
 20
13.18901737221131
 30
0.0
 11
26.75256290812121
 21
13.18901737221131
 31
0.0
  0
LINE
  5
AF58
330
18
100
AcDbEntity
  8
0
 62
     7
100
AcDbLine
 10
23.96471206996267
 20
12.54947020934213
 30
0.0
 11
26.52290072143927
 21
11.90992304647298
 31
0.0
  0
LINE
  5
AF59
330
18
100
AcDbEntity
  8
frame
100
AcDbLine
 10
21.3711209799755
 20
11.0
 30
0.0
 11
21.3711209799755
 21
6.0
 31
0.0
  0
LINE
  5
AF5A
330
18
100
AcDbEntity
  8
0
 62
     7
370
    25
100
AcDbLine
 10
18.20916114243306
 20
13.18901737221125
 30
0.0
 11
21.50162633809634
 21
13.18901737221131
 31
0.0
  0
CIRCLE
  5
AF5B
330
18
100
AcDbEntity
  8
0
 62
     7
100
AcDbCircle
 10
19.8076555113131
 20
13.18901737221125
 30
0.0
 40
0.6395471628691697
  0
MTEXT
  5
AF5C
330
18
100
AcDbEntity
  8
0
100
AcDbMText
 10
16.85092016231203
 20
9.705069078926328
 30
0.0
 40
2.5
 41
0.0
 71
     1
 72
     5
  1
{\Ftxt,bigfont|c128;\W0.5;検 図}
 73
     1
 44
1.0
1001
ACAD
1000
ACAD_MTEXT_DEFINED_HEIGHT_BEGIN
1070
    46
1040
0.0
1000
ACAD_MTEXT_DEFINED_HEIGHT_END
  0
LINE
  5
AF5D
330
18
100
AcDbEntity
  8
0
 62
     7
370
    25
100
AcDbLine
 10
23.96471206996267
 20
12.54947020934213
 30
0.0
 11
23.96471206996267
 21
13.82856453508043
 31
0.0
  0
MTEXT
  5
AF5E
330
18
100
AcDbEntity
  8
0
100
AcDbMText
 10
32.14410124959915
 20
9.660292673744407
 30
0.0
 40
2.5
 41
0.0
 71
     1
 72
     5
  1
{\Ftxt,bigfont|c128;\W0.5;承 認}
 73
     1
 44
1.0
1001
ACAD
1000
ACAD_MTEXT_DEFINED_HEIGHT_BEGIN
1070
    46
1040
0.0
1000
ACAD_MTEXT_DEFINED_HEIGHT_END
  0
MTEXT
  5
AF5F
330
18
100
AcDbEntity
  8
0
100
AcDbMText
 10
46.85564357803349
 20
4.148030681434136
 30
0.0
 40
2.5
 41
0.0
 71
     1
 72
     5
  1
{\Ftxt,bigfont|c128;\W0.5;図  面  番  号}
 73
     1
 44
1.0
1001
ACAD
1000
ACAD_MTEXT_DEFINED_HEIGHT_BEGIN
1070
    46
1040
0.0
1000
ACAD_MTEXT_DEFINED_HEIGHT_END
  0
MTEXT
  5
AF60
330
18
100
AcDbEntity
  8
0
100
AcDbMText
 10
49.91506469331335
 20
13.80868431733046
 30
0.0
 40
2.5
 41
0.0
 71
     1
 72
     5
  1
\P{\Ftxt,bigfont|c128;    \W0.5;精密ロックナット}
 73
     1
 44
1.0
1001
ACAD
1000
ACAD_MTEXT_DEFINED_HEIGHT_BEGIN
1070
    46
1040
0.0
1000
ACAD_MTEXT_DEFINED_HEIGHT_END
  0
MTEXT
  5
AF61
330
18
100
AcDbEntity
  8
0
100
AcDbMText
 10
47.4041806515616
 20
14.51931228986637
 30
0.0
 40
2.5
 41
0.0
 71
     1
 72
     5
  1
{\Ftxt,bigfont|c128;\W0.5;品  名}
 73
     1
 44
1.0
1001
ACAD
1000
ACAD_MTEXT_DEFINED_HEIGHT_BEGIN
1070
    46
1040
0.0
1000
ACAD_MTEXT_DEFINED_HEIGHT_END
  0
LINE
  5
AF62
330
18
100
AcDbEntity
  8
frame
100
AcDbLine
 10
46.06060606060611
 20
16.0
 30
0.0
 11
46.06060606060611
 21
0.0916613789792393
 31
0.0
  0
LINE
  5
AF63
330
18
100
AcDbEntity
  8
frame
100
AcDbLine
 10
36.70707070707073
 20
16.0
 30
0.0
 11
36.70707070707073
 21
6.0
 31
0.0
  0
LINE
  5
AF64
330
18
100
AcDbEntity
  8
frame
100
AcDbLine
 10
73.51635463703281
 20
16.0
 30
0.0
 11
73.51635463703286
 21
6.0
 31
0.0
  0
MTEXT
  5
AF65
330
18
100
AcDbEntity
  8
0
100
AcDbMText
 10
75.44797972338654
 20
14.52258891415195
 30
0.0
 40
2.5
 41
0.0
 71
     1
 72
     5
  1
{\Ftxt,bigfont|c128;\W0.5;型  番}
 73
     1
 44
1.0
1001
ACAD
1000
ACAD_MTEXT_DEFINED_HEIGHT_BEGIN
1070
    46
1040
0.0
1000
ACAD_MTEXT_DEFINED_HEIGHT_END
  0
MTEXT
  5
AF66
330
18
100
AcDbEntity
  8
0
100
AcDbMText
 10
82.90298074051628
 20
4.288456589381553
 30
0.0
 40
2.5
 41
0.0
 71
     1
 72
     5
  1
{\Ftxt,bigfont|c128;\W0.5;変更}
 73
     1
 44
1.0
1001
ACAD
1000
ACAD_MTEXT_DEFINED_HEIGHT_BEGIN
1070
    46
1040
0.0
1000
ACAD_MTEXT_DEFINED_HEIGHT_END
  0
LINE
  5
AF67
330
18
100
AcDbEntity
  8
frame
100
AcDbLine
 10
82.04545454545462
 20
6.000000000000028
 30
0.0
 11
82.04545454545467
 21
0.0
 31
0.0
  0
LINE
  5
AF68
330
18
100
AcDbEntity
  8
frame
100
AcDbLine
 10
62.30789503931965
 20
21.56745674462246
 30
0.0
 11
92.30789503931964
 21
21.56745674462241
 31
0.0
  0
LINE
  5
AF69
330
18
100
AcDbEntity
  8
frame
100
AcDbLine
 10
62.30789503931965
 20
25.16745674462248
 30
0.0
 11
92.30789503931964
 21
25.16745674462248
 31
0.0
  0
LINE
  5
AF6A
330
18
100
AcDbEntity
  8
frame
100
AcDbLine
 10
62.30789503931965
 20
28.76745674462245
 30
0.0
 11
92.30789503931964
 21
28.7674567446224
 31
0.0
  0
LINE
  5
AF6B
330
18
100
AcDbEntity
  8
frame
100
AcDbLine
 10
62.30789503931965
 20
32.36745674462247
 30
0.0
 11
92.30789503931964
 21
32.36745674462242
 31
0.0
  0
LINE
  5
AF6C
330
18
100
AcDbEntity
  8
frame
100
AcDbLine
 10
62.30789503931965
 20
17.96745674462244
 30
0.0
 11
92.30789503931964
 21
17.96745674462244
 31
0.0
  0
MTEXT
  5
AF6D
330
18
100
AcDbEntity
  8
0
 48
2.0
100
AcDbMText
 10
77.25059502225531
 20
32.76404094991455
 30
0.0
 40
2.5
 41
0.0
 71
     5
 72
     1
  1
\P{\Ftxt,bigfont|c128;\H1.042x;\W0.5;諸　　　　元}
 73
     1
 44
1.0
1001
ACAD
1000
ACAD_MTEXT_DEFINED_HEIGHT_BEGIN
1070
    46
1040
0.0
1000
ACAD_MTEXT_DEFINED_HEIGHT_END
  0
LINE
  5
AF6E
330
18
100
AcDbEntity
  8
frame
100
AcDbLine
 10
62.30789503931965
 20
32.36745674462242
 30
0.0
 11
62.30789503931965
 21
17.96745674462244
 31
0.0
  0
MTEXT
  5
AF6F
330
18
100
AcDbEntity
  8
0
 48
2.0
100
AcDbMText
 10
67.89958855683448
 20
27.00985435121112
 30
0.0
 40
2.5
 41
0.0
 71
     5
 72
     1
  1
{\Ftxt,bigfont|c128;\W0.5;熱　処　理}
 73
     1
 44
1.0
1001
ACAD
1000
ACAD_MTEXT_DEFINED_HEIGHT_BEGIN
1070
    46
1040
0.0
1000
ACAD_MTEXT_DEFINED_HEIGHT_END
  0
LINE
  5
AF70
330
18
100
AcDbEntity
  8
0
100
AcDbLine
 10
74.30789503931965
 20
28.7674567446224
 30
0.0
 11
74.30789503931965
 21
17.96745674462244
 31
0.0
  0
MTEXT
  5
AF71
330
18
100
AcDbEntity
  8
0
 48
2.0
100
AcDbMText
 10
68.05793129773826
 20
23.30987049544274
 30
0.0
 40
2.5
 41
0.0
 71
     5
 72
     1
  1
{\Ftxt,bigfont|c128;\W0.5;表 面 処 理}
 73
     1
 44
1.0
1001
ACAD
1000
ACAD_MTEXT_DEFINED_HEIGHT_BEGIN
1070
    46
1040
0.0
1000
ACAD_MTEXT_DEFINED_HEIGHT_END
  0
MTEXT
  5
AF72
330
18
100
AcDbEntity
  8
0
 48
2.0
100
AcDbMText
 10
68.15321756785692
 20
19.76506888470794
 30
0.0
 40
2.5
 41
0.0
 71
     5
 72
     1
  1
{\Ftxt,bigfont|c128;\W0.5;等     　級}
 73
     1
 44
1.0
1001
ACAD
1000
ACAD_MTEXT_DEFINED_HEIGHT_BEGIN
1070
    46
1040
0.0
1000
ACAD_MTEXT_DEFINED_HEIGHT_END
  0
LINE
  5
AF73
330
18
100
AcDbEntity
  8
frame
100
AcDbLine
 10
92.30789503931964
 20
32.36745674462242
 30
0.0
 11
92.30789503931964
 21
17.96745674462249
 31
0.0
  0
MTEXT
  5
AF74
330
18
100
AcDbEntity
  8
0
 48
2.0
100
AcDbMText
 10
83.57417555318921
 20
26.97360369943079
 30
0.0
 40
2.5
 41
0.0
 71
     5
 72
     1
  1
{\Ftxt,bigfont|c128;\W0.5;調質　HRC30%%D%%P２%%D}
 73
     1
 44
1.0
1001
ACAD
1000
ACAD_MTEXT_DEFINED_HEIGHT_BEGIN
1070
    46
1040
0.0
1000
ACAD_MTEXT_DEFINED_HEIGHT_END
  0
MTEXT
  5
AF75
330
18
100
AcDbEntity
  8
0
 48
2.0
100
AcDbMText
 10
80.76477528081637
 20
19.74072763710706
 30
0.0
 40
2.5
 41
0.0
 71
     5
 72
     1
  1
{\Ftxt,bigfont|c128;\W0.5;ＩＳＯ - ４Ｈ}
 73
     1
 44
1.0
1001
ACAD
1000
ACAD_MTEXT_DEFINED_HEIGHT_BEGIN
1070
    46
1040
0.0
1000
ACAD_MTEXT_DEFINED_HEIGHT_END
  0
MTEXT
  5
AF76
330
18
100
AcDbEntity
  8
0
 48
2.0
100
AcDbMText
 10
80.65631378087664
 20
23.43189793105313
 30
0.0
 40
2.5
 41
0.0
 71
     5
 72
     1
  1
{\Ftxt,bigfont|c128;\W0.5;黒  　    染}
 73
     1
 44
1.0
1001
ACAD
1000
ACAD_MTEXT_DEFINED_HEIGHT_BEGIN
1070
    46
1040
0.0
1000
ACAD_MTEXT_DEFINED_HEIGHT_END
  0
MTEXT
  5
AF77
330
18
100
AcDbEntity
  8
0
100
AcDbMText
 10
28.81819530667213
 20
130.4500291639737
 30
0.0
 40
2.5
 41
0.0
 71
     1
 72
     5
  1
{\Ftxt,bigfont|c128;\W0.5;M4X0.7P-12L}
 73
     1
 44
1.0
1001
ACAD
1000
ACAD_MTEXT_DEFINED_HEIGHT_BEGIN
1070
    46
1040
0.0
1000
ACAD_MTEXT_DEFINED_HEIGHT_END
  0
LINE
  5
AF78
330
18
100
AcDbEntity
  8
frame
100
AcDbLine
 10
0.0
 20
127.0
 30
0.0
 11
95.0
 21
127.0
 31
0.0
  0
LINE
  5
AF79
330
18
100
AcDbEntity
  8
frame
100
AcDbLine
 10
0.0
 20
131.0
 30
0.0
 11
95.0
 21
131.0
 31
0.0
  0
LINE
  5
AF7A
330
18
100
AcDbEntity
  8
frame
 62
     9
100
AcDbLine
 10
0.0
 20
135.0
 30
0.0
 11
95.0
 21
135.0
 31
0.0
  0
MTEXT
  5
AF7B
330
18
100
AcDbEntity
  8
0
100
AcDbMText
 10
28.50782195301855
 20
138.712028002452
 30
0.0
 40
2.5
 41
0.0
 71
     1
 72
     5
  1
{\Ftxt,bigfont|c128;\W0.5;図    番 / 規　　格}
 73
     1
 44
1.0
1001
ACAD
1000
ACAD_MTEXT_DEFINED_HEIGHT_BEGIN
1070
    46
1040
0.0
1000
ACAD_MTEXT_DEFINED_HEIGHT_END
  0
LINE
  5
AF7C
330
18
100
AcDbEntity
  8
frame
100
AcDbLine
 10
0.0
 20
127.0
 30
0.0
 11
95.0
 21
127.0
 31
0.0
  0
MTEXT
  5
AF7D
330
18
100
AcDbEntity
  8
0
100
AcDbMText
 10
10.56244024461716
 20
138.7318990693371
 30
0.0
 40
2.5
 41
0.0
 71
     1
 72
     5
  1
{\Ftxt,bigfont|c128;\W0.5;品　          名}
 73
     1
 44
1.0
1001
ACAD
1000
ACAD_MTEXT_DEFINED_HEIGHT_BEGIN
1070
    46
1040
0.0
1000
ACAD_MTEXT_DEFINED_HEIGHT_END
  0
MTEXT
  5
AF7E
330
18
100
AcDbEntity
  8
0
100
AcDbMText
 10
10.50394717990937
 20
130.3953618644555
 30
0.0
 40
2.5
 41
0.0
 71
     1
 72
     5
  1
{\Ftxt,bigfont|c128;\W0.5;セットスクリュ-}
 73
     1
 44
1.0
1001
ACAD
1000
ACAD_MTEXT_DEFINED_HEIGHT_BEGIN
1070
    46
1040
0.0
1000
ACAD_MTEXT_DEFINED_HEIGHT_END
  0
MTEXT
  5
AF7F
330
18
100
AcDbEntity
  8
0
100
AcDbMText
 10
10.4100876486745
 20
134.4180615141482
 30
0.0
 40
2.5
 41
0.0
 71
     1
 72
     5
  1
{\Ftxt,bigfont|c128;\W0.5;ロックナット　  }
 73
     1
 44
1.0
1001
ACAD
1000
ACAD_MTEXT_DEFINED_HEIGHT_BEGIN
1070
    46
1040
0.0
1000
ACAD_MTEXT_DEFINED_HEIGHT_END
  0
LINE
  5
AF80
330
18
100
AcDbEntity
  8
frame
 62
     9
100
AcDbLine
 10
7.196969696969688
 20
139.9999999999999
 30
0.0
 11
7.196969696969816
 21
127.0
 31
0.0
  0
LINE
  5
AF81
330
18
100
AcDbEntity
  8
frame
 62
     9
100
AcDbLine
 10
7.196969696969688
 20
139.9999999999999
 30
0.0
 11
7.196969696969688
 21
127.5252525252525
 31
0.0
  0
MTEXT
  5
AF82
330
18
100
AcDbEntity
  8
0
100
AcDbMText
 10
3.407504634006897
 20
134.364083721706
 30
0.0
 40
2.5
 41
0.0
 71
     1
 72
     5
  1
{\Ftxt,bigfont|c128;1}
 73
     1
 44
1.0
1001
ACAD
1000
ACAD_MTEXT_DEFINED_HEIGHT_BEGIN
1070
    46
1040
0.0
1000
ACAD_MTEXT_DEFINED_HEIGHT_END
  0
MTEXT
  5
AF83
330
18
100
AcDbEntity
  8
0
100
AcDbMText
 10
1.059914036490113
 20
138.7367391319745
 30
0.0
 40
2.5
 41
0.0
 71
     1
 72
     5
  1
{\Ftxt,bigfont|c128;\W0.5;照   号}
 73
     1
 44
1.0
1001
ACAD
1000
ACAD_MTEXT_DEFINED_HEIGHT_BEGIN
1070
    46
1040
0.0
1000
ACAD_MTEXT_DEFINED_HEIGHT_END
  0
LINE
  5
AF84
330
18
100
AcDbEntity
  8
frame
 62
     9
100
AcDbLine
 10
26.38888888888891
 20
139.9999999999999
 30
0.0
 11
26.38888888888891
 21
127.0
 31
0.0
  0
MTEXT
  5
AF85
330
18
100
AcDbEntity
  8
0
100
AcDbMText
 10
72.78681871864256
 20
138.8390831947097
 30
0.0
 40
2.5
 41
0.0
 71
     1
 72
     5
  1
{\Ftxt,bigfont|c128;\W0.5;備           考}
 73
     1
 44
1.0
1001
ACAD
1000
ACAD_MTEXT_DEFINED_HEIGHT_BEGIN
1070
    46
1040
0.0
1000
ACAD_MTEXT_DEFINED_HEIGHT_END
  0
LINE
  5
AF86
330
18
100
AcDbEntity
  8
frame
 62
     9
100
AcDbLine
 10
45.58080808080808
 20
140.0
 30
0.0
 11
45.58080808080808
 21
127.0
 31
0.0
  0
MTEXT
  5
AF87
330
18
100
AcDbEntity
  8
0
100
AcDbMText
 10
46.43670544589684
 20
134.4180615141482
 30
0.0
 40
2.5
 41
0.0
 71
     1
 72
     5
  1
{\Ftxt,bigfont|c128;\W0.5;SCM440}
 73
     1
 44
1.0
1001
ACAD
1000
ACAD_MTEXT_DEFINED_HEIGHT_BEGIN
1070
    46
1040
0.0
1000
ACAD_MTEXT_DEFINED_HEIGHT_END
  0
MTEXT
  5
AF88
330
18
100
AcDbEntity
  8
0
100
AcDbMText
 10
46.43670544589684
 20
130.382501006292
 30
0.0
 40
2.5
 41
0.0
 71
     1
 72
     5
  1
{\Ftxt,bigfont|c128;\W0.5;SCM435}
 73
     1
 44
1.0
1001
ACAD
1000
ACAD_MTEXT_DEFINED_HEIGHT_BEGIN
1070
    46
1040
0.0
1000
ACAD_MTEXT_DEFINED_HEIGHT_END
  0
MTEXT
  5
AF89
330
18
100
AcDbEntity
  8
0
100
AcDbMText
 10
47.88399431552096
 20
138.7822749741459
 30
0.0
 40
2.5
 41
0.0
 71
     1
 72
     5
  1
{\Ftxt,bigfont|c128;\W0.5;材　質}
 73
     1
 44
1.0
1001
ACAD
1000
ACAD_MTEXT_DEFINED_HEIGHT_BEGIN
1070
    46
1040
0.0
1000
ACAD_MTEXT_DEFINED_HEIGHT_END
  0
LINE
  5
AF8A
330
18
100
AcDbEntity
  8
frame
 62
     9
100
AcDbLine
 10
55.17676767676772
 20
140.0
 30
0.0
 11
55.17676767676772
 21
127.0
 31
0.0
  0
LINE
  5
AF8B
330
18
100
AcDbEntity
  8
frame
100
AcDbLine
 10
62.37373737373736
 20
140.0
 30
0.0
 11
62.37373737373741
 21
127.0
 31
0.0
  0
MTEXT
  5
AF8C
330
18
100
AcDbEntity
  8
0
100
AcDbMText
 10
58.58427231077456
 20
134.5206355839966
 30
0.0
 40
2.5
 41
0.0
 71
     1
 72
     5
  1
\Ftxt.shx,bigfont.shx|c128;1
 73
     1
 44
1.0
  0
MTEXT
  5
AF8D
330
18
100
AcDbEntity
  8
0
100
AcDbMText
 10
58.29695351334419
 20
130.2546145075339
 30
0.0
 40
2.5
 41
0.0
 71
     1
 72
     5
  1
{\Ftxt,bigfont|c128;4}
 73
     1
 44
1.0
1001
ACAD
1000
ACAD_MTEXT_DEFINED_HEIGHT_BEGIN
1070
    46
1040
0.0
1000
ACAD_MTEXT_DEFINED_HEIGHT_END
  0
MTEXT
  5
AF8E
330
18
100
AcDbEntity
  8
0
100
AcDbMText
 10
56.21119479596313
 20
138.7822749741459
 30
0.0
 40
2.5
 41
0.0
 71
     1
 72
     5
  1
{\Ftxt,bigfont|c128;\W0.5;数   量}
 73
     1
 44
1.0
1001
ACAD
1000
ACAD_MTEXT_DEFINED_HEIGHT_BEGIN
1070
    46
1040
0.0
1000
ACAD_MTEXT_DEFINED_HEIGHT_END
  0
MTEXT
  5
AF8F
330
18
100
AcDbEntity
  8
0
100
AcDbMText
 10
3.202009849527996
 20
130.364083721706
 30
0.0
 40
2.5
 41
0.0
 71
     1
 72
     5
  1
{\Ftxt,bigfont|c128;2}
 73
     1
 44
1.0
1001
ACAD
1000
ACAD_MTEXT_DEFINED_HEIGHT_BEGIN
1070
    46
1040
0.0
1000
ACAD_MTEXT_DEFINED_HEIGHT_END
  0
LINE
  5
AFC8
330
18
100
AcDbEntity
  8
0
 62
     7
100
AcDbLine
 10
23.96471206996267
 20
13.82856453508049
 30
0.0
 11
26.52290072143927
 21
14.46811169794964
 31
0.0
  0
TOLERANCE
  5
CEE0
330
18
100
AcDbEntity
  8
mark
100
AcDbFcf
  3
STANDARD
 10
82.20853785829087
 20
64.88843350230732
 30
0.0
  1
{\Fgdt;h}%%v0.005%%v%%vA%%v%%v
  0
LINE
  5
CEE6
330
18
100
AcDbEntity
  8
mark
100
AcDbLine
 10
78.56350126721446
 20
64.88843350230729
 30
0.0
 11
82.20853785829081
 21
64.88843350230732
 31
0.0
  0
LINE
  5
CEE7
330
18
100
AcDbEntity
  8
mark
100
AcDbLine
 10
78.56350126721451
 20
61.24339691123097
 30
0.0
 11
78.56350126721446
 21
64.88843350230729
 31
0.0
  0
TOLERANCE
  5
CEE9
330
18
100
AcDbEntity
  8
mark
100
AcDbFcf
  3
STANDARD
 10
38.05104088715206
 20
29.09165259789907
 30
0.0
  1
%%v%%v%%vA%%v%%v
  0
LINE
  5
CEEA
330
18
100
AcDbEntity
  8
mark
100
AcDbLine
 10
33.05104088715206
 20
34.09165259789907
 30
0.0
 11
33.05104088715206
 21
30.34165259789904
 31
0.0
  0
LINE
  5
CEEB
330
18
100
AcDbEntity
  8
mark
100
AcDbLine
 10
34.301040887152
 20
29.09165259789907
 30
0.0
 11
38.05104088715206
 21
29.09165259789907
 31
0.0
  0
LWPOLYLINE
  5
CEF9
330
18
100
AcDbEntity
  8
mark
100
AcDbPolyline
 90
        3
 70
     1
 43
0.0
 10
33.05104088715206
 20
27.84165259789901
 10
33.051040887152
 20
30.3416525978991
 10
34.30104088715206
 20
29.09165259789901
  0
HATCH
  5
CF1A
330
18
100
AcDbEntity
  8
mark
100
AcDbHatch
 10
0.0
 20
0.0
 30
0.0
210
0.0
220
0.0
230
1.0
  2
SOLID
 70
     1
 71
     0
 91
        1
 92
        7
 72
     0
 73
     1
 93
        3
 10
33.05104088715206
 20
27.84165259789903
 10
34.30104088715206
 20
29.09165259789901
 10
33.051040887152
 20
30.34165259789908
 97
        0
 75
     0
 76
     1
 47
0.0850970224055837
 98
        1
 10
33.34523383940888
 20
28.87607367715416
450
        0
451
        0
460
0.0
461
0.0
452
        1
462
1.0
453
        2
463
0.0
 63
     5
421
      255
463
1.0
 63
     7
421
 16777215
470
LINEAR
1001
ACAD
1010
0.0
1020
0.0
1030
0.0
  0
LINE
  5
D2D1
102
{ACAD_REACTORS
330
D564
102
}
330
18
100
AcDbEntity
  8
contour
100
AcDbLine
 10
24.05104088715205
 20
41.243396911231
 30
0.0
 11
67.05104088715206
 21
41.243396911231
 31
0.0
  0
LINE
  5
D2D2
102
{ACAD_REACTORS
330
D564
102
}
330
18
100
AcDbEntity
  8
contour
100
AcDbLine
 10
33.86304088715204
 20
42.743396911231
 30
0.0
 11
32.36304088715204
 21
41.243396911231
 31
0.0
  0
ARC
  5
D2D3
102
{ACAD_REACTORS
330
D564
102
}
330
18
100
AcDbEntity
  8
contour
100
AcDbCircle
 10
67.05104088715206
 20
42.243396911231
 30
0.0
 40
1.0
100
AcDbArc
 50
270.0
 51
0.0
  0
LINE
  5
D2D4
102
{ACAD_REACTORS
330
D564
102
}
330
18
100
AcDbEntity
  8
contour
100
AcDbLine
 10
29.45104088715206
 20
41.743396911231
 30
0.0
 11
29.95104088715206
 21
41.243396911231
 31
0.0
  0
LINE
  5
D2D5
102
{ACAD_REACTORS
330
D564
102
}
330
18
100
AcDbEntity
  8
contour
100
AcDbLine
 10
24.05104088715205
 20
46.99339691123102
 30
0.0
 11
31.30592937147614
 21
46.99339691123102
 31
0.0
  0
ARC
  5
D2D6
102
{ACAD_REACTORS
330
D564
102
}
330
18
100
AcDbEntity
  8
contour
100
AcDbCircle
 10
24.05104088715205
 20
45.993396911231
 30
0.0
 40
1.0
100
AcDbArc
 50
90.0
 51
180.0
  0
LINE
  5
D2D7
102
{ACAD_REACTORS
330
D564
102
}
330
18
100
AcDbEntity
  8
contour
100
AcDbLine
 10
64.55104088715208
 20
46.99339691123102
 30
0.0
 11
67.05104088715202
 21
46.993396911231
 31
0.0
  0
LINE
  5
D2D8
102
{ACAD_REACTORS
330
D564
102
}
330
18
100
AcDbEntity
  8
contour
100
AcDbLine
 10
24.05104088715205
 20
48.993396911231
 30
0.0
 11
31.30592937147614
 21
48.993396911231
 31
0.0
  0
LINE
  5
D2D9
102
{ACAD_REACTORS
330
D564
102
}
330
18
100
AcDbEntity
  8
contour
100
AcDbLine
 10
64.55104088715206
 20
48.99339691123097
 30
0.0
 11
67.05104088715206
 21
48.99339691123103
 31
0.0
  0
ARC
  5
D2DA
102
{ACAD_REACTORS
330
D564
102
}
330
18
100
AcDbEntity
  8
contour
100
AcDbCircle
 10
67.05104088715206
 20
49.99339691123103
 30
0.0
 40
1.0
100
AcDbArc
 50
270.0
 51
0.0
  0
LINE
  5
D2DB
102
{ACAD_REACTORS
330
D564
102
}
330
18
100
AcDbEntity
  8
contour
100
AcDbLine
 10
25.80104088715203
 20
49.79339691123098
 30
0.0
 11
60.55104088715205
 21
49.79339691123098
 31
0.0
  0
LINE
  5
D2DC
102
{ACAD_REACTORS
330
D564
102
}
330
18
100
AcDbEntity
  8
contour
100
AcDbLine
 10
25.80104088715203
 20
51.79339691123098
 30
0.0
 11
60.55104088715205
 21
51.79339691123098
 31
0.0
  0
LINE
  5
D2DD
102
{ACAD_REACTORS
330
D564
102
}
330
18
100
AcDbEntity
  8
contour
100
AcDbLine
 10
33.86304088715204
 20
53.29339691123099
 30
0.0
 11
32.36304088715204
 21
51.79339691123098
 31
0.0
  0
LINE
  5
D2DE
102
{ACAD_REACTORS
330
D564
102
}
330
18
100
AcDbEntity
  8
contour
100
AcDbLine
 10
68.05104088715205
 20
42.243396911231
 30
0.0
 11
68.05104088715203
 21
45.993396911231
 31
0.0
  0
ARC
  5
D2DF
102
{ACAD_REACTORS
330
D564
102
}
330
18
100
AcDbEntity
  8
contour
100
AcDbCircle
 10
67.05104088715202
 20
45.993396911231
 30
0.0
 40
1.0
100
AcDbArc
 50
0.0
 51
90.0
  0
LINE
  5
D2E0
102
{ACAD_REACTORS
330
D564
102
}
330
18
100
AcDbEntity
  8
contour
100
AcDbLine
 10
68.05104088715205
 20
49.99339691123103
 30
0.0
 11
68.05104088715208
 21
60.243396911231
 31
0.0
  0
ARC
  5
D2E1
102
{ACAD_REACTORS
330
D564
102
}
330
18
100
AcDbEntity
  8
contour
100
AcDbCircle
 10
67.05104088715208
 20
60.243396911231
 30
0.0
 40
1.0
100
AcDbArc
 50
0.0
 51
90.0
  0
LINE
  5
D2E2
102
{ACAD_REACTORS
330
D564
102
}
330
18
100
AcDbEntity
  8
contour
100
AcDbLine
 10
67.05104088715208
 20
61.243396911231
 30
0.0
 11
24.05104088715205
 21
61.243396911231
 31
0.0
  0
ARC
  5
D2E3
102
{ACAD_REACTORS
330
D564
102
}
330
18
100
AcDbEntity
  8
contour
100
AcDbCircle
 10
24.05104088715205
 20
60.243396911231
 30
0.0
 40
1.0
100
AcDbArc
 50
90.0
 51
180.0
  0
LINE
  5
D2E4
102
{ACAD_REACTORS
330
D564
102
}
330
18
100
AcDbEntity
  8
contour
100
AcDbLine
 10
27.60766521417804
 20
52.243396911231
 30
0.0
 11
24.05104088715205
 21
52.243396911231
 31
0.0
  0
LINE
  5
D2E5
102
{ACAD_REACTORS
330
D564
102
}
330
18
100
AcDbEntity
  8
contour
100
AcDbLine
 10
27.60766521417802
 20
57.24339691123097
 30
0.0
 11
24.05104088715203
 21
57.243396911231
 31
0.0
  0
LINE
  5
D2E6
102
{ACAD_REACTORS
330
D564
102
}
330
18
100
AcDbEntity
  8
contour
100
AcDbLine
 10
23.05104088715205
 20
60.243396911231
 30
0.0
 11
23.05104088715205
 21
49.993396911231
 31
0.0
  0
LINE
  5
D2E7
102
{ACAD_REACTORS
330
D564
102
}
330
18
100
AcDbEntity
  8
contour
100
AcDbLine
 10
24.05104088715205
 20
52.243396911231
 30
0.0
 11
23.05104088715205
 21
51.243396911231
 31
0.0
  0
LINE
  5
D2E8
102
{ACAD_REACTORS
330
D564
102
}
330
18
100
AcDbEntity
  8
contour
100
AcDbLine
 10
24.05104088715205
 20
57.243396911231
 30
0.0
 11
23.05104088715205
 21
58.243396911231
 31
0.0
  0
ARC
  5
D2E9
102
{ACAD_REACTORS
330
D564
102
}
330
18
100
AcDbEntity
  8
contour
100
AcDbCircle
 10
24.05104088715205
 20
49.993396911231
 30
0.0
 40
1.0
100
AcDbArc
 50
180.0
 51
270.0
  0
LINE
  5
D2EA
102
{ACAD_REACTORS
330
D564
102
}
330
18
100
AcDbEntity
  8
contour
100
AcDbLine
 10
27.60766521417802
 20
57.24339691123097
 30
0.0
 11
29.05104088715205
 21
54.743396911231
 31
0.0
  0
LINE
  5
D2EB
102
{ACAD_REACTORS
330
D564
102
}
330
18
100
AcDbEntity
  8
contour
100
AcDbLine
 10
23.05104088715205
 20
45.993396911231
 30
0.0
 11
23.05104088715205
 21
42.243396911231
 31
0.0
  0
ARC
  5
D2EC
102
{ACAD_REACTORS
330
D564
102
}
330
18
100
AcDbEntity
  8
contour
100
AcDbCircle
 10
24.05104088715205
 20
42.243396911231
 30
0.0
 40
1.0
100
AcDbArc
 50
180.0
 51
270.0
  0
LINE
  5
D2ED
102
{ACAD_REACTORS
330
D564
102
}
330
18
100
AcDbEntity
  8
contour
100
AcDbLine
 10
25.80104088715206
 20
49.79339691123101
 30
0.0
 11
25.80104088715206
 21
51.79339691123101
 31
0.0
  0
LINE
  5
D2EE
102
{ACAD_REACTORS
330
D564
102
}
330
18
100
AcDbEntity
  8
contour
100
AcDbLine
 10
65.30104088715209
 20
49.79339691123101
 30
0.0
 11
65.30104088715209
 21
51.79339691123101
 31
0.0
  0
LINE
  5
D2EF
330
18
100
AcDbEntity
  8
center
 48
0.15
100
AcDbLine
 10
45.55104088715205
 20
62.243396911231
 30
0.0
 11
45.55104088715205
 21
40.243396911231
 31
0.0
  0
LINE
  5
D2F0
102
{ACAD_REACTORS
330
D564
102
}
330
18
100
AcDbEntity
  8
contour
 62
     4
100
AcDbLine
 10
33.05104088715206
 20
60.55539691123107
 30
0.0
 11
33.05104088715206
 21
52.481396911231
 31
0.0
  0
LINE
  5
D2F1
102
{ACAD_REACTORS
330
D564
102
}
330
18
100
AcDbEntity
  8
contour
 62
     4
100
AcDbLine
 10
33.05104088715206
 20
49.10539691123097
 30
0.0
 11
33.05104088715206
 21
41.93139691123102
 31
0.0
  0
LINE
  5
D2F2
330
18
100
AcDbEntity
  8
center
 48
0.15
100
AcDbLine
 10
62.55104088715206
 20
62.243396911231
 30
0.0
 11
62.55104088715206
 21
40.243396911231
 31
0.0
  0
INSERT
  5
D2F3
102
{ACAD_REACTORS
330
D564
102
}
330
18
100
AcDbEntity
  8
contour
100
AcDbBlockReference
  2
LS
 10
-244.6946901080083
 20
-139.4726391552517
 30
0.0
  0
LINE
  5
D2F4
102
{ACAD_REACTORS
330
D564
102
}
330
18
100
AcDbEntity
  8
contour
100
AcDbLine
 10
25.15104088715208
 20
41.743396911231
 30
0.0
 11
25.15104088715208
 21
44.00209383247329
 31
0.0
  0
LINE
  5
D2F5
102
{ACAD_REACTORS
330
D564
102
}
330
18
100
AcDbEntity
  8
contour
100
AcDbLine
 10
24.65104088715208
 20
41.243396911231
 30
0.0
 11
25.15104088715208
 21
41.743396911231
 31
0.0
  0
LINE
  5
D2F6
102
{ACAD_REACTORS
330
D564
102
}
330
18
100
AcDbEntity
  8
contour
100
AcDbLine
 10
25.15104088715208
 20
44.00209383247329
 30
0.0
 11
27.30104088715208
 21
45.243396911231
 31
0.0
  0
LINE
  5
D2F7
102
{ACAD_REACTORS
330
D564
102
}
330
18
100
AcDbEntity
  8
contour
100
AcDbLine
 10
29.45104088715209
 20
44.00209383247329
 30
0.0
 11
29.45104088715209
 21
41.743396911231
 31
0.0
  0
LINE
  5
D2F8
102
{ACAD_REACTORS
330
D564
102
}
330
18
100
AcDbEntity
  8
contour
100
AcDbLine
 10
29.45104088715206
 20
44.00209383247329
 30
0.0
 11
27.30104088715208
 21
45.243396911231
 31
0.0
  0
LINE
  5
D2F9
330
18
100
AcDbEntity
  8
contour
100
AcDbLine
 10
25.15104088715208
 20
44.00209383247329
 30
0.0
 11
29.45104088715209
 21
44.00209383247329
 31
0.0
  0
LINE
  5
D2FA
330
18
100
AcDbEntity
  8
contour
100
AcDbLine
 10
25.15104088715208
 20
41.743396911231
 30
0.0
 11
29.45104088715206
 21
41.743396911231
 31
0.0
  0
LINE
  5
D2FB
102
{ACAD_REACTORS
330
D564
102
}
330
18
100
AcDbEntity
  8
contour
100
AcDbLine
 10
29.05104088715205
 20
54.743396911231
 30
0.0
 11
27.60766521417804
 21
52.243396911231
 31
0.0
  0
LINE
  5
D2FC
330
18
100
AcDbEntity
  8
center
 48
0.1
100
AcDbLine
 10
30.05104088715206
 20
54.743396911231
 30
0.0
 11
22.05104088715206
 21
54.743396911231
 31
0.0
  0
LINE
  5
D2FD
330
18
100
AcDbEntity
  8
center
 48
0.1
100
AcDbLine
 10
27.30104088715208
 20
46.243396911231
 30
0.0
 11
27.30104088715208
 21
40.243396911231
 31
0.0
  0
LINE
  5
D2FE
102
{ACAD_REACTORS
330
D564
102
}
330
18
100
AcDbEntity
  8
contour
100
AcDbLine
 10
31.30592937147611
 20
46.99339691123102
 30
0.0
 11
31.30592937147611
 21
48.99339691123103
 31
0.0
  0
LINE
  5
D2FF
102
{ACAD_REACTORS
330
D564
102
}
330
18
100
AcDbEntity
  8
contour
100
AcDbLine
 10
59.80104088715208
 20
46.99339691123102
 30
0.0
 11
59.80104088715208
 21
48.993396911231
 31
0.0
  0
LINE
  5
D300
102
{ACAD_REACTORS
330
D564
102
}
330
18
100
AcDbEntity
  8
contour
100
AcDbLine
 10
59.80104088715208
 20
48.99339691123103
 30
0.0
 11
60.55104088715205
 21
48.993396911231
 31
0.0
  0
LINE
  5
D301
102
{ACAD_REACTORS
330
D564
102
}
330
18
100
AcDbEntity
  8
contour
100
AcDbLine
 10
59.80104088715208
 20
46.99339691123102
 30
0.0
 11
60.55104088715205
 21
46.99339691123102
 31
0.0
  0
LINE
  5
D302
102
{ACAD_REACTORS
330
D564
102
}
330
18
100
AcDbEntity
  8
contour
100
AcDbLine
 10
65.30104088715209
 20
51.79339691123101
 30
0.0
 11
64.55104088715202
 21
51.79339691123098
 31
0.0
  0
LINE
  5
D303
102
{ACAD_REACTORS
330
D564
102
}
330
18
100
AcDbEntity
  8
contour
100
AcDbLine
 10
65.30104088715209
 20
49.79339691123101
 30
0.0
 11
64.55104088715202
 21
49.79339691123098
 31
0.0
  0
LINE
  5
D304
102
{ACAD_REACTORS
330
D564
102
}
330
18
100
AcDbEntity
  8
contour
100
AcDbLine
 10
59.05104088715205
 20
41.54339691123095
 30
0.0
 11
59.05104088715205
 21
41.24339691123094
 31
0.0
  0
LINE
  5
D305
102
{ACAD_REACTORS
330
D564
102
}
330
18
100
AcDbEntity
  8
contour
100
AcDbLine
 10
66.05104088715205
 20
41.54339691123107
 30
0.0
 11
66.05104088715208
 21
41.243396911231
 31
0.0
  0
LINE
  5
D306
330
18
100
AcDbEntity
  8
contour
100
AcDbLine
 10
27.60766521417804
 20
52.243396911231
 30
0.0
 11
27.60766521417802
 21
57.24339691123097
 31
0.0
  0
LINE
  5
D307
330
18
100
AcDbEntity
  8
contour
100
AcDbLine
 10
24.05104088715205
 20
57.243396911231
 30
0.0
 11
24.05104088715205
 21
52.243396911231
 31
0.0
  0
LINE
  5
D308
102
{ACAD_REACTORS
330
D564
102
}
330
18
100
AcDbEntity
  8
contour
100
AcDbLine
 10
33.8630408871521
 20
59.74339691123103
 30
0.0
 11
33.86304088715204
 21
53.29339691123099
 31
0.0
  0
LINE
  5
D309
102
{ACAD_REACTORS
330
D564
102
}
330
18
100
AcDbEntity
  8
contour
100
AcDbLine
 10
32.36304088715213
 20
61.243396911231
 30
0.0
 11
33.86304088715212
 21
59.743396911231
 31
0.0
  0
LINE
  5
D30A
102
{ACAD_REACTORS
330
D564
102
}
330
18
100
AcDbEntity
  8
contour
100
AcDbLine
 10
33.86304088715204
 20
48.29339691123099
 30
0.0
 11
33.86304088715204
 21
42.743396911231
 31
0.0
  0
LINE
  5
D30B
102
{ACAD_REACTORS
330
D564
102
}
330
18
100
AcDbEntity
  8
contour
100
AcDbLine
 10
32.36304088715204
 20
49.79339691123098
 30
0.0
 11
33.86304088715204
 21
48.29339691123099
 31
0.0
  0
LINE
  5
D30C
102
{ACAD_REACTORS
330
D564
102
}
330
18
100
AcDbEntity
  8
contour
100
AcDbLine
 10
57.23904088715207
 20
42.743396911231
 30
0.0
 11
58.73904088715207
 21
41.243396911231
 31
0.0
  0
LINE
  5
D30D
102
{ACAD_REACTORS
330
D564
102
}
330
18
100
AcDbEntity
  8
contour
100
AcDbLine
 10
57.23904088715207
 20
53.29339691123099
 30
0.0
 11
58.73904088715207
 21
51.79339691123098
 31
0.0
  0
LINE
  5
D30E
102
{ACAD_REACTORS
330
D564
102
}
330
18
100
AcDbEntity
  8
contour
 62
     4
100
AcDbLine
 10
58.05104088715205
 20
60.55539691123107
 30
0.0
 11
58.05104088715205
 21
52.481396911231
 31
0.0
  0
LINE
  5
D30F
102
{ACAD_REACTORS
330
D564
102
}
330
18
100
AcDbEntity
  8
contour
 62
     4
100
AcDbLine
 10
58.05104088715205
 20
49.10539691123097
 30
0.0
 11
58.05104088715205
 21
41.93139691123102
 31
0.0
  0
LINE
  5
D310
102
{ACAD_REACTORS
330
D564
102
}
330
18
100
AcDbEntity
  8
contour
100
AcDbLine
 10
57.23904088715201
 20
59.74339691123103
 30
0.0
 11
57.23904088715207
 21
53.29339691123099
 31
0.0
  0
LINE
  5
D311
102
{ACAD_REACTORS
330
D564
102
}
330
18
100
AcDbEntity
  8
contour
100
AcDbLine
 10
58.73904088715199
 20
61.243396911231
 30
0.0
 11
57.23904088715198
 21
59.743396911231
 31
0.0
  0
LINE
  5
D312
102
{ACAD_REACTORS
330
D564
102
}
330
18
100
AcDbEntity
  8
contour
100
AcDbLine
 10
57.23904088715207
 20
48.29339691123099
 30
0.0
 11
57.23904088715207
 21
42.743396911231
 31
0.0
  0
LINE
  5
D313
102
{ACAD_REACTORS
330
D564
102
}
330
18
100
AcDbEntity
  8
contour
100
AcDbLine
 10
58.73904088715207
 20
49.79339691123098
 30
0.0
 11
57.23904088715207
 21
48.29339691123099
 31
0.0
  0
LINE
  5
D314
330
18
100
AcDbEntity
  8
contour
100
AcDbLine
 10
33.8630408871521
 20
59.74339691123103
 30
0.0
 11
57.23904088715198
 21
59.743396911231
 31
0.0
  0
LINE
  5
D315
330
18
100
AcDbEntity
  8
contour
100
AcDbLine
 10
33.86304088715207
 20
53.29339691123104
 30
0.0
 11
57.23904088715207
 21
53.29339691123109
 31
0.0
  0
LINE
  5
D316
330
18
100
AcDbEntity
  8
contour
100
AcDbLine
 10
33.86304088715204
 20
48.29339691123099
 30
0.0
 11
57.23904088715205
 21
48.29339691123113
 31
0.0
  0
LINE
  5
D317
330
18
100
AcDbEntity
  8
contour
100
AcDbLine
 10
57.23904088715207
 20
42.743396911231
 30
0.0
 11
33.86304088715201
 21
42.74339691123112
 31
0.0
  0
LINE
  5
D318
102
{ACAD_REACTORS
330
D564
102
}
330
18
100
AcDbEntity
  8
contour
 62
     4
100
AcDbLine
 10
60.55104088715205
 20
56.44339691123099
 30
0.0
 11
60.55104088715205
 21
61.243396911231
 31
0.0
  0
LINE
  5
D319
102
{ACAD_REACTORS
330
D564
102
}
330
18
100
AcDbEntity
  8
contour
100
AcDbLine
 10
60.93004088715208
 20
56.8223969112309
 30
0.0
 11
60.93004088715208
 21
61.243396911231
 31
0.0
  0
LINE
  5
D31A
102
{ACAD_REACTORS
330
D564
102
}
330
18
100
AcDbEntity
  8
contour
100
AcDbLine
 10
64.17204088715209
 20
56.82239691123084
 30
0.0
 11
64.17204088715209
 21
61.243396911231
 31
0.0
  0
LINE
  5
D31B
102
{ACAD_REACTORS
330
D564
102
}
330
18
100
AcDbEntity
  8
contour
 62
     4
100
AcDbLine
 10
64.55104088715206
 20
56.44339691123099
 30
0.0
 11
64.55104088715206
 21
61.243396911231
 31
0.0
  0
LINE
  5
D31C
330
18
100
AcDbEntity
  8
center
 48
0.15
100
AcDbLine
 10
45.55104088715205
 20
77.02248189057598
 30
0.0
 11
45.55104088715205
 21
124.022481890576
 31
0.0
  0
LINE
  5
D31D
330
18
100
AcDbEntity
  8
center
 48
0.15
100
AcDbLine
 10
69.05104088715205
 20
100.522481890576
 30
0.0
 11
22.05104088715206
 21
100.522481890576
 31
0.0
  0
CIRCLE
  5
D31E
330
18
100
AcDbEntity
  8
contour
100
AcDbCircle
 10
45.55104088715205
 20
100.522481890576
 30
0.0
 40
11.68799999999996
  0
ARC
  5
D31F
330
18
100
AcDbEntity
  8
contour
 62
     4
100
AcDbCircle
 10
45.55104088715205
 20
100.522481890576
 30
0.0
 40
12.50000000000003
100
AcDbArc
 50
168.4630409671844
 51
101.5369590328148
  0
CIRCLE
  5
D320
330
18
100
AcDbEntity
  8
contour
100
AcDbCircle
 10
45.55104088715205
 20
100.522481890576
 30
0.0
 40
13.18799999999996
  0
CIRCLE
  5
D321
330
18
100
AcDbEntity
  8
contour
100
AcDbCircle
 10
45.55104088715205
 20
100.522481890576
 30
0.0
 40
22.5
  0
CIRCLE
  5
D322
330
18
100
AcDbEntity
  8
contour
100
AcDbCircle
 10
62.55104088715203
 20
100.522481890576
 30
0.0
 40
1.621000000000009
  0
ARC
  5
D323
330
18
100
AcDbEntity
  8
contour
 62
     4
100
AcDbCircle
 10
62.55104088715203
 20
100.522481890576
 30
0.0
 40
2.0
100
AcDbArc
 50
168.4630409671844
 51
101.5369590328148
  0
CIRCLE
  5
D324
330
18
100
AcDbEntity
  8
bowle
 48
0.2
100
AcDbCircle
 10
62.55104088715203
 20
100.522481890576
 30
0.0
 40
3.499999999999971
  0
CIRCLE
  5
D325
330
18
100
AcDbEntity
  8
bowle
 48
0.2
100
AcDbCircle
 10
32.64634213049757
 20
87.61778313392147
 30
0.0
 40
2.149999999999948
  0
CIRCLE
  5
D326
330
18
100
AcDbEntity
  8
bowle
 48
0.2
100
AcDbCircle
 10
32.64634213049757
 20
87.61778313392147
 30
0.0
 40
2.649999999999977
  0
LINE
  5
D327
330
18
100
AcDbEntity
  8
bowle
 48
0.2
100
AcDbLine
 10
34.63092522438078
 20
86.06683232187197
 30
0.0
 11
32.11601204460766
 21
83.55191914209887
 31
0.0
  0
LINE
  5
D328
330
18
100
AcDbEntity
  8
bowle
 48
0.2
100
AcDbLine
 10
31.09539131844804
 20
89.60236622780469
 30
0.0
 11
28.58047813867489
 21
87.08745304803159
 31
0.0
  0
LINE
  5
D329
330
18
100
AcDbEntity
  8
bowle
 48
0.2
100
AcDbLine
 10
32.11601204460766
 20
83.55191914209887
 30
0.0
 11
32.11601204460766
 21
82.47393624279595
 31
0.0
  0
LINE
  5
D32A
330
18
100
AcDbEntity
  8
bowle
 48
0.2
100
AcDbLine
 10
28.58047813867492
 20
87.08745304803159
 30
0.0
 11
27.50249523937203
 21
87.08745304803159
 31
0.0
  0
LINE
  5
D32B
330
18
100
AcDbEntity
  8
bowle
 48
0.2
100
AcDbLine
 10
31.09539131844804
 20
89.60236622780469
 30
0.0
 11
33.88377899757404
 21
88.85522000099797
 31
0.0
  0
LINE
  5
D32C
330
18
100
AcDbEntity
  8
bowle
 48
0.2
100
AcDbLine
 10
33.88377899757404
 20
88.85522000099797
 30
0.0
 11
34.63092522438078
 21
86.06683232187197
 31
0.0
  0
LINE
  5
D32D
330
18
100
AcDbEntity
  8
center
 48
0.15
100
AcDbLine
 10
37.99348360983024
 20
92.96492461325419
 30
0.0
 11
28.93403152926817
 21
83.90547253269213
 31
0.0
  0
LINE
  5
D32E
330
18
100
AcDbEntity
  8
bowle
 48
0.2
100
AcDbLine
 10
34.63092522438078
 20
86.06683232187197
 30
0.0
 11
31.09539131844804
 21
89.60236622780469
 31
0.0
  0
LINE
  5
D32F
330
18
100
AcDbEntity
  8
bowle
 48
0.2
100
AcDbLine
 10
28.58047813867492
 20
87.08745304803159
 30
0.0
 11
32.11601204460766
 21
83.55191914209887
 31
0.0
  0
CIRCLE
  5
D330
330
18
100
AcDbEntity
  8
bowle
 48
0.2
100
AcDbCircle
 10
58.45573964380657
 20
87.61778313392154
 30
0.0
 40
2.149999999999948
  0
CIRCLE
  5
D331
330
18
100
AcDbEntity
  8
bowle
 48
0.2
100
AcDbCircle
 10
58.45573964380657
 20
87.61778313392154
 30
0.0
 40
2.649999999999977
  0
LINE
  5
D332
330
18
100
AcDbEntity
  8
bowle
 48
0.2
100
AcDbLine
 10
60.00669045585607
 20
89.60236622780474
 30
0.0
 11
62.52160363562916
 21
87.08745304803162
 31
0.0
  0
LINE
  5
D333
330
18
100
AcDbEntity
  8
bowle
 48
0.2
100
AcDbLine
 10
56.47115654992337
 20
86.06683232187199
 30
0.0
 11
58.98606972969645
 21
83.55191914209886
 31
0.0
  0
LINE
  5
D334
330
18
100
AcDbEntity
  8
bowle
 48
0.2
100
AcDbLine
 10
62.52160363562916
 20
87.08745304803162
 30
0.0
 11
63.59958653493208
 21
87.08745304803162
 31
0.0
  0
LINE
  5
D335
330
18
100
AcDbEntity
  8
bowle
 48
0.2
100
AcDbLine
 10
58.98606972969645
 20
83.55191914209887
 30
0.0
 11
58.98606972969645
 21
82.47393624279599
 31
0.0
  0
LINE
  5
D336
330
18
100
AcDbEntity
  8
bowle
 48
0.2
100
AcDbLine
 10
56.47115654992337
 20
86.06683232187199
 30
0.0
 11
57.21830277673007
 21
88.855220000998
 31
0.0
  0
LINE
  5
D337
330
18
100
AcDbEntity
  8
bowle
 48
0.2
100
AcDbLine
 10
57.21830277673007
 20
88.855220000998
 30
0.0
 11
60.00669045585607
 21
89.60236622780474
 31
0.0
  0
LINE
  5
D338
330
18
100
AcDbEntity
  8
center
 48
0.15
100
AcDbLine
 10
53.10859816447382
 20
92.96492461325419
 30
0.0
 11
62.16805024503589
 21
83.90547253269213
 31
0.0
  0
LINE
  5
D339
330
18
100
AcDbEntity
  8
bowle
 48
0.2
100
AcDbLine
 10
60.00669045585607
 20
89.60236622780474
 30
0.0
 11
56.47115654992337
 21
86.06683232187199
 31
0.0
  0
LINE
  5
D33A
330
18
100
AcDbEntity
  8
bowle
 48
0.2
100
AcDbLine
 10
58.98606972969645
 20
83.55191914209887
 30
0.0
 11
62.52160363562916
 21
87.08745304803162
 31
0.0
  0
CIRCLE
  5
D33B
330
18
100
AcDbEntity
  8
bowle
 48
0.2
100
AcDbCircle
 10
58.45573964380648
 20
113.4271806472305
 30
0.0
 40
2.149999999999948
  0
CIRCLE
  5
D33C
330
18
100
AcDbEntity
  8
bowle
 48
0.2
100
AcDbCircle
 10
58.45573964380648
 20
113.4271806472305
 30
0.0
 40
2.649999999999977
  0
LINE
  5
D33D
330
18
100
AcDbEntity
  8
bowle
 48
0.2
100
AcDbLine
 10
56.47115654992328
 20
114.97813145928
 30
0.0
 11
58.98606972969639
 21
117.4930446390531
 31
0.0
  0
LINE
  5
D33E
330
18
100
AcDbEntity
  8
bowle
 48
0.2
100
AcDbLine
 10
60.00669045585602
 20
111.4425975533473
 30
0.0
 11
62.52160363562916
 21
113.9575107331204
 31
0.0
  0
LINE
  5
D33F
330
18
100
AcDbEntity
  8
bowle
 48
0.2
100
AcDbLine
 10
58.98606972969639
 20
117.4930446390531
 30
0.0
 11
58.98606972969639
 21
118.571027538356
 31
0.0
  0
LINE
  5
D340
330
18
100
AcDbEntity
  8
bowle
 48
0.2
100
AcDbLine
 10
62.52160363562913
 20
113.9575107331204
 30
0.0
 11
63.59958653493203
 21
113.9575107331204
 31
0.0
  0
LINE
  5
D341
330
18
100
AcDbEntity
  8
bowle
 48
0.2
100
AcDbLine
 10
60.00669045585602
 20
111.4425975533473
 30
0.0
 11
57.21830277673001
 21
112.189743780154
 31
0.0
  0
LINE
  5
D342
330
18
100
AcDbEntity
  8
bowle
 48
0.2
100
AcDbLine
 10
57.21830277673001
 20
112.189743780154
 30
0.0
 11
56.47115654992328
 21
114.97813145928
 31
0.0
  0
LINE
  5
D343
330
18
100
AcDbEntity
  8
center
 48
0.15
100
AcDbLine
 10
53.10859816447382
 20
108.0800391678978
 30
0.0
 11
62.16805024503589
 21
117.1394912484598
 31
0.0
  0
LINE
  5
D344
330
18
100
AcDbEntity
  8
bowle
 48
0.2
100
AcDbLine
 10
56.47115654992328
 20
114.97813145928
 30
0.0
 11
60.00669045585602
 21
111.4425975533473
 31
0.0
  0
LINE
  5
D345
330
18
100
AcDbEntity
  8
bowle
 48
0.2
100
AcDbLine
 10
62.52160363562913
 20
113.9575107331204
 30
0.0
 11
58.98606972969639
 21
117.4930446390531
 31
0.0
  0
CIRCLE
  5
D346
330
18
100
AcDbEntity
  8
bowle
 48
0.2
100
AcDbCircle
 10
32.64634213049755
 20
113.4271806472304
 30
0.0
 40
2.149999999999948
  0
CIRCLE
  5
D347
330
18
100
AcDbEntity
  8
bowle
 48
0.2
100
AcDbCircle
 10
32.64634213049755
 20
113.4271806472304
 30
0.0
 40
2.649999999999977
  0
LINE
  5
D348
330
18
100
AcDbEntity
  8
bowle
 48
0.2
100
AcDbLine
 10
31.09539131844804
 20
111.4425975533472
 30
0.0
 11
28.58047813867495
 21
113.9575107331203
 31
0.0
  0
LINE
  5
D349
330
18
100
AcDbEntity
  8
bowle
 48
0.2
100
AcDbLine
 10
34.63092522438075
 20
114.9781314592799
 30
0.0
 11
32.11601204460766
 21
117.4930446390531
 31
0.0
  0
LINE
  5
D34A
330
18
100
AcDbEntity
  8
bowle
 48
0.2
100
AcDbLine
 10
28.58047813867495
 20
113.9575107331203
 30
0.0
 11
27.50249523937203
 21
113.9575107331203
 31
0.0
  0
LINE
  5
D34B
330
18
100
AcDbEntity
  8
bowle
 48
0.2
100
AcDbLine
 10
32.11601204460766
 20
117.4930446390531
 30
0.0
 11
32.11601204460766
 21
118.5710275383559
 31
0.0
  0
LINE
  5
D34C
330
18
100
AcDbEntity
  8
bowle
 48
0.2
100
AcDbLine
 10
34.63092522438075
 20
114.9781314592799
 30
0.0
 11
33.88377899757404
 21
112.1897437801539
 31
0.0
  0
LINE
  5
D34D
330
18
100
AcDbEntity
  8
bowle
 48
0.2
100
AcDbLine
 10
33.88377899757404
 20
112.1897437801539
 30
0.0
 11
31.09539131844804
 21
111.4425975533472
 31
0.0
  0
LINE
  5
D34E
330
18
100
AcDbEntity
  8
center
 48
0.15
100
AcDbLine
 10
37.99348360983027
 20
108.0800391678977
 30
0.0
 11
28.9340315292682
 21
117.1394912484598
 31
0.0
  0
LINE
  5
D34F
330
18
100
AcDbEntity
  8
bowle
 48
0.2
100
AcDbLine
 10
31.09539131844804
 20
111.4425975533472
 30
0.0
 11
34.63092522438075
 21
114.9781314592799
 31
0.0
  0
LINE
  5
D350
330
18
100
AcDbEntity
  8
bowle
 48
0.2
100
AcDbLine
 10
32.11601204460766
 20
117.4930446390531
 30
0.0
 11
28.58047813867495
 21
113.9575107331203
 31
0.0
  0
CIRCLE
  5
D351
330
18
100
AcDbEntity
  8
contour
100
AcDbCircle
 10
45.55104088715203
 20
117.522481890576
 30
0.0
 40
1.621000000000009
  0
CIRCLE
  5
D352
330
18
100
AcDbEntity
  8
bowle
 48
0.2
100
AcDbCircle
 10
45.55104088715203
 20
117.522481890576
 30
0.0
 40
3.499999999999971
  0
CIRCLE
  5
D353
330
18
100
AcDbEntity
  8
contour
100
AcDbCircle
 10
28.55104088715203
 20
100.522481890576
 30
0.0
 40
1.621000000000009
  0
CIRCLE
  5
D354
330
18
100
AcDbEntity
  8
bowle
 48
0.2
100
AcDbCircle
 10
28.55104088715203
 20
100.522481890576
 30
0.0
 40
3.499999999999971
  0
CIRCLE
  5
D355
330
18
100
AcDbEntity
  8
contour
100
AcDbCircle
 10
45.55104088715203
 20
83.52248189057595
 30
0.0
 40
1.621000000000009
  0
CIRCLE
  5
D356
330
18
100
AcDbEntity
  8
bowle
 48
0.2
100
AcDbCircle
 10
45.55104088715203
 20
83.52248189057595
 30
0.0
 40
3.499999999999971
  0
ARC
  5
D357
330
18
100
AcDbEntity
  8
contour
 62
     4
100
AcDbCircle
 10
45.55104088715203
 20
83.52248189057595
 30
0.0
 40
2.0
100
AcDbArc
 50
168.4630409671844
 51
101.5369590328148
  0
ARC
  5
D358
330
18
100
AcDbEntity
  8
contour
 62
     4
100
AcDbCircle
 10
28.55104088715203
 20
100.522481890576
 30
0.0
 40
2.0
100
AcDbArc
 50
168.4630409671844
 51
101.5369590328148
  0
ARC
  5
D359
330
18
100
AcDbEntity
  8
contour
 62
     4
100
AcDbCircle
 10
45.55104088715203
 20
117.522481890576
 30
0.0
 40
2.0
100
AcDbArc
 50
168.4630409671844
 51
101.5369590328148
  0
CIRCLE
  5
D35A
330
18
100
AcDbEntity
  8
center
 48
0.15
100
AcDbCircle
 10
45.55104088715205
 20
100.522481890576
 30
0.0
 40
16.99999999999997
  0
ARC
  5
D35B
330
18
100
AcDbEntity
  8
center
 48
0.15
100
AcDbCircle
 10
45.55104088715205
 20
100.522481890576
 30
0.0
 40
18.25000000000001
100
AcDbArc
 50
210.361568598708
 51
239.6384314012913
  0
ARC
  5
D35C
330
18
100
AcDbEntity
  8
center
 48
0.15
100
AcDbCircle
 10
45.55104088715205
 20
100.522481890576
 30
0.0
 40
18.25000000000001
100
AcDbArc
 50
300.3615685987087
 51
329.638431401292
  0
ARC
  5
D35D
330
18
100
AcDbEntity
  8
center
 48
0.15
100
AcDbCircle
 10
45.55104088715203
 20
100.5224818905759
 30
0.0
 40
18.25000000000001
100
AcDbArc
 50
120.3615685987087
 51
149.638431401292
  0
ARC
  5
D35E
330
18
100
AcDbEntity
  8
center
 48
0.15
100
AcDbCircle
 10
45.55104088715205
 20
100.5224818905759
 30
0.0
 40
18.25000000000001
100
AcDbArc
 50
30.36156859870871
 51
59.63843140129131
  0
DIMENSION
  5
D37F
330
18
100
AcDbEntity
  8
mark
100
AcDbDimension
  2
*D7
 10
68.05104088715205
 20
64.88843350230732
 30
0.0
 11
45.55104088715205
 21
65.93843350230732
 31
0.0
 70
    32
  1
%%c<>
 71
     5
 42
45.0
  3
STANDARD
100
AcDbAlignedDimension
 13
23.05104088715205
 23
60.243396911231
 33
0.0
 14
68.05104088715205
 24
60.24339691123088
 34
0.0
100
AcDbRotatedDimension
  0
MTEXT
  5
D3A7
330
18
100
AcDbEntity
  8
mark
 62
     3
100
AcDbMText
 10
48.35458085282716
 20
65.94751377715375
 30
0.0
 40
0.8
 41
0.0
 71
     5
 72
     1
  1
\A1;{\H0.7x;\S+0^ -0.2;}
 73
     1
 44
1.0
1001
ACAD
1000
ACAD_MTEXT_DEFINED_HEIGHT_BEGIN
1070
    46
1040
0.0
1000
ACAD_MTEXT_DEFINED_HEIGHT_END
  0
DIMENSION
  5
D3A8
330
18
100
AcDbEntity
  8
mark
100
AcDbDimension
  2
*D8
 10
73.08039091456146
 20
48.99339691123103
 30
0.0
 11
72.03039091456145
 21
55.11839691123102
 31
0.0
 70
    32
 71
     5
 42
12.24999999999997
  3
STANDARD
100
AcDbAlignedDimension
 13
67.05104088715208
 23
61.243396911231
 33
0.0
 14
67.05104088715206
 24
48.99339691123103
 34
0.0
 50
90.0
100
AcDbRotatedDimension
  0
DIMENSION
  5
D3B5
330
18
100
AcDbEntity
  8
mark
100
AcDbDimension
  2
*D9
 10
73.08039091456146
 20
46.993396911231
 30
0.0
 11
72.03039091456145
 21
47.99339691123102
 31
0.0
 70
    32
 71
     5
 42
2.000000000000028
  3
STANDARD
100
AcDbAlignedDimension
 13
67.05104088715206
 23
48.99339691123103
 33
0.0
 14
67.05104088715202
 24
46.993396911231
 34
0.0
 50
90.0
100
AcDbRotatedDimension
  0
DIMENSION
  5
D3C4
330
18
100
AcDbEntity
  8
mark
100
AcDbDimension
  2
*D10
 10
78.56350126721451
 20
41.243396911231
 30
0.0
 11
77.51350126721451
 21
51.243396911231
 31
0.0
 70
    32
  1
<>%%p0.2
 71
     5
 42
20.0
  3
STANDARD
100
AcDbAlignedDimension
 13
67.05104088715208
 23
61.243396911231
 33
0.0
 14
67.05104088715206
 24
41.243396911231
 34
0.0
 50
90.0
100
AcDbRotatedDimension
  0
DIMENSION
  5
D3D4
330
18
100
AcDbEntity
  8
mark
100
AcDbDimension
  2
*D11
 10
17.84265584384207
 20
54.743396911231
 30
0.0
 11
16.79265584384206
 21
57.99339691123101
 31
0.0
 70
    32
 71
     5
 42
6.5
  3
STANDARD
100
AcDbAlignedDimension
 13
24.05104088715205
 23
61.243396911231
 33
0.0
 14
22.05104088715206
 24
54.743396911231
 34
0.0
 50
90.0
100
AcDbRotatedDimension
  0
DIMENSION
  5
D3E2
330
18
100
AcDbEntity
  8
mark
100
AcDbDimension
  2
*D12
 10
33.05104088715206
 20
34.51665259789907
 30
0.0
 11
45.55104088715205
 21
35.56665259789907
 31
0.0
 70
    32
  1
M25x1.5P
 71
     5
 42
25.0
  3
STANDARD
100
AcDbAlignedDimension
 13
58.05104088715205
 23
41.93139691123102
 33
0.0
 14
33.05104088715206
 24
41.93139691123102
 34
0.0
100
AcDbRotatedDimension
  0
MTEXT
  5
D3EF
330
18
100
AcDbEntity
  8
mark
 62
     3
100
AcDbMText
 10
54.29963424089814
 20
39.95057168568195
 30
0.0
 40
1.25
 41
0.0
 71
     5
 72
     1
  1
C1
 11
0.7071067811865476
 21
0.7071067811865475
 31
0.0
 73
     1
 44
1.0
1001
ACAD
1000
ACAD_MTEXT_DEFINED_HEIGHT_BEGIN
1070
    46
1040
0.0
1000
ACAD_MTEXT_DEFINED_HEIGHT_END
  0
LEADER
  5
D3F0
330
18
100
AcDbEntity
  8
mark
100
AcDbLeader
  3
STANDARD
 76
     2
 10
57.98904088715207
 20
41.993396911231
 30
0.0
 10
54.46155645283599
 20
38.46591247691495
 30
0.0
211
0.7071067811865476
221
0.7071067811865475
231
0.0
1001
ACAD
1000
DSTYLE
1002
{
1070
   147
1040
0.85
1070
    77
1070
     0
1002
}
  0
LEADER
  5
D406
330
18
100
AcDbEntity
  8
mark
100
AcDbLeader
  3
STANDARD
 76
     3
 10
27.30104088715208
 20
41.243396911231
 30
0.0
 10
20.57429657382019
 20
34.51665259789905
 30
0.0
 10
9.710042101292714
 20
34.51665259789905
 30
0.0
1001
ACAD
1000
DSTYLE
1002
{
1070
   147
1040
0.85
1070
    77
1070
     0
1002
}
  0
MTEXT
  5
D407
330
18
100
AcDbEntity
  8
dim
100
AcDbMText
 10
9.753409967009105
 20
36.20121054635473
 30
0.0
 40
1.25
 41
27.04168612145532
 71
     1
 72
     5
  1
4-%%C4.3{\Ftxt,bigfont|c128;深さ}4
 73
     1
 44
1.0
1001
ACAD
1000
ACAD_MTEXT_DEFINED_HEIGHT_BEGIN
1070
    46
1040
0.0
1000
ACAD_MTEXT_DEFINED_HEIGHT_END
  0
LEADER
  5
D412
330
18
100
AcDbEntity
  8
mark
100
AcDbLeader
  3
STANDARD
 76
     3
 10
23.05104088715205
 20
54.743396911231
 30
0.0
 10
16.32429657382016
 20
48.01665259789905
 30
0.0
 10
7.064042573084407
 20
48.01665259789905
 30
0.0
1001
ACAD
1000
DSTYLE
1002
{
1070
   147
1040
0.85
1070
    77
1070
     0
1002
}
  0
MTEXT
  5
D413
330
18
100
AcDbEntity
  8
dim
100
AcDbMText
 10
7.171239172817251
 20
49.70121054635473
 30
0.0
 40
1.25
 41
27.04168612145532
 71
     1
 72
     5
  1
4-%%C5{\Ftxt,bigfont|c128;深さ}6
 73
     1
 44
1.0
1001
ACAD
1000
ACAD_MTEXT_DEFINED_HEIGHT_BEGIN
1070
    46
1040
0.0
1000
ACAD_MTEXT_DEFINED_HEIGHT_END
  0
DIMENSION
  5
D420
330
18
100
AcDbEntity
  8
mark
100
AcDbDimension
  2
*D13
 10
30.16761621557172
 20
90.70348268628778
 30
0.0
 11
69.84384931278521
 21
116.0282013056997
 31
0.0
 70
   163
  1
P.C.D 36.5
 71
     5
 42
36.5
  3
STANDARD
100
AcDbDiametricDimension
 15
60.93446555873246
 25
110.3414810948642
 35
0.0
 40
0.0
1001
ACAD
1000
DSTYLE
1002
{
1070
   288
1070
     1
1002
}
  0
DIMENSION
  5
D42C
330
18
100
AcDbEntity
  8
mark
100
AcDbDimension
  2
*D14
 10
29.04795159537318
 20
96.44228044609173
 30
0.0
 11
72.31439886586399
 21
107.1394182685661
 31
0.0
 70
   163
  1
P.C.D 34
 71
     5
 42
33.99999999999997
  3
STANDARD
100
AcDbDiametricDimension
 15
62.05413017893099
 25
104.6026833350603
 35
0.0
 40
0.0
1001
ACAD
1000
DSTYLE
1002
{
1070
   288
1070
     1
1002
}
  0
MTEXT
  5
D4DB
330
18
100
AcDbEntity
  8
dim
100
AcDbMText
 10
73.54794944949276
 20
37.91822917004845
 30
0.0
 40
2.5
 41
8.004071848997341
 71
     1
 72
     5
  1
2
 73
     1
 44
1.0
  0
LEADER
  5
D4DD
330
18
100
AcDbEntity
  8
mark
100
AcDbLeader
  3
STANDARD
 76
     2
 10
62.55104088715206
 20
41.243396911231
 30
0.0
 10
73.08039091456146
 20
36.8819973269045
 30
0.0
1001
ACAD
1000
DSTYLE
1002
{
1070
   147
1040
0.85
1070
    77
1070
     0
1002
}
  0
LEADER
  5
D4DF
330
18
100
AcDbEntity
  8
mark
100
AcDbLeader
  3
STANDARD
 76
     2
 10
66.33833036865604
 20
91.91210466236157
 30
0.0
 10
73.08039091456146
 20
89.11945174590698
 30
0.0
1001
ACAD
1000
DSTYLE
1002
{
1070
   147
1040
0.85
1070
    77
1070
     0
1002
}
  0
MTEXT
  5
D4E1
330
18
100
AcDbEntity
  8
dim
100
AcDbMText
 10
73.54794944949276
 20
90.15568358905094
 30
0.0
 40
2.5
 41
8.004071848997341
 71
     1
 72
     5
  1
1
 73
     1
 44
1.0
1001
ACAD
1000
ACAD_MTEXT_DEFINED_HEIGHT_BEGIN
1070
    46
1040
0.0
1000
ACAD_MTEXT_DEFINED_HEIGHT_END
  0
HATCH
  5
D564
330
18
100
AcDbEntity
  8
section
100
AcDbHatch
 10
0.0
 20
0.0
 30
0.0
210
0.0
220
0.0
230
1.0
  2
ANSI31
 70
     0
 71
     1
 91
       11
 92
        7
 72
     1
 73
     1
 93
       34
 10
25.80104088715206
 20
51.79339691123099
 42
0.0
 10
32.36304088715205
 20
51.79339691123098
 42
0.0
 10
33.05104088715206
 20
52.481396911231
 42
0.0
 10
33.05104088715205
 20
60.55539691123107
 42
0.0
 10
32.36304088715213
 20
61.243396911231
 42
0.0
 10
24.05104088715205
 20
61.243396911231
 42
0.4142135623730951
 10
23.05104088715205
 20
60.243396911231
 42
0.0
 10
23.05104088715206
 20
58.243396911231
 42
0.0
 10
24.05104088715205
 20
57.24339691123101
 42
0.0
 10
27.60766521417802
 20
57.24339691123097
 42
0.0
 10
29.05104088715205
 20
54.74339691123101
 42
0.0
 10
27.60766521417805
 20
52.24339691123101
 42
0.0
 10
24.05104088715206
 20
52.24339691123101
 42
0.0
 10
23.05104088715206
 20
51.243396911231
 42
0.0
 10
23.05104088715205
 20
49.993396911231
 42
0.4142135623730951
 10
24.05104088715205
 20
48.993396911231
 42
0.0
 10
31.30592937147611
 20
48.99339691123099
 42
0.0
 10
31.30592937147611
 20
46.99339691123102
 42
0.0
 10
24.05104088715205
 20
46.99339691123102
 42
0.4142135623730951
 10
23.05104088715205
 20
45.99339691123103
 42
0.0
 10
23.05104088715205
 20
42.243396911231
 42
0.4142135623730951
 10
24.05104088715205
 20
41.243396911231
 42
0.0
 10
24.65104088715208
 20
41.243396911231
 42
0.0
 10
25.15104088715208
 20
41.743396911231
 42
0.0
 10
25.15104088715208
 20
44.0020938324733
 42
0.0
 10
27.30104088715208
 20
45.24339691123101
 42
0.0
 10
29.45104088715209
 20
44.00209383247327
 42
0.0
 10
29.45104088715209
 20
41.74339691123097
 42
0.0
 10
29.95104088715207
 20
41.243396911231
 42
0.0
 10
32.36304088715205
 20
41.243396911231
 42
0.0
 10
33.05104088715206
 20
41.93139691123102
 42
0.0
 10
33.05104088715205
 20
49.10539691123096
 42
0.0
 10
32.36304088715203
 20
49.79339691123098
 42
0.0
 10
25.80104088715206
 20
49.79339691123098
 42
0.0
 97
       32
330
D2DC
330
D2DD
330
D2F0
330
D309
330
D2E2
330
D2E3
330
D2E6
330
D2E8
330
D2E5
330
D2EA
330
D2FB
330
D2E4
330
D2E7
330
D2E9
330
D2D8
330
D2FE
330
D2D5
330
D2D6
330
D2EB
330
D2EC
330
D2D1
330
D2F5
330
D2F4
330
D2F6
330
D2F8
330
D2F7
330
D2D4
330
D2D2
330
D2F1
330
D30B
330
D2DB
330
D2ED
 92
        7
 72
     0
 73
     1
 93
        4
 10
33.86304088715204
 20
48.29339691123098
 10
33.05104088715205
 20
49.10539691123096
 10
33.05104088715205
 20
41.93139691123102
 10
33.86304088715205
 20
42.74339691123101
 97
        4
330
D30B
330
D2F1
330
D2D2
330
D30A
 92
        7
 72
     0
 73
     1
 93
        4
 10
33.8630408871521
 20
59.74339691123102
 10
33.05104088715206
 20
60.55539691123106
 10
33.05104088715206
 20
52.481396911231
 10
33.86304088715205
 20
53.29339691123099
 97
        4
330
D309
330
D2F0
330
D2DD
330
D308
 92
        7
 72
     0
 73
     1
 93
        4
 10
58.05104088715205
 20
60.55539691123107
 10
57.23904088715201
 20
59.74339691123102
 10
57.23904088715207
 20
53.29339691123098
 10
58.05104088715205
 20
52.481396911231
 97
        4
330
D311
330
D310
330
D30D
330
D30E
 92
        7
 72
     0
 73
     1
 93
        7
 10
60.55104088715205
 20
56.44339691123099
 10
60.55104088715205
 20
61.243396911231
 10
58.73904088715198
 20
61.243396911231
 10
58.05104088715205
 20
60.55539691123107
 10
58.05104088715205
 20
52.481396911231
 10
58.73904088715204
 20
51.79339691123098
 10
60.55104088715205
 20
51.79339691123097
 97
        7
330
D318
330
D2E2
330
D311
330
D30E
330
D30D
330
D2DC
330
D2F3
 92
        7
 72
     1
 73
     1
 93
       11
 10
68.05104088715208
 20
60.243396911231
 42
0.4142135623730951
 10
67.05104088715208
 20
61.243396911231
 42
0.0
 10
64.55104088715206
 20
61.243396911231
 42
0.0
 10
64.55104088715206
 20
56.44339691123099
 42
0.0
 10
64.55104088715207
 20
51.79339691123098
 42
0.0
 10
65.30104088715209
 20
51.79339691123102
 42
0.0
 10
65.30104088715207
 20
49.79339691123101
 42
0.0
 10
64.55104088715206
 20
49.79339691123098
 42
0.0
 10
64.55104088715206
 20
48.99339691123097
 42
0.0
 10
67.05104088715206
 20
48.99339691123103
 42
0.4142135623730951
 10
68.05104088715205
 20
49.99339691123103
 42
0.0
 97
       10
330
D2E1
330
D2E2
330
D31B
330
D2F3
330
D302
330
D2EE
330
D303
330
D2D9
330
D2DA
330
D2E0
 92
        7
 72
     1
 73
     1
 93
        9
 10
68.05104088715203
 20
45.993396911231
 42
0.4142135623730951
 10
67.05104088715202
 20
46.993396911231
 42
0.0
 10
64.55104088715206
 20
46.99339691123102
 42
0.0
 10
64.55104088715206
 20
45.243396911231
 42
0.0
 10
66.05104088715205
 20
45.243396911231
 42
0.0
 10
66.05104088715205
 20
41.54339691123107
 42
0.0
 10
66.05104088715208
 20
41.243396911231
 42
0.0
 10
67.05104088715206
 20
41.243396911231
 42
0.4142135623730972
 10
68.05104088715205
 20
42.24339691123101
 42
0.0
 97
        7
330
D2DF
330
D2D7
330
D2F3
330
D305
330
D2D1
330
D2D3
330
D2DE
 92
        7
 72
     0
 73
     1
 93
       13
 10
60.55104088715207
 20
46.99339691123102
 10
59.80104088715207
 20
46.99339691123102
 10
59.80104088715208
 20
48.99339691123103
 10
60.55104088715205
 20
48.993396911231
 10
60.55104088715206
 20
49.79339691123098
 10
58.73904088715207
 20
49.79339691123097
 10
58.05104088715205
 20
49.10539691123097
 10
58.05104088715205
 20
41.931396911231
 10
58.73904088715208
 20
41.243396911231
 10
59.05104088715206
 20
41.243396911231
 10
59.05104088715205
 20
41.54339691123095
 10
59.05104088715205
 20
45.243396911231
 10
60.55104088715206
 20
45.243396911231
 97
       10
330
D301
330
D2FF
330
D300
330
D2F3
330
D2DB
330
D313
330
D30F
330
D30C
330
D2D1
330
D304
 92
        7
 72
     0
 73
     1
 93
        4
 10
58.05104088715207
 20
49.10539691123098
 10
57.23904088715206
 20
48.29339691123099
 10
57.23904088715207
 20
42.74339691123099
 10
58.05104088715205
 20
41.931396911231
 97
        4
330
D313
330
D312
330
D30C
330
D30F
 92
        7
 72
     0
 73
     1
 93
        4
 10
60.93004088715208
 20
61.243396911231
 10
60.55104088715205
 20
61.243396911231
 10
60.55104088715206
 20
56.44339691123094
 10
60.93004088715207
 20
56.82239691123094
 97
        4
330
D2E2
330
D318
330
D2F3
330
D319
 92
        7
 72
     0
 73
     1
 93
        4
 10
64.55104088715206
 20
61.243396911231
 10
64.17204088715209
 20
61.243396911231
 10
64.17204088715208
 20
56.82239691123089
 10
64.55104088715206
 20
56.44339691123093
 97
        4
330
D2E2
330
D31A
330
D2F3
330
D31B
 75
     0
 76
     1
 52
0.0
 41
0.5
 77
     0
 78
     1
 53
45.0
 43
0.0
 44
0.0
 45
-1.122532015133643
 46
1.122532015133644
 79
     0
 47
0.0409861962393018
 98
       11
 10
23.98515479775085
 20
50.40180809985861
 10
33.34242604606368
 20
45.5589093186644
 10
33.34242604606368
 20
56.74767558212403
 10
57.40398051668694
 20
55.57870021909678
 10
59.24201613983848
 20
55.57870021909678
 10
65.92578140115245
 20
54.74371753405018
 10
67.09544038064575
 20
45.89290232667667
 10
58.57363949618025
 20
46.05989899569863
 10
57.57107482450999
 20
46.05989899569863
 10
60.81893837004168
 20
57.68667070825244
 10
64.38682150086538
 20
58.71132554609079
1001
ACAD
1010
0.0
1020
0.0
1030
0.0
  0
ENDSEC
  0
SECTION
  2
OBJECTS
  0
DICTIONARY
  5
C
330
0
100
AcDbDictionary
281
     1
  3
ACAD_COLOR
350
7873
  3
ACAD_GROUP
350
D
  3
ACAD_LAYOUT
350
5CF3
  3
ACAD_MATERIAL
350
7872
  3
ACAD_MLINESTYLE
350
1B
  3
ACAD_PLOTSETTINGS
350
5CF4
  3
ACAD_PLOTSTYLENAME
350
5CF1
  3
ACAD_TABLESTYLE
350
7874
  3
AcadDim
350
D4D9
  3
ACDBVARIABLEDICTIONARY
350
45D
  0
DICTIONARY
  5
7BFE
330
2
100
AcDbDictionary
280
     1
281
     1
  3
ACAD_LAYERFILTERS
360
7C00
  3
ACLYDICTIONARY
360
7BFF
  0
DICTIONARY
  5
45F
330
18
100
AcDbDictionary
280
     1
281
     1
  3
ACAD_LAYOUTSELFREF
360
5D8B
  3
ACAD_SORTENTS
360
460
  0
DICTIONARY
  5
5D89
330
15
100
AcDbDictionary
280
     1
281
     1
  3
ACAD_LAYOUTSELFREF
360
5D8A
  0
DICTIONARY
  5
7C0B
330
7C0A
100
AcDbDictionary
280
     1
281
     1
  3
AcDbBlockTableRecordData
360
7C0C
  0
DICTIONARY
  5
8E73
330
8E72
100
AcDbDictionary
280
     1
281
     1
  3
AcDbBlockTableRecordData
360
8E74
  0
DICTIONARY
  5
9D16
330
9D15
100
AcDbDictionary
280
     1
281
     1
  3
AcDbBlockTableRecordData
360
9D17
  0
DICTIONARY
  5
A519
330
A518
100
AcDbDictionary
280
     1
281
     1
  3
AcDbBlockTableRecordData
360
A51A
  0
DICTIONARY
  5
A628
330
A627
100
AcDbDictionary
280
     1
281
     1
  3
AcDbBlockTableRecordData
360
A629
  0
DICTIONARY
  5
7873
102
{ACAD_REACTORS
330
C
102
}
330
C
100
AcDbDictionary
281
     1
  0
DICTIONARY
  5
D
102
{ACAD_REACTORS
330
C
102
}
330
C
100
AcDbDictionary
281
     1
  0
DICTIONARY
  5
5CF3
102
{ACAD_REACTORS
330
C
102
}
330
C
100
AcDbDictionary
281
     1
  3
Model
350
5CF5
  3
配置1
350
5CF6
  0
DICTIONARY
  5
7872
102
{ACAD_REACTORS
330
C
102
}
330
C
100
AcDbDictionary
281
     1
  0
DICTIONARY
  5
1B
102
{ACAD_REACTORS
330
C
102
}
330
C
100
AcDbDictionary
281
     1
  3
STANDARD
350
1C
  0
DICTIONARY
  5
5CF4
102
{ACAD_REACTORS
330
C
102
}
330
C
100
AcDbDictionary
281
     1
  0
ACDBDICTIONARYWDFLT
  5
5CF1
102
{ACAD_REACTORS
330
C
102
}
330
C
100
AcDbDictionary
281
     1
  3
Normal
350
5CF2
100
AcDbDictionaryWithDefault
340
5CF2
  0
DICTIONARY
  5
7874
102
{ACAD_REACTORS
330
C
102
}
330
C
100
AcDbDictionary
281
     1
  3
Standard
350
7875
  0
XRECORD
  5
D4D9
102
{ACAD_REACTORS
330
C
102
}
330
C
100
AcDbXrecord
280
     1
 90
   990106
  3

 60
     0
 61
     0
 62
     1
 63
     3
 64
     0
 65
     0
 66
     0
 67
     3
 68
     1
 69
     0
 70
     0
 71
     0
 72
     0
 40
0.0
170
     0
  0
DICTIONARY
  5
45D
102
{ACAD_REACTORS
330
C
102
}
330
C
100
AcDbDictionary
281
     1
  3
CTABLESTYLE
350
7880
  3
SORTENTS
350
45E
  0
DICTIONARY
  5
7C00
102
{ACAD_REACTORS
330
7BFE
102
}
330
7BFE
100
AcDbDictionary
281
     1
  0
DICTIONARY
  5
7BFF
102
{ACAD_REACTORS
330
7BFE
102
}
330
7BFE
100
AcDbDictionary
281
     1
1001
ACAD
1000
<All
  0
XRECORD
  5
5D8B
102
{ACAD_REACTORS
330
45F
102
}
330
45F
100
AcDbXrecord
280
     1
340
18
  0
SORTENTSTABLE
  5
460
102
{ACAD_REACTORS
330
45F
102
}
330
45F
100
AcDbSortentsTable
330
18
331
AF81
  5
AF81
331
D3B5
  5
D3C4
331
AF4A
  5
AF4A
331
AF89
  5
AF89
331
D2D8
  5
D2D9
331
D317
  5
D318
331
D34E
  5
D34F
331
C0
  5
CB
331
D356
  5
D357
331
D2E0
  5
D2E1
331
D31F
  5
D320
331
AF52
  5
AF52
331
D35E
  5
D37F
331
D2E8
  5
D2E9
331
D327
  5
D328
331
AF5A
  5
AF5A
331
D2F0
  5
D2F1
331
AF62
  5
AF62
331
D2F8
  5
D2F9
331
D32F
  5
D330
331
CEE9
  5
CEEB
331
D42C
  5
D4DB
331
AF6A
  5
AF6A
331
D300
  5
D301
331
D337
  5
D338
331
CEF9
  5
CFB3
331
AF72
  5
AF72
331
D33F
  5
D340
331
AF7A
  5
AF7A
331
D308
  5
D309
331
D347
  5
D348
331
D310
  5
D311
331
AF82
  5
AF82
331
D2D1
  5
D2D2
331
D4DB
  5
D4DD
331
AF4B
  5
AF4B
331
AF8A
  5
AF8A
331
D2D9
  5
D2DA
331
D318
  5
D319
331
D34F
  5
D350
331
D357
  5
D358
331
AF53
  5
AF53
331
D2E1
  5
D2E2
331
D320
  5
D321
331
AF5B
  5
AF5B
331
D2E9
  5
D2EA
331
D37F
  5
D3A7
331
AF63
  5
AF63
331
D2F1
  5
D2F2
331
D328
  5
D329
331
CEEA
  5
CEF5
331
AF6B
  5
AF6B
331
D2F9
  5
D2FA
331
D330
  5
D331
331
AF73
  5
AF73
331
D301
  5
D302
331
D338
  5
D339
331
D3A7
  5
D3A8
331
CF1A
  5
CF37
331
AF7B
  5
AF7B
331
D309
  5
D30A
331
D340
  5
D341
331
D311
  5
D312
331
AF44
  5
AF44
331
AF83
  5
AF83
331
D2D2
  5
D2D3
331
D348
  5
D349
331
D350
  5
D351
331
AF4C
  5
AF4C
331
AF8B
  5
AF8B
331
D2DA
  5
D2DB
331
D319
  5
D31A
331
D406
  5
D407
331
D358
  5
D359
331
AF54
  5
AF54
331
D2E2
  5
D2E3
331
D321
  5
D322
331
AF5C
  5
AF5C
331
D2EA
  5
D2EB
331
D564
  5
D2D1
331
AF64
  5
AF64
331
D2F2
  5
D2F3
331
D329
  5
D32A
331
D2FA
  5
D2FB
331
D331
  5
D332
331
AF6C
  5
AF6C
331
CEEB
  5
CEFA
331
AF74
  5
AF74
331
D302
  5
D303
331
D339
  5
D33A
331
D3A8
  5
D3B5
331
AF7C
  5
AF7C
331
D30A
  5
D30B
331
D341
  5
D342
331
D3EF
  5
D3F0
331
D312
  5
D313
331
AF45
  5
AF45
331
AF84
  5
AF84
331
D2D3
  5
D2D4
331
D349
  5
D34A
331
D351
  5
D352
331
AF4D
  5
AF4D
331
AF8C
  5
AF8C
331
D2DB
  5
D2DC
331
D31A
  5
D31B
331
D4DD
  5
D4DF
331
D407
  5
D412
331
D359
  5
D35A
331
AF55
  5
AF55
331
D2E3
  5
D2E4
331
D322
  5
D323
331
AF5D
  5
AF5D
331
D2EB
  5
D2EC
331
AF65
  5
AF65
331
D2F3
  5
D2F4
331
D32A
  5
D32B
331
AF6D
  5
AF6D
331
D2FB
  5
D2FC
331
D332
  5
D333
331
AF75
  5
AF75
331
D303
  5
D304
331
D33A
  5
D33B
331
AF7D
  5
AF7D
331
D30B
  5
D30C
331
D342
  5
D343
331
D3F0
  5
D406
331
D313
  5
D314
331
AF46
  5
AF46
331
AF85
  5
AF85
331
D2D4
  5
D2D5
331
D34A
  5
D34B
331
D352
  5
D353
331
AF4E
  5
AF4E
331
AF8D
  5
AF8D
331
D2DC
  5
D2DD
331
D31B
  5
D31C
331
D35A
  5
D35B
331
AF56
  5
AF56
331
D2E4
  5
D2E5
331
D323
  5
D324
331
D420
  5
D42C
331
AF5E
  5
AF5E
331
D2EC
  5
D2ED
331
AF66
  5
AF66
331
D2F4
  5
D2F5
331
D32B
  5
D32C
331
AF6E
  5
AF6E
331
D2FC
  5
D2FD
331
D333
  5
D334
331
AF76
  5
AF76
331
D304
  5
D305
331
D33B
  5
D33C
331
AF7E
  5
AF7E
331
D30C
  5
D30D
331
D343
  5
D344
331
D314
  5
D315
331
AF47
  5
AF47
331
AF86
  5
AF86
331
D2D5
  5
D2D6
331
D34B
  5
D34C
331
D353
  5
D354
331
AF8E
  5
AF8E
331
AF4F
  5
AF4F
331
D2DD
  5
D2DE
331
D31C
  5
D31D
331
D4DF
  5
D4E1
331
D35B
  5
D35C
331
AF57
  5
AF57
331
D2E5
  5
D2E6
331
D324
  5
D325
331
AF5F
  5
AF5F
331
D2ED
  5
D2EE
331
D2F5
  5
D2F6
331
D32C
  5
D32D
331
AF67
  5
AF67
331
CEE6
  5
CEE9
331
AF6F
  5
AF6F
331
D2FD
  5
D2FE
331
D334
  5
D335
331
D3E2
  5
D3EF
331
AF77
  5
AF77
331
D305
  5
D306
331
D33C
  5
D33D
331
AF7F
  5
AF7F
331
D30D
  5
D30E
331
D344
  5
D345
331
D315
  5
D316
331
AF48
  5
AF48
331
AF87
  5
AF87
331
D2D6
  5
D2D7
331
D34C
  5
D34D
331
D354
  5
D355
331
AF50
  5
AF50
331
AF8F
  5
AF8F
331
D2DE
  5
D2DF
331
D31D
  5
D31E
331
D412
  5
D413
331
D35C
  5
D35D
331
AF58
  5
AF58
331
D2E6
  5
D2E7
331
D325
  5
D326
331
D2EE
  5
D2EF
331
AF60
  5
AF60
331
D2F6
  5
D2F7
331
D32D
  5
D32E
331
AF68
  5
AF68
331
CEE7
  5
CEEA
331
AF70
  5
AF70
331
D2FE
  5
D2FF
331
D335
  5
D336
331
AF78
  5
AF78
331
D306
  5
D307
331
D33D
  5
D33E
331
D30E
  5
D30F
331
D345
  5
D346
331
AF80
  5
AF80
331
D316
  5
D317
331
AF49
  5
AF49
331
AF88
  5
AF88
331
D2D7
  5
D2D8
331
D34D
  5
D34E
331
D3C4
  5
D3D4
331
D355
  5
D356
331
AF51
  5
AF51
331
AFC8
  5
AFC8
331
D2DF
  5
D2E0
331
D31E
  5
D31F
331
D4E1
  5
D4E2
331
D413
  5
D420
331
D35D
  5
D35E
331
AF59
  5
AF59
331
D2E7
  5
D2E8
331
D326
  5
D327
331
D2EF
  5
D2F0
331
AF61
  5
AF61
331
CEE0
  5
CEE7
331
D3D4
  5
D3E2
331
AF69
  5
AF69
331
D2F7
  5
D2F8
331
D32E
  5
D32F
331
AF71
  5
AF71
331
D2FF
  5
D300
331
D336
  5
D337
331
AF79
  5
AF79
331
D307
  5
D308
331
D33E
  5
D33F
331
D30F
  5
D310
331
D346
  5
D347
  0
XRECORD
  5
5D8A
102
{ACAD_REACTORS
330
5D89
102
}
330
5D89
100
AcDbXrecord
280
     1
340
15
  0
DICTIONARY
  5
7C0C
102
{ACAD_REACTORS
330
7C0B
102
}
330
7C0B
100
AcDbDictionary
280
     1
281
     1
  3
Edit
360
7C0D
  0
DICTIONARY
  5
8E74
102
{ACAD_REACTORS
330
8E73
102
}
330
8E73
100
AcDbDictionary
280
     1
281
     1
  3
Edit
360
8E75
  0
DICTIONARY
  5
9D17
102
{ACAD_REACTORS
330
9D16
102
}
330
9D16
100
AcDbDictionary
280
     1
281
     1
  3
Edit
360
9D18
  0
DICTIONARY
  5
A51A
102
{ACAD_REACTORS
330
A519
102
}
330
A519
100
AcDbDictionary
280
     1
281
     1
  3
Edit
360
A51B
  0
DICTIONARY
  5
A629
102
{ACAD_REACTORS
330
A628
102
}
330
A628
100
AcDbDictionary
280
     1
281
     1
  3
Edit
360
A62A
  0
LAYOUT
  5
5CF5
102
{ACAD_REACTORS
330
5CF3
102
}
330
5CF3
100
AcDbPlotSettings
  1

  2
Microsoft Office Document Image Writer
  4
A4
  6

 40
3.174999952316284
 41
3.174999952316284
 42
3.175003051757812
 43
3.17498779296875
 44
210.0579986572266
 45
297.0530090332031
 46
6.853997826576232
 47
5.351510643959045
 48
0.0
 49
0.0
140
95.0
141
140.0
142
2.0
143
1.0
 70
 11940
 72
     1
 73
     0
 74
     4
  7
LIN.ctb
 75
     0
147
1.02454228741782
 76
     0
 77
     2
 78
   300
148
0.0
149
0.0
100
AcDbLayout
  1
Model
 70
     1
 71
     0
 10
0.0
 20
0.0
 11
12.0
 21
9.0
 12
0.0
 22
0.0
 32
0.0
 14
0.0
 24
0.0
 34
0.0
 15
0.0
 25
0.0
 35
0.0
146
0.0
 13
0.0
 23
0.0
 33
0.0
 16
1.0
 26
0.0
 36
0.0
 17
0.0
 27
1.0
 37
0.0
 76
     0
330
18
1001
ACAD_PSEXT
1000
Microsoft Office Document Image Writer
1000
Microsoft Office Document Image Writer Driver
1000
Microsoft Document Imaging Writer Port:
1000

1070
     0
  0
LAYOUT
  5
5CF6
102
{ACAD_REACTORS
330
5CF3
102
}
330
5CF3
100
AcDbPlotSettings
  1

  2
EPSON STYLUS COLOR 440
  4

  6

 40
0.0
 41
0.0
 42
0.0
 43
0.0
 44
0.0
 45
0.0
 46
0.0
 47
0.0
 48
0.0
 49
0.0
140
0.0
141
0.0
142
1.0
143
1.0
 70
   688
 72
     0
 73
     0
 74
     5
  7
LIN.ctb
 75
    16
147
1.0
 76
     0
 77
     2
 78
   300
148
0.0
149
0.0
100
AcDbLayout
  1
ｰtｸm1
 70
     1
 71
     1
 10
0.0
 20
0.0
 11
420.0
 21
297.0
 12
0.0
 22
0.0
 32
0.0
 14
1.000000000000000E+20
 24
1.000000000000000E+20
 34
1.000000000000000E+20
 15
-1.000000000000000E+20
 25
-1.000000000000000E+20
 35
-1.000000000000000E+20
146
0.0
 13
0.0
 23
0.0
 33
0.0
 16
1.0
 26
0.0
 36
0.0
 17
0.0
 27
1.0
 37
0.0
 76
     0
330
15
  0
MLINESTYLE
  5
1C
102
{ACAD_REACTORS
330
1B
102
}
330
1B
100
AcDbMlineStyle
  2
STANDARD
 70
     0
  3

 62
   256
 51
90.0
 52
90.0
 71
     2
 49
0.5
 62
   256
  6
BYLAYER
 49
-0.5
 62
   256
  6
BYLAYER
  0
ACDBPLACEHOLDER
  5
5CF2
102
{ACAD_REACTORS
330
5CF1
102
}
330
5CF1
  0
TABLESTYLE
  5
7875
102
{ACAD_REACTORS
330
7874
102
}
330
7874
100
AcDbTableStyle
  3
Standard
 70
     0
 71
     8
 40
1.5
 41
1.5
280
     0
281
     0
  7
STANDARD
140
4.5
170
     2
 62
     0
 63
     7
283
     0
274
    -2
284
     1
 64
     0
275
    -2
285
     1
 65
     0
276
    -2
286
     1
 66
     0
277
    -2
287
     1
 67
     0
278
    -2
288
     1
 68
     0
279
    -2
289
     1
 69
     0
  7
STANDARD
140
6.0
170
     5
 62
     0
 63
     7
283
     0
274
    -2
284
     1
 64
     0
275
    -2
285
     1
 65
     0
276
    -2
286
     1
 66
     0
277
    -2
287
     1
 67
     0
278
    -2
288
     1
 68
     0
279
    -2
289
     1
 69
     0
  7
STANDARD
140
4.5
170
     5
 62
     0
 63
     7
283
     0
274
    -2
284
     1
 64
     0
275
    -2
285
     1
 65
     0
276
    -2
286
     1
 66
     0
277
    -2
287
     1
 67
     0
278
    -2
288
     1
 68
     0
279
    -2
289
     1
 69
     0
  0
DICTIONARYVAR
  5
7880
102
{ACAD_REACTORS
330
45D
102
}
330
45D
100
DictionaryVariables
280
     0
  1
STANDARD
  0
DICTIONARYVAR
  5
45E
102
{ACAD_REACTORS
330
45D
102
}
330
45D
100
DictionaryVariables
280
     0
  1
127
  0
XRECORD
  5
7C0D
102
{ACAD_REACTORS
330
7C0C
102
}
330
7C0C
100
AcDbXrecord
280
     1
1070
     0
1070
     1
1070
     1
  0
XRECORD
  5
8E75
102
{ACAD_REACTORS
330
8E74
102
}
330
8E74
100
AcDbXrecord
280
     1
1070
     0
1070
     1
1070
     1
  0
XRECORD
  5
9D18
102
{ACAD_REACTORS
330
9D17
102
}
330
9D17
100
AcDbXrecord
280
     1
1070
     0
1070
     1
1070
     1
  0
XRECORD
  5
A51B
102
{ACAD_REACTORS
330
A51A
102
}
330
A51A
100
AcDbXrecord
280
     1
1070
     0
1070
     1
1070
     1
  0
XRECORD
  5
A62A
102
{ACAD_REACTORS
330
A629
102
}
330
A629
100
AcDbXrecord
280
     1
1070
     0
1070
     1
1070
     1
  0
ENDSEC
  0
EOF
