  0
SECTION
  2
HEADER
  9
$ACADVER
  1
AC1018
  9
$ACADMAINTVER
 70
    76
  9
$DWGCODEPAGE
  3
ANSI_932
  9
$INSBASE
 10
0.0
 20
0.0
 30
0.0
  9
$EXTMIN
 10
-0.0000000000002274
 20
-0.0000000000000568
 30
0.0
  9
$EXTMAX
 10
197.9999999999997
 20
290.0
 30
4.0
  9
$LIMMIN
 10
0.0
 20
0.0
  9
$LIMMAX
 10
420.0
 20
297.0
  9
$ORTHOMODE
 70
     1
  9
$REGENMODE
 70
     1
  9
$FILLMODE
 70
     1
  9
$QTEXTMODE
 70
     0
  9
$MIRRTEXT
 70
     1
  9
$LTSCALE
 40
1.0
  9
$ATTMODE
 70
     1
  9
$TEXTSIZE
 40
2.5
  9
$TRACEWID
 40
1.0
  9
$TEXTSTYLE
  7
TXT
  9
$CLAYER
  8
0
  9
$CELTYPE
  6
BYLAYER
  9
$CECOLOR
 62
   256
  9
$CELTSCALE
 40
1.0
  9
$DISPSILH
 70
     0
  9
$DIMSCALE
 40
1.0
  9
$DIMASZ
 40
2.5
  9
$DIMEXO
 40
1.0
  9
$DIMDLI
 40
6.0
  9
$DIMRND
 40
0.0
  9
$DIMDLE
 40
0.0
  9
$DIMEXE
 40
1.0
  9
$DIMTP
 40
0.0
  9
$DIMTM
 40
0.0
  9
$DIMTXT
 40
3.0
  9
$DIMCEN
 40
0.0
  9
$DIMTSZ
 40
0.0
  9
$DIMTOL
 70
     0
  9
$DIMLIM
 70
     0
  9
$DIMTIH
 70
     0
  9
$DIMTOH
 70
     0
  9
$DIMSE1
 70
     0
  9
$DIMSE2
 70
     0
  9
$DIMTAD
 70
     3
  9
$DIMZIN
 70
     8
  9
$DIMBLK
  1

  9
$DIMASO
 70
     1
  9
$DIMSHO
 70
     1
  9
$DIMPOST
  1

  9
$DIMAPOST
  1

  9
$DIMALT
 70
     0
  9
$DIMALTD
 70
     2
  9
$DIMALTF
 40
25.4
  9
$DIMLFAC
 40
1.0
  9
$DIMTOFL
 70
     0
  9
$DIMTVP
 40
0.0
  9
$DIMTIX
 70
     0
  9
$DIMSOXD
 70
     0
  9
$DIMSAH
 70
     0
  9
$DIMBLK1
  1

  9
$DIMBLK2
  1

  9
$DIMSTYLE
  2
A
  9
$DIMCLRD
 70
     6
  9
$DIMCLRE
 70
     6
  9
$DIMCLRT
 70
     3
  9
$DIMTFAC
 40
1.0
  9
$DIMGAP
 40
1.0
  9
$DIMJUST
 70
     0
  9
$DIMSD1
 70
     0
  9
$DIMSD2
 70
     0
  9
$DIMTOLJ
 70
     1
  9
$DIMTZIN
 70
     0
  9
$DIMALTZ
 70
     0
  9
$DIMALTTZ
 70
     0
  9
$DIMUPT
 70
     0
  9
$DIMDEC
 70
     1
  9
$DIMTDEC
 70
     1
  9
$DIMALTU
 70
     2
  9
$DIMALTTD
 70
     2
  9
$DIMTXSTY
  7
TXT
  9
$DIMAUNIT
 70
     0
  9
$DIMADEC
 70
     0
  9
$DIMALTRND
 40
0.0
  9
$DIMAZIN
 70
     0
  9
$DIMDSEP
 70
    46
  9
$DIMATFIT
 70
     3
  9
$DIMFRAC
 70
     0
  9
$DIMLDRBLK
  1

  9
$DIMLUNIT
 70
     2
  9
$DIMLWD
 70
    -2
  9
$DIMLWE
 70
    -2
  9
$DIMTMOVE
 70
     1
  9
$LUNITS
 70
     2
  9
$LUPREC
 70
     2
  9
$SKETCHINC
 40
1.0
  9
$FILLETRAD
 40
1.5
  9
$AUNITS
 70
     0
  9
$AUPREC
 70
     2
  9
$MENU
  1
.
  9
$ELEVATION
 40
0.0
  9
$PELEVATION
 40
0.0
  9
$THICKNESS
 40
0.0
  9
$LIMCHECK
 70
     0
  9
$CHAMFERA
 40
0.0
  9
$CHAMFERB
 40
0.0
  9
$CHAMFERC
 40
1.75
  9
$CHAMFERD
 40
0.0174532925199433
  9
$SKPOLY
 70
     0
  9
$TDCREATE
 40
2451555.578568171
  9
$TDUCREATE
 40
2451555.203568172
  9
$TDUPDATE
 40
2455846.606091134
  9
$TDUUPDATE
 40
2455846.231091134
  9
$TDINDWG
 40
2.7178014005
  9
$TDUSRTIMER
 40
2.7178014005
  9
$USRTIMER
 70
     1
  9
$ANGBASE
 50
0.0
  9
$ANGDIR
 70
     0
  9
$PDMODE
 70
     0
  9
$PDSIZE
 40
0.0
  9
$PLINEWID
 40
0.0
  9
$SPLFRAME
 70
     0
  9
$SPLINETYPE
 70
     6
  9
$SPLINESEGS
 70
     8
  9
$HANDSEED
  5
987A
  9
$SURFTAB1
 70
     6
  9
$SURFTAB2
 70
     6
  9
$SURFTYPE
 70
     6
  9
$SURFU
 70
     6
  9
$SURFV
 70
     6
  9
$UCSBASE
  2

  9
$UCSNAME
  2

  9
$UCSORG
 10
0.0
 20
0.0
 30
0.0
  9
$UCSXDIR
 10
1.0
 20
0.0
 30
0.0
  9
$UCSYDIR
 10
0.0
 20
1.0
 30
0.0
  9
$UCSORTHOREF
  2

  9
$UCSORTHOVIEW
 70
     0
  9
$UCSORGTOP
 10
0.0
 20
0.0
 30
0.0
  9
$UCSORGBOTTOM
 10
0.0
 20
0.0
 30
0.0
  9
$UCSORGLEFT
 10
0.0
 20
0.0
 30
0.0
  9
$UCSORGRIGHT
 10
0.0
 20
0.0
 30
0.0
  9
$UCSORGFRONT
 10
0.0
 20
0.0
 30
0.0
  9
$UCSORGBACK
 10
0.0
 20
0.0
 30
0.0
  9
$PUCSBASE
  2

  9
$PUCSNAME
  2

  9
$PUCSORG
 10
0.0
 20
0.0
 30
0.0
  9
$PUCSXDIR
 10
1.0
 20
0.0
 30
0.0
  9
$PUCSYDIR
 10
0.0
 20
1.0
 30
0.0
  9
$PUCSORTHOREF
  2

  9
$PUCSORTHOVIEW
 70
     0
  9
$PUCSORGTOP
 10
0.0
 20
0.0
 30
0.0
  9
$PUCSORGBOTTOM
 10
0.0
 20
0.0
 30
0.0
  9
$PUCSORGLEFT
 10
0.0
 20
0.0
 30
0.0
  9
$PUCSORGRIGHT
 10
0.0
 20
0.0
 30
0.0
  9
$PUCSORGFRONT
 10
0.0
 20
0.0
 30
0.0
  9
$PUCSORGBACK
 10
0.0
 20
0.0
 30
0.0
  9
$USERI1
 70
     0
  9
$USERI2
 70
     0
  9
$USERI3
 70
     0
  9
$USERI4
 70
     0
  9
$USERI5
 70
     0
  9
$USERR1
 40
0.0
  9
$USERR2
 40
0.0
  9
$USERR3
 40
0.0
  9
$USERR4
 40
0.0
  9
$USERR5
 40
0.0
  9
$WORLDVIEW
 70
     1
  9
$SHADEDGE
 70
     3
  9
$SHADEDIF
 70
    70
  9
$TILEMODE
 70
     1
  9
$MAXACTVP
 70
    48
  9
$PINSBASE
 10
0.0
 20
0.0
 30
0.0
  9
$PLIMCHECK
 70
     0
  9
$PEXTMIN
 10
1.000000000000000E+20
 20
1.000000000000000E+20
 30
1.000000000000000E+20
  9
$PEXTMAX
 10
-1.000000000000000E+20
 20
-1.000000000000000E+20
 30
-1.000000000000000E+20
  9
$PLIMMIN
 10
0.0
 20
0.0
  9
$PLIMMAX
 10
420.0
 20
297.0
  9
$UNITMODE
 70
     0
  9
$VISRETAIN
 70
     1
  9
$PLINEGEN
 70
     0
  9
$PSLTSCALE
 70
     1
  9
$TREEDEPTH
 70
  3020
  9
$CMLSTYLE
  2
STANDARD
  9
$CMLJUST
 70
     0
  9
$CMLSCALE
 40
20.0
  9
$PROXYGRAPHICS
 70
     1
  9
$MEASUREMENT
 70
     1
  9
$CELWEIGHT
370
    -1
  9
$ENDCAPS
280
     0
  9
$JOINSTYLE
280
     0
  9
$LWDISPLAY
290
     0
  9
$INSUNITS
 70
     0
  9
$HYPERLINKBASE
  1

  9
$STYLESHEET
  1

  9
$XEDIT
290
     1
  9
$CEPSNTYPE
380
     0
  9
$PSTYLEMODE
290
     1
  9
$FINGERPRINTGUID
  2
{1CF51E8A-A506-11D4-A7D9-AF69F5C20846}
  9
$VERSIONGUID
  2
{1CF51E8C-A506-11D4-A7D9-AF69F5C20846}
  9
$EXTNAMES
290
     1
  9
$PSVPSCALE
 40
0.0
  9
$OLESTARTUP
290
     0
  9
$SORTENTS
280
   127
  9
$INDEXCTL
280
     0
  9
$HIDETEXT
280
     0
  9
$XCLIPFRAME
290
     0
  9
$HALOGAP
280
     0
  9
$OBSCOLOR
 70
   257
  9
$OBSLTYPE
280
     0
  9
$INTERSECTIONDISPLAY
280
     0
  9
$INTERSECTIONCOLOR
 70
   257
  9
$DIMASSOC
280
     1
  9
$PROJECTNAME
  1

  0
ENDSEC
  0
SECTION
  2
CLASSES
  0
CLASS
  1
DICTIONARYVAR
  2
AcDbDictionaryVar
  3
ObjectDBX Classes
 90
        0
 91
        2
280
     0
281
     0
  0
CLASS
  1
SORTENTSTABLE
  2
AcDbSortentsTable
  3
ObjectDBX Classes
 90
        0
 91
        1
280
     0
281
     0
  0
CLASS
  1
ACDBDICTIONARYWDFLT
  2
AcDbDictionaryWithDefault
  3
ObjectDBX Classes
 90
        0
 91
        1
280
     0
281
     0
  0
CLASS
  1
TABLESTYLE
  2
AcDbTableStyle
  3
ObjectDBX Classes
 90
     2047
 91
        1
280
     0
281
     0
  0
ENDSEC
  0
SECTION
  2
TABLES
  0
TABLE
  2
VPORT
  5
8
330
0
100
AcDbSymbolTable
 70
     2
  0
VPORT
  5
9879
330
8
100
AcDbSymbolTableRecord
100
AcDbViewportTableRecord
  2
*Active
 70
     0
 10
0.0
 20
0.0
 11
1.0
 21
1.0
 12
192.809703047938
 22
144.9968228620398
 13
0.0
 23
0.0
 14
10.0
 24
10.0
 15
10.0
 25
10.0
 16
0.0
 26
0.0
 36
1.0
 17
0.0
 27
0.0
 37
0.0
 40
293.4598036076102
 41
2.47104247104247
 42
50.0
 43
0.0
 44
0.0
 50
0.0
 51
0.0
 71
     0
 72
   100
 73
     1
 74
     1
 75
     0
 76
     0
 77
     0
 78
     0
281
     0
 65
     1
110
0.0
120
0.0
130
0.0
111
1.0
121
0.0
131
0.0
112
0.0
122
1.0
132
0.0
 79
     0
146
0.0
  0
ENDTAB
  0
TABLE
  2
LTYPE
  5
5
330
0
100
AcDbSymbolTable
 70
     7
  0
LTYPE
  5
12
330
5
100
AcDbSymbolTableRecord
100
AcDbLinetypeTableRecord
  2
BYBLOCK
 70
     0
  3

 72
    65
 73
     0
 40
0.0
  0
LTYPE
  5
13
330
5
100
AcDbSymbolTableRecord
100
AcDbLinetypeTableRecord
  2
BYLAYER
 70
     0
  3

 72
    65
 73
     0
 40
0.0
  0
LTYPE
  5
14
330
5
100
AcDbSymbolTableRecord
100
AcDbLinetypeTableRecord
  2
CONTINUOUS
 70
     0
  3
Solid line
 72
    65
 73
     0
 40
0.0
  0
LTYPE
  5
9D
330
5
100
AcDbSymbolTableRecord
100
AcDbLinetypeTableRecord
  2
CENTERX2
 70
     0
  3
Center (2x) ________  __  ________  __  _____
 72
    65
 73
     4
 40
101.6
 49
63.5
 74
     0
 49
-12.7
 74
     0
 49
12.7
 74
     0
 49
-12.7
 74
     0
  0
LTYPE
  5
A1
330
5
100
AcDbSymbolTableRecord
100
AcDbLinetypeTableRecord
  2
DASHED
 70
     0
  3
Dashed __ __ __ __ __ __ __ __ __ __ __ __ __ _
 72
    65
 73
     2
 40
19.05
 49
12.7
 74
     0
 49
-6.349999999999999
 74
     0
  0
LTYPE
  5
A2
330
5
100
AcDbSymbolTableRecord
100
AcDbLinetypeTableRecord
  2
DASHED2
 70
     0
  3
Dashed (.5x) _ _ _ _ _ _ _ _ _ _ _ _ _ _ _ _ _
 72
    65
 73
     2
 40
9.524999999999998
 49
6.349999999999999
 74
     0
 49
-3.174999999999999
 74
     0
  0
LTYPE
  5
A5
330
5
100
AcDbSymbolTableRecord
100
AcDbLinetypeTableRecord
  2
DIVIDE2
 70
     0
  3
Divide (.5x) __..__..__..__..__..__..__..__.._
 72
    65
 73
     6
 40
15.875
 49
6.349999999999999
 74
     0
 49
-3.174999999999999
 74
     0
 49
0.0
 74
     0
 49
-3.174999999999999
 74
     0
 49
0.0
 74
     0
 49
-3.174999999999999
 74
     0
  0
LTYPE
  5
650B
330
5
100
AcDbSymbolTableRecord
100
AcDbLinetypeTableRecord
  2
CENTER
 70
     0
  3
Center ____ _ ____ _ ____ _ ____ _ ____ _ ____
 72
    65
 73
     4
 40
50.8
 49
31.75
 74
     0
 49
-6.349999999999999
 74
     0
 49
6.349999999999999
 74
     0
 49
-6.349999999999999
 74
     0
  0
LTYPE
  5
650C
330
5
100
AcDbSymbolTableRecord
100
AcDbLinetypeTableRecord
  2
HIDDEN
 70
     0
  3
Hidden __ __ __ __ __ __ __ __ __ __ __ __ __ _
 72
    65
 73
     2
 40
9.524999999999998
 49
6.349999999999999
 74
     0
 49
-3.174999999999999
 74
     0
  0
ENDTAB
  0
TABLE
  2
LAYER
  5
2
330
0
100
AcDbSymbolTable
 70
     9
  0
LAYER
  5
E
330
2
100
AcDbSymbolTableRecord
100
AcDbLayerTableRecord
  2
0
 70
     0
 62
     7
  6
CONTINUOUS
370
    -3
390
5CF2
  0
LAYER
  5
B9
330
2
100
AcDbSymbolTableRecord
100
AcDbLayerTableRecord
  2
DIM
 70
     0
 62
     3
  6
CONTINUOUS
370
    -3
390
5CF2
  0
LAYER
  5
F2
330
2
100
AcDbSymbolTableRecord
100
AcDbLayerTableRecord
  2
DEFPOINTS
 70
     0
 62
     4
  6
CONTINUOUS
290
     0
370
    -3
390
5CF2
  0
LAYER
  5
5F8B
330
2
100
AcDbSymbolTableRecord
100
AcDbLayerTableRecord
  2
公差
 70
     0
 62
     6
  6
CONTINUOUS
370
    -3
390
5CF2
  0
LAYER
  5
644E
330
2
100
AcDbSymbolTableRecord
100
AcDbLayerTableRecord
  2
図框線
 70
     0
 62
     9
  6
CONTINUOUS
370
    -3
390
5CF2
  0
LAYER
  5
650D
330
2
100
AcDbSymbolTableRecord
100
AcDbLayerTableRecord
  2
中心線
 70
     0
 62
     1
  6
CENTER
370
    -3
390
5CF2
  0
LAYER
  5
650E
330
2
100
AcDbSymbolTableRecord
100
AcDbLayerTableRecord
  2
本体内線
 70
     0
 62
     4
  6
HIDDEN
370
    -3
390
5CF2
  0
LAYER
  5
650F
330
2
100
AcDbSymbolTableRecord
100
AcDbLayerTableRecord
  2
本体外線
 70
     0
 62
     2
  6
CONTINUOUS
370
    -3
390
5CF2
  0
LAYER
  5
6510
330
2
100
AcDbSymbolTableRecord
100
AcDbLayerTableRecord
  2
剖面線
 70
     0
 62
     5
  6
CONTINUOUS
370
    -3
390
5CF2
  0
ENDTAB
  0
TABLE
  2
STYLE
  5
3
330
0
100
AcDbSymbolTable
 70
     5
  0
STYLE
  5
F
330
3
100
AcDbSymbolTableRecord
100
AcDbTextStyleTableRecord
  2
STANDARD
 70
     0
 40
0.0
 41
1.0
 50
0.0
 71
     0
 42
2.5
  3
txt
  4

  0
STYLE
  5
BE
330
3
100
AcDbSymbolTableRecord
100
AcDbTextStyleTableRecord
  2
ISOCP3
 70
     0
 40
0.0
 41
1.0
 50
0.0
 71
     0
 42
2.5
  3
isocp3.shx
  4

  0
STYLE
  5
2A37
330
3
100
AcDbSymbolTableRecord
100
AcDbTextStyleTableRecord
  2
TXT
 70
     0
 40
0.0
 41
1.0
 50
0.0
 71
     0
 42
2.5
  3
txt.shx
  4
bigfont.shx
  0
STYLE
  5
5DCB
330
3
100
AcDbSymbolTableRecord
100
AcDbTextStyleTableRecord
  2
LKK
 70
     0
 40
50.0
 41
1.5
 50
0.0
 71
     0
 42
50.0
  3
MS PGothic.ttf
  4

1001
ACAD
1000
MS PGothic
1071
    32818
  0
STYLE
  5
5DCC
330
3
100
AcDbSymbolTableRecord
100
AcDbTextStyleTableRecord
  2
JL
 70
     0
 40
10.0
 41
0.5
 50
0.0
 71
     0
 42
5.0
  3
MS Mincho.ttf
  4

1001
ACAD
1000
MS Mincho
1071
    32785
  0
ENDTAB
  0
TABLE
  2
VIEW
  5
6
330
0
100
AcDbSymbolTable
 70
     0
  0
ENDTAB
  0
TABLE
  2
UCS
  5
7
330
0
100
AcDbSymbolTable
 70
     0
  0
ENDTAB
  0
TABLE
  2
APPID
  5
9
330
0
100
AcDbSymbolTable
 70
     1
  0
APPID
  5
10
330
9
100
AcDbSymbolTableRecord
100
AcDbRegAppTableRecord
  2
ACAD
 70
     0
  0
ENDTAB
  0
TABLE
  2
DIMSTYLE
  5
A
330
0
100
AcDbSymbolTable
 70
     3
100
AcDbDimStyleTable
 71
     0
  0
DIMSTYLE
105
1D
330
A
100
AcDbSymbolTableRecord
100
AcDbDimStyleTableRecord
  2
STANDARD
 70
     0
 41
3.0
 42
0.06
 77
     3
140
4.0
144
0.3333333333333333
172
     1
340
F
  0
DIMSTYLE
105
1A4
102
{ACAD_REACTORS
330
6770
330
677F
330
6864
330
6C92
330
6CAA
330
6F74
330
74C6
330
750D
330
7568
330
7575
330
7AD6
330
90D2
102
}
330
A
100
AcDbSymbolTableRecord
100
AcDbDimStyleTableRecord
  2
A
 70
     0
 41
2.5
 42
1.0
 43
6.0
 44
1.0
 73
     0
 74
     0
 77
     3
 78
     8
140
3.0
141
0.0
147
1.0
176
     6
177
     6
178
     3
271
     1
272
     1
279
     1
340
2A37
  0
DIMSTYLE
105
6006
330
A
100
AcDbSymbolTableRecord
100
AcDbDimStyleTableRecord
  2
ISO-25
 70
     0
 40
0.0
 41
2.0
 42
0.3
 43
1.0
 44
0.3
 73
     0
 74
     0
 77
     1
 78
     8
140
3.0
147
1.0
172
     1
176
     6
177
     6
178
     3
271
     1
272
     2
284
     8
288
     1
289
     2
340
F
  0
ENDTAB
  0
TABLE
  2
BLOCK_RECORD
  5
1
330
0
100
AcDbSymbolTable
 70
    13
  0
BLOCK_RECORD
  5
18
102
{ACAD_XDICTIONARY
360
45F
102
}
330
1
100
AcDbSymbolTableRecord
100
AcDbBlockTableRecord
  2
*MODEL_SPACE
340
5CF5
  0
BLOCK_RECORD
  5
15
102
{ACAD_XDICTIONARY
360
5D89
102
}
330
1
100
AcDbSymbolTableRecord
100
AcDbBlockTableRecord
  2
*PAPER_SPACE
340
5CF6
  0
BLOCK_RECORD
  5
639D
330
1
100
AcDbSymbolTableRecord
100
AcDbBlockTableRecord
  2
A$C255C26A2
340
0
102
{BLKREFS
331
63A3
102
}
  0
BLOCK_RECORD
  5
67BC
330
1
100
AcDbSymbolTableRecord
100
AcDbBlockTableRecord
  2
*D1
340
0
  0
BLOCK_RECORD
  5
67D9
330
1
100
AcDbSymbolTableRecord
100
AcDbBlockTableRecord
  2
*D2
340
0
  0
BLOCK_RECORD
  5
6854
330
1
100
AcDbSymbolTableRecord
100
AcDbBlockTableRecord
  2
*D3
340
0
  0
BLOCK_RECORD
  5
6C86
330
1
100
AcDbSymbolTableRecord
100
AcDbBlockTableRecord
  2
*D4
340
0
  0
BLOCK_RECORD
  5
6C9E
330
1
100
AcDbSymbolTableRecord
100
AcDbBlockTableRecord
  2
*D5
340
0
  0
BLOCK_RECORD
  5
6FE3
330
1
100
AcDbSymbolTableRecord
100
AcDbBlockTableRecord
  2
*D6
340
0
  0
BLOCK_RECORD
  5
74B6
330
1
100
AcDbSymbolTableRecord
100
AcDbBlockTableRecord
  2
*D7
340
0
  0
BLOCK_RECORD
  5
7501
330
1
100
AcDbSymbolTableRecord
100
AcDbBlockTableRecord
  2
*D8
340
0
  0
BLOCK_RECORD
  5
755C
330
1
100
AcDbSymbolTableRecord
100
AcDbBlockTableRecord
  2
*D9
340
0
  0
BLOCK_RECORD
  5
7569
330
1
100
AcDbSymbolTableRecord
100
AcDbBlockTableRecord
  2
*D10
340
0
  0
BLOCK_RECORD
  5
7AC6
330
1
100
AcDbSymbolTableRecord
100
AcDbBlockTableRecord
  2
*D11
340
0
  0
BLOCK_RECORD
  5
90C4
330
1
100
AcDbSymbolTableRecord
100
AcDbBlockTableRecord
  2
*D12
340
0
  0
ENDTAB
  0
ENDSEC
  0
SECTION
  2
BLOCKS
  0
BLOCK
  5
19
330
18
100
AcDbEntity
  8
0
100
AcDbBlockBegin
  2
*MODEL_SPACE
 70
     0
 10
0.0
 20
0.0
 30
0.0
  3
*MODEL_SPACE
  1

  0
ENDBLK
  5
1A
330
18
100
AcDbEntity
  8
0
100
AcDbBlockEnd
  0
BLOCK
  5
16
330
15
100
AcDbEntity
 67
     1
  8
0
100
AcDbBlockBegin
  2
*PAPER_SPACE
 70
     0
 10
0.0
 20
0.0
 30
0.0
  3
*PAPER_SPACE
  1

  0
ENDBLK
  5
17
330
15
100
AcDbEntity
 67
     1
  8
0
100
AcDbBlockEnd
  0
BLOCK
  5
63A1
330
639D
100
AcDbEntity
  8
0
100
AcDbBlockBegin
  2
A$C255C26A2
 70
     0
 10
0.0
 20
0.0
 30
0.0
  3
A$C255C26A2
  1

  0
LWPOLYLINE
  5
639E
330
639D
100
AcDbEntity
  8
0
100
AcDbPolyline
 90
        3
 70
     1
 43
0.0
 10
7.014806023851633
 20
0.0000006939811783
 10
5.611844869720698
 20
2.430000693981241
 10
8.417767177982568
 20
2.430000693981241
  0
LWPOLYLINE
  5
639F
330
639D
100
AcDbEntity
  8
0
100
AcDbPolyline
 90
        3
 70
     1
 43
0.0
 10
4.20888371558999
 20
0.0000006939811783
 10
2.805922561459283
 20
2.430000693981241
 10
5.611844869720698
 20
2.430000693981241
  0
LWPOLYLINE
  5
63A0
330
639D
100
AcDbEntity
  8
0
100
AcDbPolyline
 90
        3
 70
     1
 43
0.0
 10
1.402961407328348
 20
0.0000006939811783
 10
0.0000002531974133
 20
2.430000693981241
 10
2.805922561459283
 20
2.430000693981241
  0
ENDBLK
  5
63A2
330
639D
100
AcDbEntity
  8
0
100
AcDbBlockEnd
  0
BLOCK
  5
984A
330
67BC
100
AcDbEntity
  8
0
100
AcDbBlockBegin
  2
*D1
 70
     1
 10
0.0
 20
0.0
 30
0.0
  3
*D1
  1

  0
LINE
  5
984B
330
67BC
100
AcDbEntity
  8
0
  6
ByBlock
 62
     6
100
AcDbLine
 10
333.0460248126115
 20
59.08456241662022
 30
0.0
 11
333.0460248126115
 21
41.46667634986697
 31
0.0
  0
LINE
  5
984C
330
67BC
100
AcDbEntity
  8
0
  6
ByBlock
 62
     6
100
AcDbLine
 10
398.0460248126115
 20
59.08456241661985
 30
0.0
 11
398.0460248126115
 21
41.46667634986697
 31
0.0
  0
LINE
  5
984D
330
67BC
100
AcDbEntity
  8
0
  6
ByBlock
 62
     6
100
AcDbLine
 10
335.5460248126115
 20
42.46667634986697
 30
0.0
 11
395.5460248126115
 21
42.46667634986697
 31
0.0
  0
MTEXT
  5
984E
330
67BC
100
AcDbEntity
  8
0
  6
ByBlock
 62
     3
100
AcDbMText
 10
365.5460248126116
 20
44.96667634986697
 30
0.0
 40
3.0
 41
0.0
 71
     5
 72
     1
  1
\A1;M65X2.0P
  7
TXT
 73
     1
 44
1.0
  0
SOLID
  5
984F
330
67BC
100
AcDbEntity
  8
0
  6
ByBlock
 62
     6
100
AcDbTrace
 10
335.5460248126115
 20
42.88334301653363
 30
0.0
 11
335.5460248126115
 21
42.05000968320031
 31
0.0
 12
333.0460248126115
 22
42.46667634986697
 32
0.0
 13
333.0460248126115
 23
42.46667634986697
 33
0.0
  0
SOLID
  5
9850
330
67BC
100
AcDbEntity
  8
0
  6
ByBlock
 62
     6
100
AcDbTrace
 10
395.5460248126115
 20
42.88334301653363
 30
0.0
 11
395.5460248126115
 21
42.05000968320031
 31
0.0
 12
398.0460248126115
 22
42.46667634986697
 32
0.0
 13
398.0460248126115
 23
42.46667634986697
 33
0.0
  0
POINT
  5
9851
330
67BC
100
AcDbEntity
  8
DEFPOINTS
  6
ByBlock
 62
     0
100
AcDbPoint
 10
333.0460248126115
 20
60.08456241662023
 30
0.0
  0
POINT
  5
9852
330
67BC
100
AcDbEntity
  8
DEFPOINTS
  6
ByBlock
 62
     0
100
AcDbPoint
 10
398.0460248126115
 20
60.08456241661985
 30
0.0
  0
POINT
  5
9853
330
67BC
100
AcDbEntity
  8
DEFPOINTS
  6
ByBlock
 62
     0
100
AcDbPoint
 10
398.0460248126115
 20
42.46667634986697
 30
0.0
  0
ENDBLK
  5
9854
330
67BC
100
AcDbEntity
  8
0
100
AcDbBlockEnd
  0
BLOCK
  5
9444
330
67D9
100
AcDbEntity
  8
0
100
AcDbBlockBegin
  2
*D2
 70
     1
 10
0.0
 20
0.0
 30
0.0
  3
*D2
  1

  0
LINE
  5
9445
330
67D9
100
AcDbEntity
  8
0
  6
ByBlock
 62
     6
100
AcDbLine
 10
269.3552154398872
 20
191.9411399166627
 30
0.0
 11
269.3552154398872
 21
149.114179619748
 31
0.0
  0
LINE
  5
9446
330
67D9
100
AcDbEntity
  8
0
  6
ByBlock
 62
     6
100
AcDbLine
 10
272.3915248450762
 20
191.9411399166627
 30
0.0
 11
272.3915248450762
 21
149.114179619748
 31
0.0
  0
LINE
  5
9447
330
67D9
100
AcDbEntity
  8
0
  6
ByBlock
 62
     6
100
AcDbLine
 10
266.8552154398872
 20
150.114179619748
 30
0.0
 11
264.3552154398872
 21
150.114179619748
 31
0.0
  0
LINE
  5
9448
330
67D9
100
AcDbEntity
  8
0
  6
ByBlock
 62
     6
100
AcDbLine
 10
274.8915248450762
 20
150.114179619748
 30
0.0
 11
277.3915248450762
 21
150.114179619748
 31
0.0
  0
MTEXT
  5
9449
330
67D9
100
AcDbEntity
  8
0
  6
ByBlock
 62
     3
100
AcDbMText
 10
277.3915248450762
 20
152.614179619748
 30
0.0
 40
3.0
 41
0.0
 71
     5
 72
     1
  1
\A1;3
  7
TXT
 73
     1
 44
1.0
  0
LINE
  5
944A
330
67D9
100
AcDbEntity
  8
0
  6
ByBlock
 62
     6
100
AcDbLine
 10
269.3552154398872
 20
150.114179619748
 30
0.0
 11
272.3915248450762
 21
150.114179619748
 31
0.0
  0
SOLID
  5
944B
330
67D9
100
AcDbEntity
  8
0
  6
ByBlock
 62
     6
100
AcDbTrace
 10
266.8552154398872
 20
150.5308462864147
 30
0.0
 11
266.8552154398872
 21
149.6975129530814
 31
0.0
 12
269.3552154398872
 22
150.114179619748
 32
0.0
 13
269.3552154398872
 23
150.114179619748
 33
0.0
  0
SOLID
  5
944C
330
67D9
100
AcDbEntity
  8
0
  6
ByBlock
 62
     6
100
AcDbTrace
 10
274.8915248450762
 20
150.5308462864147
 30
0.0
 11
274.8915248450762
 21
149.6975129530814
 31
0.0
 12
272.3915248450762
 22
150.114179619748
 32
0.0
 13
272.3915248450762
 23
150.114179619748
 33
0.0
  0
POINT
  5
944D
330
67D9
100
AcDbEntity
  8
DEFPOINTS
  6
ByBlock
 62
     0
100
AcDbPoint
 10
269.3552154398872
 20
192.9411399166627
 30
0.0
  0
POINT
  5
944E
330
67D9
100
AcDbEntity
  8
DEFPOINTS
  6
ByBlock
 62
     0
100
AcDbPoint
 10
272.3915248450762
 20
192.9411399166627
 30
0.0
  0
POINT
  5
944F
330
67D9
100
AcDbEntity
  8
DEFPOINTS
  6
ByBlock
 62
     0
100
AcDbPoint
 10
272.3915248450762
 20
150.114179619748
 30
0.0
  0
ENDBLK
  5
9450
330
67D9
100
AcDbEntity
  8
0
100
AcDbBlockEnd
  0
BLOCK
  5
9122
330
6854
100
AcDbEntity
  8
0
100
AcDbBlockBegin
  2
*D3
 70
     1
 10
0.0
 20
0.0
 30
0.0
  3
*D3
  1

  0
LINE
  5
9123
330
6854
100
AcDbEntity
  8
0
  6
ByBlock
 62
     6
100
AcDbLine
 10
51.68062282605183
 20
200.8959092767295
 30
0.0
 11
40.76366541727225
 21
200.8959092767295
 31
0.0
  0
LINE
  5
9124
330
6854
100
AcDbEntity
  8
0
  6
ByBlock
 62
     6
100
AcDbLine
 10
51.67625241157202
 20
207.8959092767295
 30
0.0
 11
40.76366541727225
 21
207.8959092767295
 31
0.0
  0
LINE
  5
9125
330
6854
100
AcDbEntity
  8
0
  6
ByBlock
 62
     6
100
AcDbLine
 10
41.76366541727225
 20
203.3959092767295
 30
0.0
 11
41.76366541727225
 21
205.3959092767295
 31
0.0
  0
MTEXT
  5
9126
330
6854
100
AcDbEntity
  8
0
  6
ByBlock
 62
     3
100
AcDbMText
 10
38.38926137641647
 20
217.2846585650538
 30
0.0
 40
3.0
 41
0.0
 71
     5
 72
     1
  1
\A1;7      (3等分)
  7
TXT
 11
0.0000000000000001
 21
1.0
 31
0.0
 73
     1
 44
1.0
  0
SOLID
  5
9127
330
6854
100
AcDbEntity
  8
0
  6
ByBlock
 62
     6
100
AcDbTrace
 10
41.34699875060558
 20
203.3959092767295
 30
0.0
 11
42.18033208393891
 21
203.3959092767295
 31
0.0
 12
41.76366541727225
 22
200.8959092767295
 32
0.0
 13
41.76366541727225
 23
200.8959092767295
 33
0.0
  0
SOLID
  5
9128
330
6854
100
AcDbEntity
  8
0
  6
ByBlock
 62
     6
100
AcDbTrace
 10
41.34699875060558
 20
205.3959092767295
 30
0.0
 11
42.18033208393891
 21
205.3959092767295
 31
0.0
 12
41.76366541727225
 22
207.8959092767295
 32
0.0
 13
41.76366541727225
 23
207.8959092767295
 33
0.0
  0
POINT
  5
9129
330
6854
100
AcDbEntity
  8
DEFPOINTS
  6
ByBlock
 62
     0
100
AcDbPoint
 10
52.68062282605183
 20
200.8959092767295
 30
0.0
  0
POINT
  5
912A
330
6854
100
AcDbEntity
  8
DEFPOINTS
  6
ByBlock
 62
     0
100
AcDbPoint
 10
52.67625241157202
 20
207.8959092767295
 30
0.0
  0
POINT
  5
912B
330
6854
100
AcDbEntity
  8
DEFPOINTS
  6
ByBlock
 62
     0
100
AcDbPoint
 10
41.76366541727225
 20
207.8959092767295
 30
0.0
  0
ENDBLK
  5
912C
330
6854
100
AcDbEntity
  8
0
100
AcDbBlockEnd
  0
BLOCK
  5
9829
330
6C86
100
AcDbEntity
  8
0
100
AcDbBlockBegin
  2
*D4
 70
     1
 10
0.0
 20
0.0
 30
0.0
  3
*D4
  1

  0
LINE
  5
982A
330
6C86
100
AcDbEntity
  8
0
  6
ByBlock
 62
     6
100
AcDbLine
 10
326.5460248126113
 20
82.41789574995323
 30
0.0
 11
326.5460248126113
 21
100.6091189681088
 31
0.0
  0
LINE
  5
982B
330
6C86
100
AcDbEntity
  8
0
  6
ByBlock
 62
     6
100
AcDbLine
 10
404.5460248126114
 20
82.41789574995323
 30
0.0
 11
404.5460248126114
 21
100.6091189681088
 31
0.0
  0
LINE
  5
982C
330
6C86
100
AcDbEntity
  8
0
  6
ByBlock
 62
     6
100
AcDbLine
 10
329.0460248126113
 20
99.60911896810879
 30
0.0
 11
402.0460248126114
 21
99.60911896810879
 31
0.0
  0
SOLID
  5
982D
330
6C86
100
AcDbEntity
  8
0
  6
ByBlock
 62
     6
100
AcDbTrace
 10
329.0460248126113
 20
100.0257856347754
 30
0.0
 11
329.0460248126113
 21
99.19245230144213
 31
0.0
 12
326.5460248126113
 22
99.60911896810879
 32
0.0
 13
326.5460248126113
 23
99.60911896810879
 33
0.0
  0
SOLID
  5
982E
330
6C86
100
AcDbEntity
  8
0
  6
ByBlock
 62
     6
100
AcDbTrace
 10
402.0460248126114
 20
100.0257856347754
 30
0.0
 11
402.0460248126114
 21
99.19245230144213
 31
0.0
 12
404.5460248126114
 22
99.60911896810879
 32
0.0
 13
404.5460248126114
 23
99.60911896810879
 33
0.0
  0
MTEXT
  5
982F
330
6C86
100
AcDbEntity
  8
0
  6
ByBlock
 62
     3
100
AcDbMText
 10
365.5460248126114
 20
102.1091189681088
 30
0.0
 40
3.0
 41
0.0
 71
     5
 72
     1
  1
\A1;\U+220578±0.5
  7
TXT
 73
     1
 44
1.0
  0
POINT
  5
9830
330
6C86
100
AcDbEntity
  8
DEFPOINTS
  6
ByBlock
 62
     0
100
AcDbPoint
 10
326.5460248126113
 20
81.41789574995323
 30
0.0
  0
POINT
  5
9831
330
6C86
100
AcDbEntity
  8
DEFPOINTS
  6
ByBlock
 62
     0
100
AcDbPoint
 10
404.5460248126114
 20
81.41789574995323
 30
0.0
  0
POINT
  5
9832
330
6C86
100
AcDbEntity
  8
DEFPOINTS
  6
ByBlock
 62
     0
100
AcDbPoint
 10
404.5460248126114
 20
99.60911896810879
 30
0.0
  0
ENDBLK
  5
9833
330
6C86
100
AcDbEntity
  8
0
100
AcDbBlockEnd
  0
BLOCK
  5
981E
330
6C9E
100
AcDbEntity
  8
0
100
AcDbBlockBegin
  2
*D5
 70
     1
 10
0.0
 20
0.0
 30
0.0
  3
*D5
  1

  0
LINE
  5
981F
330
6C9E
100
AcDbEntity
  8
0
  6
ByBlock
 62
     6
100
AcDbLine
 10
323.0460248126112
 20
79.91789574995323
 30
0.0
 11
323.0460248126112
 21
106.1165890585237
 31
0.0
  0
LINE
  5
9820
330
6C9E
100
AcDbEntity
  8
0
  6
ByBlock
 62
     6
100
AcDbLine
 10
408.0460248126114
 20
79.91789574995324
 30
0.0
 11
408.0460248126114
 21
106.1165890585237
 31
0.0
  0
LINE
  5
9821
330
6C9E
100
AcDbEntity
  8
0
  6
ByBlock
 62
     6
100
AcDbLine
 10
325.5460248126112
 20
105.1165890585237
 30
0.0
 11
405.5460248126114
 21
105.1165890585237
 31
0.0
  0
MTEXT
  5
9822
330
6C9E
100
AcDbEntity
  8
0
  6
ByBlock
 62
     3
100
AcDbMText
 10
361.4769686846975
 20
108.4427098084089
 30
0.0
 40
3.0
 41
0.0
 71
     5
 72
     1
  1
\A1;\U+220585
  7
TXT
 73
     1
 44
1.0
  0
SOLID
  5
9823
330
6C9E
100
AcDbEntity
  8
0
  6
ByBlock
 62
     6
100
AcDbTrace
 10
325.5460248126112
 20
105.5332557251904
 30
0.0
 11
325.5460248126112
 21
104.699922391857
 31
0.0
 12
323.0460248126112
 22
105.1165890585237
 32
0.0
 13
323.0460248126112
 23
105.1165890585237
 33
0.0
  0
SOLID
  5
9824
330
6C9E
100
AcDbEntity
  8
0
  6
ByBlock
 62
     6
100
AcDbTrace
 10
405.5460248126114
 20
105.5332557251904
 30
0.0
 11
405.5460248126114
 21
104.699922391857
 31
0.0
 12
408.0460248126114
 22
105.1165890585237
 32
0.0
 13
408.0460248126114
 23
105.1165890585237
 33
0.0
  0
POINT
  5
9825
330
6C9E
100
AcDbEntity
  8
DEFPOINTS
  6
ByBlock
 62
     0
100
AcDbPoint
 10
323.0460248126112
 20
78.91789574995323
 30
0.0
  0
POINT
  5
9826
330
6C9E
100
AcDbEntity
  8
DEFPOINTS
  6
ByBlock
 62
     0
100
AcDbPoint
 10
408.0460248126114
 20
78.91789574995325
 30
0.0
  0
POINT
  5
9827
330
6C9E
100
AcDbEntity
  8
DEFPOINTS
  6
ByBlock
 62
     0
100
AcDbPoint
 10
408.0460248126114
 20
105.1165890585237
 30
0.0
  0
ENDBLK
  5
9828
330
6C9E
100
AcDbEntity
  8
0
100
AcDbBlockEnd
  0
BLOCK
  5
916D
330
6FE3
100
AcDbEntity
  8
0
100
AcDbBlockBegin
  2
*D6
 70
     1
 10
0.0
 20
0.0
 30
0.0
  3
*D6
  1

  0
LINE
  5
916E
330
6FE3
100
AcDbEntity
  8
0
  6
ByBlock
 62
     6
100
AcDbLine
 10
128.3785872205454
 20
100.4987644138218
 30
0.0
 11
157.1448781245442
 21
83.89053861681096
 31
0.0
  0
LINE
  5
916F
330
6FE3
100
AcDbEntity
  8
0
  6
ByBlock
 62
     6
100
AcDbLine
 10
123.7585872205453
 20
92.49668968285352
 30
0.0
 11
152.5248781245441
 21
75.88846388584264
 31
0.0
  0
LINE
  5
9170
330
6FE3
100
AcDbEntity
  8
0
  6
ByBlock
 62
     6
100
AcDbLine
 10
155.0288527207598
 20
82.22547510734985
 30
0.0
 11
152.9088527207597
 21
78.55352739530373
 31
0.0
  0
LINE
  5
9171
330
6FE3
100
AcDbEntity
  8
0
  6
ByBlock
 62
     6
100
AcDbLine
 10
165.6799250957721
 20
100.6736736159645
 30
0.0
 11
156.2788527207598
 21
84.39053861681095
 31
0.0
  0
MTEXT
  5
9172
330
6FE3
100
AcDbEntity
  8
0
  6
ByBlock
 62
     3
100
AcDbMText
 10
159.9898615863111
 20
95.81819451928428
 30
0.0
 40
3.0
 41
0.0
 71
     5
 72
     1
  1
\A1;9±0.5
  7
TXT
 11
0.5000000000000011
 21
0.866025403784438
 31
0.0
 73
     1
 44
1.0
  0
SOLID
  5
9173
330
6FE3
100
AcDbEntity
  8
0
  6
ByBlock
 62
     6
100
AcDbTrace
 10
154.6680088025162
 20
82.43380844068319
 30
0.0
 11
155.3896966390033
 21
82.01714177401653
 31
0.0
 12
156.2788527207598
 22
84.39053861681095
 32
0.0
 13
156.2788527207598
 23
84.39053861681095
 33
0.0
  0
SOLID
  5
9174
330
6FE3
100
AcDbEntity
  8
0
  6
ByBlock
 62
     6
100
AcDbTrace
 10
152.5480088025162
 20
78.76186072863707
 30
0.0
 11
153.2696966390032
 21
78.3451940619704
 31
0.0
 12
151.6588527207597
 22
76.38846388584264
 32
0.0
 13
151.6588527207597
 23
76.38846388584264
 33
0.0
  0
POINT
  5
9175
330
6FE3
100
AcDbEntity
  8
DEFPOINTS
  6
ByBlock
 62
     0
100
AcDbPoint
 10
127.5125618167609
 20
100.9987644138218
 30
0.0
  0
POINT
  5
9176
330
6FE3
100
AcDbEntity
  8
DEFPOINTS
  6
ByBlock
 62
     0
100
AcDbPoint
 10
122.8925618167608
 20
92.99668968285351
 30
0.0
  0
POINT
  5
9177
330
6FE3
100
AcDbEntity
  8
DEFPOINTS
  6
ByBlock
 62
     0
100
AcDbPoint
 10
151.6588527207597
 20
76.38846388584264
 30
0.0
  0
ENDBLK
  5
9178
330
6FE3
100
AcDbEntity
  8
0
100
AcDbBlockEnd
  0
BLOCK
  5
97EF
330
74B6
100
AcDbEntity
  8
0
100
AcDbBlockBegin
  2
*D7
 70
     1
 10
0.0
 20
0.0
 30
0.0
  3
*D7
  1

  0
LINE
  5
97F0
330
74B6
100
AcDbEntity
  8
0
  6
ByBlock
 62
     6
100
AcDbLine
 10
325.5460248126113
 20
81.41789574995323
 30
0.0
 11
312.1865700453802
 21
81.41789574995323
 31
0.0
  0
LINE
  5
97F1
330
74B6
100
AcDbEntity
  8
0
  6
ByBlock
 62
     6
100
AcDbLine
 10
324.0460248126112
 20
80.91789574995322
 30
0.0
 11
312.1865700453802
 21
80.91789574995322
 31
0.0
  0
LINE
  5
97F2
330
74B6
100
AcDbEntity
  8
0
  6
ByBlock
 62
     6
100
AcDbLine
 10
313.1865700453802
 20
83.91789574995323
 30
0.0
 11
313.1865700453802
 21
86.41789574995323
 31
0.0
  0
LINE
  5
97F3
330
74B6
100
AcDbEntity
  8
0
  6
ByBlock
 62
     6
100
AcDbLine
 10
313.1865700453802
 20
78.41789574995321
 30
0.0
 11
313.1865700453802
 21
75.91789574995321
 31
0.0
  0
LINE
  5
97F4
330
74B6
100
AcDbEntity
  8
0
  6
ByBlock
 62
     6
100
AcDbLine
 10
313.1865700453802
 20
97.9888515387203
 30
0.0
 11
313.1865700453802
 21
81.41789574995323
 31
0.0
  0
MTEXT
  5
97F5
330
74B6
100
AcDbEntity
  8
0
  6
ByBlock
 62
     3
100
AcDbMText
 10
310.6865700453802
 20
94.2388515387203
 30
0.0
 40
3.0
 41
0.0
 71
     5
 72
     1
  1
\A1;0.5
  7
TXT
 11
0.0000000000000001
 21
1.0
 31
0.0
 73
     1
 44
1.0
  0
LINE
  5
97F6
330
74B6
100
AcDbEntity
  8
0
  6
ByBlock
 62
     6
100
AcDbLine
 10
313.1865700453802
 20
81.41789574995323
 30
0.0
 11
313.1865700453802
 21
80.91789574995322
 31
0.0
  0
SOLID
  5
97F7
330
74B6
100
AcDbEntity
  8
0
  6
ByBlock
 62
     6
100
AcDbTrace
 10
312.7699033787135
 20
83.91789574995323
 30
0.0
 11
313.6032367120469
 21
83.91789574995323
 31
0.0
 12
313.1865700453802
 22
81.41789574995323
 32
0.0
 13
313.1865700453802
 23
81.41789574995323
 33
0.0
  0
SOLID
  5
97F8
330
74B6
100
AcDbEntity
  8
0
  6
ByBlock
 62
     6
100
AcDbTrace
 10
312.7699033787135
 20
78.41789574995321
 30
0.0
 11
313.6032367120469
 21
78.41789574995321
 31
0.0
 12
313.1865700453802
 22
80.91789574995322
 32
0.0
 13
313.1865700453802
 23
80.91789574995322
 33
0.0
  0
POINT
  5
97F9
330
74B6
100
AcDbEntity
  8
DEFPOINTS
  6
ByBlock
 62
     0
100
AcDbPoint
 10
326.5460248126113
 20
81.41789574995323
 30
0.0
  0
POINT
  5
97FA
330
74B6
100
AcDbEntity
  8
DEFPOINTS
  6
ByBlock
 62
     0
100
AcDbPoint
 10
325.0460248126112
 20
80.91789574995322
 30
0.0
  0
POINT
  5
97FB
330
74B6
100
AcDbEntity
  8
DEFPOINTS
  6
ByBlock
 62
     0
100
AcDbPoint
 10
313.1865700453802
 20
80.91789574995322
 30
0.0
  0
ENDBLK
  5
97FC
330
74B6
100
AcDbEntity
  8
0
100
AcDbBlockEnd
  0
BLOCK
  5
9834
330
7501
100
AcDbEntity
  8
0
100
AcDbBlockBegin
  2
*D8
 70
     1
 10
0.0
 20
0.0
 30
0.0
  3
*D8
  1

  0
LINE
  5
9835
330
7501
100
AcDbEntity
  8
0
  6
ByBlock
 62
     6
100
AcDbLine
 10
332.5460248126114
 20
82.41789574995314
 30
0.0
 11
332.5460248126114
 21
94.7660241564802
 31
0.0
  0
LINE
  5
9836
330
7501
100
AcDbEntity
  8
0
  6
ByBlock
 62
     6
100
AcDbLine
 10
398.5460248126114
 20
82.41789574995323
 30
0.0
 11
398.5460248126114
 21
94.7660241564802
 31
0.0
  0
LINE
  5
9837
330
7501
100
AcDbEntity
  8
0
  6
ByBlock
 62
     6
100
AcDbLine
 10
335.0460248126114
 20
93.7660241564802
 30
0.0
 11
396.0460248126114
 21
93.7660241564802
 31
0.0
  0
SOLID
  5
9838
330
7501
100
AcDbEntity
  8
0
  6
ByBlock
 62
     6
100
AcDbTrace
 10
335.0460248126114
 20
94.18269082314687
 30
0.0
 11
335.0460248126114
 21
93.34935748981353
 31
0.0
 12
332.5460248126114
 22
93.7660241564802
 32
0.0
 13
332.5460248126114
 23
93.7660241564802
 33
0.0
  0
SOLID
  5
9839
330
7501
100
AcDbEntity
  8
0
  6
ByBlock
 62
     6
100
AcDbTrace
 10
396.0460248126114
 20
94.18269082314687
 30
0.0
 11
396.0460248126114
 21
93.34935748981353
 31
0.0
 12
398.5460248126114
 22
93.7660241564802
 32
0.0
 13
398.5460248126114
 23
93.7660241564802
 33
0.0
  0
MTEXT
  5
983A
330
7501
100
AcDbEntity
  8
0
  6
ByBlock
 62
     3
100
AcDbMText
 10
365.5460248126114
 20
96.2660241564802
 30
0.0
 40
3.0
 41
0.0
 71
     5
 72
     1
  1
\A1;\U+220566
  7
TXT
 73
     1
 44
1.0
  0
POINT
  5
983B
330
7501
100
AcDbEntity
  8
DEFPOINTS
  6
ByBlock
 62
     0
100
AcDbPoint
 10
332.5460248126114
 20
81.41789574995314
 30
0.0
  0
POINT
  5
983C
330
7501
100
AcDbEntity
  8
DEFPOINTS
  6
ByBlock
 62
     0
100
AcDbPoint
 10
398.5460248126114
 20
81.41789574995323
 30
0.0
  0
POINT
  5
983D
330
7501
100
AcDbEntity
  8
DEFPOINTS
  6
ByBlock
 62
     0
100
AcDbPoint
 10
398.5460248126114
 20
93.7660241564802
 30
0.0
  0
ENDBLK
  5
983E
330
7501
100
AcDbEntity
  8
0
100
AcDbBlockEnd
  0
BLOCK
  5
9157
330
755C
100
AcDbEntity
  8
0
100
AcDbBlockBegin
  2
*D9
 70
     1
 10
0.0
 20
0.0
 30
0.0
  3
*D9
  1

  0
LINE
  5
9158
330
755C
100
AcDbEntity
  8
0
  6
ByBlock
 62
     6
100
AcDbLine
 10
125.0125618167609
 20
114.9966896828535
 30
0.0
 11
143.3988883922231
 21
114.9966896828535
 31
0.0
  0
LINE
  5
9159
330
755C
100
AcDbEntity
  8
0
  6
ByBlock
 62
     6
100
AcDbLine
 10
126.2256125185849
 20
97.03765203504707
 30
0.0
 11
143.3988883922231
 21
97.03765203504707
 31
0.0
  0
LINE
  5
915A
330
755C
100
AcDbEntity
  8
0
  6
ByBlock
 62
     6
100
AcDbLine
 10
142.3988883922231
 20
112.4966896828535
 30
0.0
 11
142.3988883922231
 21
99.53765203504707
 31
0.0
  0
SOLID
  5
915B
330
755C
100
AcDbEntity
  8
0
  6
ByBlock
 62
     6
100
AcDbTrace
 10
141.9822217255565
 20
112.4966896828535
 30
0.0
 11
142.8155550588898
 21
112.4966896828535
 31
0.0
 12
142.3988883922231
 22
114.9966896828535
 32
0.0
 13
142.3988883922231
 23
114.9966896828535
 33
0.0
  0
SOLID
  5
915C
330
755C
100
AcDbEntity
  8
0
  6
ByBlock
 62
     6
100
AcDbTrace
 10
141.9822217255565
 20
99.53765203504707
 30
0.0
 11
142.8155550588898
 21
99.53765203504707
 31
0.0
 12
142.3988883922231
 22
97.03765203504707
 32
0.0
 13
142.3988883922231
 23
97.03765203504707
 33
0.0
  0
MTEXT
  5
915D
330
755C
100
AcDbEntity
  8
0
  6
ByBlock
 62
     3
100
AcDbMText
 10
139.8988883922231
 20
106.0171708589503
 30
0.0
 40
3.0
 41
0.0
 71
     5
 72
     1
  1
\A1;18
  7
TXT
 11
0.0000000000000001
 21
1.0
 31
0.0
 73
     1
 44
1.0
  0
POINT
  5
915E
330
755C
100
AcDbEntity
  8
DEFPOINTS
  6
ByBlock
 62
     0
100
AcDbPoint
 10
124.0125618167609
 20
114.9966896828535
 30
0.0
  0
POINT
  5
915F
330
755C
100
AcDbEntity
  8
DEFPOINTS
  6
ByBlock
 62
     0
100
AcDbPoint
 10
125.2256125185849
 20
97.03765203504707
 30
0.0
  0
POINT
  5
9160
330
755C
100
AcDbEntity
  8
DEFPOINTS
  6
ByBlock
 62
     0
100
AcDbPoint
 10
142.3988883922231
 20
97.03765203504707
 30
0.0
  0
ENDBLK
  5
9161
330
755C
100
AcDbEntity
  8
0
100
AcDbBlockEnd
  0
BLOCK
  5
9162
330
7569
100
AcDbEntity
  8
0
100
AcDbBlockBegin
  2
*D10
 70
     1
 10
0.0
 20
0.0
 30
0.0
  3
*D10
  1

  0
LINE
  5
9163
330
7569
100
AcDbEntity
  8
0
  6
ByBlock
 62
     6
100
AcDbLine
 10
123.8925618167608
 20
92.99668968285351
 30
0.0
 11
153.5479093186113
 21
92.99668968285351
 31
0.0
  0
LINE
  5
9164
330
7569
100
AcDbEntity
  8
0
  6
ByBlock
 62
     6
100
AcDbLine
 10
125.0125618167609
 20
114.9966896828535
 30
0.0
 11
153.5479093186113
 21
114.9966896828535
 31
0.0
  0
LINE
  5
9165
330
7569
100
AcDbEntity
  8
0
  6
ByBlock
 62
     6
100
AcDbLine
 10
152.5479093186113
 20
95.49668968285351
 30
0.0
 11
152.5479093186113
 21
112.4966896828535
 31
0.0
  0
SOLID
  5
9166
330
7569
100
AcDbEntity
  8
0
  6
ByBlock
 62
     6
100
AcDbTrace
 10
152.1312426519447
 20
95.49668968285351
 30
0.0
 11
152.964575985278
 21
95.49668968285351
 31
0.0
 12
152.5479093186113
 22
92.99668968285351
 32
0.0
 13
152.5479093186113
 23
92.99668968285351
 33
0.0
  0
SOLID
  5
9167
330
7569
100
AcDbEntity
  8
0
  6
ByBlock
 62
     6
100
AcDbTrace
 10
152.1312426519447
 20
112.4966896828535
 30
0.0
 11
152.964575985278
 21
112.4966896828535
 31
0.0
 12
152.5479093186113
 22
114.9966896828535
 32
0.0
 13
152.5479093186113
 23
114.9966896828535
 33
0.0
  0
MTEXT
  5
9168
330
7569
100
AcDbEntity
  8
0
  6
ByBlock
 62
     3
100
AcDbMText
 10
150.0479093186113
 20
103.9966896828535
 30
0.0
 40
3.0
 41
0.0
 71
     5
 72
     1
  1
\A1;22±0.2
  7
TXT
 11
0.0000000000000001
 21
1.0
 31
0.0
 73
     1
 44
1.0
  0
POINT
  5
9169
330
7569
100
AcDbEntity
  8
DEFPOINTS
  6
ByBlock
 62
     0
100
AcDbPoint
 10
122.8925618167608
 20
92.99668968285351
 30
0.0
  0
POINT
  5
916A
330
7569
100
AcDbEntity
  8
DEFPOINTS
  6
ByBlock
 62
     0
100
AcDbPoint
 10
124.0125618167609
 20
114.9966896828535
 30
0.0
  0
POINT
  5
916B
330
7569
100
AcDbEntity
  8
DEFPOINTS
  6
ByBlock
 62
     0
100
AcDbPoint
 10
152.5479093186113
 20
114.9966896828535
 30
0.0
  0
ENDBLK
  5
916C
330
7569
100
AcDbEntity
  8
0
100
AcDbBlockEnd
  0
BLOCK
  5
9065
330
7AC6
100
AcDbEntity
  8
0
100
AcDbBlockBegin
  2
*D11
 70
     1
 10
0.0
 20
0.0
 30
0.0
  3
*D11
  1

  0
LINE
  5
9066
330
7AC6
100
AcDbEntity
  8
0
  6
ByBlock
 62
     6
100
AcDbLine
 10
312.5311849191344
 20
112.9966896828538
 30
0.0
 11
308.7489200256147
 21
112.9966896828538
 31
0.0
  0
LINE
  5
9067
330
7AC6
100
AcDbEntity
  8
0
  6
ByBlock
 62
     6
100
AcDbLine
 10
312.5311849191344
 20
114.9966896828535
 30
0.0
 11
308.7489200256147
 21
114.9966896828535
 31
0.0
  0
LINE
  5
9068
330
7AC6
100
AcDbEntity
  8
0
  6
ByBlock
 62
     6
100
AcDbLine
 10
309.7489200256147
 20
110.4966896828538
 30
0.0
 11
309.7489200256147
 21
107.9966896828538
 31
0.0
  0
LINE
  5
9069
330
7AC6
100
AcDbEntity
  8
0
  6
ByBlock
 62
     6
100
AcDbLine
 10
309.7489200256147
 20
117.4966896828535
 30
0.0
 11
309.7489200256147
 21
119.9966896828535
 31
0.0
  0
LINE
  5
906A
330
7AC6
100
AcDbEntity
  8
0
  6
ByBlock
 62
     6
100
AcDbLine
 10
309.7489200256147
 20
124.5825033705258
 30
0.0
 11
309.7489200256147
 21
114.9966896828535
 31
0.0
  0
MTEXT
  5
906B
330
7AC6
100
AcDbEntity
  8
0
  6
ByBlock
 62
     3
100
AcDbMText
 10
307.2489200256147
 20
122.5825033705258
 30
0.0
 40
3.0
 41
0.0
 71
     5
 72
     1
  1
\A1;2
  7
TXT
 11
0.0000000000000001
 21
1.0
 31
0.0
 73
     1
 44
1.0
  0
LINE
  5
906C
330
7AC6
100
AcDbEntity
  8
0
  6
ByBlock
 62
     6
100
AcDbLine
 10
309.7489200256147
 20
112.9966896828538
 30
0.0
 11
309.7489200256147
 21
114.9966896828535
 31
0.0
  0
SOLID
  5
906D
330
7AC6
100
AcDbEntity
  8
0
  6
ByBlock
 62
     6
100
AcDbTrace
 10
309.332253358948
 20
110.4966896828538
 30
0.0
 11
310.1655866922814
 21
110.4966896828538
 31
0.0
 12
309.7489200256147
 22
112.9966896828538
 32
0.0
 13
309.7489200256147
 23
112.9966896828538
 33
0.0
  0
SOLID
  5
906E
330
7AC6
100
AcDbEntity
  8
0
  6
ByBlock
 62
     6
100
AcDbTrace
 10
309.332253358948
 20
117.4966896828535
 30
0.0
 11
310.1655866922814
 21
117.4966896828535
 31
0.0
 12
309.7489200256147
 22
114.9966896828535
 32
0.0
 13
309.7489200256147
 23
114.9966896828535
 33
0.0
  0
POINT
  5
906F
330
7AC6
100
AcDbEntity
  8
DEFPOINTS
  6
ByBlock
 62
     0
100
AcDbPoint
 10
313.5311849191344
 20
112.9966896828538
 30
0.0
  0
POINT
  5
9070
330
7AC6
100
AcDbEntity
  8
DEFPOINTS
  6
ByBlock
 62
     0
100
AcDbPoint
 10
313.5311849191344
 20
114.9966896828535
 30
0.0
  0
POINT
  5
9071
330
7AC6
100
AcDbEntity
  8
DEFPOINTS
  6
ByBlock
 62
     0
100
AcDbPoint
 10
309.7489200256147
 20
114.9966896828535
 30
0.0
  0
ENDBLK
  5
9072
330
7AC6
100
AcDbEntity
  8
0
100
AcDbBlockEnd
  0
BLOCK
  5
90D3
330
90C4
100
AcDbEntity
  8
0
100
AcDbBlockBegin
  2
*D12
 70
     1
 10
0.0
 20
0.0
 30
0.0
  3
*D12
  1

  0
LINE
  5
90D4
330
90C4
100
AcDbEntity
  8
0
  6
ByBlock
 62
     6
100
AcDbLine
 10
338.3373387479563
 20
95.56466814110235
 30
0.0
 11
374.9252456821531
 21
74.78130743858409
 31
0.0
  0
LINE
  5
90D5
330
90C4
100
AcDbEntity
  8
0
  6
ByBlock
 62
     6
100
AcDbLine
 10
335.5311849191347
 20
114.9966896828535
 30
0.0
 11
385.5499575802708
 21
114.9966896828534
 31
0.0
  0
ARC
  5
90D6
330
90C4
100
AcDbEntity
  8
0
  6
ByBlock
 62
     6
100
AcDbCircle
 10
304.1283864091389
 20
114.9966896828535
 30
0.0
 40
80.42157117113186
100
AcDbArc
 50
332.1829114385338
 51
358.218820960513
  0
SOLID
  5
90D7
330
90C4
100
AcDbEntity
  8
0
  6
ByBlock
 62
     6
100
AcDbTrace
 10
375.6220391629668
 20
77.26778542119534
 30
0.0
 11
374.8911376611862
 21
77.66806961915887
 31
0.0
 12
374.0557358181859
 22
75.2752230148353
 32
0.0
 13
374.0557358181859
 23
75.2752230148353
 33
0.0
  0
SOLID
  5
90D8
330
90C4
100
AcDbEntity
  8
0
  6
ByBlock
 62
     6
100
AcDbTrace
 10
384.0944835136807
 20
112.5034679747465
 30
0.0
 11
384.9277161793689
 21
112.4905153968312
 31
0.0
 12
384.5499575802707
 22
114.9966896828534
 32
0.0
 13
384.5499575802707
 23
114.9966896828534
 33
0.0
  0
MTEXT
  5
90D9
330
90C4
100
AcDbEntity
  8
0
  6
ByBlock
 62
     3
100
AcDbMText
 10
379.4650848060377
 20
95.09309381596384
 30
0.0
 40
3.0
 41
0.0
 71
     5
 72
     1
  1
\A1;30°
  7
TXT
 11
0.255431141438065
 21
0.9668272503315405
 31
0.0
 73
     1
 44
1.0
  0
POINT
  5
90DA
330
90C4
100
AcDbEntity
  8
DEFPOINTS
  6
ByBlock
 62
     0
100
AcDbPoint
 10
379.8276895535873
 20
87.84444091634583
 30
0.0
  0
POINT
  5
90DB
330
90C4
100
AcDbEntity
  8
DEFPOINTS
  6
ByBlock
 62
     0
100
AcDbPoint
 10
337.467828883989
 20
96.05858371735362
 30
0.0
  0
POINT
  5
90DC
330
90C4
100
AcDbEntity
  8
DEFPOINTS
  6
ByBlock
 62
     0
100
AcDbPoint
 10
266.5311849191342
 20
114.9966896828535
 30
0.0
  0
POINT
  5
90DD
330
90C4
100
AcDbEntity
  8
DEFPOINTS
  6
ByBlock
 62
     0
100
AcDbPoint
 10
334.5311849191347
 20
114.9966896828535
 30
0.0
  0
POINT
  5
90DE
330
90C4
100
AcDbEntity
  8
DEFPOINTS
  6
ByBlock
 62
     0
100
AcDbPoint
 10
324.5619034841447
 20
103.3896536052038
 30
0.0
  0
ENDBLK
  5
90DF
330
90C4
100
AcDbEntity
  8
0
100
AcDbBlockEnd
  0
ENDSEC
  0
SECTION
  2
ENTITIES
  0
MTEXT
  5
C0
330
18
100
AcDbEntity
  8
0
100
AcDbMText
 10
41.26970765600413
 20
233.6950877649332
 30
0.0
 40
2.5
 41
0.0
 71
     1
 72
     5
  1

  7
ISOCP3
 73
     1
 44
1.0
  0
MTEXT
  5
4FE4
330
18
100
AcDbEntity
  8
公差
100
AcDbMText
 10
64.13336431110383
 20
158.3331498315452
 30
0.0
 40
2.0
 41
9.555074525974475
 71
     1
 72
     5
  1
+0.15\P+0
  7
TXT
 73
     1
 44
1.0
  0
MTEXT
  5
4FE5
330
18
100
AcDbEntity
  8
公差
100
AcDbMText
 10
33.60570545471717
 20
203.9067205129278
 30
0.0
 40
2.0
 41
8.84945634767439
 71
     1
 72
     5
  1
+0.15\P+0
  7
TXT
 11
0.0000000000000001
 21
1.0
 31
0.0
 73
     1
 44
1.0
  0
MTEXT
  5
503F
330
18
100
AcDbEntity
  8
公差
100
AcDbMText
 10
94.91665557772625
 20
145.7619984741832
 30
0.0
 40
2.0
 41
11.48459459716352
 71
     1
 72
     5
  1
+0\P-0.2
  7
TXT
 73
     1
 44
1.0
  0
LINE
  5
5AD6
330
18
100
AcDbEntity
  8
DIM
100
AcDbLine
 10
161.3373116634414
 20
115.5911005826526
 30
0.0
 11
161.3373116634414
 21
132.1178270377764
 31
0.0
  0
LINE
  5
5AD7
330
18
100
AcDbEntity
  8
DIM
100
AcDbLine
 10
161.3373116634414
 20
132.1178270377764
 30
0.0
 11
173.4890517896888
 21
132.1178270377764
 31
0.0
  0
LINE
  5
5ADA
330
18
100
AcDbEntity
  8
DIM
100
AcDbLine
 10
61.30196416159083
 20
76.63988118256672
 30
0.0
 11
61.30196416159083
 21
69.35834599282197
 31
0.0
  0
TOLERANCE
  5
5E6E
330
18
100
AcDbEntity
  8
DIM
  6
ByBlock
100
AcDbFcf
  3
A
 10
173.4890517896888
 20
132.1687654739074
 30
0.0
  1
{\Fgdt;h}%%v0.005%%v%%vA%%v%%v
1001
ACAD
1000
DSTYLE
1002
{
1070
   140
1040
2.743999999999999
1070
   147
1040
0.6859999999999999
1002
}
  0
MTEXT
  5
608E
330
18
100
AcDbEntity
  8
0
100
AcDbMText
 10
17.81948278949767
 20
19.37399834316261
 30
0.0
 40
5.0
 41
0.0
 71
     1
 72
     5
  1
\Ftxt.shx,bigfont.shx|c128;呉銘宏
  7
JL
 73
     1
 44
1.0
  0
MTEXT
  5
6095
330
18
100
AcDbEntity
  8
0
100
AcDbMText
 10
81.23517665196368
 20
29.2278230533891
 30
0.0
 40
4.5
 41
0.0
 71
     1
 72
     5
  1
\Ftxt.shx,bigfont.shx|c128;1 : 1
  7
JL
 73
     1
 44
1.0
  0
MTEXT
  5
6098
330
18
100
AcDbEntity
  8
0
 48
2.0
370
    25
100
AcDbMText
 10
146.1234268906314
 20
3.636969934829039
 30
0.0
 40
4.5
 41
0.0
 71
     5
 72
     1
  1
\Ftxt.shx,bigfont.shx|c128;N L 4 0 0 1 0
 73
     1
 44
1.0
  0
MTEXT
  5
609C
330
18
100
AcDbEntity
  8
0
 48
2.0
100
AcDbMText
 10
178.1300746997774
 20
22.17550270047843
 30
0.0
 40
4.5
 41
0.0
 71
     5
 72
     1
  1
\P\Ftxt.shx,bigfont.shx|c128;    MF65X2.0P
 73
     1
 44
1.0
  0
MTEXT
  5
635A
330
18
100
AcDbEntity
  8
0
100
AcDbMText
 10
16.02348109109539
 20
28.64592585511957
 30
0.0
 40
4.5
 41
0.0
 71
     1
 72
     5
  1
\Ftxt.shx,bigfont.shx|c128;05.03.03
  7
JL
 73
     1
 44
1.0
  0
INSERT
  5
63A3
330
18
100
AcDbEntity
  8
0
100
AcDbBlockReference
  2
A$C255C26A2
 10
109.5708085123135
 20
115.5910998886718
 30
0.0
  0
MTEXT
  5
63A4
330
18
100
AcDbEntity
  8
0
 62
     7
 48
2.0
100
AcDbMText
 10
113.6646112611697
 20
120.4866508556904
 30
0.0
 40
3.0
 41
0.0
 71
     5
 72
     1
  1
G
 73
     1
 44
1.0
  0
LEADER
  5
63C9
330
18
100
AcDbEntity
  8
DIM
 62
     6
100
AcDbLeader
  3
A
 76
     2
 10
123.6891856449538
 20
228.9487067248385
 30
0.0
 10
136.339489813206
 20
240.1668563110205
 30
0.0
  0
LEADER
  5
63CA
330
18
100
AcDbEntity
  8
DIM
 62
     6
100
AcDbLeader
  3
A
 76
     2
 10
127.2622866962309
 20
103.9046449569599
 30
0.0
 10
143.0837093978031
 20
131.0654893791836
 30
0.0
  0
LEADER
  5
63CB
330
18
100
AcDbEntity
  8
DIM
 62
     6
100
AcDbLeader
  3
A
 76
     2
 10
134.0150148634149
 20
97.63206293484655
 30
0.0
 10
145.2092772405567
 20
74.66295242594059
 30
0.0
  0
MTEXT
  5
63CC
330
18
100
AcDbEntity
  8
DIM
100
AcDbMText
 10
142.4079808044569
 20
136.8140849442003
 30
0.0
 40
5.0
 41
1.0
 71
     1
 72
     5
  1
\Ftxt.shx,bigfont.shx|c128;3
 73
     1
 44
1.0
  0
MTEXT
  5
63CD
330
18
100
AcDbEntity
  8
DIM
100
AcDbMText
 10
138.4855183493169
 20
244.0223513469289
 30
0.0
 40
5.0
 41
1.0
 71
     1
 72
     5
  1
\Ftxt.shx,bigfont.shx|c128;1
 73
     1
 44
1.0
  0
MTEXT
  5
63CE
330
18
100
AcDbEntity
  8
DIM
100
AcDbMText
 10
144.2691931393805
 20
73.43510374714668
 30
0.0
 40
5.0
 41
1.0
 71
     1
 72
     5
  1
\Ftxt.shx,bigfont.shx|c128;2
 73
     1
 44
1.0
  0
LINE
  5
63CF
330
18
100
AcDbEntity
  8
DIM
100
AcDbLine
 10
61.30196416159083
 20
69.35834599282197
 30
0.0
 11
62.21442250981642
 21
68.3804718970969
 31
0.0
  0
HATCH
  5
63D0
330
18
100
AcDbEntity
  8
DIM
  6
Continuous
100
AcDbHatch
 10
0.0
 20
0.0
 30
0.0
210
0.0
220
0.0
230
1.0
  2
SOLID
 70
     1
 71
     0
 91
        1
 92
        7
 72
     0
 73
     1
 93
        3
 10
61.30084004713825
 20
67.37465759784146
 10
62.2195721357383
 20
68.35946539308519
 10
61.30084004713825
 20
69.34427318832891
 97
        0
 75
     0
 76
     1
 47
0.2359147607200769
 98
        1
 10
61.58865604336904
 20
68.57094139877671
450
        0
451
        0
460
0.0
461
0.0
452
        0
462
0.0
453
        0
470

  0
LINE
  5
63D1
330
18
100
AcDbEntity
  8
DIM
100
AcDbLine
 10
66.96151531651247
 20
66.56681809293738
 30
0.0
 11
66.96151531651247
 21
70.21311688295853
 31
0.0
  0
LINE
  5
63D2
330
18
100
AcDbEntity
  8
DIM
100
AcDbLine
 10
66.96151531651247
 20
70.21311688295853
 30
0.0
 11
70.77015056202316
 21
70.21311688295853
 31
0.0
  0
LINE
  5
63D3
330
18
100
AcDbEntity
  8
DIM
100
AcDbLine
 10
70.77015056202316
 20
66.56681809293738
 30
0.0
 11
70.77015056202316
 21
70.21311688295853
 31
0.0
  0
LINE
  5
63D4
330
18
100
AcDbEntity
  8
DIM
100
AcDbLine
 10
66.96151531651247
 20
66.56681809293738
 30
0.0
 11
70.77015056202316
 21
66.56681809293738
 31
0.0
  0
LINE
  5
63D5
330
18
100
AcDbEntity
  8
DIM
100
AcDbLine
 10
66.96151531651247
 20
68.38996748794795
 30
0.0
 11
62.20072148078941
 21
68.38996748794795
 31
0.0
  0
MTEXT
  5
63D6
330
18
100
AcDbEntity
  8
DIM
100
AcDbMText
 10
67.9187530389521
 20
69.881785167185
 30
0.0
 40
3.0
 41
2.354875985554478
 71
     1
 72
     5
  1
A
  7
ISOCP3
 73
     1
 44
1.0
  0
LINE
  5
64AF
330
18
100
AcDbEntity
  8
図框線
100
AcDbLine
 10
197.9999999999997
 20
289.9999999999999
 30
0.0
 11
197.9999999999997
 21
-0.0000000000000568
 31
0.0
  0
LINE
  5
64B0
330
18
100
AcDbEntity
  8
図框線
370
    30
100
AcDbLine
 10
-0.0000000000002274
 20
0.0
 30
0.0
 11
-0.0000000000002274
 21
290.0
 31
0.0
  0
LINE
  5
64B1
330
18
100
AcDbEntity
  8
0
 62
     7
 48
5.0
100
AcDbLine
 39
4.0
 10
49.94750515634314
 20
27.8953239783782
 30
0.0
 11
55.27930887205229
 21
29.22827490730549
 31
0.0
  0
MTEXT
  5
64B2
330
18
100
AcDbEntity
  8
0
100
AcDbMText
 10
15.97866977158742
 20
9.63134010478825
 30
0.0
 40
6.0
 41
0.0
 71
     1
 72
     5
  1
\Ftxt.shx,bigfont.shx|c128;日機株式会社
  7
LKK
 73
     1
 44
1.0
  0
LINE
  5
64B3
330
18
100
AcDbEntity
  8
図框線
100
AcDbLine
 10
0.0
 20
0.0
 30
0.0
 11
197.9999999999997
 21
0.0
 31
0.0
  0
LINE
  5
64B7
330
18
100
AcDbEntity
  8
図框線
100
AcDbLine
 10
0.0
 20
12.0
 30
0.0
 11
197.9999999999997
 21
12.00000000000005
 31
0.0
  0
LINE
  5
64B8
330
18
100
AcDbEntity
  8
図框線
100
AcDbLine
 10
0.0
 20
22.0
 30
0.0
 11
96.0
 21
22.0
 31
0.0
  0
LINE
  5
64B9
330
18
100
AcDbEntity
  8
図框線
100
AcDbLine
 10
0.0
 20
32.0
 30
0.0
 11
197.9999999999997
 21
32.0
 31
0.0
  0
LINE
  5
64BA
330
18
100
AcDbEntity
  8
図框線
100
AcDbLine
 10
12.0
 20
32.0
 30
0.0
 11
12.0
 21
12.0
 31
0.0
  0
LINE
  5
64BB
330
18
100
AcDbEntity
  8
図框線
100
AcDbLine
 10
32.0
 20
32.0
 30
0.0
 11
32.0
 21
12.0
 31
0.0
  0
MTEXT
  5
64BC
330
18
100
AcDbEntity
  8
0
100
AcDbMText
 10
2.949444248820782
 20
29.04715033351227
 30
0.0
 40
4.5
 41
0.0
 71
     1
 72
     5
  1
\Ftxt.shx,bigfont.shx|c128;日 付
  7
JL
 73
     1
 44
1.0
  0
MTEXT
  5
64BD
330
18
100
AcDbEntity
  8
0
100
AcDbMText
 10
3.095712364910014
 20
19.83833899470915
 30
0.0
 40
4.5
 41
0.0
 71
     1
 72
     5
  1
\Ftxt.shx,bigfont.shx|c128;製 図
  7
JL
 73
     1
 44
1.0
  0
LINE
  5
64C0
330
18
100
AcDbEntity
  8
0
 62
     7
370
    25
100
AcDbLine
 10
55.27930887205229
 20
23.89647119159633
 30
0.0
 11
55.27930887205229
 21
29.22827490730549
 31
0.0
  0
MTEXT
  5
64C1
330
18
100
AcDbEntity
  8
0
100
AcDbMText
 10
66.70254067332553
 20
29.42231870267847
 30
0.0
 40
4.5
 41
0.0
 71
     1
 72
     5
  1
\Ftxt.shx,bigfont.shx|c128;尺 度
  7
JL
 73
     1
 44
1.0
  0
LINE
  5
64C2
330
18
100
AcDbEntity
  8
図框線
100
AcDbLine
 10
64.0
 20
32.0
 30
0.0
 11
64.0
 21
12.0
 31
0.0
  0
LINE
  5
64C3
330
18
100
AcDbEntity
  8
0
 62
     7
370
    25
100
AcDbLine
 10
41.2833241183157
 20
23.23894871736115
 30
0.0
 11
41.2833241183157
 21
29.67466750005656
 31
0.0
  0
CIRCLE
  5
64C4
330
18
100
AcDbEntity
  8
0
 62
     7
100
AcDbCircle
 10
41.2833241183157
 20
26.5623730494508
 30
0.0
 40
2.665901857854641
  0
LINE
  5
64C6
330
18
100
AcDbEntity
  8
0
 62
     7
370
    25
100
AcDbLine
 10
49.18030281106076
 20
26.56237304945091
 30
0.0
 11
55.75797321903156
 21
26.56237304945091
 31
0.0
  0
LINE
  5
64C7
330
18
100
AcDbEntity
  8
0
 62
     7
100
AcDbLine
 10
49.94750515634314
 20
25.22942212052362
 30
0.0
 11
55.27930887205229
 21
23.89647119159633
 31
0.0
  0
LINE
  5
64C8
330
18
100
AcDbEntity
  8
図框線
100
AcDbLine
 10
44.0
 20
21.99999999999989
 30
0.0
 11
44.0
 21
12.0
 31
0.0
  0
LINE
  5
64C9
330
18
100
AcDbEntity
  8
0
 62
     7
370
    25
100
AcDbLine
 10
37.95172532843935
 20
26.5623730494508
 30
0.0
 11
44.81391594676916
 21
26.56237304945091
 31
0.0
  0
CIRCLE
  5
64CA
330
18
100
AcDbEntity
  8
0
 62
     7
100
AcDbCircle
 10
41.2833241183157
 20
26.5623730494508
 30
0.0
 40
1.33295092892732
  0
MTEXT
  5
64CB
330
18
100
AcDbEntity
  8
0
100
AcDbMText
 10
35.12086518039769
 20
19.39982343168049
 30
0.0
 40
4.5
 41
0.0
 71
     1
 72
     5
  1
\Ftxt.shx,bigfont.shx|c128;検 図
  7
JL
 73
     1
 44
1.0
  0
LINE
  5
64CC
330
18
100
AcDbEntity
  8
0
 62
     7
370
    25
100
AcDbLine
 10
49.94750515634314
 20
25.22942212052362
 30
0.0
 11
49.94750515634314
 21
27.8953239783782
 31
0.0
  0
MTEXT
  5
64CD
330
18
100
AcDbEntity
  8
0
100
AcDbMText
 10
66.99507418337498
 20
19.62882052001464
 30
0.0
 40
4.5
 41
0.0
 71
     1
 72
     5
  1
\Ftxt.shx,bigfont.shx|c128;承 認
  7
JL
 73
     1
 44
1.0
  0
LINE
  5
64CE
330
18
100
AcDbEntity
  8
図框線
100
AcDbLine
 10
132.615790078639
 20
43.13491348924492
 30
0.0
 11
192.615790078639
 21
43.13491348924481
 31
0.0
  0
LINE
  5
64CF
330
18
100
AcDbEntity
  8
図框線
100
AcDbLine
 10
132.615790078639
 20
50.33491348924497
 30
0.0
 11
192.615790078639
 21
50.33491348924497
 31
0.0
  0
LINE
  5
64D0
330
18
100
AcDbEntity
  8
図框線
100
AcDbLine
 10
132.615790078639
 20
57.5349134892449
 30
0.0
 11
192.615790078639
 21
57.53491348924478
 31
0.0
  0
LINE
  5
64D1
330
18
100
AcDbEntity
  8
図框線
100
AcDbLine
 10
132.615790078639
 20
64.73491348924494
 30
0.0
 11
192.615790078639
 21
64.73491348924483
 31
0.0
  0
LINE
  5
64D2
330
18
100
AcDbEntity
  8
図框線
100
AcDbLine
 10
132.615790078639
 20
35.93491348924488
 30
0.0
 11
192.615790078639
 21
35.93491348924488
 31
0.0
  0
MTEXT
  5
64D3
330
18
100
AcDbEntity
  8
0
 62
     7
 48
2.0
100
AcDbMText
 10
162.5011900445104
 20
65.52808189982909
 30
0.0
 40
4.8
 41
0.0
 71
     5
 72
     1
  1
\P\Ftxt.shx,bigfont.shx|c128;諸　　　　元
 73
     1
 44
1.0
  0
LINE
  5
64D5
330
18
100
AcDbEntity
  8
図框線
100
AcDbLine
 10
132.615790078639
 20
64.73491348924483
 30
0.0
 11
132.615790078639
 21
35.93491348924488
 31
0.0
  0
MTEXT
  5
64D6
330
18
100
AcDbEntity
  8
0
100
AcDbMText
 10
136.1382258923192
 20
56.00840432212407
 30
0.0
 40
4.4
 41
163.916286842249
 71
     1
 72
     5
  1
\Ftxt.shx,bigfont.shx|c128;熱　処　理
  7
JL
 73
     1
 44
1.0
  0
LINE
  5
64D7
330
18
100
AcDbEntity
  8
図框線
100
AcDbLine
 10
156.615790078639
 20
57.53491348924478
 30
0.0
 11
156.615790078639
 21
35.93491348924488
 31
0.0
  0
MTEXT
  5
64D8
330
18
100
AcDbEntity
  8
0
100
AcDbMText
 10
97.65702556263818
 20
11.15332144655735
 30
0.0
 40
5.0
 41
0.0
 71
     1
 72
     5
  1
\Ftxt.shx,bigfont.shx|c128;図  面  番  号
  7
JL
 73
     1
 44
1.0
  0
MTEXT
  5
64D9
330
18
100
AcDbEntity
  8
0
 62
     7
 48
2.0
100
AcDbMText
 10
121.8260850653862
 20
22.29156825453561
 30
0.0
 40
4.5
 41
0.0
 71
     5
 72
     1
  1
\P\Ftxt.shx,bigfont.shx|c128;    精密ロックナット
 73
     1
 44
1.0
  0
MTEXT
  5
64DA
330
18
100
AcDbEntity
  8
0
370
    25
100
AcDbMText
 10
98.8002923053598
 20
29.80688815403971
 30
0.0
 40
5.0
 41
0.0
 71
     1
 72
     5
  1
\Ftxt.shx,bigfont.shx|c128;品  名
  7
JL
 73
     1
 44
1.0
  0
LINE
  5
64DB
330
18
100
AcDbEntity
  8
図框線
100
AcDbLine
 10
96.0
 20
32.0
 30
0.0
 11
96.0
 21
0.19104161092514
 31
0.0
  0
LINE
  5
64DC
330
18
100
AcDbEntity
  8
図框線
100
AcDbLine
 10
76.0
 20
32.0
 30
0.0
 11
76.0
 21
12.0
 31
0.0
  0
LINE
  5
64DE
330
18
100
AcDbEntity
  8
図框線
100
AcDbLine
 10
153.2235601908683
 20
32.0
 30
0.0
 11
153.2235601908683
 21
12.0
 31
0.0
  0
MTEXT
  5
64DF
330
18
100
AcDbEntity
  8
0
100
AcDbMText
 10
135.85795152494
 20
49.00617587486397
 30
0.0
 40
4.4
 41
163.6058628849672
 71
     1
 72
     5
  1
\Ftxt.shx,bigfont.shx|c128;表 面 処 理
  7
JL
 73
     1
 44
1.0
  0
MTEXT
  5
64E0
330
18
100
AcDbEntity
  8
0
100
AcDbMText
 10
136.148017373375
 20
41.71770302125605
 30
0.0
 40
4.4
 41
166.1718
 71
     1
 72
     5
  1
\Ftxt.shx,bigfont.shx|c128;等     　級
  7
JL
 73
     1
 44
1.0
  0
LINE
  5
64E1
330
18
100
AcDbEntity
  8
図框線
100
AcDbLine
 10
192.615790078639
 20
64.73491348924483
 30
0.0
 11
192.615790078639
 21
35.93491348924499
 31
0.0
  0
MTEXT
  5
64E2
330
18
100
AcDbEntity
  8
0
100
AcDbMText
 10
161.3627933880816
 20
55.83344641471445
 30
0.0
 40
4.4
 41
291.8960056857887
 71
     1
 72
     5
  1
\Ftxt.shx,bigfont.shx|c128;調質　HRC30%%d%%p２%%d
  7
JL
 73
     1
 44
1.0
  0
MTEXT
  5
64E4
330
18
100
AcDbEntity
  8
0
370
    25
100
AcDbMText
 10
157.2494735287423
 20
29.58569764093568
 30
0.0
 40
5.0
 41
0.0
 71
     1
 72
     5
  1
\Ftxt.shx,bigfont.shx|c128;型  番
  7
JL
 73
     1
 44
1.0
  0
MTEXT
  5
64E5
330
18
100
AcDbEntity
  8
0
100
AcDbMText
 10
172.787265122339
 20
11.23700203391422
 30
0.0
 40
5.0
 41
0.0
 71
     1
 72
     5
  1
\Ftxt.shx,bigfont.shx|c128;変更
  7
JL
 73
     1
 44
1.0
  0
LINE
  5
64E6
330
18
100
AcDbEntity
  8
図框線
100
AcDbLine
 10
171.0
 20
12.00907027842731
 30
0.0
 11
171.0
 21
0.0
 31
0.0
  0
MTEXT
  5
64E7
330
18
100
AcDbEntity
  8
0
100
AcDbMText
 10
161.623432389518
 20
41.7183135927072
 30
0.0
 40
4.4
 41
290.783364796891
 71
     1
 72
     5
  1
\Ftxt.shx,bigfont.shx|c128;ＩＳＯ - ４Ｈ
  7
JL
 73
     1
 44
1.0
  0
MTEXT
  5
64E8
330
18
100
AcDbEntity
  8
0
100
AcDbMText
 10
161.7978935876483
 20
48.65328293790913
 30
0.0
 40
4.4
 41
291.4548
 71
     1
 72
     5
  1
\Ftxt.shx,bigfont.shx|c128;黒  　    染
  7
JL
 73
     1
 44
1.0
  0
MTEXT
  5
64EA
330
18
100
AcDbEntity
  8
0
100
AcDbMText
 10
60.06318600759005
 20
270.095850257545
 30
0.0
 40
5.0
 41
0.0
 71
     1
 72
     5
  1
\Ftxt.shx,bigfont.shx|c128;M8X1.25-6L
  7
JL
 73
     1
 44
1.0
  0
MTEXT
  5
64EB
330
18
100
AcDbEntity
  8
0
100
AcDbMText
 10
60.06318600759005
 20
262.095850257545
 30
0.0
 40
5.0
 41
0.0
 71
     1
 72
     5
  1
\Ftxt.shx,bigfont.shx|c128;%%c7X6L
  7
JL
 73
     1
 44
1.0
  0
LINE
  5
64EC
330
18
100
AcDbEntity
  8
図框線
100
AcDbLine
 10
-0.0000000000002274
 20
263.9999999999999
 30
0.0
 11
197.9999999999997
 21
263.9999999999999
 31
0.0
  0
LINE
  5
64ED
330
18
100
AcDbEntity
  8
図框線
100
AcDbLine
 10
-0.0000000000002274
 20
271.9999999999999
 30
0.0
 11
197.9999999999997
 21
271.9999999999999
 31
0.0
  0
LINE
  5
64EE
330
18
100
AcDbEntity
  8
図框線
 62
     9
100
AcDbLine
 10
-0.0000000000002274
 20
279.9999999999999
 30
0.0
 11
197.9999999999997
 21
279.9999999999999
 31
0.0
  0
LINE
  5
64EF
330
18
100
AcDbEntity
  8
図框線
100
AcDbLine
 10
-0.0000000000002274
 20
290.0
 30
0.0
 11
197.9999999999997
 21
290.0
 31
0.0
  0
MTEXT
  5
64F0
330
18
100
AcDbEntity
  8
0
100
AcDbMText
 10
59.41630259681733
 20
287.3155952051104
 30
0.0
 40
5.0
 41
0.0
 71
     1
 72
     5
  1
\Ftxt.shx,bigfont.shx|c128;図    番 / 規　　格
  7
JL
 73
     1
 44
1.0
  0
LINE
  5
64F1
330
18
100
AcDbEntity
  8
図框線
100
AcDbLine
 10
-0.0000000000002274
 20
263.9999999999999
 30
0.0
 11
197.9999999999997
 21
263.9999999999999
 31
0.0
  0
LINE
  5
64F2
330
18
100
AcDbEntity
  8
図框線
100
AcDbLine
 10
-0.0000000000002274
 20
255.9999999999999
 30
0.0
 11
197.9999999999997
 21
255.9999999999999
 31
0.0
  0
MTEXT
  5
64F3
330
18
100
AcDbEntity
  8
0
100
AcDbMText
 10
22.01434914141237
 20
286.7888025819827
 30
0.0
 40
5.0
 41
0.0
 71
     1
 72
     5
  1
\Ftxt.shx,bigfont.shx|c128;品　          名
  7
JL
 73
     1
 44
1.0
  0
MTEXT
  5
64F4
330
18
100
AcDbEntity
  8
0
100
AcDbMText
 10
18.8650376130422
 20
270.5298549795346
 30
0.0
 40
6.0
 41
0.0
 71
     1
 72
     5
  1
\Ftxt.shx,bigfont.shx|c128;セットスクリュ-
  7
JL
 73
     1
 44
1.0
  0
MTEXT
  5
64F5
330
18
100
AcDbEntity
  8
0
100
AcDbMText
 10
18.66941459004738
 20
278.3660650505403
 30
0.0
 40
6.0
 41
0.0
 71
     1
 72
     5
  1
\Ftxt.shx,bigfont.shx|c128;ロックナット　  
  7
JL
 73
     1
 44
1.0
  0
MTEXT
  5
64F6
330
18
100
AcDbEntity
  8
0
100
AcDbMText
 10
18.8650376130422
 20
262.5298549795346
 30
0.0
 40
6.0
 41
0.0
 71
     1
 72
     5
  1
\Ftxt.shx,bigfont.shx|c128;ロックピン 
  7
JL
 73
     1
 44
1.0
  0
LINE
  5
64F7
330
18
100
AcDbEntity
  8
図框線
100
AcDbLine
 10
14.99999999999977
 20
289.9999999999998
 30
0.0
 11
15.00000000000011
 21
255.9999999999999
 31
0.0
  0
LINE
  5
64F8
330
18
100
AcDbEntity
  8
0
100
AcDbLine
 10
14.99999999999977
 20
289.9999999999998
 30
0.0
 11
14.99999999999977
 21
263.9999999999999
 31
0.0
  0
MTEXT
  5
64F9
330
18
100
AcDbEntity
  8
0
100
AcDbMText
 10
6.215289087390488
 20
262.7436409356394
 30
0.0
 40
5.0
 41
0.0
 71
     1
 72
     5
  1
\Ftxt.shx,bigfont.shx|c128;3
  7
JL
 73
     1
 44
1.0
  0
MTEXT
  5
64FA
330
18
100
AcDbEntity
  8
0
100
AcDbMText
 10
7.101957026666809
 20
278.5798510066454
 30
0.0
 40
5.0
 41
0.0
 71
     1
 72
     5
  1
\Ftxt.shx,bigfont.shx|c128;1
  7
JL
 73
     1
 44
1.0
  0
MTEXT
  5
64FB
330
18
100
AcDbEntity
  8
0
100
AcDbMText
 10
6.215289087390488
 20
270.7436409356394
 30
0.0
 40
5.0
 41
0.0
 71
     1
 72
     5
  1
\Ftxt.shx,bigfont.shx|c128;2
  7
JL
 73
     1
 44
1.0
  0
MTEXT
  5
64FC
330
18
100
AcDbEntity
  8
0
100
AcDbMText
 10
2.209083991842362
 20
287.0885254164057
 30
0.0
 40
5.0
 41
0.0
 71
     1
 72
     5
  1
\Ftxt.shx,bigfont.shx|c128;照   号
  7
JL
 73
     1
 44
1.0
  0
LINE
  5
64FD
330
18
100
AcDbEntity
  8
図框線
 62
     9
100
AcDbLine
 10
54.99999999999977
 20
289.9999999999998
 30
0.0
 11
54.99999999999977
 21
256.0
 31
0.0
  0
MTEXT
  5
64FE
330
18
100
AcDbEntity
  8
0
100
AcDbMText
 10
146.3353765925378
 20
287.5804049742369
 30
0.0
 40
5.0
 41
0.0
 71
     1
 72
     5
  1
\Ftxt.shx,bigfont.shx|c128;備           考
  7
JL
 73
     1
 44
1.0
  0
LINE
  5
64FF
330
18
100
AcDbEntity
  8
図框線
 62
     9
100
AcDbLine
 10
94.99999999999976
 20
289.9999999999999
 30
0.0
 11
94.99999999999976
 21
255.9999999999999
 31
0.0
  0
MTEXT
  5
6500
330
18
100
AcDbEntity
  8
0
100
AcDbMText
 10
96.78387029776377
 20
262.3660650505403
 30
0.0
 40
5.0
 41
0.0
 71
     1
 72
     5
  1
\Ftxt.shx,bigfont.shx|c128;C3604
  7
JL
 73
     1
 44
1.0
  0
MTEXT
  5
6501
330
18
100
AcDbEntity
  8
0
100
AcDbMText
 10
96.78387029776377
 20
278.3660650505403
 30
0.0
 40
5.0
 41
0.0
 71
     1
 72
     5
  1
\Ftxt.shx,bigfont.shx|c128;SCM-440
  7
JL
 73
     1
 44
1.0
  0
MTEXT
  5
6502
330
18
100
AcDbEntity
  8
0
100
AcDbMText
 10
96.78387029776377
 20
270.3660650505403
 30
0.0
 40
5.0
 41
0.0
 71
     1
 72
     5
  1
\Ftxt.shx,bigfont.shx|c128;SCM435
  7
JL
 73
     1
 44
1.0
  0
MTEXT
  5
6503
330
18
100
AcDbEntity
  8
0
100
AcDbMText
 10
99.80032499445407
 20
287.5804049742369
 30
0.0
 40
5.0
 41
0.0
 71
     1
 72
     5
  1
\Ftxt.shx,bigfont.shx|c128;材　質
  7
JL
 73
     1
 44
1.0
  0
LINE
  5
6504
330
18
100
AcDbEntity
  8
図框線
 62
     9
100
AcDbLine
 10
114.9999999999997
 20
289.9999999999999
 30
0.0
 11
114.9999999999997
 21
255.9999999999999
 31
0.0
  0
LINE
  5
6505
330
18
100
AcDbEntity
  8
図框線
100
AcDbLine
 10
129.9999999999998
 20
289.9999999999999
 30
0.0
 11
129.9999999999998
 21
255.9999999999999
 31
0.0
  0
MTEXT
  5
6506
330
18
100
AcDbEntity
  8
0
100
AcDbMText
 10
121.2152890873904
 20
262.7436409356394
 30
0.0
 40
5.0
 41
0.0
 71
     1
 72
     5
  1
\Ftxt.shx,bigfont.shx|c128;3
  7
JL
 73
     1
 44
1.0
  0
MTEXT
  5
6507
330
18
100
AcDbEntity
  8
0
100
AcDbMText
 10
122.1019570266667
 20
278.5798510066454
 30
0.0
 40
5.0
 41
0.0
 71
     1
 72
     5
  1
\Ftxt.shx,bigfont.shx|c128;1
  7
JL
 73
     1
 44
1.0
  0
MTEXT
  5
6508
330
18
100
AcDbEntity
  8
0
100
AcDbMText
 10
121.2152890873904
 20
270.7436409356394
 30
0.0
 40
5.0
 41
0.0
 71
     1
 72
     5
  1
\Ftxt.shx,bigfont.shx|c128;3
  7
JL
 73
     1
 44
1.0
  0
MTEXT
  5
6509
330
18
100
AcDbEntity
  8
0
100
AcDbMText
 10
116.433740311917
 20
287.5804049742369
 30
0.0
 40
5.0
 41
0.0
 71
     1
 72
     5
  1
\Ftxt.shx,bigfont.shx|c128;数   量
  7
JL
 73
     1
 44
1.0
  0
DIMENSION
  5
6770
330
18
100
AcDbEntity
  8
0
100
AcDbDimension
  2
*D1
 10
126.3019641615908
 20
76.63988118256672
 30
0.0
 11
93.80196416159094
 21
76.63988118256672
 31
0.0
 12
-271.7440606510206
 22
34.17320483269975
 32
0.0
 70
   160
  1
M<>X2.0P
 71
     5
 42
-1.0
  3
A
100
AcDbAlignedDimension
 13
61.30196416159083
 23
94.25776724931997
 33
0.0
 14
126.3019641615908
 24
94.25776724931962
 34
0.0
100
AcDbRotatedDimension
  0
DIMENSION
  5
677F
330
18
100
AcDbEntity
  8
0
100
AcDbDimension
  2
*D2
 10
54.40196416159074
 20
152.4057905104882
 30
0.0
 11
59.40196416159074
 21
152.4057905104882
 31
0.0
 12
-217.9895606834855
 22
2.291610890740173
 32
0.0
 70
   160
 71
     5
 42
-1.0
  3
A
100
AcDbAlignedDimension
 13
51.36565475640174
 23
195.2327508074028
 33
0.0
 14
54.40196416159074
 24
195.2327508074028
 34
0.0
100
AcDbRotatedDimension
  0
DIMENSION
  5
6864
330
18
100
AcDbEntity
  8
DIM
100
AcDbDimension
  2
*D3
 10
40.45306776210202
 20
202.2327508074029
 30
0.0
 11
39.57866372124625
 21
211.6215000957271
 31
0.0
 12
-1.310597655170226
 22
-5.663158469326674
 32
0.0
 70
   160
  1
<>      (3等分)
 71
     5
 42
-1.0
  3
A
100
AcDbAlignedDimension
 13
51.3700251708816
 23
195.2327508074028
 33
0.0
 14
51.36565475640179
 24
202.2327508074029
 34
0.0
 50
90.0
100
AcDbRotatedDimension
  0
LINE
  5
689B
330
18
100
AcDbEntity
  8
DIM
 62
     6
100
AcDbLine
 10
40.45306776210202
 20
202.2327508074029
 30
0.0
 11
40.45306776210202
 21
224.1490596697973
 31
0.0
  0
LINE
  5
6AF0
330
18
100
AcDbEntity
  8
DIM
 62
     6
100
AcDbLine
 10
59.40196416159074
 20
152.4057905104882
 30
0.0
 11
71.20518747241987
 21
152.4057905104882
 31
0.0
  0
LEADER
  5
6B85
330
18
100
AcDbEntity
  8
DIM
 62
     6
100
AcDbLeader
  3
A
 73
     0
 74
     0
 75
     1
 40
3.0
 41
4.999999999999999
 76
     3
 10
61.55196416159083
 20
112.591100582653
 30
0.0
 10
69.52479980063657
 20
120.4273271967146
 30
0.0
 10
72.02479980063657
 20
120.4273271967146
 30
0.0
340
6B86
  0
MTEXT
  5
6B86
102
{ACAD_REACTORS
330
6B85
102
}
330
18
100
AcDbEntity
  8
DIM
 62
     3
100
AcDbMText
 10
73.02479980063657
 20
122.9273271967146
 30
0.0
 40
3.0
 41
0.0
 71
     4
 72
     1
  1
\A1;C2
  7
TXT
 73
     1
 44
1.0
  0
DIMENSION
  5
6C92
330
18
100
AcDbEntity
  8
DIM
100
AcDbDimension
  2
*D4
 10
132.8019641615908
 20
133.7823238008085
 30
0.0
 11
93.80196416159078
 21
136.2823238008085
 31
0.0
 12
-271.7440606510206
 22
34.17320483269975
 32
0.0
 70
    32
  1
%%c<>%%p0.5
 71
     5
 42
-1.0
  3
A
100
AcDbAlignedDimension
 13
54.80196416159071
 23
115.591100582653
 33
0.0
 14
132.8019641615908
 24
115.591100582653
 34
0.0
100
AcDbRotatedDimension
  0
DIMENSION
  5
6CAA
330
18
100
AcDbEntity
  8
DIM
100
AcDbDimension
  2
*D5
 10
136.3019641615908
 20
139.2897938912234
 30
0.0
 11
89.73290803367683
 21
140.1159146411087
 31
0.0
 12
-271.7440606510206
 22
34.17320483269975
 32
0.0
 70
   160
  1
%%c<>
 71
     5
 42
-1.0
  3
A
100
AcDbAlignedDimension
 13
51.3019641615906
 23
113.091100582653
 33
0.0
 14
136.3019641615908
 24
113.091100582653
 34
0.0
100
AcDbRotatedDimension
  0
DIMENSION
  5
6F74
330
18
100
AcDbEntity
  8
0
100
AcDbDimension
  2
*D6
 10
160.4482550655897
 20
76.98287478564212
 30
0.0
 11
170.9443274406022
 21
95.16260541908375
 31
0.0
 12
8.789402344830023
 22
0.5944108997994988
 32
0.0
 70
   161
  1
9%%p0.5
 71
     5
 42
-1.0
  3
A
100
AcDbAlignedDimension
 13
136.3019641615909
 23
101.5931753136213
 33
0.0
 14
131.6819641615909
 24
93.59110058265299
 34
0.0
  0
MTEXT
  5
72FF
102
{ACAD_REACTORS
330
7300
102
}
330
18
100
AcDbEntity
  8
DIM
 62
     3
100
AcDbMText
 10
112.4134223158109
 20
86.7612426861355
 30
0.0
 40
3.0
 41
0.0
 71
     6
 72
     1
  1
\A1;C2
  7
TXT
 73
     1
 44
1.0
  0
LEADER
  5
7300
330
18
100
AcDbEntity
  8
DIM
 62
     6
100
AcDbLeader
  3
A
 73
     0
 75
     1
 40
3.0
 41
4.999999999999999
 76
     3
 10
126.0519641615909
 20
94.59110058265315
 30
0.0
 10
115.913422315811
 20
84.2612426861355
 30
0.0
 10
113.4134223158109
 20
84.2612426861355
 30
0.0
340
72FF
  0
MTEXT
  5
7303
102
{ACAD_REACTORS
330
7304
102
}
330
18
100
AcDbEntity
  8
DIM
 62
     3
100
AcDbMText
 10
151.9178387614764
 20
129.6095274258685
 30
0.0
 40
3.0
 41
0.0
 71
     4
 72
     1
  1
\A1;R2
  7
TXT
 73
     1
 44
1.0
  0
LEADER
  5
7304
330
18
100
AcDbEntity
  8
DIM
 62
     6
100
AcDbLeader
  3
A
 73
     0
 74
     0
 75
     1
 40
3.0
 41
4.999999999999999
 76
     3
 10
135.7161777239639
 20
114.505314145026
 30
0.0
 10
148.4178387614764
 20
127.1095274258686
 30
0.0
 10
150.9178387614764
 20
127.1095274258686
 30
0.0
340
7303
1001
ACAD
1000
DSTYLE
1002
{
1070
    45
1040
0.0
1002
}
  0
DIMENSION
  5
74C6
330
18
100
AcDbEntity
  8
0
100
AcDbDimension
  2
*D7
 10
41.4425093943596
 20
115.0911005826529
 30
0.0
 11
41.4425093943596
 21
128.41205637142
 31
0.0
 12
-271.7440606510206
 22
34.17320483269975
 32
0.0
 70
   160
 71
     5
 42
-1.0
  3
A
100
AcDbAlignedDimension
 13
54.80196416159071
 23
115.591100582653
 33
0.0
 14
53.3019641615906
 24
115.0911005826529
 34
0.0
 50
90.0
100
AcDbRotatedDimension
  0
DIMENSION
  5
750D
330
18
100
AcDbEntity
  8
DIM
100
AcDbDimension
  2
*D8
 10
126.8019641615908
 20
127.9392289891799
 30
0.0
 11
93.80196416159083
 21
130.4392289891799
 31
0.0
 12
-271.7440606510206
 22
34.17320483269975
 32
0.0
 70
    32
  1
%%c<>
 71
     5
 42
-1.0
  3
A
100
AcDbAlignedDimension
 13
60.80196416159077
 23
115.5911005826529
 33
0.0
 14
126.8019641615908
 24
115.591100582653
 34
0.0
100
AcDbRotatedDimension
  0
DIMENSION
  5
7568
330
18
100
AcDbEntity
  8
DIM
100
AcDbDimension
  2
*D9
 10
151.1882907370532
 20
97.63206293484655
 30
0.0
 11
148.6882907370532
 21
106.6115817587497
 31
0.0
 12
8.789402344830023
 22
0.5944108997994988
 32
0.0
 70
    32
 71
     5
 42
-1.0
  3
A
100
AcDbAlignedDimension
 13
132.8019641615909
 23
115.591100582653
 33
0.0
 14
134.0150148634149
 24
97.63206293484655
 34
0.0
 50
90.0
100
AcDbRotatedDimension
  0
DIMENSION
  5
7575
330
18
100
AcDbEntity
  8
DIM
100
AcDbDimension
  2
*D10
 10
161.3373116634413
 20
115.591100582653
 30
0.0
 11
158.8373116634413
 21
104.591100582653
 31
0.0
 12
8.789402344830023
 22
0.5944108997994988
 32
0.0
 70
    32
  1
<>%%p0.2
 71
     5
 42
-1.0
  3
A
100
AcDbAlignedDimension
 13
131.6819641615909
 23
93.59110058265299
 33
0.0
 14
132.8019641615909
 24
115.591100582653
 34
0.0
 50
90.0
100
AcDbRotatedDimension
  0
DIMENSION
  5
7AD6
330
18
100
AcDbEntity
  8
DIM
100
AcDbDimension
  2
*D11
 10
103.0196992680709
 20
115.591100582653
 30
0.0
 11
103.0196992680709
 21
123.1769142703253
 31
0.0
 12
-206.7292207575437
 22
0.5944108997994704
 32
0.0
 70
   160
 71
     5
 42
-1.0
  3
A
100
AcDbAlignedDimension
 13
106.8019641615907
 23
113.5911005826532
 33
0.0
 14
106.8019641615907
 24
115.591100582653
 34
0.0
 50
90.0
100
AcDbRotatedDimension
  0
DIMENSION
  5
90D2
330
18
100
AcDbEntity
  8
DIM
100
AcDbDimension
  2
*D12
 10
122.8326827266008
 20
103.9840645050033
 30
0.0
 11
177.7358640484939
 21
95.68750471576334
 31
0.0
 12
-201.7292207575438
 22
0.5944108997994988
 32
0.0
 70
    34
  1
30%%d
 71
     5
 42
-1.0
  3
A
100
AcDb2LineAngularDimension
 13
64.80196416159043
 23
115.591100582653
 33
0.0
 14
132.8019641615909
 24
115.591100582653
 34
0.0
 15
135.7386081264452
 25
96.6529946171531
 35
0.0
 16
178.0984687960435
 26
88.43885181614531
 36
0.0
1001
ACAD
1000
DSTYLE
1002
{
1070
    79
1070
     2
1070
   179
1070
     1
1002
}
  0
ARC
  5
9610
330
18
100
AcDbEntity
  8
本体外線
100
AcDbCircle
 10
93.80196416159083
 20
198.7327508074029
 30
0.0
 40
42.5
100
AcDbArc
 50
64.72382575920889
 51
175.2761742407912
  0
CIRCLE
  5
9611
330
18
100
AcDbEntity
  8
本体外線
100
AcDbCircle
 10
93.80196416159083
 20
198.7327508074029
 30
0.0
 40
39.0
  0
ARC
  5
9612
330
18
100
AcDbEntity
  8
0
 48
0.5
100
AcDbCircle
 10
93.80196416159083
 20
198.7327508074029
 30
0.0
 40
32.5
100
AcDbArc
 50
168.9734193784273
 51
103.0442845817515
  0
CIRCLE
  5
9613
330
18
100
AcDbEntity
  8
本体外線
 48
0.5
100
AcDbCircle
 10
93.80196416159083
 20
198.7327508074029
 30
0.0
 40
31.5
  0
LINE
  5
9614
330
18
100
AcDbEntity
  8
中心線
  6
CENTER
 48
0.15
100
AcDbLine
 10
93.80196416159083
 20
243.232750807403
 30
0.0
 11
93.80196416159071
 21
154.232750807403
 31
0.0
  0
LINE
  5
9615
330
18
100
AcDbEntity
  8
本体外線
100
AcDbLine
 10
118.0108716593836
 20
233.6638085893154
 30
0.0
 11
116.5330530748361
 21
231.1041517165098
 31
0.0
  0
LINE
  5
9616
330
18
100
AcDbEntity
  8
本体外線
100
AcDbLine
 10
111.9486938328925
 20
237.1638085893154
 30
0.0
 11
110.4708752483452
 21
234.6041517165098
 31
0.0
  0
LINE
  5
9617
330
18
100
AcDbEntity
  8
本体外線
100
AcDbLine
 10
110.4708752483453
 20
234.6041517165098
 30
0.0
 11
116.5330530748361
 21
231.1041517165098
 31
0.0
  0
LINE
  5
9619
330
18
100
AcDbEntity
  8
本体内線
  6
HIDDEN
 48
0.2
100
AcDbLine
 10
81.64356597676055
 20
169.6737874126237
 30
0.0
 11
76.11039277868849
 21
160.0900503064846
 31
0.0
  0
LINE
  5
961A
330
18
100
AcDbEntity
  8
本体内線
  6
HIDDEN
 48
0.2
100
AcDbLine
 10
74.71536274648508
 20
173.6737874126237
 30
0.0
 11
69.18218954841302
 21
164.0900503064846
 31
0.0
  0
LINE
  5
961B
330
18
100
AcDbEntity
  8
本体内線
  6
HIDDEN
 48
0.2
100
AcDbLine
 10
75.19949260543774
 20
173.3123249257912
 30
0.0
 11
69.67558693828255
 21
163.7446396540607
 31
0.0
  0
LINE
  5
961C
330
18
100
AcDbEntity
  8
本体内線
  6
HIDDEN
 48
0.2
100
AcDbLine
 10
81.12395073448977
 20
169.9737874126238
 30
0.0
 11
75.56455968401667
 21
160.3446396540607
 31
0.0
  0
LINE
  5
961D
330
18
100
AcDbEntity
  8
中心線
  6
CENTER
 48
0.15
100
AcDbLine
 10
49.30196416159083
 20
198.7327508074029
 30
0.0
 11
138.3019641615908
 21
198.7327508074031
 31
0.0
  0
LINE
  5
961E
330
18
100
AcDbEntity
  8
本体外線
100
AcDbLine
 10
51.44632699249609
 20
202.2327508074029
 30
0.0
 11
54.40196416159086
 21
202.2327508074028
 31
0.0
  0
LINE
  5
961F
330
18
100
AcDbEntity
  8
本体外線
100
AcDbLine
 10
51.44632699249609
 20
195.2327508074028
 30
0.0
 11
54.40196416159086
 21
195.2327508074028
 31
0.0
  0
LINE
  5
9620
330
18
100
AcDbEntity
  8
本体外線
100
AcDbLine
 10
54.40196416159074
 20
195.232750807403
 30
0.0
 11
54.40196416159086
 21
202.2327508074028
 31
0.0
  0
LINE
  5
9621
330
18
100
AcDbEntity
  8
中心線
  6
CENTER
 48
0.15
100
AcDbLine
 10
71.55196416159089
 20
160.1946203389954
 30
0.0
 11
79.05196416159106
 21
173.1850013957619
 31
0.0
  0
LINE
  5
9622
330
18
100
AcDbEntity
  8
本体外線
100
AcDbLine
 10
111.9486938328926
 20
160.3016930254906
 30
0.0
 11
110.4708752483453
 21
162.8613498982962
 31
0.0
  0
LINE
  5
9623
330
18
100
AcDbEntity
  8
本体外線
100
AcDbLine
 10
118.0108716593837
 20
163.8016930254906
 30
0.0
 11
116.5330530748365
 21
166.361349898296
 31
0.0
  0
LINE
  5
9624
330
18
100
AcDbEntity
  8
本体外線
100
AcDbLine
 10
116.5330530748363
 20
166.3613498982961
 30
0.0
 11
110.4708752483453
 21
162.8613498982962
 31
0.0
  0
ARC
  5
9625
330
18
100
AcDbEntity
  8
本体外線
100
AcDbCircle
 10
93.80196416159083
 20
198.7327508074029
 30
0.0
 40
42.5
100
AcDbArc
 50
304.723825759209
 51
55.2761742407912
  0
ARC
  5
9626
330
18
100
AcDbEntity
  8
本体外線
100
AcDbCircle
 10
93.80196416159083
 20
198.7327508074029
 30
0.0
 40
42.5
100
AcDbArc
 50
184.7238257592089
 51
295.2761742407913
  0
LINE
  5
9627
330
18
100
AcDbEntity
  8
本体内線
  6
HIDDEN
 48
0.2
100
AcDbLine
 10
125.0469637615268
 20
202.7327508074028
 30
0.0
 11
136.113310157671
 21
202.7327508074028
 31
0.0
  0
LINE
  5
9628
330
18
100
AcDbEntity
  8
本体内線
  6
HIDDEN
 48
0.2
100
AcDbLine
 10
125.0469637615268
 20
194.7327508074028
 30
0.0
 11
136.1133101576708
 21
194.7327508074028
 31
0.0
  0
LINE
  5
9629
330
18
100
AcDbEntity
  8
本体内線
  6
HIDDEN
 48
0.2
100
AcDbLine
 10
125.0469637615267
 20
195.3327508074029
 30
0.0
 11
136.165745862473
 21
195.3327508074028
 31
0.0
  0
LINE
  5
962A
330
18
100
AcDbEntity
  8
本体内線
  6
HIDDEN
 48
0.2
100
AcDbLine
 10
125.0469637615268
 20
202.1327508074029
 30
0.0
 11
136.1657458624729
 21
202.1327508074029
 31
0.0
  0
LINE
  5
962B
330
18
100
AcDbEntity
  8
中心線
  6
CENTER
 48
0.15
100
AcDbLine
 10
79.05196416159083
 20
224.2805002190439
 30
0.0
 11
71.55196416159094
 21
237.2708812758105
 31
0.0
  0
LINE
  5
962C
330
18
100
AcDbEntity
  8
本体内線
  6
HIDDEN
 48
0.2
100
AcDbLine
 10
74.71536274648508
 20
223.7917142021822
 30
0.0
 11
69.18218954841313
 21
233.3754513083213
 31
0.0
  0
LINE
  5
962D
330
18
100
AcDbEntity
  8
本体内線
  6
HIDDEN
 48
0.2
100
AcDbLine
 10
81.64356597676079
 20
227.7917142021822
 30
0.0
 11
76.11039277868861
 21
237.3754513083213
 31
0.0
  0
LINE
  5
962E
330
18
100
AcDbEntity
  8
本体内線
  6
HIDDEN
 48
0.2
100
AcDbLine
 10
81.12395073448988
 20
227.4917142021823
 30
0.0
 11
75.5645596840169
 21
237.1208619607453
 31
0.0
  0
LINE
  5
962F
330
18
100
AcDbEntity
  8
本体内線
  6
HIDDEN
 48
0.2
100
AcDbLine
 10
75.23497798875587
 20
224.0917142021822
 30
0.0
 11
69.67558693828277
 21
233.7208619607453
 31
0.0
  0
LINE
  5
9631
102
{ACAD_REACTORS
330
97E0
102
}
330
18
100
AcDbEntity
  8
本体外線
100
AcDbLine
 10
54.80196416159071
 20
115.591100582653
 30
0.0
 11
132.8019641615908
 21
115.591100582653
 31
0.0
  0
LINE
  5
9632
330
18
100
AcDbEntity
  8
本体外線
100
AcDbLine
 10
51.3019641615906
 20
113.091100582653
 30
0.0
 11
51.30196416159083
 21
101.591100582653
 31
0.0
  0
LINE
  5
9633
102
{ACAD_REACTORS
330
97E0
102
}
330
18
100
AcDbEntity
  8
本体外線
100
AcDbLine
 10
136.3019641615908
 20
113.091100582653
 30
0.0
 11
136.3019641615909
 21
101.5931753136213
 31
0.0
  0
LINE
  5
9634
102
{ACAD_REACTORS
330
97E0
102
}
330
18
100
AcDbEntity
  8
本体外線
100
AcDbLine
 10
55.92196416159072
 20
93.59110058265299
 30
0.0
 11
131.6819641615909
 21
93.59110058265299
 31
0.0
  0
LINE
  5
9635
102
{ACAD_REACTORS
330
97E0
102
}
330
18
100
AcDbEntity
  8
本体外線
100
AcDbLine
 10
54.80196416159083
 20
115.591100582653
 30
0.0
 11
54.80196416159083
 21
115.091100582653
 31
0.0
  0
LINE
  5
9636
102
{ACAD_REACTORS
330
97E0
102
}
330
18
100
AcDbEntity
  8
本体外線
100
AcDbLine
 10
62.30196416159083
 20
111.591100582653
 30
0.0
 11
62.30196416159083
 21
95.59110058265298
 31
0.0
  0
LINE
  5
9638
102
{ACAD_REACTORS
330
967A
330
97E0
102
}
330
18
100
AcDbEntity
  8
本体外線
100
AcDbLine
 10
125.3019641615908
 20
111.591100582653
 30
0.0
 11
125.3019641615908
 21
95.59110058265302
 31
0.0
  0
LINE
  5
9639
102
{ACAD_REACTORS
330
97E0
102
}
330
18
100
AcDbEntity
  8
本体外線
100
AcDbLine
 10
132.8019641615908
 20
115.591100582653
 30
0.0
 11
132.8019641615908
 21
115.091100582653
 31
0.0
  0
LINE
  5
963A
102
{ACAD_REACTORS
330
97E0
102
}
330
18
100
AcDbEntity
  8
本体外線
100
AcDbLine
 10
53.3019641615906
 20
115.091100582653
 30
0.0
 11
54.80196416159083
 21
115.091100582653
 31
0.0
  0
LINE
  5
963B
102
{ACAD_REACTORS
330
97E0
102
}
330
18
100
AcDbEntity
  8
本体外線
100
AcDbLine
 10
132.8019641615908
 20
115.091100582653
 30
0.0
 11
134.3019641615908
 21
115.091100582653
 31
0.0
  0
ARC
  5
963C
330
18
100
AcDbEntity
  8
本体外線
100
AcDbCircle
 10
53.3019641615906
 20
113.091100582653
 30
0.0
 40
2.0
100
AcDbArc
 50
90.0
 51
180.0000000000002
  0
ARC
  5
963D
102
{ACAD_REACTORS
330
97E0
102
}
330
18
100
AcDbEntity
  8
本体外線
100
AcDbCircle
 10
134.3019641615908
 20
113.091100582653
 30
0.0
 40
2.0
100
AcDbArc
 50
0.0000000000002544
 51
90.0
  0
LINE
  5
963E
330
18
100
AcDbEntity
  8
本体外線
100
AcDbLine
 10
60.80196416159083
 20
113.591100582653
 30
0.0
 11
126.8019641615908
 21
113.591100582653
 31
0.0
  0
LINE
  5
963F
330
18
100
AcDbEntity
  8
本体外線
100
AcDbLine
 10
62.30196416159083
 20
95.59110058265298
 30
0.0
 11
125.3019641615908
 21
95.59110058265298
 31
0.0
  0
LINE
  5
9640
102
{ACAD_REACTORS
330
97E0
102
}
330
18
100
AcDbEntity
  8
本体外線
100
AcDbLine
 10
62.30196416159083
 20
111.591100582653
 30
0.0
 11
60.80196416159083
 21
113.591100582653
 31
0.0
  0
LINE
  5
9643
330
18
100
AcDbEntity
  8
中心線
 48
0.15
100
AcDbLine
 10
93.80196416159071
 20
117.591100582653
 30
0.0
 11
93.80196416159089
 21
91.59110058265298
 31
0.0
  0
POINT
  5
9649
330
18
100
AcDbEntity
  8
本体外線
100
AcDbPoint
 10
132.8019641615908
 20
115.591100582653
 30
0.0
  0
POINT
  5
9653
330
18
100
AcDbEntity
  8
本体外線
100
AcDbPoint
 10
132.8019641615908
 20
115.591100582653
 30
0.0
  0
LINE
  5
9659
102
{ACAD_REACTORS
330
97E0
102
}
330
18
100
AcDbEntity
  8
本体外線
100
AcDbLine
 10
54.40196416159079
 20
115.091100582653
 30
0.0
 11
54.40196416159079
 21
96.22381781015759
 31
0.0
  0
LINE
  5
965B
330
18
100
AcDbEntity
  8
0
100
AcDbLine
 10
131.2991438385635
 20
94.52803633299973
 30
0.0
 11
135.2991438385637
 21
101.4562395632757
 31
0.0
  0
LINE
  5
965C
330
18
100
AcDbEntity
  8
本体内線
  6
HIDDEN
 48
0.1
100
AcDbLine
 10
133.4433618391426
 20
100.0875064416349
 30
0.0
 11
131.5566104931951
 21
98.99819004415784
 31
0.0
  0
LINE
  5
965D
330
18
100
AcDbEntity
  8
本体内線
  6
HIDDEN
 48
0.1
100
AcDbLine
 10
131.5566104931949
 20
98.99819004415761
 30
0.0
 11
131.5566104931946
 21
96.81955724920349
 31
0.0
  0
LWPOLYLINE
  5
965E
102
{ACAD_REACTORS
330
97E0
102
}
330
18
100
AcDbEntity
  8
本体外線
100
AcDbPolyline
 90
        2
 70
     0
 43
0.0
 10
131.6819641615909
 20
93.59110058265313
 10
136.3019641615909
 20
101.5931753136213
  0
LINE
  5
9661
330
18
100
AcDbEntity
  8
本体内線
  6
HIDDEN
 48
0.1
100
AcDbLine
 10
134.9353398345649
 20
99.22611254435267
 30
0.0
 11
133.4433618391425
 21
100.0875064416349
 31
0.0
  0
LINE
  5
9662
330
18
100
AcDbEntity
  8
本体内線
  6
HIDDEN
 48
0.1
100
AcDbLine
 10
133.0485884886169
 20
95.95816335192129
 30
0.0
 11
131.5566104931947
 21
96.81955724920346
 31
0.0
  0
LINE
  5
9663
330
18
100
AcDbEntity
  8
0
100
AcDbLine
 10
130.2978858289095
 20
102.0343161446772
 30
0.0
 11
133.0299366364784
 21
102.7663669522461
 31
0.0
  0
LINE
  5
9664
330
18
100
AcDbEntity
  8
0
100
AcDbLine
 10
128.2978858289096
 20
98.57021452953953
 30
0.0
 11
129.0299366364784
 21
95.83816372197063
 31
0.0
  0
LINE
  5
9665
330
18
100
AcDbEntity
  8
0
100
AcDbLine
 10
133.0299366364784
 20
102.7663669522461
 30
0.0
 11
129.0299366364784
 21
95.83816372197063
 31
0.0
  0
LINE
  5
9666
330
18
100
AcDbEntity
  8
0
100
AcDbLine
 10
135.2991438385637
 20
99.85623956327462
 30
0.0
 11
131.1371163134501
 21
102.2591872752735
 31
0.0
  0
LINE
  5
9667
330
18
100
AcDbEntity
  8
0
100
AcDbLine
 10
132.6847844846185
 20
95.3280363329998
 30
0.0
 11
128.5227569595061
 21
97.73098404499808
 31
0.0
  0
LINE
  5
9668
102
{ACAD_REACTORS
330
967A
102
}
330
18
100
AcDbEntity
  8
0
100
AcDbLine
 10
131.0478858289098
 20
103.3333542503535
 30
0.0
 11
127.5478858289098
 21
97.27117642386268
 31
0.0
  0
LINE
  5
9669
102
{ACAD_REACTORS
330
967A
102
}
330
18
100
AcDbEntity
  8
0
100
AcDbLine
 10
131.0478858289098
 20
103.3333542503535
 30
0.0
 11
125.3019641615908
 21
106.6507636717227
 31
0.0
  0
LINE
  5
966A
102
{ACAD_REACTORS
330
967A
102
}
330
18
100
AcDbEntity
  8
0
100
AcDbLine
 10
127.5478858289099
 20
97.27117642386261
 30
0.0
 11
125.3019641615908
 21
98.56785990306807
 31
0.0
  0
LWPOLYLINE
  5
966B
102
{ACAD_REACTORS
330
97E0
102
}
330
18
100
AcDbEntity
  8
0
100
AcDbPolyline
 90
        3
 70
     0
 43
0.0
 10
135.2991438385637
 20
99.85623956327541
 10
135.2991438385637
 20
101.456239563275
 10
125.3019641615908
 20
107.2281139409123
  0
LWPOLYLINE
  5
966C
102
{ACAD_REACTORS
330
97E0
102
}
330
18
100
AcDbEntity
  8
0
100
AcDbPolyline
 90
        3
 70
     0
 43
0.0
 10
132.6847844846185
 20
95.3280363329998
 10
131.2991438385635
 20
94.52803633299973
 10
125.3019641615908
 20
97.99050963387841
  0
LINE
  5
9670
102
{ACAD_REACTORS
330
967A
102
}
330
18
100
AcDbEntity
  8
中心線
 48
0.15
100
AcDbLine
 10
135.7386081264452
 20
96.65299461715305
 30
0.0
 11
124.06989976647
 21
103.2812768857729
 31
0.0
  0
LINE
  5
9674
330
18
100
AcDbEntity
  8
本体外線
100
AcDbLine
 10
62.30196416159083
 20
111.591100582653
 30
0.0
 11
125.3019641615908
 21
111.591100582653
 31
0.0
  0
LINE
  5
9675
102
{ACAD_REACTORS
330
97E0
102
}
330
18
100
AcDbEntity
  8
本体外線
100
AcDbLine
 10
125.3019641615908
 20
111.591100582653
 30
0.0
 11
126.8019641615908
 21
113.591100582653
 31
0.0
  0
LWPOLYLINE
  5
9676
102
{ACAD_REACTORS
330
97E0
102
}
330
18
100
AcDbEntity
  8
本体外線
100
AcDbPolyline
 90
        2
 70
     0
 43
0.0
 10
55.92196416159066
 20
93.59110058265313
 10
51.30196416159066
 20
101.5931753136213
  0
HATCH
  5
967A
330
18
100
AcDbEntity
  8
0
100
AcDbHatch
 10
0.0
 20
0.0
 30
0.0
210
0.0
220
0.0
230
1.0
  2
AR-SAND
 70
     0
 71
     1
 91
        2
 92
        7
 72
     0
 73
     1
 93
        4
 10
129.3019340173043
 20
100.309277005086
 10
131.0478858289098
 20
103.3333542503536
 10
125.3019641615908
 20
106.6507636717227
 10
125.3019641615908
 20
102.581416170084
 97
        4
330
9669
330
9638
330
9670
330
9668
 92
        7
 72
     0
 73
     1
 93
        4
 10
125.3019641615908
 20
98.56785990306804
 10
127.5478858289098
 20
97.27117642386264
 10
129.3019340173043
 20
100.309277005086
 10
125.3019641615908
 20
102.581416170084
 97
        4
330
9670
330
9638
330
966A
330
9668
 75
     0
 76
     1
 52
0.0
 41
0.07
 77
     0
 78
     4
 53
37.5
 43
-101.0130438669976
 44
-153.4781626932819
 45
-0.1120021907188832
 46
3.425892661305396
 79
     6
 49
0.0
 49
-2.70256
 49
0.0
 49
-3.0226
 49
0.0
 49
-2.88925
 53
7.499999999999999
 43
-101.0130438669976
 44
-153.4781626932819
 45
3.146662981966018
 46
5.01777570397848
 79
     6
 49
0.0
 49
-1.45796
 49
0.0
 49
-2.43586
 49
0.0
 49
-0.9334500000000002
 53
327.5
 43
-103.1999838669976
 44
-153.4781626932819
 45
5.536946591690205
 46
0.0100602927498199
 79
     6
 49
0.0
 49
-0.889
 49
0.0
 49
-3.2004
 49
0.0
 49
-4.1783
 53
317.5
 43
-103.1999838669976
 44
-153.4781626932819
 45
5.34489516730608
 46
1.560505262800513
 79
     6
 49
0.0
 49
-0.4445000000000001
 49
0.0
 49
-2.09804
 49
0.0
 49
-2.4003
 47
0.1709226312049173
 98
        2
 10
127.6577549737935
 20
103.0344858685595
 10
126.2888143706277
 20
100.1288011607026
  0
LINE
  5
97B2
102
{ACAD_REACTORS
330
97E0
102
}
330
18
100
AcDbEntity
  8
0
100
AcDbLine
 10
61.30196416159083
 20
112.9244339159863
 30
0.0
 11
61.30196416159083
 21
94.25776724931964
 31
0.0
  0
LINE
  5
97B3
102
{ACAD_REACTORS
330
97E0
102
}
330
18
100
AcDbEntity
  8
0
100
AcDbLine
 10
126.3019641615909
 20
112.9244339159863
 30
0.0
 11
126.3019641615909
 21
106.6507636717227
 31
0.0
  0
LINE
  5
97B4
102
{ACAD_REACTORS
330
97E0
102
}
330
18
100
AcDbEntity
  8
本体外線
100
AcDbLine
 10
60.80196416159077
 20
115.591100582653
 30
0.0
 11
60.80196416159083
 21
113.591100582653
 31
0.0
  0
LINE
  5
97B5
102
{ACAD_REACTORS
330
97E0
102
}
330
18
100
AcDbEntity
  8
本体外線
100
AcDbLine
 10
126.8019641615908
 20
115.591100582653
 30
0.0
 11
126.8019641615908
 21
113.591100582653
 31
0.0
  0
LINE
  5
97B6
102
{ACAD_REACTORS
330
97E0
102
}
330
18
100
AcDbEntity
  8
本体外線
100
AcDbLine
 10
62.30196416159083
 20
95.59110058265298
 30
0.0
 11
60.80196416159083
 21
93.59110058265299
 31
0.0
  0
LINE
  5
97B7
102
{ACAD_REACTORS
330
97E0
102
}
330
18
100
AcDbEntity
  8
本体外線
100
AcDbLine
 10
125.3019641615908
 20
95.59110058265298
 30
0.0
 11
126.8019641615908
 21
93.59110058265299
 31
0.0
  0
LINE
  5
97B8
102
{ACAD_REACTORS
330
97E0
102
}
330
18
100
AcDbEntity
  8
0
100
AcDbLine
 10
126.3019641615908
 20
97.41315936468879
 30
0.0
 11
126.3019641615908
 21
94.25776724931962
 31
0.0
  0
HATCH
  5
97E0
330
18
100
AcDbEntity
  8
剖面線
100
AcDbHatch
 10
0.0
 20
0.0
 30
0.0
210
0.0
220
0.0
230
1.0
  2
ANSI31
 70
     0
 71
     1
 91
        6
 92
        7
 72
     0
 73
     1
 93
       10
 10
61.30196416159083
 20
112.9244339159863
 10
60.80196416159083
 20
113.591100582653
 10
60.80196416159077
 20
115.591100582653
 10
54.80196416159083
 20
115.591100582653
 10
54.80196416159083
 20
115.091100582653
 10
54.40196416159079
 20
115.0911005826529
 10
54.40196416159079
 20
96.22381781015759
 10
55.92196416159074
 20
93.59110058265299
 10
60.80196416159084
 20
93.59110058265299
 10
61.30196416159083
 20
94.25776724931965
 97
       10
330
9640
330
97B4
330
9631
330
9635
330
963A
330
9659
330
9676
330
9634
330
97B6
330
97B2
 92
        7
 72
     0
 73
     1
 93
        4
 10
62.30196416159084
 20
111.5911005826529
 10
61.30196416159083
 20
112.9244339159863
 10
61.30196416159082
 20
94.25776724931964
 10
62.30196416159083
 20
95.59110058265298
 97
        4
330
9640
330
97B2
330
97B6
330
9636
 92
        7
 72
     1
 73
     1
 93
       11
 10
136.3019641615908
 20
113.091100582653
 42
0.4142135623730938
 10
134.3019641615908
 20
115.091100582653
 42
0.0
 10
132.8019641615908
 20
115.091100582653
 42
0.0
 10
132.8019641615908
 20
115.591100582653
 42
0.0
 10
126.8019641615908
 20
115.591100582653
 42
0.0
 10
126.8019641615908
 20
113.591100582653
 42
0.0
 10
126.3019641615909
 20
112.9244339159864
 42
0.0
 10
126.3019641615909
 20
106.6507636717227
 42
0.0
 10
135.2991438385637
 20
101.456239563275
 42
0.0
 10
135.2991438385637
 20
99.85623956327552
 42
0.0
 10
136.3019641615909
 20
101.5931753136213
 42
0.0
 97
       10
330
963D
330
963B
330
9639
330
9631
330
97B5
330
9675
330
97B3
330
966B
330
965E
330
9633
 92
        7
 72
     0
 73
     1
 93
        4
 10
126.3019641615908
 20
112.9244339159864
 10
125.3019641615908
 20
111.5911005826529
 10
125.3019641615908
 20
107.2281139409123
 10
126.3019641615909
 20
106.6507636717227
 97
        4
330
9675
330
9638
330
966B
330
97B3
 92
        7
 72
     0
 73
     1
 93
        6
 10
126.3019641615908
 20
94.25776724931964
 10
126.8019641615908
 20
93.59110058265299
 10
131.6819641615908
 20
93.59110058265299
 10
132.6847844846187
 20
95.32803633299996
 10
131.2991438385635
 20
94.52803633299973
 10
126.3019641615908
 20
97.41315936468883
 97
        5
330
97B8
330
97B7
330
9634
330
965E
330
966C
 92
        7
 72
     0
 73
     1
 93
        4
 10
125.3019641615908
 20
95.59110058265298
 10
126.3019641615908
 20
94.25776724931969
 10
126.3019641615908
 20
97.41315936468879
 10
125.3019641615908
 20
97.99050963387841
 97
        4
330
966C
330
9638
330
97B7
330
97B8
 75
     0
 76
     1
 52
0.0
 41
0.5
 77
     0
 78
     1
 53
45.0
 43
-271.7440606510206
 44
34.17320483269975
 45
-1.122532015133643
 46
1.122532015133644
 79
     0
 47
0.1779140980741035
 98
        6
 10
60.3221562366823
 20
106.8347671199051
 10
61.88492532787768
 20
105.2127346369519
 10
132.2246163257011
 20
108.9206756083368
 10
125.8316067613718
 20
109.0933211976766
 10
127.6458396660243
 20
94.93638361248054
 10
125.7452141771286
 20
96.49019391653792
  0
MTEXT
  5
986A
330
18
100
AcDbEntity
  8
0
100
AcDbMText
 10
49.81948278949767
 20
19.37399834316261
 30
0.0
 40
5.0
 41
0.0
 71
     1
 72
     5
  1
\Ftxt.shx,bigfont.shx|c128;小柳
  7
JL
 73
     1
 44
1.0
  0
ENDSEC
  0
SECTION
  2
OBJECTS
  0
DICTIONARY
  5
C
330
0
100
AcDbDictionary
281
     1
  3
ACAD_COLOR
350
986E
  3
ACAD_GROUP
350
D
  3
ACAD_LAYOUT
350
5CF3
  3
ACAD_MATERIAL
350
986D
  3
ACAD_MLINESTYLE
350
1B
  3
ACAD_PLOTSETTINGS
350
5CF4
  3
ACAD_PLOTSTYLENAME
350
5CF1
  3
ACAD_TABLESTYLE
350
986F
  3
ACDBVARIABLEDICTIONARY
350
45D
  0
DICTIONARY
  5
45F
330
18
100
AcDbDictionary
280
     1
281
     1
  3
ACAD_LAYOUTSELFREF
360
5D8B
  3
ACAD_SORTENTS
360
460
  0
DICTIONARY
  5
5D89
330
15
100
AcDbDictionary
280
     1
281
     1
  3
ACAD_LAYOUTSELFREF
360
5D8A
  0
DICTIONARY
  5
986E
102
{ACAD_REACTORS
330
C
102
}
330
C
100
AcDbDictionary
281
     1
  0
DICTIONARY
  5
D
102
{ACAD_REACTORS
330
C
102
}
330
C
100
AcDbDictionary
281
     1
  0
DICTIONARY
  5
5CF3
102
{ACAD_REACTORS
330
C
102
}
330
C
100
AcDbDictionary
281
     1
  3
Model
350
5CF5
  3
配置1
350
5CF6
  0
DICTIONARY
  5
986D
102
{ACAD_REACTORS
330
C
102
}
330
C
100
AcDbDictionary
281
     1
  0
DICTIONARY
  5
1B
102
{ACAD_REACTORS
330
C
102
}
330
C
100
AcDbDictionary
281
     1
  3
STANDARD
350
1C
  0
DICTIONARY
  5
5CF4
102
{ACAD_REACTORS
330
C
102
}
330
C
100
AcDbDictionary
281
     1
  0
ACDBDICTIONARYWDFLT
  5
5CF1
102
{ACAD_REACTORS
330
C
102
}
330
C
100
AcDbDictionary
281
     1
  3
Normal
350
5CF2
100
AcDbDictionaryWithDefault
340
5CF2
  0
DICTIONARY
  5
986F
102
{ACAD_REACTORS
330
C
102
}
330
C
100
AcDbDictionary
281
     1
  3
Standard
350
9870
  0
DICTIONARY
  5
45D
102
{ACAD_REACTORS
330
C
102
}
330
C
100
AcDbDictionary
281
     1
  3
CTABLESTYLE
350
9878
  3
SORTENTS
350
45E
  0
XRECORD
  5
5D8B
102
{ACAD_REACTORS
330
45F
102
}
330
45F
100
AcDbXrecord
280
     1
340
18
  0
SORTENTSTABLE
  5
460
102
{ACAD_REACTORS
330
45F
102
}
330
45F
100
AcDbSortentsTable
330
18
331
C0
  5
CB
  0
XRECORD
  5
5D8A
102
{ACAD_REACTORS
330
5D89
102
}
330
5D89
100
AcDbXrecord
280
     1
340
15
  0
LAYOUT
  5
5CF5
102
{ACAD_REACTORS
330
5CF3
102
}
330
5CF3
100
AcDbPlotSettings
  1

  2
EPSON STYLUS COLOR 440
  4

  6

 40
0.0
 41
0.0
 42
0.0
 43
0.0
 44
0.0
 45
0.0
 46
0.0
 47
0.0
 48
0.0
 49
0.0
140
0.0
141
0.0
142
1.0
143
1.0
 70
  1712
 72
     0
 73
     0
 74
     0
  7
a.ctb
 75
     0
147
1.0
 76
     0
 77
     2
 78
   300
148
0.0
149
0.0
100
AcDbLayout
  1
Model
 70
     1
 71
     0
 10
0.0
 20
0.0
 11
12.0
 21
9.0
 12
0.0
 22
0.0
 32
0.0
 14
0.0
 24
0.0
 34
0.0
 15
0.0
 25
0.0
 35
0.0
146
0.0
 13
0.0
 23
0.0
 33
0.0
 16
1.0
 26
0.0
 36
0.0
 17
0.0
 27
1.0
 37
0.0
 76
     0
330
18
  0
LAYOUT
  5
5CF6
102
{ACAD_REACTORS
330
5CF3
102
}
330
5CF3
100
AcDbPlotSettings
  1

  2
EPSON STYLUS COLOR 440
  4

  6

 40
0.0
 41
0.0
 42
0.0
 43
0.0
 44
0.0
 45
0.0
 46
0.0
 47
0.0
 48
0.0
 49
0.0
140
0.0
141
0.0
142
1.0
143
1.0
 70
   688
 72
     0
 73
     0
 74
     5
  7
a.ctb
 75
    16
147
1.0
 76
     0
 77
     2
 78
   300
148
0.0
149
0.0
100
AcDbLayout
  1
ｰtｸm1
 70
     1
 71
     1
 10
0.0
 20
0.0
 11
420.0
 21
297.0
 12
0.0
 22
0.0
 32
0.0
 14
1.000000000000000E+20
 24
1.000000000000000E+20
 34
1.000000000000000E+20
 15
-1.000000000000000E+20
 25
-1.000000000000000E+20
 35
-1.000000000000000E+20
146
0.0
 13
0.0
 23
0.0
 33
0.0
 16
1.0
 26
0.0
 36
0.0
 17
0.0
 27
1.0
 37
0.0
 76
     0
330
15
  0
MLINESTYLE
  5
1C
102
{ACAD_REACTORS
330
1B
102
}
330
1B
100
AcDbMlineStyle
  2
STANDARD
 70
     0
  3

 62
   256
 51
90.0
 52
90.0
 71
     2
 49
0.5
 62
   256
  6
BYLAYER
 49
-0.5
 62
   256
  6
BYLAYER
  0
ACDBPLACEHOLDER
  5
5CF2
102
{ACAD_REACTORS
330
5CF1
102
}
330
5CF1
  0
TABLESTYLE
  5
9870
102
{ACAD_REACTORS
330
986F
102
}
330
986F
100
AcDbTableStyle
  3
Standard
 70
     0
 71
     8
 40
1.5
 41
1.5
280
     0
281
     0
  7
STANDARD
140
4.5
170
     2
 62
     0
 63
     7
283
     0
274
    -2
284
     1
 64
     0
275
    -2
285
     1
 65
     0
276
    -2
286
     1
 66
     0
277
    -2
287
     1
 67
     0
278
    -2
288
     1
 68
     0
279
    -2
289
     1
 69
     0
  7
STANDARD
140
6.0
170
     5
 62
     0
 63
     7
283
     0
274
    -2
284
     1
 64
     0
275
    -2
285
     1
 65
     0
276
    -2
286
     1
 66
     0
277
    -2
287
     1
 67
     0
278
    -2
288
     1
 68
     0
279
    -2
289
     1
 69
     0
  7
STANDARD
140
4.5
170
     5
 62
     0
 63
     7
283
     0
274
    -2
284
     1
 64
     0
275
    -2
285
     1
 65
     0
276
    -2
286
     1
 66
     0
277
    -2
287
     1
 67
     0
278
    -2
288
     1
 68
     0
279
    -2
289
     1
 69
     0
  0
DICTIONARYVAR
  5
9878
102
{ACAD_REACTORS
330
45D
102
}
330
45D
100
DictionaryVariables
280
     0
  1
STANDARD
  0
DICTIONARYVAR
  5
45E
102
{ACAD_REACTORS
330
45D
102
}
330
45D
100
DictionaryVariables
280
     0
  1
127
  0
ENDSEC
  0
EOF
