  0
SECTION
  2
HEADER
  9
$ACADVER
  1
AC1018
  9
$ACADMAINTVER
 70
    76
  9
$DWGCODEPAGE
  3
ANSI_932
  9
$INSBASE
 10
0.0
 20
0.0
 30
0.0
  9
$EXTMIN
 10
-0.0000000000002274
 20
-0.0000000000000568
 30
0.0
  9
$EXTMAX
 10
197.9999999999997
 20
290.0
 30
4.0
  9
$LIMMIN
 10
0.0
 20
0.0
  9
$LIMMAX
 10
420.0
 20
297.0
  9
$ORTHOMODE
 70
     1
  9
$REGENMODE
 70
     1
  9
$FILLMODE
 70
     1
  9
$QTEXTMODE
 70
     0
  9
$MIRRTEXT
 70
     1
  9
$LTSCALE
 40
1.0
  9
$ATTMODE
 70
     1
  9
$TEXTSIZE
 40
2.5
  9
$TRACEWID
 40
1.0
  9
$TEXTSTYLE
  7
TXT
  9
$CLAYER
  8
DIM
  9
$CELTYPE
  6
BYLAYER
  9
$CECOLOR
 62
   256
  9
$CELTSCALE
 40
1.0
  9
$DISPSILH
 70
     0
  9
$DIMSCALE
 40
1.0
  9
$DIMASZ
 40
2.5
  9
$DIMEXO
 40
1.0
  9
$DIMDLI
 40
6.0
  9
$DIMRND
 40
0.0
  9
$DIMDLE
 40
0.0
  9
$DIMEXE
 40
1.0
  9
$DIMTP
 40
0.0
  9
$DIMTM
 40
0.0
  9
$DIMTXT
 40
3.0
  9
$DIMCEN
 40
0.0
  9
$DIMTSZ
 40
0.0
  9
$DIMTOL
 70
     0
  9
$DIMLIM
 70
     0
  9
$DIMTIH
 70
     0
  9
$DIMTOH
 70
     0
  9
$DIMSE1
 70
     0
  9
$DIMSE2
 70
     0
  9
$DIMTAD
 70
     3
  9
$DIMZIN
 70
     8
  9
$DIMBLK
  1

  9
$DIMASO
 70
     1
  9
$DIMSHO
 70
     1
  9
$DIMPOST
  1

  9
$DIMAPOST
  1

  9
$DIMALT
 70
     0
  9
$DIMALTD
 70
     2
  9
$DIMALTF
 40
25.4
  9
$DIMLFAC
 40
1.0
  9
$DIMTOFL
 70
     0
  9
$DIMTVP
 40
0.0
  9
$DIMTIX
 70
     0
  9
$DIMSOXD
 70
     0
  9
$DIMSAH
 70
     0
  9
$DIMBLK1
  1

  9
$DIMBLK2
  1

  9
$DIMSTYLE
  2
A
  9
$DIMCLRD
 70
     6
  9
$DIMCLRE
 70
     6
  9
$DIMCLRT
 70
     3
  9
$DIMTFAC
 40
1.0
  9
$DIMGAP
 40
1.0
  9
$DIMJUST
 70
     0
  9
$DIMSD1
 70
     0
  9
$DIMSD2
 70
     0
  9
$DIMTOLJ
 70
     1
  9
$DIMTZIN
 70
     0
  9
$DIMALTZ
 70
     0
  9
$DIMALTTZ
 70
     0
  9
$DIMUPT
 70
     0
  9
$DIMDEC
 70
     1
  9
$DIMTDEC
 70
     1
  9
$DIMALTU
 70
     2
  9
$DIMALTTD
 70
     2
  9
$DIMTXSTY
  7
TXT
  9
$DIMAUNIT
 70
     0
  9
$DIMADEC
 70
     0
  9
$DIMALTRND
 40
0.0
  9
$DIMAZIN
 70
     0
  9
$DIMDSEP
 70
    46
  9
$DIMATFIT
 70
     3
  9
$DIMFRAC
 70
     0
  9
$DIMLDRBLK
  1

  9
$DIMLUNIT
 70
     2
  9
$DIMLWD
 70
    -2
  9
$DIMLWE
 70
    -2
  9
$DIMTMOVE
 70
     1
  9
$LUNITS
 70
     2
  9
$LUPREC
 70
     2
  9
$SKETCHINC
 40
1.0
  9
$FILLETRAD
 40
1.5
  9
$AUNITS
 70
     0
  9
$AUPREC
 70
     2
  9
$MENU
  1
.
  9
$ELEVATION
 40
0.0
  9
$PELEVATION
 40
0.0
  9
$THICKNESS
 40
0.0
  9
$LIMCHECK
 70
     0
  9
$CHAMFERA
 40
0.0
  9
$CHAMFERB
 40
0.0
  9
$CHAMFERC
 40
1.75
  9
$CHAMFERD
 40
0.0174532925199433
  9
$SKPOLY
 70
     0
  9
$TDCREATE
 40
2451555.578568171
  9
$TDUCREATE
 40
2451555.203568172
  9
$TDUPDATE
 40
2455846.605523461
  9
$TDUUPDATE
 40
2455846.230523461
  9
$TDINDWG
 40
2.7032077315
  9
$TDUSRTIMER
 40
2.7032077315
  9
$USRTIMER
 70
     1
  9
$ANGBASE
 50
0.0
  9
$ANGDIR
 70
     0
  9
$PDMODE
 70
     0
  9
$PDSIZE
 40
0.0
  9
$PLINEWID
 40
0.0
  9
$SPLFRAME
 70
     0
  9
$SPLINETYPE
 70
     6
  9
$SPLINESEGS
 70
     8
  9
$HANDSEED
  5
919D
  9
$SURFTAB1
 70
     6
  9
$SURFTAB2
 70
     6
  9
$SURFTYPE
 70
     6
  9
$SURFU
 70
     6
  9
$SURFV
 70
     6
  9
$UCSBASE
  2

  9
$UCSNAME
  2

  9
$UCSORG
 10
0.0
 20
0.0
 30
0.0
  9
$UCSXDIR
 10
1.0
 20
0.0
 30
0.0
  9
$UCSYDIR
 10
0.0
 20
1.0
 30
0.0
  9
$UCSORTHOREF
  2

  9
$UCSORTHOVIEW
 70
     0
  9
$UCSORGTOP
 10
0.0
 20
0.0
 30
0.0
  9
$UCSORGBOTTOM
 10
0.0
 20
0.0
 30
0.0
  9
$UCSORGLEFT
 10
0.0
 20
0.0
 30
0.0
  9
$UCSORGRIGHT
 10
0.0
 20
0.0
 30
0.0
  9
$UCSORGFRONT
 10
0.0
 20
0.0
 30
0.0
  9
$UCSORGBACK
 10
0.0
 20
0.0
 30
0.0
  9
$PUCSBASE
  2

  9
$PUCSNAME
  2

  9
$PUCSORG
 10
0.0
 20
0.0
 30
0.0
  9
$PUCSXDIR
 10
1.0
 20
0.0
 30
0.0
  9
$PUCSYDIR
 10
0.0
 20
1.0
 30
0.0
  9
$PUCSORTHOREF
  2

  9
$PUCSORTHOVIEW
 70
     0
  9
$PUCSORGTOP
 10
0.0
 20
0.0
 30
0.0
  9
$PUCSORGBOTTOM
 10
0.0
 20
0.0
 30
0.0
  9
$PUCSORGLEFT
 10
0.0
 20
0.0
 30
0.0
  9
$PUCSORGRIGHT
 10
0.0
 20
0.0
 30
0.0
  9
$PUCSORGFRONT
 10
0.0
 20
0.0
 30
0.0
  9
$PUCSORGBACK
 10
0.0
 20
0.0
 30
0.0
  9
$USERI1
 70
     0
  9
$USERI2
 70
     0
  9
$USERI3
 70
     0
  9
$USERI4
 70
     0
  9
$USERI5
 70
     0
  9
$USERR1
 40
0.0
  9
$USERR2
 40
0.0
  9
$USERR3
 40
0.0
  9
$USERR4
 40
0.0
  9
$USERR5
 40
0.0
  9
$WORLDVIEW
 70
     1
  9
$SHADEDGE
 70
     3
  9
$SHADEDIF
 70
    70
  9
$TILEMODE
 70
     1
  9
$MAXACTVP
 70
    48
  9
$PINSBASE
 10
0.0
 20
0.0
 30
0.0
  9
$PLIMCHECK
 70
     0
  9
$PEXTMIN
 10
1.000000000000000E+20
 20
1.000000000000000E+20
 30
1.000000000000000E+20
  9
$PEXTMAX
 10
-1.000000000000000E+20
 20
-1.000000000000000E+20
 30
-1.000000000000000E+20
  9
$PLIMMIN
 10
0.0
 20
0.0
  9
$PLIMMAX
 10
420.0
 20
297.0
  9
$UNITMODE
 70
     0
  9
$VISRETAIN
 70
     1
  9
$PLINEGEN
 70
     0
  9
$PSLTSCALE
 70
     1
  9
$TREEDEPTH
 70
  3020
  9
$CMLSTYLE
  2
STANDARD
  9
$CMLJUST
 70
     0
  9
$CMLSCALE
 40
20.0
  9
$PROXYGRAPHICS
 70
     1
  9
$MEASUREMENT
 70
     1
  9
$CELWEIGHT
370
    -1
  9
$ENDCAPS
280
     0
  9
$JOINSTYLE
280
     0
  9
$LWDISPLAY
290
     0
  9
$INSUNITS
 70
     0
  9
$HYPERLINKBASE
  1

  9
$STYLESHEET
  1

  9
$XEDIT
290
     1
  9
$CEPSNTYPE
380
     0
  9
$PSTYLEMODE
290
     1
  9
$FINGERPRINTGUID
  2
{1CF51E8A-A506-11D4-A7D9-AF69F5C20846}
  9
$VERSIONGUID
  2
{1CF51E8C-A506-11D4-A7D9-AF69F5C20846}
  9
$EXTNAMES
290
     1
  9
$PSVPSCALE
 40
0.0
  9
$OLESTARTUP
290
     0
  9
$SORTENTS
280
   127
  9
$INDEXCTL
280
     0
  9
$HIDETEXT
280
     0
  9
$XCLIPFRAME
290
     0
  9
$HALOGAP
280
     0
  9
$OBSCOLOR
 70
   257
  9
$OBSLTYPE
280
     0
  9
$INTERSECTIONDISPLAY
280
     0
  9
$INTERSECTIONCOLOR
 70
   257
  9
$DIMASSOC
280
     1
  9
$PROJECTNAME
  1

  0
ENDSEC
  0
SECTION
  2
CLASSES
  0
CLASS
  1
DICTIONARYVAR
  2
AcDbDictionaryVar
  3
ObjectDBX Classes
 90
        0
 91
        2
280
     0
281
     0
  0
CLASS
  1
SORTENTSTABLE
  2
AcDbSortentsTable
  3
ObjectDBX Classes
 90
        0
 91
        1
280
     0
281
     0
  0
CLASS
  1
ACDBDICTIONARYWDFLT
  2
AcDbDictionaryWithDefault
  3
ObjectDBX Classes
 90
        0
 91
        1
280
     0
281
     0
  0
CLASS
  1
TABLESTYLE
  2
AcDbTableStyle
  3
ObjectDBX Classes
 90
     2047
 91
        1
280
     0
281
     0
  0
ENDSEC
  0
SECTION
  2
TABLES
  0
TABLE
  2
VPORT
  5
8
330
0
100
AcDbSymbolTable
 70
     2
  0
VPORT
  5
919C
330
8
100
AcDbSymbolTableRecord
100
AcDbViewportTableRecord
  2
*Active
 70
     0
 10
0.0
 20
0.0
 11
1.0
 21
1.0
 12
192.8062349708658
 22
144.9945025220401
 13
0.0
 23
0.0
 14
10.0
 24
10.0
 15
10.0
 25
10.0
 16
0.0
 26
0.0
 36
1.0
 17
0.0
 27
0.0
 37
0.0
 40
293.4642832937157
 41
2.47104247104247
 42
50.0
 43
0.0
 44
0.0
 50
0.0
 51
0.0
 71
     0
 72
   100
 73
     1
 74
     1
 75
     0
 76
     0
 77
     0
 78
     0
281
     0
 65
     1
110
0.0
120
0.0
130
0.0
111
1.0
121
0.0
131
0.0
112
0.0
122
1.0
132
0.0
 79
     0
146
0.0
  0
ENDTAB
  0
TABLE
  2
LTYPE
  5
5
330
0
100
AcDbSymbolTable
 70
     7
  0
LTYPE
  5
12
330
5
100
AcDbSymbolTableRecord
100
AcDbLinetypeTableRecord
  2
BYBLOCK
 70
     0
  3

 72
    65
 73
     0
 40
0.0
  0
LTYPE
  5
13
330
5
100
AcDbSymbolTableRecord
100
AcDbLinetypeTableRecord
  2
BYLAYER
 70
     0
  3

 72
    65
 73
     0
 40
0.0
  0
LTYPE
  5
14
330
5
100
AcDbSymbolTableRecord
100
AcDbLinetypeTableRecord
  2
CONTINUOUS
 70
     0
  3
Solid line
 72
    65
 73
     0
 40
0.0
  0
LTYPE
  5
9D
330
5
100
AcDbSymbolTableRecord
100
AcDbLinetypeTableRecord
  2
CENTERX2
 70
     0
  3
Center (2x) ________  __  ________  __  _____
 72
    65
 73
     4
 40
101.6
 49
63.5
 74
     0
 49
-12.7
 74
     0
 49
12.7
 74
     0
 49
-12.7
 74
     0
  0
LTYPE
  5
A1
330
5
100
AcDbSymbolTableRecord
100
AcDbLinetypeTableRecord
  2
DASHED
 70
     0
  3
Dashed __ __ __ __ __ __ __ __ __ __ __ __ __ _
 72
    65
 73
     2
 40
19.05
 49
12.7
 74
     0
 49
-6.349999999999999
 74
     0
  0
LTYPE
  5
A2
330
5
100
AcDbSymbolTableRecord
100
AcDbLinetypeTableRecord
  2
DASHED2
 70
     0
  3
Dashed (.5x) _ _ _ _ _ _ _ _ _ _ _ _ _ _ _ _ _
 72
    65
 73
     2
 40
9.524999999999998
 49
6.349999999999999
 74
     0
 49
-3.174999999999999
 74
     0
  0
LTYPE
  5
A5
330
5
100
AcDbSymbolTableRecord
100
AcDbLinetypeTableRecord
  2
DIVIDE2
 70
     0
  3
Divide (.5x) __..__..__..__..__..__..__..__.._
 72
    65
 73
     6
 40
15.875
 49
6.349999999999999
 74
     0
 49
-3.174999999999999
 74
     0
 49
0.0
 74
     0
 49
-3.174999999999999
 74
     0
 49
0.0
 74
     0
 49
-3.174999999999999
 74
     0
  0
LTYPE
  5
650B
330
5
100
AcDbSymbolTableRecord
100
AcDbLinetypeTableRecord
  2
CENTER
 70
     0
  3
Center ____ _ ____ _ ____ _ ____ _ ____ _ ____
 72
    65
 73
     4
 40
50.8
 49
31.75
 74
     0
 49
-6.349999999999999
 74
     0
 49
6.349999999999999
 74
     0
 49
-6.349999999999999
 74
     0
  0
LTYPE
  5
650C
330
5
100
AcDbSymbolTableRecord
100
AcDbLinetypeTableRecord
  2
HIDDEN
 70
     0
  3
Hidden __ __ __ __ __ __ __ __ __ __ __ __ __ _
 72
    65
 73
     2
 40
9.524999999999998
 49
6.349999999999999
 74
     0
 49
-3.174999999999999
 74
     0
  0
ENDTAB
  0
TABLE
  2
LAYER
  5
2
330
0
100
AcDbSymbolTable
 70
     9
  0
LAYER
  5
E
330
2
100
AcDbSymbolTableRecord
100
AcDbLayerTableRecord
  2
0
 70
     0
 62
     7
  6
CONTINUOUS
370
    -3
390
5CF2
  0
LAYER
  5
B9
330
2
100
AcDbSymbolTableRecord
100
AcDbLayerTableRecord
  2
DIM
 70
     0
 62
     3
  6
CONTINUOUS
370
    -3
390
5CF2
  0
LAYER
  5
F2
330
2
100
AcDbSymbolTableRecord
100
AcDbLayerTableRecord
  2
DEFPOINTS
 70
     0
 62
     4
  6
CONTINUOUS
290
     0
370
    -3
390
5CF2
  0
LAYER
  5
5F8B
330
2
100
AcDbSymbolTableRecord
100
AcDbLayerTableRecord
  2
公差
 70
     0
 62
     6
  6
CONTINUOUS
370
    -3
390
5CF2
  0
LAYER
  5
644E
330
2
100
AcDbSymbolTableRecord
100
AcDbLayerTableRecord
  2
図框線
 70
     0
 62
     9
  6
CONTINUOUS
370
    -3
390
5CF2
  0
LAYER
  5
650D
330
2
100
AcDbSymbolTableRecord
100
AcDbLayerTableRecord
  2
中心線
 70
     0
 62
     1
  6
CENTER
370
    -3
390
5CF2
  0
LAYER
  5
650E
330
2
100
AcDbSymbolTableRecord
100
AcDbLayerTableRecord
  2
本体内線
 70
     0
 62
     4
  6
HIDDEN
370
    -3
390
5CF2
  0
LAYER
  5
650F
330
2
100
AcDbSymbolTableRecord
100
AcDbLayerTableRecord
  2
本体外線
 70
     0
 62
     2
  6
CONTINUOUS
370
    -3
390
5CF2
  0
LAYER
  5
6510
330
2
100
AcDbSymbolTableRecord
100
AcDbLayerTableRecord
  2
剖面線
 70
     0
 62
     5
  6
CONTINUOUS
370
    -3
390
5CF2
  0
ENDTAB
  0
TABLE
  2
STYLE
  5
3
330
0
100
AcDbSymbolTable
 70
     5
  0
STYLE
  5
F
330
3
100
AcDbSymbolTableRecord
100
AcDbTextStyleTableRecord
  2
STANDARD
 70
     0
 40
0.0
 41
1.0
 50
0.0
 71
     0
 42
2.5
  3
txt
  4

  0
STYLE
  5
BE
330
3
100
AcDbSymbolTableRecord
100
AcDbTextStyleTableRecord
  2
ISOCP3
 70
     0
 40
0.0
 41
1.0
 50
0.0
 71
     0
 42
2.5
  3
isocp3.shx
  4

  0
STYLE
  5
2A37
330
3
100
AcDbSymbolTableRecord
100
AcDbTextStyleTableRecord
  2
TXT
 70
     0
 40
0.0
 41
1.0
 50
0.0
 71
     0
 42
2.5
  3
txt.shx
  4
bigfont.shx
  0
STYLE
  5
5DCB
330
3
100
AcDbSymbolTableRecord
100
AcDbTextStyleTableRecord
  2
LKK
 70
     0
 40
50.0
 41
1.5
 50
0.0
 71
     0
 42
50.0
  3
MS PGothic.ttf
  4

1001
ACAD
1000
MS PGothic
1071
    32818
  0
STYLE
  5
5DCC
330
3
100
AcDbSymbolTableRecord
100
AcDbTextStyleTableRecord
  2
JL
 70
     0
 40
10.0
 41
0.5
 50
0.0
 71
     0
 42
5.0
  3
MS Mincho.ttf
  4

1001
ACAD
1000
MS Mincho
1071
    32785
  0
ENDTAB
  0
TABLE
  2
VIEW
  5
6
330
0
100
AcDbSymbolTable
 70
     0
  0
ENDTAB
  0
TABLE
  2
UCS
  5
7
330
0
100
AcDbSymbolTable
 70
     0
  0
ENDTAB
  0
TABLE
  2
APPID
  5
9
330
0
100
AcDbSymbolTable
 70
     1
  0
APPID
  5
10
330
9
100
AcDbSymbolTableRecord
100
AcDbRegAppTableRecord
  2
ACAD
 70
     0
  0
ENDTAB
  0
TABLE
  2
DIMSTYLE
  5
A
330
0
100
AcDbSymbolTable
 70
     3
100
AcDbDimStyleTable
 71
     0
  0
DIMSTYLE
105
1D
330
A
100
AcDbSymbolTableRecord
100
AcDbDimStyleTableRecord
  2
STANDARD
 70
     0
 41
3.0
 42
0.06
 77
     3
140
4.0
144
0.3333333333333333
172
     1
340
F
  0
DIMSTYLE
105
1A4
102
{ACAD_REACTORS
330
6770
330
677F
330
6864
330
6C92
330
6CAA
330
6F74
330
74C6
330
750D
330
7568
330
7575
330
7AD6
330
90D2
102
}
330
A
100
AcDbSymbolTableRecord
100
AcDbDimStyleTableRecord
  2
A
 70
     0
 41
2.5
 42
1.0
 43
6.0
 44
1.0
 73
     0
 74
     0
 77
     3
 78
     8
140
3.0
141
0.0
147
1.0
176
     6
177
     6
178
     3
271
     1
272
     1
279
     1
340
2A37
  0
DIMSTYLE
105
6006
330
A
100
AcDbSymbolTableRecord
100
AcDbDimStyleTableRecord
  2
ISO-25
 70
     0
 40
0.0
 41
2.0
 42
0.3
 43
1.0
 44
0.3
 73
     0
 74
     0
 77
     1
 78
     8
140
3.0
147
1.0
172
     1
176
     6
177
     6
178
     3
271
     1
272
     2
284
     8
288
     1
289
     2
340
F
  0
ENDTAB
  0
TABLE
  2
BLOCK_RECORD
  5
1
330
0
100
AcDbSymbolTable
 70
    13
  0
BLOCK_RECORD
  5
18
102
{ACAD_XDICTIONARY
360
45F
102
}
330
1
100
AcDbSymbolTableRecord
100
AcDbBlockTableRecord
  2
*MODEL_SPACE
340
5CF5
  0
BLOCK_RECORD
  5
15
102
{ACAD_XDICTIONARY
360
5D89
102
}
330
1
100
AcDbSymbolTableRecord
100
AcDbBlockTableRecord
  2
*PAPER_SPACE
340
5CF6
  0
BLOCK_RECORD
  5
639D
330
1
100
AcDbSymbolTableRecord
100
AcDbBlockTableRecord
  2
A$C255C26A2
340
0
102
{BLKREFS
331
63A3
102
}
  0
BLOCK_RECORD
  5
67BC
330
1
100
AcDbSymbolTableRecord
100
AcDbBlockTableRecord
  2
*D1
340
0
  0
BLOCK_RECORD
  5
67D9
330
1
100
AcDbSymbolTableRecord
100
AcDbBlockTableRecord
  2
*D2
340
0
  0
BLOCK_RECORD
  5
6854
330
1
100
AcDbSymbolTableRecord
100
AcDbBlockTableRecord
  2
*D3
340
0
  0
BLOCK_RECORD
  5
6C86
330
1
100
AcDbSymbolTableRecord
100
AcDbBlockTableRecord
  2
*D4
340
0
  0
BLOCK_RECORD
  5
6C9E
330
1
100
AcDbSymbolTableRecord
100
AcDbBlockTableRecord
  2
*D5
340
0
  0
BLOCK_RECORD
  5
6FE3
330
1
100
AcDbSymbolTableRecord
100
AcDbBlockTableRecord
  2
*D6
340
0
  0
BLOCK_RECORD
  5
74B6
330
1
100
AcDbSymbolTableRecord
100
AcDbBlockTableRecord
  2
*D7
340
0
  0
BLOCK_RECORD
  5
7501
330
1
100
AcDbSymbolTableRecord
100
AcDbBlockTableRecord
  2
*D8
340
0
  0
BLOCK_RECORD
  5
755C
330
1
100
AcDbSymbolTableRecord
100
AcDbBlockTableRecord
  2
*D9
340
0
  0
BLOCK_RECORD
  5
7569
330
1
100
AcDbSymbolTableRecord
100
AcDbBlockTableRecord
  2
*D10
340
0
  0
BLOCK_RECORD
  5
7AC6
330
1
100
AcDbSymbolTableRecord
100
AcDbBlockTableRecord
  2
*D11
340
0
  0
BLOCK_RECORD
  5
90C4
330
1
100
AcDbSymbolTableRecord
100
AcDbBlockTableRecord
  2
*D12
340
0
  0
ENDTAB
  0
ENDSEC
  0
SECTION
  2
BLOCKS
  0
BLOCK
  5
19
330
18
100
AcDbEntity
  8
0
100
AcDbBlockBegin
  2
*MODEL_SPACE
 70
     0
 10
0.0
 20
0.0
 30
0.0
  3
*MODEL_SPACE
  1

  0
ENDBLK
  5
1A
330
18
100
AcDbEntity
  8
0
100
AcDbBlockEnd
  0
BLOCK
  5
16
330
15
100
AcDbEntity
 67
     1
  8
0
100
AcDbBlockBegin
  2
*PAPER_SPACE
 70
     0
 10
0.0
 20
0.0
 30
0.0
  3
*PAPER_SPACE
  1

  0
ENDBLK
  5
17
330
15
100
AcDbEntity
 67
     1
  8
0
100
AcDbBlockEnd
  0
BLOCK
  5
63A1
330
639D
100
AcDbEntity
  8
0
100
AcDbBlockBegin
  2
A$C255C26A2
 70
     0
 10
0.0
 20
0.0
 30
0.0
  3
A$C255C26A2
  1

  0
LWPOLYLINE
  5
639E
330
639D
100
AcDbEntity
  8
0
100
AcDbPolyline
 90
        3
 70
     1
 43
0.0
 10
7.014806023851633
 20
0.0000006939811783
 10
5.611844869720698
 20
2.430000693981241
 10
8.417767177982568
 20
2.430000693981241
  0
LWPOLYLINE
  5
639F
330
639D
100
AcDbEntity
  8
0
100
AcDbPolyline
 90
        3
 70
     1
 43
0.0
 10
4.20888371558999
 20
0.0000006939811783
 10
2.805922561459283
 20
2.430000693981241
 10
5.611844869720698
 20
2.430000693981241
  0
LWPOLYLINE
  5
63A0
330
639D
100
AcDbEntity
  8
0
100
AcDbPolyline
 90
        3
 70
     1
 43
0.0
 10
1.402961407328348
 20
0.0000006939811783
 10
0.0000002531974133
 20
2.430000693981241
 10
2.805922561459283
 20
2.430000693981241
  0
ENDBLK
  5
63A2
330
639D
100
AcDbEntity
  8
0
100
AcDbBlockEnd
  0
BLOCK
  5
914C
330
67BC
100
AcDbEntity
  8
0
100
AcDbBlockBegin
  2
*D1
 70
     1
 10
0.0
 20
0.0
 30
0.0
  3
*D1
  1

  0
LINE
  5
914D
330
67BC
100
AcDbEntity
  8
0
  6
ByBlock
 62
     6
100
AcDbLine
 10
62.51256181676047
 20
92.66335634952053
 30
0.0
 11
62.51256181676047
 21
75.04547028276727
 31
0.0
  0
LINE
  5
914E
330
67BC
100
AcDbEntity
  8
0
  6
ByBlock
 62
     6
100
AcDbLine
 10
117.5125618167609
 20
92.59668968285366
 30
0.0
 11
117.5125618167609
 21
75.04547028276727
 31
0.0
  0
LINE
  5
914F
330
67BC
100
AcDbEntity
  8
0
  6
ByBlock
 62
     6
100
AcDbLine
 10
65.01256181676047
 20
76.04547028276726
 30
0.0
 11
115.0125618167609
 21
76.04547028276726
 31
0.0
  0
MTEXT
  5
9150
330
67BC
100
AcDbEntity
  8
0
  6
ByBlock
 62
     3
100
AcDbMText
 10
90.01256181676069
 20
78.54547028276726
 30
0.0
 40
3.0
 41
0.0
 71
     5
 72
     1
  1
\A1;M55X2.0P
  7
TXT
 73
     1
 44
1.0
  0
SOLID
  5
9151
330
67BC
100
AcDbEntity
  8
0
  6
ByBlock
 62
     6
100
AcDbTrace
 10
65.01256181676047
 20
76.46213694943394
 30
0.0
 11
65.01256181676047
 21
75.62880361610059
 31
0.0
 12
62.51256181676047
 22
76.04547028276726
 32
0.0
 13
62.51256181676047
 23
76.04547028276726
 33
0.0
  0
SOLID
  5
9152
330
67BC
100
AcDbEntity
  8
0
  6
ByBlock
 62
     6
100
AcDbTrace
 10
115.0125618167609
 20
76.46213694943394
 30
0.0
 11
115.0125618167609
 21
75.62880361610059
 31
0.0
 12
117.5125618167609
 22
76.04547028276726
 32
0.0
 13
117.5125618167609
 23
76.04547028276726
 33
0.0
  0
POINT
  5
9153
330
67BC
100
AcDbEntity
  8
DEFPOINTS
  6
ByBlock
 62
     0
100
AcDbPoint
 10
62.51256181676047
 20
93.66335634952053
 30
0.0
  0
POINT
  5
9154
330
67BC
100
AcDbEntity
  8
DEFPOINTS
  6
ByBlock
 62
     0
100
AcDbPoint
 10
117.5125618167609
 20
93.59668968285365
 30
0.0
  0
POINT
  5
9155
330
67BC
100
AcDbEntity
  8
DEFPOINTS
  6
ByBlock
 62
     0
100
AcDbPoint
 10
117.5125618167609
 20
76.04547028276726
 30
0.0
  0
ENDBLK
  5
9156
330
67BC
100
AcDbEntity
  8
0
100
AcDbBlockEnd
  0
BLOCK
  5
8FC0
330
67D9
100
AcDbEntity
  8
0
100
AcDbBlockBegin
  2
*D2
 70
     1
 10
0.0
 20
0.0
 30
0.0
  3
*D2
  1

  0
LINE
  5
8FC1
330
67D9
100
AcDbEntity
  8
0
  6
ByBlock
 62
     6
100
AcDbLine
 10
263.1948755139458
 20
199.8959092767295
 30
0.0
 11
263.1948755139458
 21
161.610728722464
 31
0.0
  0
LINE
  5
8FC2
330
67D9
100
AcDbEntity
  8
0
  6
ByBlock
 62
     6
100
AcDbLine
 10
266.2311849191348
 20
199.8959092767295
 30
0.0
 11
266.2311849191348
 21
161.610728722464
 31
0.0
  0
LINE
  5
8FC3
330
67D9
100
AcDbEntity
  8
0
  6
ByBlock
 62
     6
100
AcDbLine
 10
260.6948755139458
 20
162.610728722464
 30
0.0
 11
258.1948755139458
 21
162.610728722464
 31
0.0
  0
LINE
  5
8FC4
330
67D9
100
AcDbEntity
  8
0
  6
ByBlock
 62
     6
100
AcDbLine
 10
268.7311849191348
 20
162.610728722464
 30
0.0
 11
271.2311849191348
 21
162.610728722464
 31
0.0
  0
MTEXT
  5
8FC5
330
67D9
100
AcDbEntity
  8
0
  6
ByBlock
 62
     3
100
AcDbMText
 10
271.2311849191348
 20
165.110728722464
 30
0.0
 40
3.0
 41
0.0
 71
     5
 72
     1
  1
\A1;3
  7
TXT
 73
     1
 44
1.0
  0
LINE
  5
8FC6
330
67D9
100
AcDbEntity
  8
0
  6
ByBlock
 62
     6
100
AcDbLine
 10
263.1948755139458
 20
162.610728722464
 30
0.0
 11
266.2311849191348
 21
162.610728722464
 31
0.0
  0
SOLID
  5
8FC7
330
67D9
100
AcDbEntity
  8
0
  6
ByBlock
 62
     6
100
AcDbTrace
 10
260.6948755139458
 20
163.0273953891307
 30
0.0
 11
260.6948755139458
 21
162.1940620557974
 31
0.0
 12
263.1948755139458
 22
162.610728722464
 32
0.0
 13
263.1948755139458
 23
162.610728722464
 33
0.0
  0
SOLID
  5
8FC8
330
67D9
100
AcDbEntity
  8
0
  6
ByBlock
 62
     6
100
AcDbTrace
 10
268.7311849191348
 20
163.0273953891307
 30
0.0
 11
268.7311849191348
 21
162.1940620557974
 31
0.0
 12
266.2311849191348
 22
162.610728722464
 32
0.0
 13
266.2311849191348
 23
162.610728722464
 33
0.0
  0
POINT
  5
8FC9
330
67D9
100
AcDbEntity
  8
DEFPOINTS
  6
ByBlock
 62
     0
100
AcDbPoint
 10
263.1948755139458
 20
200.8959092767295
 30
0.0
  0
POINT
  5
8FCA
330
67D9
100
AcDbEntity
  8
DEFPOINTS
  6
ByBlock
 62
     0
100
AcDbPoint
 10
266.2311849191348
 20
200.8959092767295
 30
0.0
  0
POINT
  5
8FCB
330
67D9
100
AcDbEntity
  8
DEFPOINTS
  6
ByBlock
 62
     0
100
AcDbPoint
 10
266.2311849191348
 20
162.610728722464
 30
0.0
  0
ENDBLK
  5
8FCC
330
67D9
100
AcDbEntity
  8
0
100
AcDbBlockEnd
  0
BLOCK
  5
9122
330
6854
100
AcDbEntity
  8
0
100
AcDbBlockBegin
  2
*D3
 70
     1
 10
0.0
 20
0.0
 30
0.0
  3
*D3
  1

  0
LINE
  5
9123
330
6854
100
AcDbEntity
  8
0
  6
ByBlock
 62
     6
100
AcDbLine
 10
51.68062282605183
 20
200.8959092767295
 30
0.0
 11
40.76366541727225
 21
200.8959092767295
 31
0.0
  0
LINE
  5
9124
330
6854
100
AcDbEntity
  8
0
  6
ByBlock
 62
     6
100
AcDbLine
 10
51.67625241157202
 20
207.8959092767295
 30
0.0
 11
40.76366541727225
 21
207.8959092767295
 31
0.0
  0
LINE
  5
9125
330
6854
100
AcDbEntity
  8
0
  6
ByBlock
 62
     6
100
AcDbLine
 10
41.76366541727225
 20
203.3959092767295
 30
0.0
 11
41.76366541727225
 21
205.3959092767295
 31
0.0
  0
MTEXT
  5
9126
330
6854
100
AcDbEntity
  8
0
  6
ByBlock
 62
     3
100
AcDbMText
 10
38.38926137641647
 20
217.2846585650538
 30
0.0
 40
3.0
 41
0.0
 71
     5
 72
     1
  1
\A1;7      (3等分)
  7
TXT
 11
0.0000000000000001
 21
1.0
 31
0.0
 73
     1
 44
1.0
  0
SOLID
  5
9127
330
6854
100
AcDbEntity
  8
0
  6
ByBlock
 62
     6
100
AcDbTrace
 10
41.34699875060558
 20
203.3959092767295
 30
0.0
 11
42.18033208393891
 21
203.3959092767295
 31
0.0
 12
41.76366541727225
 22
200.8959092767295
 32
0.0
 13
41.76366541727225
 23
200.8959092767295
 33
0.0
  0
SOLID
  5
9128
330
6854
100
AcDbEntity
  8
0
  6
ByBlock
 62
     6
100
AcDbTrace
 10
41.34699875060558
 20
205.3959092767295
 30
0.0
 11
42.18033208393891
 21
205.3959092767295
 31
0.0
 12
41.76366541727225
 22
207.8959092767295
 32
0.0
 13
41.76366541727225
 23
207.8959092767295
 33
0.0
  0
POINT
  5
9129
330
6854
100
AcDbEntity
  8
DEFPOINTS
  6
ByBlock
 62
     0
100
AcDbPoint
 10
52.68062282605183
 20
200.8959092767295
 30
0.0
  0
POINT
  5
912A
330
6854
100
AcDbEntity
  8
DEFPOINTS
  6
ByBlock
 62
     0
100
AcDbPoint
 10
52.67625241157202
 20
207.8959092767295
 30
0.0
  0
POINT
  5
912B
330
6854
100
AcDbEntity
  8
DEFPOINTS
  6
ByBlock
 62
     0
100
AcDbPoint
 10
41.76366541727225
 20
207.8959092767295
 30
0.0
  0
ENDBLK
  5
912C
330
6854
100
AcDbEntity
  8
0
100
AcDbBlockEnd
  0
BLOCK
  5
907E
330
6C86
100
AcDbEntity
  8
0
100
AcDbBlockBegin
  2
*D4
 70
     1
 10
0.0
 20
0.0
 30
0.0
  3
*D4
  1

  0
LINE
  5
907F
330
6C86
100
AcDbEntity
  8
0
  6
ByBlock
 62
     6
100
AcDbLine
 10
266.5311849191342
 20
115.9966896828535
 30
0.0
 11
266.5311849191342
 21
134.187912901009
 31
0.0
  0
LINE
  5
9080
330
6C86
100
AcDbEntity
  8
0
  6
ByBlock
 62
     6
100
AcDbLine
 10
334.5311849191347
 20
115.9966896828535
 30
0.0
 11
334.5311849191347
 21
134.187912901009
 31
0.0
  0
LINE
  5
9081
330
6C86
100
AcDbEntity
  8
0
  6
ByBlock
 62
     6
100
AcDbLine
 10
269.0311849191342
 20
133.187912901009
 30
0.0
 11
332.0311849191347
 21
133.187912901009
 31
0.0
  0
SOLID
  5
9082
330
6C86
100
AcDbEntity
  8
0
  6
ByBlock
 62
     6
100
AcDbTrace
 10
269.0311849191342
 20
133.6045795676757
 30
0.0
 11
269.0311849191342
 21
132.7712462343424
 31
0.0
 12
266.5311849191342
 22
133.187912901009
 32
0.0
 13
266.5311849191342
 23
133.187912901009
 33
0.0
  0
SOLID
  5
9083
330
6C86
100
AcDbEntity
  8
0
  6
ByBlock
 62
     6
100
AcDbTrace
 10
332.0311849191347
 20
133.6045795676757
 30
0.0
 11
332.0311849191347
 21
132.7712462343424
 31
0.0
 12
334.5311849191347
 22
133.187912901009
 32
0.0
 13
334.5311849191347
 23
133.187912901009
 33
0.0
  0
MTEXT
  5
9084
330
6C86
100
AcDbEntity
  8
0
  6
ByBlock
 62
     3
100
AcDbMText
 10
300.5311849191345
 20
135.6879129010091
 30
0.0
 40
3.0
 41
0.0
 71
     5
 72
     1
  1
\A1;\U+220568±0.5
  7
TXT
 73
     1
 44
1.0
  0
POINT
  5
9085
330
6C86
100
AcDbEntity
  8
DEFPOINTS
  6
ByBlock
 62
     0
100
AcDbPoint
 10
266.5311849191342
 20
114.9966896828535
 30
0.0
  0
POINT
  5
9086
330
6C86
100
AcDbEntity
  8
DEFPOINTS
  6
ByBlock
 62
     0
100
AcDbPoint
 10
334.5311849191347
 20
114.9966896828535
 30
0.0
  0
POINT
  5
9087
330
6C86
100
AcDbEntity
  8
DEFPOINTS
  6
ByBlock
 62
     0
100
AcDbPoint
 10
334.5311849191347
 20
133.187912901009
 30
0.0
  0
ENDBLK
  5
9088
330
6C86
100
AcDbEntity
  8
0
100
AcDbBlockEnd
  0
BLOCK
  5
9089
330
6C9E
100
AcDbEntity
  8
0
100
AcDbBlockBegin
  2
*D5
 70
     1
 10
0.0
 20
0.0
 30
0.0
  3
*D5
  1

  0
LINE
  5
908A
330
6C9E
100
AcDbEntity
  8
0
  6
ByBlock
 62
     6
100
AcDbLine
 10
263.0311849191341
 20
113.4966896828535
 30
0.0
 11
263.0311849191341
 21
139.695382991424
 31
0.0
  0
LINE
  5
908B
330
6C9E
100
AcDbEntity
  8
0
  6
ByBlock
 62
     6
100
AcDbLine
 10
338.0311849191347
 20
113.4966896828535
 30
0.0
 11
338.0311849191347
 21
139.695382991424
 31
0.0
  0
LINE
  5
908C
330
6C9E
100
AcDbEntity
  8
0
  6
ByBlock
 62
     6
100
AcDbLine
 10
265.5311849191341
 20
138.695382991424
 30
0.0
 11
335.5311849191347
 21
138.695382991424
 31
0.0
  0
MTEXT
  5
908D
330
6C9E
100
AcDbEntity
  8
0
  6
ByBlock
 62
     3
100
AcDbMText
 10
296.4621287912205
 20
142.0215037413092
 30
0.0
 40
3.0
 41
0.0
 71
     5
 72
     1
  1
\A1;\U+220575
  7
TXT
 73
     1
 44
1.0
  0
SOLID
  5
908E
330
6C9E
100
AcDbEntity
  8
0
  6
ByBlock
 62
     6
100
AcDbTrace
 10
265.5311849191341
 20
139.1120496580906
 30
0.0
 11
265.5311849191341
 21
138.2787163247573
 31
0.0
 12
263.0311849191341
 22
138.695382991424
 32
0.0
 13
263.0311849191341
 23
138.695382991424
 33
0.0
  0
SOLID
  5
908F
330
6C9E
100
AcDbEntity
  8
0
  6
ByBlock
 62
     6
100
AcDbTrace
 10
335.5311849191347
 20
139.1120496580906
 30
0.0
 11
335.5311849191347
 21
138.2787163247573
 31
0.0
 12
338.0311849191347
 22
138.695382991424
 32
0.0
 13
338.0311849191347
 23
138.695382991424
 33
0.0
  0
POINT
  5
9090
330
6C9E
100
AcDbEntity
  8
DEFPOINTS
  6
ByBlock
 62
     0
100
AcDbPoint
 10
263.0311849191341
 20
112.4966896828535
 30
0.0
  0
POINT
  5
9091
330
6C9E
100
AcDbEntity
  8
DEFPOINTS
  6
ByBlock
 62
     0
100
AcDbPoint
 10
338.0311849191347
 20
112.4966896828535
 30
0.0
  0
POINT
  5
9092
330
6C9E
100
AcDbEntity
  8
DEFPOINTS
  6
ByBlock
 62
     0
100
AcDbPoint
 10
338.0311849191347
 20
138.695382991424
 30
0.0
  0
ENDBLK
  5
9093
330
6C9E
100
AcDbEntity
  8
0
100
AcDbBlockEnd
  0
BLOCK
  5
916D
330
6FE3
100
AcDbEntity
  8
0
100
AcDbBlockBegin
  2
*D6
 70
     1
 10
0.0
 20
0.0
 30
0.0
  3
*D6
  1

  0
LINE
  5
916E
330
6FE3
100
AcDbEntity
  8
0
  6
ByBlock
 62
     6
100
AcDbLine
 10
128.3785872205454
 20
100.4987644138218
 30
0.0
 11
157.1448781245442
 21
83.89053861681096
 31
0.0
  0
LINE
  5
916F
330
6FE3
100
AcDbEntity
  8
0
  6
ByBlock
 62
     6
100
AcDbLine
 10
123.7585872205453
 20
92.49668968285352
 30
0.0
 11
152.5248781245441
 21
75.88846388584264
 31
0.0
  0
LINE
  5
9170
330
6FE3
100
AcDbEntity
  8
0
  6
ByBlock
 62
     6
100
AcDbLine
 10
155.0288527207598
 20
82.22547510734985
 30
0.0
 11
152.9088527207597
 21
78.55352739530373
 31
0.0
  0
LINE
  5
9171
330
6FE3
100
AcDbEntity
  8
0
  6
ByBlock
 62
     6
100
AcDbLine
 10
165.6799250957721
 20
100.6736736159645
 30
0.0
 11
156.2788527207598
 21
84.39053861681095
 31
0.0
  0
MTEXT
  5
9172
330
6FE3
100
AcDbEntity
  8
0
  6
ByBlock
 62
     3
100
AcDbMText
 10
159.9898615863111
 20
95.81819451928428
 30
0.0
 40
3.0
 41
0.0
 71
     5
 72
     1
  1
\A1;9±0.5
  7
TXT
 11
0.5000000000000011
 21
0.866025403784438
 31
0.0
 73
     1
 44
1.0
  0
SOLID
  5
9173
330
6FE3
100
AcDbEntity
  8
0
  6
ByBlock
 62
     6
100
AcDbTrace
 10
154.6680088025162
 20
82.43380844068319
 30
0.0
 11
155.3896966390033
 21
82.01714177401653
 31
0.0
 12
156.2788527207598
 22
84.39053861681095
 32
0.0
 13
156.2788527207598
 23
84.39053861681095
 33
0.0
  0
SOLID
  5
9174
330
6FE3
100
AcDbEntity
  8
0
  6
ByBlock
 62
     6
100
AcDbTrace
 10
152.5480088025162
 20
78.76186072863707
 30
0.0
 11
153.2696966390032
 21
78.3451940619704
 31
0.0
 12
151.6588527207597
 22
76.38846388584264
 32
0.0
 13
151.6588527207597
 23
76.38846388584264
 33
0.0
  0
POINT
  5
9175
330
6FE3
100
AcDbEntity
  8
DEFPOINTS
  6
ByBlock
 62
     0
100
AcDbPoint
 10
127.5125618167609
 20
100.9987644138218
 30
0.0
  0
POINT
  5
9176
330
6FE3
100
AcDbEntity
  8
DEFPOINTS
  6
ByBlock
 62
     0
100
AcDbPoint
 10
122.8925618167608
 20
92.99668968285351
 30
0.0
  0
POINT
  5
9177
330
6FE3
100
AcDbEntity
  8
DEFPOINTS
  6
ByBlock
 62
     0
100
AcDbPoint
 10
151.6588527207597
 20
76.38846388584264
 30
0.0
  0
ENDBLK
  5
9178
330
6FE3
100
AcDbEntity
  8
0
100
AcDbBlockEnd
  0
BLOCK
  5
9036
330
74B6
100
AcDbEntity
  8
0
100
AcDbBlockBegin
  2
*D7
 70
     1
 10
0.0
 20
0.0
 30
0.0
  3
*D7
  1

  0
LINE
  5
9037
330
74B6
100
AcDbEntity
  8
0
  6
ByBlock
 62
     6
100
AcDbLine
 10
265.5311849191342
 20
114.9966896828535
 30
0.0
 11
256.5822885196454
 21
114.9966896828535
 31
0.0
  0
LINE
  5
9038
330
74B6
100
AcDbEntity
  8
0
  6
ByBlock
 62
     6
100
AcDbLine
 10
264.0311849191342
 20
114.4966896828535
 30
0.0
 11
256.5822885196454
 21
114.4966896828535
 31
0.0
  0
LINE
  5
9039
330
74B6
100
AcDbEntity
  8
0
  6
ByBlock
 62
     6
100
AcDbLine
 10
257.5822885196454
 20
117.4966896828535
 30
0.0
 11
257.5822885196454
 21
119.9966896828535
 31
0.0
  0
LINE
  5
903A
330
74B6
100
AcDbEntity
  8
0
  6
ByBlock
 62
     6
100
AcDbLine
 10
257.5822885196454
 20
111.9966896828535
 30
0.0
 11
257.5822885196454
 21
109.4966896828535
 31
0.0
  0
LINE
  5
903B
330
74B6
100
AcDbEntity
  8
0
  6
ByBlock
 62
     6
100
AcDbLine
 10
257.5822885196454
 20
128.9066869440036
 30
0.0
 11
257.5822885196454
 21
114.9966896828535
 31
0.0
  0
MTEXT
  5
903C
330
74B6
100
AcDbEntity
  8
0
  6
ByBlock
 62
     3
100
AcDbMText
 10
255.0822885196454
 20
125.1566869440036
 30
0.0
 40
3.0
 41
0.0
 71
     5
 72
     1
  1
\A1;0.5
  7
TXT
 11
0.0000000000000001
 21
1.0
 31
0.0
 73
     1
 44
1.0
  0
LINE
  5
903D
330
74B6
100
AcDbEntity
  8
0
  6
ByBlock
 62
     6
100
AcDbLine
 10
257.5822885196454
 20
114.9966896828535
 30
0.0
 11
257.5822885196454
 21
114.4966896828535
 31
0.0
  0
SOLID
  5
903E
330
74B6
100
AcDbEntity
  8
0
  6
ByBlock
 62
     6
100
AcDbTrace
 10
257.1656218529787
 20
117.4966896828535
 30
0.0
 11
257.9989551863121
 21
117.4966896828535
 31
0.0
 12
257.5822885196454
 22
114.9966896828535
 32
0.0
 13
257.5822885196454
 23
114.9966896828535
 33
0.0
  0
SOLID
  5
903F
330
74B6
100
AcDbEntity
  8
0
  6
ByBlock
 62
     6
100
AcDbTrace
 10
257.1656218529787
 20
111.9966896828535
 30
0.0
 11
257.9989551863121
 21
111.9966896828535
 31
0.0
 12
257.5822885196454
 22
114.4966896828535
 32
0.0
 13
257.5822885196454
 23
114.4966896828535
 33
0.0
  0
POINT
  5
9040
330
74B6
100
AcDbEntity
  8
DEFPOINTS
  6
ByBlock
 62
     0
100
AcDbPoint
 10
266.5311849191342
 20
114.9966896828535
 30
0.0
  0
POINT
  5
9041
330
74B6
100
AcDbEntity
  8
DEFPOINTS
  6
ByBlock
 62
     0
100
AcDbPoint
 10
265.0311849191342
 20
114.4966896828535
 30
0.0
  0
POINT
  5
9042
330
74B6
100
AcDbEntity
  8
DEFPOINTS
  6
ByBlock
 62
     0
100
AcDbPoint
 10
257.5822885196454
 20
114.4966896828535
 30
0.0
  0
ENDBLK
  5
9043
330
74B6
100
AcDbEntity
  8
0
100
AcDbBlockEnd
  0
BLOCK
  5
9101
330
7501
100
AcDbEntity
  8
0
100
AcDbBlockBegin
  2
*D8
 70
     1
 10
0.0
 20
0.0
 30
0.0
  3
*D8
  1

  0
LINE
  5
9102
330
7501
100
AcDbEntity
  8
0
  6
ByBlock
 62
     6
100
AcDbLine
 10
272.5311849191342
 20
115.9966896828535
 30
0.0
 11
272.5311849191342
 21
128.3448180893804
 31
0.0
  0
LINE
  5
9103
330
7501
100
AcDbEntity
  8
0
  6
ByBlock
 62
     6
100
AcDbLine
 10
328.5311849191347
 20
115.9966896828535
 30
0.0
 11
328.5311849191347
 21
128.3448180893804
 31
0.0
  0
LINE
  5
9104
330
7501
100
AcDbEntity
  8
0
  6
ByBlock
 62
     6
100
AcDbLine
 10
275.0311849191342
 20
127.3448180893804
 30
0.0
 11
326.0311849191347
 21
127.3448180893804
 31
0.0
  0
SOLID
  5
9105
330
7501
100
AcDbEntity
  8
0
  6
ByBlock
 62
     6
100
AcDbTrace
 10
275.0311849191342
 20
127.7614847560471
 30
0.0
 11
275.0311849191342
 21
126.9281514227138
 31
0.0
 12
272.5311849191342
 22
127.3448180893804
 32
0.0
 13
272.5311849191342
 23
127.3448180893804
 33
0.0
  0
SOLID
  5
9106
330
7501
100
AcDbEntity
  8
0
  6
ByBlock
 62
     6
100
AcDbTrace
 10
326.0311849191347
 20
127.7614847560471
 30
0.0
 11
326.0311849191347
 21
126.9281514227138
 31
0.0
 12
328.5311849191347
 22
127.3448180893804
 32
0.0
 13
328.5311849191347
 23
127.3448180893804
 33
0.0
  0
MTEXT
  5
9107
330
7501
100
AcDbEntity
  8
0
  6
ByBlock
 62
     3
100
AcDbMText
 10
300.5311849191345
 20
129.8448180893805
 30
0.0
 40
3.0
 41
0.0
 71
     5
 72
     1
  1
\A1;\U+220556
  7
TXT
 73
     1
 44
1.0
  0
POINT
  5
9108
330
7501
100
AcDbEntity
  8
DEFPOINTS
  6
ByBlock
 62
     0
100
AcDbPoint
 10
272.5311849191342
 20
114.9966896828535
 30
0.0
  0
POINT
  5
9109
330
7501
100
AcDbEntity
  8
DEFPOINTS
  6
ByBlock
 62
     0
100
AcDbPoint
 10
328.5311849191347
 20
114.9966896828535
 30
0.0
  0
POINT
  5
910A
330
7501
100
AcDbEntity
  8
DEFPOINTS
  6
ByBlock
 62
     0
100
AcDbPoint
 10
328.5311849191347
 20
127.3448180893804
 30
0.0
  0
ENDBLK
  5
910B
330
7501
100
AcDbEntity
  8
0
100
AcDbBlockEnd
  0
BLOCK
  5
9157
330
755C
100
AcDbEntity
  8
0
100
AcDbBlockBegin
  2
*D9
 70
     1
 10
0.0
 20
0.0
 30
0.0
  3
*D9
  1

  0
LINE
  5
9158
330
755C
100
AcDbEntity
  8
0
  6
ByBlock
 62
     6
100
AcDbLine
 10
125.0125618167609
 20
114.9966896828535
 30
0.0
 11
143.3988883922231
 21
114.9966896828535
 31
0.0
  0
LINE
  5
9159
330
755C
100
AcDbEntity
  8
0
  6
ByBlock
 62
     6
100
AcDbLine
 10
126.2256125185849
 20
97.03765203504707
 30
0.0
 11
143.3988883922231
 21
97.03765203504707
 31
0.0
  0
LINE
  5
915A
330
755C
100
AcDbEntity
  8
0
  6
ByBlock
 62
     6
100
AcDbLine
 10
142.3988883922231
 20
112.4966896828535
 30
0.0
 11
142.3988883922231
 21
99.53765203504707
 31
0.0
  0
SOLID
  5
915B
330
755C
100
AcDbEntity
  8
0
  6
ByBlock
 62
     6
100
AcDbTrace
 10
141.9822217255565
 20
112.4966896828535
 30
0.0
 11
142.8155550588898
 21
112.4966896828535
 31
0.0
 12
142.3988883922231
 22
114.9966896828535
 32
0.0
 13
142.3988883922231
 23
114.9966896828535
 33
0.0
  0
SOLID
  5
915C
330
755C
100
AcDbEntity
  8
0
  6
ByBlock
 62
     6
100
AcDbTrace
 10
141.9822217255565
 20
99.53765203504707
 30
0.0
 11
142.8155550588898
 21
99.53765203504707
 31
0.0
 12
142.3988883922231
 22
97.03765203504707
 32
0.0
 13
142.3988883922231
 23
97.03765203504707
 33
0.0
  0
MTEXT
  5
915D
330
755C
100
AcDbEntity
  8
0
  6
ByBlock
 62
     3
100
AcDbMText
 10
139.8988883922231
 20
106.0171708589503
 30
0.0
 40
3.0
 41
0.0
 71
     5
 72
     1
  1
\A1;18
  7
TXT
 11
0.0000000000000001
 21
1.0
 31
0.0
 73
     1
 44
1.0
  0
POINT
  5
915E
330
755C
100
AcDbEntity
  8
DEFPOINTS
  6
ByBlock
 62
     0
100
AcDbPoint
 10
124.0125618167609
 20
114.9966896828535
 30
0.0
  0
POINT
  5
915F
330
755C
100
AcDbEntity
  8
DEFPOINTS
  6
ByBlock
 62
     0
100
AcDbPoint
 10
125.2256125185849
 20
97.03765203504707
 30
0.0
  0
POINT
  5
9160
330
755C
100
AcDbEntity
  8
DEFPOINTS
  6
ByBlock
 62
     0
100
AcDbPoint
 10
142.3988883922231
 20
97.03765203504707
 30
0.0
  0
ENDBLK
  5
9161
330
755C
100
AcDbEntity
  8
0
100
AcDbBlockEnd
  0
BLOCK
  5
9162
330
7569
100
AcDbEntity
  8
0
100
AcDbBlockBegin
  2
*D10
 70
     1
 10
0.0
 20
0.0
 30
0.0
  3
*D10
  1

  0
LINE
  5
9163
330
7569
100
AcDbEntity
  8
0
  6
ByBlock
 62
     6
100
AcDbLine
 10
123.8925618167608
 20
92.99668968285351
 30
0.0
 11
153.5479093186113
 21
92.99668968285351
 31
0.0
  0
LINE
  5
9164
330
7569
100
AcDbEntity
  8
0
  6
ByBlock
 62
     6
100
AcDbLine
 10
125.0125618167609
 20
114.9966896828535
 30
0.0
 11
153.5479093186113
 21
114.9966896828535
 31
0.0
  0
LINE
  5
9165
330
7569
100
AcDbEntity
  8
0
  6
ByBlock
 62
     6
100
AcDbLine
 10
152.5479093186113
 20
95.49668968285351
 30
0.0
 11
152.5479093186113
 21
112.4966896828535
 31
0.0
  0
SOLID
  5
9166
330
7569
100
AcDbEntity
  8
0
  6
ByBlock
 62
     6
100
AcDbTrace
 10
152.1312426519447
 20
95.49668968285351
 30
0.0
 11
152.964575985278
 21
95.49668968285351
 31
0.0
 12
152.5479093186113
 22
92.99668968285351
 32
0.0
 13
152.5479093186113
 23
92.99668968285351
 33
0.0
  0
SOLID
  5
9167
330
7569
100
AcDbEntity
  8
0
  6
ByBlock
 62
     6
100
AcDbTrace
 10
152.1312426519447
 20
112.4966896828535
 30
0.0
 11
152.964575985278
 21
112.4966896828535
 31
0.0
 12
152.5479093186113
 22
114.9966896828535
 32
0.0
 13
152.5479093186113
 23
114.9966896828535
 33
0.0
  0
MTEXT
  5
9168
330
7569
100
AcDbEntity
  8
0
  6
ByBlock
 62
     3
100
AcDbMText
 10
150.0479093186113
 20
103.9966896828535
 30
0.0
 40
3.0
 41
0.0
 71
     5
 72
     1
  1
\A1;22±0.2
  7
TXT
 11
0.0000000000000001
 21
1.0
 31
0.0
 73
     1
 44
1.0
  0
POINT
  5
9169
330
7569
100
AcDbEntity
  8
DEFPOINTS
  6
ByBlock
 62
     0
100
AcDbPoint
 10
122.8925618167608
 20
92.99668968285351
 30
0.0
  0
POINT
  5
916A
330
7569
100
AcDbEntity
  8
DEFPOINTS
  6
ByBlock
 62
     0
100
AcDbPoint
 10
124.0125618167609
 20
114.9966896828535
 30
0.0
  0
POINT
  5
916B
330
7569
100
AcDbEntity
  8
DEFPOINTS
  6
ByBlock
 62
     0
100
AcDbPoint
 10
152.5479093186113
 20
114.9966896828535
 30
0.0
  0
ENDBLK
  5
916C
330
7569
100
AcDbEntity
  8
0
100
AcDbBlockEnd
  0
BLOCK
  5
9065
330
7AC6
100
AcDbEntity
  8
0
100
AcDbBlockBegin
  2
*D11
 70
     1
 10
0.0
 20
0.0
 30
0.0
  3
*D11
  1

  0
LINE
  5
9066
330
7AC6
100
AcDbEntity
  8
0
  6
ByBlock
 62
     6
100
AcDbLine
 10
312.5311849191344
 20
112.9966896828538
 30
0.0
 11
308.7489200256147
 21
112.9966896828538
 31
0.0
  0
LINE
  5
9067
330
7AC6
100
AcDbEntity
  8
0
  6
ByBlock
 62
     6
100
AcDbLine
 10
312.5311849191344
 20
114.9966896828535
 30
0.0
 11
308.7489200256147
 21
114.9966896828535
 31
0.0
  0
LINE
  5
9068
330
7AC6
100
AcDbEntity
  8
0
  6
ByBlock
 62
     6
100
AcDbLine
 10
309.7489200256147
 20
110.4966896828538
 30
0.0
 11
309.7489200256147
 21
107.9966896828538
 31
0.0
  0
LINE
  5
9069
330
7AC6
100
AcDbEntity
  8
0
  6
ByBlock
 62
     6
100
AcDbLine
 10
309.7489200256147
 20
117.4966896828535
 30
0.0
 11
309.7489200256147
 21
119.9966896828535
 31
0.0
  0
LINE
  5
906A
330
7AC6
100
AcDbEntity
  8
0
  6
ByBlock
 62
     6
100
AcDbLine
 10
309.7489200256147
 20
124.5825033705258
 30
0.0
 11
309.7489200256147
 21
114.9966896828535
 31
0.0
  0
MTEXT
  5
906B
330
7AC6
100
AcDbEntity
  8
0
  6
ByBlock
 62
     3
100
AcDbMText
 10
307.2489200256147
 20
122.5825033705258
 30
0.0
 40
3.0
 41
0.0
 71
     5
 72
     1
  1
\A1;2
  7
TXT
 11
0.0000000000000001
 21
1.0
 31
0.0
 73
     1
 44
1.0
  0
LINE
  5
906C
330
7AC6
100
AcDbEntity
  8
0
  6
ByBlock
 62
     6
100
AcDbLine
 10
309.7489200256147
 20
112.9966896828538
 30
0.0
 11
309.7489200256147
 21
114.9966896828535
 31
0.0
  0
SOLID
  5
906D
330
7AC6
100
AcDbEntity
  8
0
  6
ByBlock
 62
     6
100
AcDbTrace
 10
309.332253358948
 20
110.4966896828538
 30
0.0
 11
310.1655866922814
 21
110.4966896828538
 31
0.0
 12
309.7489200256147
 22
112.9966896828538
 32
0.0
 13
309.7489200256147
 23
112.9966896828538
 33
0.0
  0
SOLID
  5
906E
330
7AC6
100
AcDbEntity
  8
0
  6
ByBlock
 62
     6
100
AcDbTrace
 10
309.332253358948
 20
117.4966896828535
 30
0.0
 11
310.1655866922814
 21
117.4966896828535
 31
0.0
 12
309.7489200256147
 22
114.9966896828535
 32
0.0
 13
309.7489200256147
 23
114.9966896828535
 33
0.0
  0
POINT
  5
906F
330
7AC6
100
AcDbEntity
  8
DEFPOINTS
  6
ByBlock
 62
     0
100
AcDbPoint
 10
313.5311849191344
 20
112.9966896828538
 30
0.0
  0
POINT
  5
9070
330
7AC6
100
AcDbEntity
  8
DEFPOINTS
  6
ByBlock
 62
     0
100
AcDbPoint
 10
313.5311849191344
 20
114.9966896828535
 30
0.0
  0
POINT
  5
9071
330
7AC6
100
AcDbEntity
  8
DEFPOINTS
  6
ByBlock
 62
     0
100
AcDbPoint
 10
309.7489200256147
 20
114.9966896828535
 30
0.0
  0
ENDBLK
  5
9072
330
7AC6
100
AcDbEntity
  8
0
100
AcDbBlockEnd
  0
BLOCK
  5
90D3
330
90C4
100
AcDbEntity
  8
0
100
AcDbBlockBegin
  2
*D12
 70
     1
 10
0.0
 20
0.0
 30
0.0
  3
*D12
  1

  0
LINE
  5
90D4
330
90C4
100
AcDbEntity
  8
0
  6
ByBlock
 62
     6
100
AcDbLine
 10
338.3373387479563
 20
95.56466814110235
 30
0.0
 11
374.9252456821531
 21
74.78130743858409
 31
0.0
  0
LINE
  5
90D5
330
90C4
100
AcDbEntity
  8
0
  6
ByBlock
 62
     6
100
AcDbLine
 10
335.5311849191347
 20
114.9966896828535
 30
0.0
 11
385.5499575802708
 21
114.9966896828534
 31
0.0
  0
ARC
  5
90D6
330
90C4
100
AcDbEntity
  8
0
  6
ByBlock
 62
     6
100
AcDbCircle
 10
304.1283864091389
 20
114.9966896828535
 30
0.0
 40
80.42157117113186
100
AcDbArc
 50
332.1829114385338
 51
358.218820960513
  0
SOLID
  5
90D7
330
90C4
100
AcDbEntity
  8
0
  6
ByBlock
 62
     6
100
AcDbTrace
 10
375.6220391629668
 20
77.26778542119534
 30
0.0
 11
374.8911376611862
 21
77.66806961915887
 31
0.0
 12
374.0557358181859
 22
75.2752230148353
 32
0.0
 13
374.0557358181859
 23
75.2752230148353
 33
0.0
  0
SOLID
  5
90D8
330
90C4
100
AcDbEntity
  8
0
  6
ByBlock
 62
     6
100
AcDbTrace
 10
384.0944835136807
 20
112.5034679747465
 30
0.0
 11
384.9277161793689
 21
112.4905153968312
 31
0.0
 12
384.5499575802707
 22
114.9966896828534
 32
0.0
 13
384.5499575802707
 23
114.9966896828534
 33
0.0
  0
MTEXT
  5
90D9
330
90C4
100
AcDbEntity
  8
0
  6
ByBlock
 62
     3
100
AcDbMText
 10
379.4650848060377
 20
95.09309381596384
 30
0.0
 40
3.0
 41
0.0
 71
     5
 72
     1
  1
\A1;30°
  7
TXT
 11
0.255431141438065
 21
0.9668272503315405
 31
0.0
 73
     1
 44
1.0
  0
POINT
  5
90DA
330
90C4
100
AcDbEntity
  8
DEFPOINTS
  6
ByBlock
 62
     0
100
AcDbPoint
 10
379.8276895535873
 20
87.84444091634583
 30
0.0
  0
POINT
  5
90DB
330
90C4
100
AcDbEntity
  8
DEFPOINTS
  6
ByBlock
 62
     0
100
AcDbPoint
 10
337.467828883989
 20
96.05858371735362
 30
0.0
  0
POINT
  5
90DC
330
90C4
100
AcDbEntity
  8
DEFPOINTS
  6
ByBlock
 62
     0
100
AcDbPoint
 10
266.5311849191342
 20
114.9966896828535
 30
0.0
  0
POINT
  5
90DD
330
90C4
100
AcDbEntity
  8
DEFPOINTS
  6
ByBlock
 62
     0
100
AcDbPoint
 10
334.5311849191347
 20
114.9966896828535
 30
0.0
  0
POINT
  5
90DE
330
90C4
100
AcDbEntity
  8
DEFPOINTS
  6
ByBlock
 62
     0
100
AcDbPoint
 10
324.5619034841447
 20
103.3896536052038
 30
0.0
  0
ENDBLK
  5
90DF
330
90C4
100
AcDbEntity
  8
0
100
AcDbBlockEnd
  0
ENDSEC
  0
SECTION
  2
ENTITIES
  0
MTEXT
  5
C0
330
18
100
AcDbEntity
  8
0
100
AcDbMText
 10
41.26970765600413
 20
233.6950877649332
 30
0.0
 40
2.5
 41
0.0
 71
     1
 72
     5
  1

  7
ISOCP3
 73
     1
 44
1.0
  0
MTEXT
  5
4FE4
330
18
100
AcDbEntity
  8
公差
100
AcDbMText
 10
65.44396196627406
 20
168.5380880435211
 30
0.0
 40
2.0
 41
9.555074525974475
 71
     1
 72
     5
  1
+0.15\P+0
  7
TXT
 73
     1
 44
1.0
  0
MTEXT
  5
4FE5
330
18
100
AcDbEntity
  8
公差
100
AcDbMText
 10
34.91630310988739
 20
207.6620947440818
 30
0.0
 40
2.0
 41
8.84945634767439
 71
     1
 72
     5
  1
+0.15\P+0
  7
TXT
 11
0.0000000000000001
 21
1.0
 31
0.0
 73
     1
 44
1.0
  0
MTEXT
  5
503F
330
18
100
AcDbEntity
  8
公差
100
AcDbMText
 10
91.12725323289618
 20
145.1675875743837
 30
0.0
 40
2.0
 41
11.48459459716352
 71
     1
 72
     5
  1
+0\P-0.2
  7
TXT
 73
     1
 44
1.0
  0
LINE
  5
5AD6
330
18
100
AcDbEntity
  8
DIM
100
AcDbLine
 10
152.5479093186114
 20
114.9966896828531
 30
0.0
 11
152.5479093186114
 21
131.523416137977
 31
0.0
  0
LINE
  5
5AD7
330
18
100
AcDbEntity
  8
DIM
100
AcDbLine
 10
152.5479093186114
 20
131.523416137977
 30
0.0
 11
164.6996494448588
 21
131.523416137977
 31
0.0
  0
LINE
  5
5ADA
330
18
100
AcDbEntity
  8
DIM
100
AcDbLine
 10
62.51256181676047
 20
76.04547028276726
 30
0.0
 11
62.51256181676047
 21
68.76393509302251
 31
0.0
  0
TOLERANCE
  5
5E6E
330
18
100
AcDbEntity
  8
DIM
  6
ByBlock
100
AcDbFcf
  3
A
 10
164.6996494448588
 20
131.5743545741079
 30
0.0
  1
{\Fgdt;h}%%v0.005%%v%%vA%%v%%v
1001
ACAD
1000
DSTYLE
1002
{
1070
   140
1040
2.743999999999999
1070
   147
1040
0.6859999999999999
1002
}
  0
MTEXT
  5
608E
330
18
100
AcDbEntity
  8
0
100
AcDbMText
 10
17.81948278949767
 20
19.37399834316261
 30
0.0
 40
5.0
 41
0.0
 71
     1
 72
     5
  1
\Ftxt.shx,bigfont.shx|c128;呉銘宏
  7
JL
 73
     1
 44
1.0
  0
MTEXT
  5
6095
330
18
100
AcDbEntity
  8
0
100
AcDbMText
 10
81.23517665196368
 20
29.2278230533891
 30
0.0
 40
4.5
 41
0.0
 71
     1
 72
     5
  1
\Ftxt.shx,bigfont.shx|c128;1 : 1
  7
JL
 73
     1
 44
1.0
  0
MTEXT
  5
6098
330
18
100
AcDbEntity
  8
0
 48
2.0
370
    25
100
AcDbMText
 10
146.1234268906314
 20
3.636969934829039
 30
0.0
 40
4.5
 41
0.0
 71
     5
 72
     1
  1
\Ftxt.shx,bigfont.shx|c128;N L 4 0 0 0 8
 73
     1
 44
1.0
  0
MTEXT
  5
609C
330
18
100
AcDbEntity
  8
0
 48
2.0
100
AcDbMText
 10
178.1300746997774
 20
22.17550270047843
 30
0.0
 40
4.5
 41
0.0
 71
     5
 72
     1
  1
\P\Ftxt.shx,bigfont.shx|c128;    MF55X2.0P
 73
     1
 44
1.0
  0
MTEXT
  5
635A
330
18
100
AcDbEntity
  8
0
100
AcDbMText
 10
16.02348109109539
 20
28.64592585511957
 30
0.0
 40
4.5
 41
0.0
 71
     1
 72
     5
  1
\Ftxt.shx,bigfont.shx|c128;05.03.03
  7
JL
 73
     1
 44
1.0
  0
INSERT
  5
63A3
330
18
100
AcDbEntity
  8
0
100
AcDbBlockReference
  2
A$C255C26A2
 10
105.7814061674834
 20
114.9966889888724
 30
0.0
  0
MTEXT
  5
63A4
330
18
100
AcDbEntity
  8
0
 62
     7
 48
2.0
100
AcDbMText
 10
109.8752089163396
 20
119.892239955891
 30
0.0
 40
3.0
 41
0.0
 71
     5
 72
     1
  1
G
 73
     1
 44
1.0
  0
LEADER
  5
63C9
330
18
100
AcDbEntity
  8
DIM
 62
     6
100
AcDbLeader
  3
A
 76
     2
 10
118.468236536199
 20
228.8197618856344
 30
0.0
 10
131.1185407044513
 20
240.0379114718164
 30
0.0
  0
LEADER
  5
63CA
330
18
100
AcDbEntity
  8
DIM
 62
     6
100
AcDbLeader
  3
A
 76
     2
 10
118.4728843514009
 20
103.3102340571604
 30
0.0
 10
134.2943070529731
 20
130.4710784793841
 30
0.0
  0
LEADER
  5
63CB
330
18
100
AcDbEntity
  8
DIM
 62
     6
100
AcDbLeader
  3
A
 76
     2
 10
125.2256125185849
 20
97.03765203504707
 30
0.0
 10
136.4198748957266
 20
74.0685415261411
 30
0.0
  0
MTEXT
  5
63CC
330
18
100
AcDbEntity
  8
DIM
100
AcDbMText
 10
133.6185784596268
 20
136.2196740444008
 30
0.0
 40
5.0
 41
1.0
 71
     1
 72
     5
  1
\Ftxt.shx,bigfont.shx|c128;3
 73
     1
 44
1.0
  0
MTEXT
  5
63CD
330
18
100
AcDbEntity
  8
DIM
100
AcDbMText
 10
133.2645692405621
 20
243.8934065077249
 30
0.0
 40
5.0
 41
1.0
 71
     1
 72
     5
  1
\Ftxt.shx,bigfont.shx|c128;1
 73
     1
 44
1.0
  0
MTEXT
  5
63CE
330
18
100
AcDbEntity
  8
DIM
100
AcDbMText
 10
135.4797907945505
 20
72.84069284734719
 30
0.0
 40
5.0
 41
1.0
 71
     1
 72
     5
  1
\Ftxt.shx,bigfont.shx|c128;2
 73
     1
 44
1.0
  0
LINE
  5
63CF
330
18
100
AcDbEntity
  8
DIM
100
AcDbLine
 10
62.51256181676047
 20
68.76393509302251
 30
0.0
 11
63.42502016498605
 21
67.78606099729744
 31
0.0
  0
HATCH
  5
63D0
330
18
100
AcDbEntity
  8
DIM
  6
Continuous
100
AcDbHatch
 10
0.0
 20
0.0
 30
0.0
210
0.0
220
0.0
230
1.0
  2
SOLID
 70
     1
 71
     0
 91
        1
 92
        7
 72
     0
 73
     1
 93
        3
 10
62.51143770230789
 20
66.78024669804201
 10
63.43016979090794
 20
67.76505449328573
 10
62.51143770230789
 20
68.74986228852946
 97
        0
 75
     0
 76
     1
 47
0.2359147607200769
 98
        1
 10
62.79925369853867
 20
67.97653049897725
450
        0
451
        0
460
0.0
461
0.0
452
        0
462
0.0
453
        0
470

  0
LINE
  5
63D1
330
18
100
AcDbEntity
  8
DIM
100
AcDbLine
 10
68.17211297168211
 20
65.97240719313792
 30
0.0
 11
68.17211297168211
 21
69.61870598315908
 31
0.0
  0
LINE
  5
63D2
330
18
100
AcDbEntity
  8
DIM
100
AcDbLine
 10
68.17211297168211
 20
69.61870598315908
 30
0.0
 11
71.9807482171928
 21
69.61870598315908
 31
0.0
  0
LINE
  5
63D3
330
18
100
AcDbEntity
  8
DIM
100
AcDbLine
 10
71.9807482171928
 20
65.97240719313792
 30
0.0
 11
71.9807482171928
 21
69.61870598315908
 31
0.0
  0
LINE
  5
63D4
330
18
100
AcDbEntity
  8
DIM
100
AcDbLine
 10
68.17211297168211
 20
65.97240719313792
 30
0.0
 11
71.9807482171928
 21
65.97240719313792
 31
0.0
  0
LINE
  5
63D5
330
18
100
AcDbEntity
  8
DIM
100
AcDbLine
 10
68.17211297168211
 20
67.7955565881485
 30
0.0
 11
63.41131913595905
 21
67.7955565881485
 31
0.0
  0
MTEXT
  5
63D6
330
18
100
AcDbEntity
  8
DIM
100
AcDbMText
 10
69.12935069412174
 20
69.28737426738554
 30
0.0
 40
3.0
 41
2.354875985554478
 71
     1
 72
     5
  1
A
  7
ISOCP3
 73
     1
 44
1.0
  0
LINE
  5
64AF
330
18
100
AcDbEntity
  8
図框線
100
AcDbLine
 10
197.9999999999997
 20
289.9999999999999
 30
0.0
 11
197.9999999999997
 21
-0.0000000000000568
 31
0.0
  0
LINE
  5
64B0
330
18
100
AcDbEntity
  8
図框線
370
    30
100
AcDbLine
 10
-0.0000000000002274
 20
0.0
 30
0.0
 11
-0.0000000000002274
 21
290.0
 31
0.0
  0
LINE
  5
64B1
330
18
100
AcDbEntity
  8
0
 62
     7
 48
5.0
100
AcDbLine
 39
4.0
 10
49.94750515634314
 20
27.8953239783782
 30
0.0
 11
55.27930887205229
 21
29.22827490730549
 31
0.0
  0
MTEXT
  5
64B2
330
18
100
AcDbEntity
  8
0
100
AcDbMText
 10
15.97866977158742
 20
9.63134010478825
 30
0.0
 40
6.0
 41
0.0
 71
     1
 72
     5
  1
\Ftxt.shx,bigfont.shx|c128;日機株式会社
  7
LKK
 73
     1
 44
1.0
  0
LINE
  5
64B3
330
18
100
AcDbEntity
  8
図框線
100
AcDbLine
 10
0.0
 20
0.0
 30
0.0
 11
197.9999999999997
 21
0.0
 31
0.0
  0
LINE
  5
64B7
330
18
100
AcDbEntity
  8
図框線
100
AcDbLine
 10
0.0
 20
12.0
 30
0.0
 11
197.9999999999997
 21
12.00000000000005
 31
0.0
  0
LINE
  5
64B8
330
18
100
AcDbEntity
  8
図框線
100
AcDbLine
 10
0.0
 20
22.0
 30
0.0
 11
96.0
 21
22.0
 31
0.0
  0
LINE
  5
64B9
330
18
100
AcDbEntity
  8
図框線
100
AcDbLine
 10
0.0
 20
32.0
 30
0.0
 11
197.9999999999997
 21
32.0
 31
0.0
  0
LINE
  5
64BA
330
18
100
AcDbEntity
  8
図框線
100
AcDbLine
 10
12.0
 20
32.0
 30
0.0
 11
12.0
 21
12.0
 31
0.0
  0
LINE
  5
64BB
330
18
100
AcDbEntity
  8
図框線
100
AcDbLine
 10
32.0
 20
32.0
 30
0.0
 11
32.0
 21
12.0
 31
0.0
  0
MTEXT
  5
64BC
330
18
100
AcDbEntity
  8
0
100
AcDbMText
 10
2.949444248820782
 20
29.04715033351227
 30
0.0
 40
4.5
 41
0.0
 71
     1
 72
     5
  1
\Ftxt.shx,bigfont.shx|c128;日 付
  7
JL
 73
     1
 44
1.0
  0
MTEXT
  5
64BD
330
18
100
AcDbEntity
  8
0
100
AcDbMText
 10
3.095712364910014
 20
19.83833899470915
 30
0.0
 40
4.5
 41
0.0
 71
     1
 72
     5
  1
\Ftxt.shx,bigfont.shx|c128;製 図
  7
JL
 73
     1
 44
1.0
  0
LINE
  5
64C0
330
18
100
AcDbEntity
  8
0
 62
     7
370
    25
100
AcDbLine
 10
55.27930887205229
 20
23.89647119159633
 30
0.0
 11
55.27930887205229
 21
29.22827490730549
 31
0.0
  0
MTEXT
  5
64C1
330
18
100
AcDbEntity
  8
0
100
AcDbMText
 10
66.70254067332553
 20
29.42231870267847
 30
0.0
 40
4.5
 41
0.0
 71
     1
 72
     5
  1
\Ftxt.shx,bigfont.shx|c128;尺 度
  7
JL
 73
     1
 44
1.0
  0
LINE
  5
64C2
330
18
100
AcDbEntity
  8
図框線
100
AcDbLine
 10
64.0
 20
32.0
 30
0.0
 11
64.0
 21
12.0
 31
0.0
  0
LINE
  5
64C3
330
18
100
AcDbEntity
  8
0
 62
     7
370
    25
100
AcDbLine
 10
41.2833241183157
 20
23.23894871736115
 30
0.0
 11
41.2833241183157
 21
29.67466750005656
 31
0.0
  0
CIRCLE
  5
64C4
330
18
100
AcDbEntity
  8
0
 62
     7
100
AcDbCircle
 10
41.2833241183157
 20
26.5623730494508
 30
0.0
 40
2.665901857854641
  0
LINE
  5
64C6
330
18
100
AcDbEntity
  8
0
 62
     7
370
    25
100
AcDbLine
 10
49.18030281106076
 20
26.56237304945091
 30
0.0
 11
55.75797321903156
 21
26.56237304945091
 31
0.0
  0
LINE
  5
64C7
330
18
100
AcDbEntity
  8
0
 62
     7
100
AcDbLine
 10
49.94750515634314
 20
25.22942212052362
 30
0.0
 11
55.27930887205229
 21
23.89647119159633
 31
0.0
  0
LINE
  5
64C8
330
18
100
AcDbEntity
  8
図框線
100
AcDbLine
 10
44.0
 20
21.99999999999989
 30
0.0
 11
44.0
 21
12.0
 31
0.0
  0
LINE
  5
64C9
330
18
100
AcDbEntity
  8
0
 62
     7
370
    25
100
AcDbLine
 10
37.95172532843935
 20
26.5623730494508
 30
0.0
 11
44.81391594676916
 21
26.56237304945091
 31
0.0
  0
CIRCLE
  5
64CA
330
18
100
AcDbEntity
  8
0
 62
     7
100
AcDbCircle
 10
41.2833241183157
 20
26.5623730494508
 30
0.0
 40
1.33295092892732
  0
MTEXT
  5
64CB
330
18
100
AcDbEntity
  8
0
100
AcDbMText
 10
35.12086518039769
 20
19.39982343168049
 30
0.0
 40
4.5
 41
0.0
 71
     1
 72
     5
  1
\Ftxt.shx,bigfont.shx|c128;検 図
  7
JL
 73
     1
 44
1.0
  0
LINE
  5
64CC
330
18
100
AcDbEntity
  8
0
 62
     7
370
    25
100
AcDbLine
 10
49.94750515634314
 20
25.22942212052362
 30
0.0
 11
49.94750515634314
 21
27.8953239783782
 31
0.0
  0
MTEXT
  5
64CD
330
18
100
AcDbEntity
  8
0
100
AcDbMText
 10
66.99507418337498
 20
19.62882052001464
 30
0.0
 40
4.5
 41
0.0
 71
     1
 72
     5
  1
\Ftxt.shx,bigfont.shx|c128;承 認
  7
JL
 73
     1
 44
1.0
  0
LINE
  5
64CE
330
18
100
AcDbEntity
  8
図框線
100
AcDbLine
 10
132.615790078639
 20
43.13491348924492
 30
0.0
 11
192.615790078639
 21
43.13491348924481
 31
0.0
  0
LINE
  5
64CF
330
18
100
AcDbEntity
  8
図框線
100
AcDbLine
 10
132.615790078639
 20
50.33491348924497
 30
0.0
 11
192.615790078639
 21
50.33491348924497
 31
0.0
  0
LINE
  5
64D0
330
18
100
AcDbEntity
  8
図框線
100
AcDbLine
 10
132.615790078639
 20
57.5349134892449
 30
0.0
 11
192.615790078639
 21
57.53491348924478
 31
0.0
  0
LINE
  5
64D1
330
18
100
AcDbEntity
  8
図框線
100
AcDbLine
 10
132.615790078639
 20
64.73491348924494
 30
0.0
 11
192.615790078639
 21
64.73491348924483
 31
0.0
  0
LINE
  5
64D2
330
18
100
AcDbEntity
  8
図框線
100
AcDbLine
 10
132.615790078639
 20
35.93491348924488
 30
0.0
 11
192.615790078639
 21
35.93491348924488
 31
0.0
  0
MTEXT
  5
64D3
330
18
100
AcDbEntity
  8
0
 62
     7
 48
2.0
100
AcDbMText
 10
162.5011900445104
 20
65.52808189982909
 30
0.0
 40
4.8
 41
0.0
 71
     5
 72
     1
  1
\P\Ftxt.shx,bigfont.shx|c128;諸　　　　元
 73
     1
 44
1.0
  0
LINE
  5
64D5
330
18
100
AcDbEntity
  8
図框線
100
AcDbLine
 10
132.615790078639
 20
64.73491348924483
 30
0.0
 11
132.615790078639
 21
35.93491348924488
 31
0.0
  0
MTEXT
  5
64D6
330
18
100
AcDbEntity
  8
0
100
AcDbMText
 10
136.1382258923192
 20
56.00840432212407
 30
0.0
 40
4.4
 41
163.916286842249
 71
     1
 72
     5
  1
\Ftxt.shx,bigfont.shx|c128;熱　処　理
  7
JL
 73
     1
 44
1.0
  0
LINE
  5
64D7
330
18
100
AcDbEntity
  8
図框線
100
AcDbLine
 10
156.615790078639
 20
57.53491348924478
 30
0.0
 11
156.615790078639
 21
35.93491348924488
 31
0.0
  0
MTEXT
  5
64D8
330
18
100
AcDbEntity
  8
0
100
AcDbMText
 10
97.65702556263818
 20
11.15332144655735
 30
0.0
 40
5.0
 41
0.0
 71
     1
 72
     5
  1
\Ftxt.shx,bigfont.shx|c128;図  面  番  号
  7
JL
 73
     1
 44
1.0
  0
MTEXT
  5
64D9
330
18
100
AcDbEntity
  8
0
 62
     7
 48
2.0
100
AcDbMText
 10
121.8260850653862
 20
22.29156825453561
 30
0.0
 40
4.5
 41
0.0
 71
     5
 72
     1
  1
\P\Ftxt.shx,bigfont.shx|c128;    精密ロックナット
 73
     1
 44
1.0
  0
MTEXT
  5
64DA
330
18
100
AcDbEntity
  8
0
370
    25
100
AcDbMText
 10
98.8002923053598
 20
29.80688815403971
 30
0.0
 40
5.0
 41
0.0
 71
     1
 72
     5
  1
\Ftxt.shx,bigfont.shx|c128;品  名
  7
JL
 73
     1
 44
1.0
  0
LINE
  5
64DB
330
18
100
AcDbEntity
  8
図框線
100
AcDbLine
 10
96.0
 20
32.0
 30
0.0
 11
96.0
 21
0.19104161092514
 31
0.0
  0
LINE
  5
64DC
330
18
100
AcDbEntity
  8
図框線
100
AcDbLine
 10
76.0
 20
32.0
 30
0.0
 11
76.0
 21
12.0
 31
0.0
  0
LINE
  5
64DE
330
18
100
AcDbEntity
  8
図框線
100
AcDbLine
 10
153.2235601908683
 20
32.0
 30
0.0
 11
153.2235601908683
 21
12.0
 31
0.0
  0
MTEXT
  5
64DF
330
18
100
AcDbEntity
  8
0
100
AcDbMText
 10
135.85795152494
 20
49.00617587486397
 30
0.0
 40
4.4
 41
163.6058628849672
 71
     1
 72
     5
  1
\Ftxt.shx,bigfont.shx|c128;表 面 処 理
  7
JL
 73
     1
 44
1.0
  0
MTEXT
  5
64E0
330
18
100
AcDbEntity
  8
0
100
AcDbMText
 10
136.148017373375
 20
41.71770302125605
 30
0.0
 40
4.4
 41
166.1718
 71
     1
 72
     5
  1
\Ftxt.shx,bigfont.shx|c128;等     　級
  7
JL
 73
     1
 44
1.0
  0
LINE
  5
64E1
330
18
100
AcDbEntity
  8
図框線
100
AcDbLine
 10
192.615790078639
 20
64.73491348924483
 30
0.0
 11
192.615790078639
 21
35.93491348924499
 31
0.0
  0
MTEXT
  5
64E2
330
18
100
AcDbEntity
  8
0
100
AcDbMText
 10
161.3627933880816
 20
55.83344641471445
 30
0.0
 40
4.4
 41
291.8960056857887
 71
     1
 72
     5
  1
\Ftxt.shx,bigfont.shx|c128;調質　HRC30%%d%%p２%%d
  7
JL
 73
     1
 44
1.0
  0
MTEXT
  5
64E4
330
18
100
AcDbEntity
  8
0
370
    25
100
AcDbMText
 10
157.2494735287423
 20
29.58569764093568
 30
0.0
 40
5.0
 41
0.0
 71
     1
 72
     5
  1
\Ftxt.shx,bigfont.shx|c128;型  番
  7
JL
 73
     1
 44
1.0
  0
MTEXT
  5
64E5
330
18
100
AcDbEntity
  8
0
100
AcDbMText
 10
172.787265122339
 20
11.23700203391422
 30
0.0
 40
5.0
 41
0.0
 71
     1
 72
     5
  1
\Ftxt.shx,bigfont.shx|c128;変更
  7
JL
 73
     1
 44
1.0
  0
LINE
  5
64E6
330
18
100
AcDbEntity
  8
図框線
100
AcDbLine
 10
171.0
 20
12.00907027842731
 30
0.0
 11
171.0
 21
0.0
 31
0.0
  0
MTEXT
  5
64E7
330
18
100
AcDbEntity
  8
0
100
AcDbMText
 10
161.623432389518
 20
41.7183135927072
 30
0.0
 40
4.4
 41
290.783364796891
 71
     1
 72
     5
  1
\Ftxt.shx,bigfont.shx|c128;ＩＳＯ - ４Ｈ
  7
JL
 73
     1
 44
1.0
  0
MTEXT
  5
64E8
330
18
100
AcDbEntity
  8
0
100
AcDbMText
 10
161.7978935876483
 20
48.65328293790913
 30
0.0
 40
4.4
 41
291.4548
 71
     1
 72
     5
  1
\Ftxt.shx,bigfont.shx|c128;黒  　    染
  7
JL
 73
     1
 44
1.0
  0
MTEXT
  5
64EA
330
18
100
AcDbEntity
  8
0
100
AcDbMText
 10
60.06318600759005
 20
270.095850257545
 30
0.0
 40
5.0
 41
0.0
 71
     1
 72
     5
  1
\Ftxt.shx,bigfont.shx|c128;M8X1.25-6L
  7
JL
 73
     1
 44
1.0
  0
MTEXT
  5
64EB
330
18
100
AcDbEntity
  8
0
100
AcDbMText
 10
60.06318600759005
 20
262.095850257545
 30
0.0
 40
5.0
 41
0.0
 71
     1
 72
     5
  1
\Ftxt.shx,bigfont.shx|c128;%%c7X6L
  7
JL
 73
     1
 44
1.0
  0
LINE
  5
64EC
330
18
100
AcDbEntity
  8
図框線
100
AcDbLine
 10
-0.0000000000002274
 20
263.9999999999999
 30
0.0
 11
197.9999999999997
 21
263.9999999999999
 31
0.0
  0
LINE
  5
64ED
330
18
100
AcDbEntity
  8
図框線
100
AcDbLine
 10
-0.0000000000002274
 20
271.9999999999999
 30
0.0
 11
197.9999999999997
 21
271.9999999999999
 31
0.0
  0
LINE
  5
64EE
330
18
100
AcDbEntity
  8
図框線
 62
     9
100
AcDbLine
 10
-0.0000000000002274
 20
279.9999999999999
 30
0.0
 11
197.9999999999997
 21
279.9999999999999
 31
0.0
  0
LINE
  5
64EF
330
18
100
AcDbEntity
  8
図框線
100
AcDbLine
 10
-0.0000000000002274
 20
290.0
 30
0.0
 11
197.9999999999997
 21
290.0
 31
0.0
  0
MTEXT
  5
64F0
330
18
100
AcDbEntity
  8
0
100
AcDbMText
 10
59.41630259681733
 20
287.3155952051104
 30
0.0
 40
5.0
 41
0.0
 71
     1
 72
     5
  1
\Ftxt.shx,bigfont.shx|c128;図    番 / 規　　格
  7
JL
 73
     1
 44
1.0
  0
LINE
  5
64F1
330
18
100
AcDbEntity
  8
図框線
100
AcDbLine
 10
-0.0000000000002274
 20
263.9999999999999
 30
0.0
 11
197.9999999999997
 21
263.9999999999999
 31
0.0
  0
LINE
  5
64F2
330
18
100
AcDbEntity
  8
図框線
100
AcDbLine
 10
-0.0000000000002274
 20
255.9999999999999
 30
0.0
 11
197.9999999999997
 21
255.9999999999999
 31
0.0
  0
MTEXT
  5
64F3
330
18
100
AcDbEntity
  8
0
100
AcDbMText
 10
22.01434914141237
 20
286.7888025819827
 30
0.0
 40
5.0
 41
0.0
 71
     1
 72
     5
  1
\Ftxt.shx,bigfont.shx|c128;品　          名
  7
JL
 73
     1
 44
1.0
  0
MTEXT
  5
64F4
330
18
100
AcDbEntity
  8
0
100
AcDbMText
 10
18.8650376130422
 20
270.5298549795346
 30
0.0
 40
6.0
 41
0.0
 71
     1
 72
     5
  1
\Ftxt.shx,bigfont.shx|c128;セットスクリュ-
  7
JL
 73
     1
 44
1.0
  0
MTEXT
  5
64F5
330
18
100
AcDbEntity
  8
0
100
AcDbMText
 10
18.66941459004738
 20
278.3660650505403
 30
0.0
 40
6.0
 41
0.0
 71
     1
 72
     5
  1
\Ftxt.shx,bigfont.shx|c128;ロックナット　  
  7
JL
 73
     1
 44
1.0
  0
MTEXT
  5
64F6
330
18
100
AcDbEntity
  8
0
100
AcDbMText
 10
18.8650376130422
 20
262.5298549795346
 30
0.0
 40
6.0
 41
0.0
 71
     1
 72
     5
  1
\Ftxt.shx,bigfont.shx|c128;ロックピン 
  7
JL
 73
     1
 44
1.0
  0
LINE
  5
64F7
330
18
100
AcDbEntity
  8
図框線
100
AcDbLine
 10
14.99999999999977
 20
289.9999999999998
 30
0.0
 11
15.00000000000011
 21
255.9999999999999
 31
0.0
  0
LINE
  5
64F8
330
18
100
AcDbEntity
  8
0
100
AcDbLine
 10
14.99999999999977
 20
289.9999999999998
 30
0.0
 11
14.99999999999977
 21
263.9999999999999
 31
0.0
  0
MTEXT
  5
64F9
330
18
100
AcDbEntity
  8
0
100
AcDbMText
 10
6.215289087390488
 20
262.7436409356394
 30
0.0
 40
5.0
 41
0.0
 71
     1
 72
     5
  1
\Ftxt.shx,bigfont.shx|c128;3
  7
JL
 73
     1
 44
1.0
  0
MTEXT
  5
64FA
330
18
100
AcDbEntity
  8
0
100
AcDbMText
 10
7.101957026666809
 20
278.5798510066454
 30
0.0
 40
5.0
 41
0.0
 71
     1
 72
     5
  1
\Ftxt.shx,bigfont.shx|c128;1
  7
JL
 73
     1
 44
1.0
  0
MTEXT
  5
64FB
330
18
100
AcDbEntity
  8
0
100
AcDbMText
 10
6.215289087390488
 20
270.7436409356394
 30
0.0
 40
5.0
 41
0.0
 71
     1
 72
     5
  1
\Ftxt.shx,bigfont.shx|c128;2
  7
JL
 73
     1
 44
1.0
  0
MTEXT
  5
64FC
330
18
100
AcDbEntity
  8
0
100
AcDbMText
 10
2.209083991842362
 20
287.0885254164057
 30
0.0
 40
5.0
 41
0.0
 71
     1
 72
     5
  1
\Ftxt.shx,bigfont.shx|c128;照   号
  7
JL
 73
     1
 44
1.0
  0
LINE
  5
64FD
330
18
100
AcDbEntity
  8
図框線
 62
     9
100
AcDbLine
 10
54.99999999999977
 20
289.9999999999998
 30
0.0
 11
54.99999999999977
 21
256.0
 31
0.0
  0
MTEXT
  5
64FE
330
18
100
AcDbEntity
  8
0
100
AcDbMText
 10
146.3353765925378
 20
287.5804049742369
 30
0.0
 40
5.0
 41
0.0
 71
     1
 72
     5
  1
\Ftxt.shx,bigfont.shx|c128;備           考
  7
JL
 73
     1
 44
1.0
  0
LINE
  5
64FF
330
18
100
AcDbEntity
  8
図框線
 62
     9
100
AcDbLine
 10
94.99999999999976
 20
289.9999999999999
 30
0.0
 11
94.99999999999976
 21
255.9999999999999
 31
0.0
  0
MTEXT
  5
6500
330
18
100
AcDbEntity
  8
0
100
AcDbMText
 10
96.78387029776377
 20
262.3660650505403
 30
0.0
 40
5.0
 41
0.0
 71
     1
 72
     5
  1
\Ftxt.shx,bigfont.shx|c128;C3604
  7
JL
 73
     1
 44
1.0
  0
MTEXT
  5
6501
330
18
100
AcDbEntity
  8
0
100
AcDbMText
 10
96.78387029776377
 20
278.3660650505403
 30
0.0
 40
5.0
 41
0.0
 71
     1
 72
     5
  1
\Ftxt.shx,bigfont.shx|c128;SCM-440
  7
JL
 73
     1
 44
1.0
  0
MTEXT
  5
6502
330
18
100
AcDbEntity
  8
0
100
AcDbMText
 10
96.78387029776377
 20
270.3660650505403
 30
0.0
 40
5.0
 41
0.0
 71
     1
 72
     5
  1
\Ftxt.shx,bigfont.shx|c128;SCM435
  7
JL
 73
     1
 44
1.0
  0
MTEXT
  5
6503
330
18
100
AcDbEntity
  8
0
100
AcDbMText
 10
99.80032499445407
 20
287.5804049742369
 30
0.0
 40
5.0
 41
0.0
 71
     1
 72
     5
  1
\Ftxt.shx,bigfont.shx|c128;材　質
  7
JL
 73
     1
 44
1.0
  0
LINE
  5
6504
330
18
100
AcDbEntity
  8
図框線
 62
     9
100
AcDbLine
 10
114.9999999999997
 20
289.9999999999999
 30
0.0
 11
114.9999999999997
 21
255.9999999999999
 31
0.0
  0
LINE
  5
6505
330
18
100
AcDbEntity
  8
図框線
100
AcDbLine
 10
129.9999999999998
 20
289.9999999999999
 30
0.0
 11
129.9999999999998
 21
255.9999999999999
 31
0.0
  0
MTEXT
  5
6506
330
18
100
AcDbEntity
  8
0
100
AcDbMText
 10
121.2152890873904
 20
262.7436409356394
 30
0.0
 40
5.0
 41
0.0
 71
     1
 72
     5
  1
\Ftxt.shx,bigfont.shx|c128;3
  7
JL
 73
     1
 44
1.0
  0
MTEXT
  5
6507
330
18
100
AcDbEntity
  8
0
100
AcDbMText
 10
122.1019570266667
 20
278.5798510066454
 30
0.0
 40
5.0
 41
0.0
 71
     1
 72
     5
  1
\Ftxt.shx,bigfont.shx|c128;1
  7
JL
 73
     1
 44
1.0
  0
MTEXT
  5
6508
330
18
100
AcDbEntity
  8
0
100
AcDbMText
 10
121.2152890873904
 20
270.7436409356394
 30
0.0
 40
5.0
 41
0.0
 71
     1
 72
     5
  1
\Ftxt.shx,bigfont.shx|c128;3
  7
JL
 73
     1
 44
1.0
  0
MTEXT
  5
6509
330
18
100
AcDbEntity
  8
0
100
AcDbMText
 10
116.433740311917
 20
287.5804049742369
 30
0.0
 40
5.0
 41
0.0
 71
     1
 72
     5
  1
\Ftxt.shx,bigfont.shx|c128;数   量
  7
JL
 73
     1
 44
1.0
  0
DIMENSION
  5
6770
330
18
100
AcDbEntity
  8
0
100
AcDbDimension
  2
*D1
 10
117.5125618167609
 20
76.04547028276726
 30
0.0
 11
90.01256181676069
 21
76.04547028276726
 31
0.0
 70
   160
  1
M<>X2.0P
 71
     5
 42
-1.0
  3
A
100
AcDbAlignedDimension
 13
62.51256181676047
 23
93.66335634952053
 33
0.0
 14
117.5125618167609
 24
93.59668968285365
 34
0.0
100
AcDbRotatedDimension
  0
DIMENSION
  5
677F
330
18
100
AcDbEntity
  8
0
100
AcDbDimension
  2
*D2
 10
55.71256181676097
 20
162.610728722464
 30
0.0
 11
60.71256181676097
 21
162.610728722464
 31
0.0
 12
-210.5186231023738
 22
0.0
 32
0.0
 70
   160
 71
     5
 42
-1.0
  3
A
100
AcDbAlignedDimension
 13
52.67625241157197
 23
200.8959092767295
 33
0.0
 14
55.71256181676097
 24
200.8959092767295
 34
0.0
100
AcDbRotatedDimension
  0
DIMENSION
  5
6864
330
18
100
AcDbEntity
  8
DIM
100
AcDbDimension
  2
*D3
 10
41.76366541727225
 20
207.8959092767295
 30
0.0
 11
40.88926137641647
 21
217.2846585650538
 31
0.0
 70
   160
  1
<>      (3等分)
 71
     5
 42
-1.0
  3
A
100
AcDbAlignedDimension
 13
52.68062282605183
 23
200.8959092767295
 33
0.0
 14
52.67625241157202
 24
207.8959092767295
 34
0.0
 50
90.0
100
AcDbRotatedDimension
  0
LINE
  5
689B
330
18
100
AcDbEntity
  8
DIM
 62
     6
100
AcDbLine
 10
41.76366541727225
 20
207.8959092767296
 30
0.0
 11
41.76366541727225
 21
229.812218139124
 31
0.0
  0
LINE
  5
6AF0
330
18
100
AcDbEntity
  8
DIM
 62
     6
100
AcDbLine
 10
60.71256181676097
 20
162.610728722464
 30
0.0
 11
72.5157851275901
 21
162.610728722464
 31
0.0
  0
LEADER
  5
6B85
330
18
100
AcDbEntity
  8
DIM
 62
     6
100
AcDbLeader
  3
A
 73
     0
 74
     0
 75
     1
 40
3.0
 41
4.999999999999999
 76
     3
 10
62.76256181676041
 20
111.9966896828539
 30
0.0
 10
70.73539745580615
 20
119.8329162969155
 30
0.0
 10
73.23539745580615
 20
119.8329162969155
 30
0.0
340
6B86
  0
MTEXT
  5
6B86
102
{ACAD_REACTORS
330
6B85
102
}
330
18
100
AcDbEntity
  8
DIM
 62
     3
100
AcDbMText
 10
74.23539745580615
 20
122.3329162969155
 30
0.0
 40
3.0
 41
0.0
 71
     4
 72
     1
  1
\A1;C2
  7
TXT
 73
     1
 44
1.0
  0
DIMENSION
  5
6C92
330
18
100
AcDbEntity
  8
DIM
100
AcDbDimension
  2
*D4
 10
124.0125618167609
 20
133.187912901009
 30
0.0
 11
90.01256181676069
 21
135.6879129010091
 31
0.0
 12
-210.5186231023738
 22
0.0
 32
0.0
 70
    32
  1
%%c<>%%p0.5
 71
     5
 42
-1.0
  3
A
100
AcDbAlignedDimension
 13
56.01256181676041
 23
114.9966896828535
 33
0.0
 14
124.0125618167609
 24
114.9966896828535
 34
0.0
100
AcDbRotatedDimension
  0
DIMENSION
  5
6CAA
330
18
100
AcDbEntity
  8
DIM
100
AcDbDimension
  2
*D5
 10
127.5125618167609
 20
138.695382991424
 30
0.0
 11
85.94350568884676
 21
139.5215037413092
 31
0.0
 12
-210.5186231023738
 22
0.0
 32
0.0
 70
   160
  1
%%c<>
 71
     5
 42
-1.0
  3
A
100
AcDbAlignedDimension
 13
52.51256181676035
 23
112.4966896828535
 33
0.0
 14
127.5125618167609
 24
112.4966896828535
 34
0.0
100
AcDbRotatedDimension
  0
DIMENSION
  5
6F74
330
18
100
AcDbEntity
  8
0
100
AcDbDimension
  2
*D6
 10
151.6588527207597
 20
76.38846388584264
 30
0.0
 11
162.1549250957722
 21
94.56819451928426
 31
0.0
 70
   161
  1
9%%p0.5
 71
     5
 42
-1.0
  3
A
100
AcDbAlignedDimension
 13
127.5125618167609
 23
100.9987644138218
 33
0.0
 14
122.8925618167608
 24
92.99668968285351
 34
0.0
  0
MTEXT
  5
72FF
102
{ACAD_REACTORS
330
7300
102
}
330
18
100
AcDbEntity
  8
DIM
 62
     3
100
AcDbMText
 10
103.6240199709809
 20
86.16683178633602
 30
0.0
 40
3.0
 41
0.0
 71
     6
 72
     1
  1
\A1;C2
  7
TXT
 73
     1
 44
1.0
  0
LEADER
  5
7300
330
18
100
AcDbEntity
  8
DIM
 62
     6
100
AcDbLeader
  3
A
 73
     0
 75
     1
 40
3.0
 41
4.999999999999999
 76
     3
 10
117.2625618167609
 20
93.99668968285366
 30
0.0
 10
107.1240199709809
 20
83.66683178633602
 30
0.0
 10
104.6240199709809
 20
83.66683178633602
 30
0.0
340
72FF
  0
MTEXT
  5
7303
102
{ACAD_REACTORS
330
7304
102
}
330
18
100
AcDbEntity
  8
DIM
 62
     3
100
AcDbMText
 10
143.1284364166465
 20
129.0151165260691
 30
0.0
 40
3.0
 41
0.0
 71
     4
 72
     1
  1
\A1;R2
  7
TXT
 73
     1
 44
1.0
  0
LEADER
  5
7304
330
18
100
AcDbEntity
  8
DIM
 62
     6
100
AcDbLeader
  3
A
 73
     0
 74
     0
 75
     1
 40
3.0
 41
4.999999999999999
 76
     3
 10
126.926775379134
 20
113.9109032452266
 30
0.0
 10
139.6284364166465
 20
126.5151165260691
 30
0.0
 10
142.1284364166465
 20
126.5151165260691
 30
0.0
340
7303
1001
ACAD
1000
DSTYLE
1002
{
1070
    45
1040
0.0
1002
}
  0
DIMENSION
  5
74C6
330
18
100
AcDbEntity
  8
0
100
AcDbDimension
  2
*D7
 10
47.06366541727163
 20
114.4966896828535
 30
0.0
 11
47.06366541727163
 21
125.1566869440036
 31
0.0
 12
-210.5186231023738
 22
0.0
 32
0.0
 70
   160
 71
     5
 42
-1.0
  3
A
100
AcDbAlignedDimension
 13
56.01256181676041
 23
114.9966896828535
 33
0.0
 14
54.51256181676041
 24
114.4966896828535
 34
0.0
 50
90.0
100
AcDbRotatedDimension
  0
DIMENSION
  5
750D
330
18
100
AcDbEntity
  8
DIM
100
AcDbDimension
  2
*D8
 10
118.0125618167609
 20
127.3448180893804
 30
0.0
 11
90.01256181676069
 21
129.8448180893805
 31
0.0
 12
-210.5186231023738
 22
0.0
 32
0.0
 70
    32
  1
%%c<>
 71
     5
 42
-1.0
  3
A
100
AcDbAlignedDimension
 13
62.01256181676041
 23
114.9966896828535
 33
0.0
 14
118.0125618167609
 24
114.9966896828535
 34
0.0
100
AcDbRotatedDimension
  0
DIMENSION
  5
7568
330
18
100
AcDbEntity
  8
DIM
100
AcDbDimension
  2
*D9
 10
142.3988883922231
 20
97.03765203504707
 30
0.0
 11
139.8988883922231
 21
106.0171708589503
 31
0.0
 70
    32
 71
     5
 42
-1.0
  3
A
100
AcDbAlignedDimension
 13
124.0125618167609
 23
114.9966896828535
 33
0.0
 14
125.2256125185849
 24
97.03765203504707
 34
0.0
 50
90.0
100
AcDbRotatedDimension
  0
DIMENSION
  5
7575
330
18
100
AcDbEntity
  8
DIM
100
AcDbDimension
  2
*D10
 10
152.5479093186113
 20
114.9966896828535
 30
0.0
 11
150.0479093186113
 21
103.9966896828535
 31
0.0
 70
    32
  1
<>%%p0.2
 71
     5
 42
-1.0
  3
A
100
AcDbAlignedDimension
 13
122.8925618167608
 23
92.99668968285351
 33
0.0
 14
124.0125618167609
 24
114.9966896828535
 34
0.0
 50
90.0
100
AcDbRotatedDimension
  0
DIMENSION
  5
7AD6
330
18
100
AcDbEntity
  8
DIM
100
AcDbDimension
  2
*D11
 10
99.23029692324087
 20
114.9966896828535
 30
0.0
 11
99.23029692324087
 21
122.5825033705258
 31
0.0
 12
-210.5186231023738
 22
0.0
 32
0.0
 70
   160
 71
     5
 42
-1.0
  3
A
100
AcDbAlignedDimension
 13
103.0125618167606
 23
112.9966896828538
 33
0.0
 14
103.0125618167606
 24
114.9966896828535
 34
0.0
 50
90.0
100
AcDbRotatedDimension
  0
LINE
  5
8DFF
330
18
100
AcDbEntity
  8
中心線
  6
CENTER
 48
0.15
100
AcDbLine
 10
90.01256181676126
 20
243.8959092767292
 30
0.0
 11
90.01256181676069
 21
164.8959092767292
 31
0.0
  0
LINE
  5
8E00
330
18
100
AcDbEntity
  8
中心線
  6
CENTER
 48
0.15
100
AcDbLine
 10
90.01256181676064
 20
89.92576649073996
 30
0.0
 11
90.01256181676064
 21
117.8213845959953
 31
0.0
  0
ARC
  5
8E05
330
18
100
AcDbEntity
  8
本体外線
100
AcDbCircle
 10
90.01256181676092
 20
204.3959092767292
 30
0.0
 40
37.5
100
AcDbArc
 50
65.35540061305225
 51
174.6445993869467
  0
CIRCLE
  5
8E06
330
18
100
AcDbEntity
  8
本体外線
100
AcDbCircle
 10
90.01256181676092
 20
204.3959092767292
 30
0.0
 40
34.0
  0
ARC
  5
8E07
330
18
100
AcDbEntity
  8
0
100
AcDbCircle
 10
90.01256181676092
 20
204.3959092767292
 30
0.0
 40
27.5
100
AcDbArc
 50
166.0611952499499
 51
102.1183354456234
  0
CIRCLE
  5
8E08
330
18
100
AcDbEntity
  8
本体外線
100
AcDbCircle
 10
90.01256181676092
 20
204.3959092767292
 30
0.0
 40
26.5
  0
LINE
  5
8E09
102
{ACAD_REACTORS
330
9027
102
}
330
18
100
AcDbEntity
  8
本体外線
100
AcDbLine
 10
56.01256181676041
 20
114.9966896828535
 30
0.0
 11
124.0125618167609
 21
114.9966896828535
 31
0.0
  0
LINE
  5
8E0A
102
{ACAD_REACTORS
330
9027
102
}
330
18
100
AcDbEntity
  8
本体外線
100
AcDbLine
 10
57.13256181676047
 20
92.99668968285351
 30
0.0
 11
122.8925618167608
 21
92.99668968285354
 31
0.0
  0
LINE
  5
8E0B
330
18
100
AcDbEntity
  8
本体内線
  6
HIDDEN
 48
0.2
100
AcDbLine
 10
80.37847653446897
 20
179.7091840833479
 30
0.0
 11
74.83363524439653
 21
170.1052372490367
 31
0.0
  0
LINE
  5
8E0C
330
18
100
AcDbEntity
  8
本体内線
  6
HIDDEN
 48
0.2
100
AcDbLine
 10
73.45027330419345
 20
183.7091840833479
 30
0.0
 11
67.905432014121
 21
174.1052372490367
 31
0.0
  0
LINE
  5
8E0D
330
18
100
AcDbEntity
  8
本体内線
  6
HIDDEN
 48
0.2
100
AcDbLine
 10
79.79329560126894
 20
179.9456209754247
 30
0.0
 11
74.29236936703126
 21
170.4177372490367
 31
0.0
  0
LINE
  5
8E0E
330
18
100
AcDbEntity
  8
本体内線
  6
HIDDEN
 48
0.2
100
AcDbLine
 10
73.9476241257239
 20
183.3206209754248
 30
0.0
 11
68.44669789148628
 21
173.7927372490367
 31
0.0
  0
LINE
  5
8E0F
330
18
100
AcDbEntity
  8
本体外線
 48
0.08
100
AcDbLine
 10
111.7118054326011
 20
234.9801017051785
 30
0.0
 11
110.1936507300067
 21
232.3505806265353
 31
0.0
  0
LINE
  5
8E10
330
18
100
AcDbEntity
  8
本体外線
 48
0.08
100
AcDbLine
 10
105.6496276061101
 20
238.4801017051785
 30
0.0
 11
104.1314729035156
 21
235.8505806265353
 31
0.0
  0
LINE
  5
8E11
330
18
100
AcDbEntity
  8
中心線
  6
CENTER
 48
0.15
100
AcDbLine
 10
50.51256181676092
 20
204.3959092767295
 30
0.0
 11
129.5125618167609
 21
204.3959092767289
 31
0.0
  0
LINE
  5
8E12
330
18
100
AcDbEntity
  8
本体外線
 48
0.08
100
AcDbLine
 10
52.67625241157202
 20
207.8959092767295
 30
0.0
 11
55.71256181676097
 21
207.8959092767295
 31
0.0
  0
LINE
  5
8E13
330
18
100
AcDbEntity
  8
本体外線
 48
0.08
100
AcDbLine
 10
52.67625241157197
 20
200.8959092767295
 30
0.0
 11
55.71256181676097
 21
200.8959092767295
 31
0.0
  0
LINE
  5
8E14
330
18
100
AcDbEntity
  8
中心線
  6
CENTER
 48
0.15
100
AcDbLine
 10
70.26256181676069
 20
170.187905827244
 30
0.0
 11
77.76256181676069
 21
183.1782868840105
 31
0.0
  0
LINE
  5
8E15
330
18
100
AcDbEntity
  8
本体外線
 48
0.08
100
AcDbLine
 10
105.6496276061095
 20
170.3117168482795
 30
0.0
 11
104.1314729035151
 21
172.9412379269227
 31
0.0
  0
LINE
  5
8E16
330
18
100
AcDbEntity
  8
本体外線
 48
0.08
100
AcDbLine
 10
111.7118054326006
 20
173.8117168482795
 30
0.0
 11
110.1936507300062
 21
176.4412379269227
 31
0.0
  0
ARC
  5
8E17
330
18
100
AcDbEntity
  8
本体外線
100
AcDbCircle
 10
90.01256181676092
 20
204.3959092767292
 30
0.0
 40
37.5
100
AcDbArc
 50
185.3554006130522
 51
294.6445993869467
  0
ARC
  5
8E18
330
18
100
AcDbEntity
  8
本体外線
100
AcDbCircle
 10
90.01256181676092
 20
204.3959092767292
 30
0.0
 40
37.5
100
AcDbArc
 50
305.3554006130522
 51
54.64459938694677
  0
LINE
  5
8E19
330
18
100
AcDbEntity
  8
本体内線
  6
HIDDEN
 48
0.2
100
AcDbLine
 10
116.2089356116204
 20
208.3959092767292
 30
0.0
 11
127.2986181917653
 21
208.3959092767292
 31
0.0
  0
LINE
  5
8E1A
330
18
100
AcDbEntity
  8
本体内線
  6
HIDDEN
 48
0.2
100
AcDbLine
 10
116.2089356116204
 20
200.3959092767292
 30
0.0
 11
127.2986181917653
 21
200.3959092767292
 31
0.0
  0
LINE
  5
8E1B
330
18
100
AcDbEntity
  8
本体内線
  6
HIDDEN
 48
0.2
100
AcDbLine
 10
116.29676572329
 20
207.7709092767292
 30
0.0
 11
127.2986181917653
 21
207.7709092767292
 31
0.0
  0
LINE
  5
8E1C
330
18
100
AcDbEntity
  8
本体内線
  6
HIDDEN
 48
0.2
100
AcDbLine
 10
116.29676572329
 20
201.0209092767292
 30
0.0
 11
127.2986181917653
 21
201.0209092767292
 31
0.0
  0
LINE
  5
8E1D
330
18
100
AcDbEntity
  8
中心線
  6
CENTER
 48
0.15
100
AcDbLine
 10
77.76256181676092
 20
225.6135316694479
 30
0.0
 11
70.26256181676092
 21
238.6039127262145
 31
0.0
  0
LINE
  5
8E1E
330
18
100
AcDbEntity
  8
本体内線
  6
HIDDEN
 48
0.2
100
AcDbLine
 10
73.45027330419338
 20
225.0826344701104
 30
0.0
 11
67.90543201412106
 21
234.6865813044217
 31
0.0
  0
LINE
  5
8E1F
330
18
100
AcDbEntity
  8
本体内線
  6
HIDDEN
 48
0.2
100
AcDbLine
 10
80.37847653446897
 20
229.0826344701105
 30
0.0
 11
74.83363524439653
 21
238.6865813044217
 31
0.0
  0
LINE
  5
8E20
330
18
100
AcDbEntity
  8
本体内線
  6
HIDDEN
 48
0.2
100
AcDbLine
 10
73.9476241257239
 20
225.4711975780336
 30
0.0
 11
68.44669789148634
 21
234.9990813044216
 31
0.0
  0
LINE
  5
8E21
330
18
100
AcDbEntity
  8
本体内線
  6
HIDDEN
 48
0.2
100
AcDbLine
 10
79.79329560126882
 20
228.8461975780336
 30
0.0
 11
74.29236936703126
 21
238.3740813044216
 31
0.0
  0
LINE
  5
8E23
330
18
100
AcDbEntity
  8
本体外線
100
AcDbLine
 10
104.1314729035157
 20
235.8505806265353
 30
0.0
 11
110.1936507300067
 21
232.3505806265353
 31
0.0
  0
LINE
  5
8E24
330
18
100
AcDbEntity
  8
本体外線
100
AcDbLine
 10
55.71256181676097
 20
200.8959092767295
 30
0.0
 11
55.71256181676091
 21
207.8959092767295
 31
0.0
  0
LINE
  5
8E25
330
18
100
AcDbEntity
  8
本体外線
100
AcDbLine
 10
110.1936507300062
 20
176.4412379269228
 30
0.0
 11
104.1314729035151
 21
172.9412379269227
 31
0.0
  0
LINE
  5
8E28
330
18
100
AcDbEntity
  8
本体外線
100
AcDbLine
 10
52.51256181676035
 20
112.4966896828535
 30
0.0
 11
52.51256181676035
 21
100.9966896828535
 31
0.0
  0
LINE
  5
8E29
102
{ACAD_REACTORS
330
9027
102
}
330
18
100
AcDbEntity
  8
本体外線
100
AcDbLine
 10
56.01256181676041
 20
114.9966896828535
 30
0.0
 11
56.01256181676041
 21
114.4966896828535
 31
0.0
  0
LINE
  5
8E2B
102
{ACAD_REACTORS
330
9027
102
}
330
18
100
AcDbEntity
  8
本体外線
100
AcDbLine
 10
54.51256181676035
 20
114.4966896828535
 30
0.0
 11
56.01256181676041
 21
114.4966896828535
 31
0.0
  0
LINE
  5
8E2C
102
{ACAD_REACTORS
330
9027
102
}
330
18
100
AcDbEntity
  8
本体外線
100
AcDbLine
 10
127.5125618167609
 20
112.4966896828535
 30
0.0
 11
127.5125618167609
 21
100.9966896828535
 31
0.0
  0
LINE
  5
8E2D
102
{ACAD_REACTORS
330
9027
102
}
330
18
100
AcDbEntity
  8
本体外線
100
AcDbLine
 10
124.0125618167609
 20
114.9966896828535
 30
0.0
 11
124.0125618167609
 21
114.4966896828535
 31
0.0
  0
LINE
  5
8E2E
102
{ACAD_REACTORS
330
9027
102
}
330
18
100
AcDbEntity
  8
本体外線
100
AcDbLine
 10
124.0125618167609
 20
114.4966896828535
 30
0.0
 11
125.5125618167609
 21
114.4966896828535
 31
0.0
  0
LINE
  5
8E2F
102
{ACAD_REACTORS
330
9027
102
}
330
18
100
AcDbEntity
  8
0
 48
0.08
100
AcDbLine
 10
62.51256181676047
 20
93.66335634952053
 30
0.0
 11
62.51256181676041
 21
112.3300230161872
 31
0.0
  0
ARC
  5
8E30
330
18
100
AcDbEntity
  8
本体外線
100
AcDbCircle
 10
54.51256181676035
 20
112.4966896828535
 30
0.0
 40
2.0
100
AcDbArc
 50
90.0
 51
180.0
  0
ARC
  5
8E31
102
{ACAD_REACTORS
330
9027
102
}
330
18
100
AcDbEntity
  8
本体外線
100
AcDbCircle
 10
125.5125618167609
 20
112.4966896828535
 30
0.0
 40
2.0
100
AcDbArc
 50
359.9999999999999
 51
90.0
  0
LINE
  5
8E32
330
18
100
AcDbEntity
  8
本体外線
100
AcDbLine
 10
62.01256181676041
 20
112.9966896828538
 30
0.0
 11
118.0125618167609
 21
112.9966896828538
 31
0.0
  0
LINE
  5
8E34
102
{ACAD_REACTORS
330
9027
102
}
330
18
100
AcDbEntity
  8
本体外線
100
AcDbLine
 10
63.51256181676041
 20
110.996689682854
 30
0.0
 11
62.01256181676041
 21
112.9966896828538
 31
0.0
  0
LINE
  5
8E37
102
{ACAD_REACTORS
330
9027
102
}
330
18
100
AcDbEntity
  8
0
100
AcDbLine
 10
117.5125618167608
 20
112.3300230161872
 30
0.0
 11
117.5125618167608
 21
106.0563527719231
 31
0.0
  0
POINT
  5
8E3C
330
18
100
AcDbEntity
  8
0
100
AcDbPoint
 10
123.7672012928328
 20
92.99668968285358
 30
0.0
  0
POINT
  5
8E3D
330
18
100
AcDbEntity
  8
本体外線
100
AcDbPoint
 10
124.0125618167609
 20
114.9574984186526
 30
0.0
  0
POINT
  5
8E48
330
18
100
AcDbEntity
  8
本体外線
100
AcDbPoint
 10
124.0125618167609
 20
114.9966896828535
 30
0.0
  0
POINT
  5
8E49
330
18
100
AcDbEntity
  8
0
100
AcDbPoint
 10
123.7672012928328
 20
92.99668968285354
 30
0.0
  0
LINE
  5
8E4B
102
{ACAD_REACTORS
330
9027
102
}
330
18
100
AcDbEntity
  8
本体外線
100
AcDbLine
 10
55.71256181676091
 20
114.4966896828535
 30
0.0
 11
55.71256181676091
 21
95.45620182960051
 31
0.0
  0
LINE
  5
8E4D
330
18
100
AcDbEntity
  8
本体外線
100
AcDbLine
 10
63.51256181676041
 20
110.996689682854
 30
0.0
 11
116.5125618167609
 21
110.996689682854
 31
0.0
  0
LINE
  5
8E4E
102
{ACAD_REACTORS
330
9027
102
}
330
18
100
AcDbEntity
  8
本体外線
100
AcDbLine
 10
116.5125618167609
 20
110.996689682854
 30
0.0
 11
118.0125618167609
 21
112.9966896828538
 31
0.0
  0
LINE
  5
8E4F
330
18
100
AcDbEntity
  8
0
100
AcDbLine
 10
122.5097414937335
 20
93.93362543320026
 30
0.0
 11
126.5097414937337
 21
100.8618286634762
 31
0.0
  0
LINE
  5
8E50
330
18
100
AcDbEntity
  8
本体内線
  6
HIDDEN
 48
0.1
100
AcDbLine
 10
125.1099754429054
 20
99.22981461116066
 30
0.0
 11
123.2232240969579
 21
98.14049821368351
 31
0.0
  0
LINE
  5
8E51
330
18
100
AcDbEntity
  8
本体内線
  6
HIDDEN
 48
0.1
100
AcDbLine
 10
123.2232240969578
 20
98.14049821368328
 30
0.0
 11
123.2232240969574
 21
95.96186541872915
 31
0.0
  0
LWPOLYLINE
  5
8E52
102
{ACAD_REACTORS
330
9027
102
}
330
18
100
AcDbEntity
  8
本体外線
100
AcDbPolyline
 90
        2
 70
     0
 43
0.0
 10
122.8925618167609
 20
92.99668968285365
 10
127.5125618167609
 20
100.9987644138218
  0
LINE
  5
8E55
330
18
100
AcDbEntity
  8
本体内線
  6
HIDDEN
 48
0.1
100
AcDbLine
 10
126.1459374897349
 20
98.6317016445532
 30
0.0
 11
125.1099754429053
 21
99.22981461116057
 31
0.0
  0
LINE
  5
8E56
330
18
100
AcDbEntity
  8
本体内線
  6
HIDDEN
 48
0.1
100
AcDbLine
 10
124.2591861437869
 20
95.36375245212182
 30
0.0
 11
123.2232240969575
 21
95.96186541872908
 31
0.0
  0
LINE
  5
8E57
330
18
100
AcDbEntity
  8
0
100
AcDbLine
 10
122.5084834840796
 20
100.8625549756881
 30
0.0
 11
125.2405342916485
 21
101.5946057832569
 31
0.0
  0
LINE
  5
8E58
330
18
100
AcDbEntity
  8
0
100
AcDbLine
 10
120.5084834840797
 20
97.39845336055033
 30
0.0
 11
121.2405342916486
 21
94.66640255298143
 31
0.0
  0
LINE
  5
8E59
330
18
100
AcDbEntity
  8
0
100
AcDbLine
 10
125.2405342916485
 20
101.5946057832569
 30
0.0
 11
121.2405342916486
 21
94.66640255298143
 31
0.0
  0
LINE
  5
8E5A
330
18
100
AcDbEntity
  8
0
100
AcDbLine
 10
126.5097414937337
 20
99.26182866347515
 30
0.0
 11
123.3477139686202
 21
101.0874261062843
 31
0.0
  0
LINE
  5
8E5B
330
18
100
AcDbEntity
  8
0
100
AcDbLine
 10
123.8953821397885
 20
94.73362543320034
 30
0.0
 11
120.7333546146761
 21
96.55922287600894
 31
0.0
  0
LINE
  5
8E5C
330
18
100
AcDbEntity
  8
0
100
AcDbLine
 10
123.2584834840799
 20
102.1615930813644
 30
0.0
 11
119.75848348408
 21
96.09941525487348
 31
0.0
  0
LINE
  5
8E5D
330
18
100
AcDbEntity
  8
0
100
AcDbLine
 10
123.25848348408
 20
102.1615930813644
 30
0.0
 11
116.5125618167609
 21
106.0563527719231
 31
0.0
  0
LINE
  5
8E5E
330
18
100
AcDbEntity
  8
0
100
AcDbLine
 10
119.75848348408
 20
96.09941525487343
 30
0.0
 11
116.5125618167609
 21
97.97344900326848
 31
0.0
  0
LWPOLYLINE
  5
8E5F
102
{ACAD_REACTORS
330
9027
102
}
330
18
100
AcDbEntity
  8
0
100
AcDbPolyline
 90
        3
 70
     0
 43
0.0
 10
126.5097414937337
 20
99.26182866347595
 10
126.5097414937337
 20
100.8618286634755
 10
116.5125618167608
 20
106.6337030411128
  0
LWPOLYLINE
  5
8E60
102
{ACAD_REACTORS
330
9027
102
}
330
18
100
AcDbEntity
  8
0
100
AcDbPolyline
 90
        3
 70
     0
 43
0.0
 10
123.8953821397885
 20
94.73362543320034
 10
122.5097414937335
 20
93.93362543320026
 10
116.5125618167609
 20
97.39609873407886
  0
LINE
  5
8E64
330
18
100
AcDbEntity
  8
中心線
  6
CENTER
 48
0.15
100
AcDbLine
 10
126.9492057816152
 20
96.05858371735358
 30
0.0
 11
114.0432803817708
 21
103.3896536052038
 31
0.0
  0
LWPOLYLINE
  5
8E65
102
{ACAD_REACTORS
330
9027
102
}
330
18
100
AcDbEntity
  8
本体外線
100
AcDbPolyline
 90
        2
 70
     0
 43
0.0
 10
57.13256181676036
 20
92.99668968285365
 10
52.51256181676035
 20
100.9987644138218
  0
HATCH
  5
8E6C
330
18
100
AcDbEntity
  8
0
100
AcDbHatch
 10
0.0
 20
0.0
 30
0.0
210
0.0
220
0.0
230
1.0
  2
AR-SAND
 70
     0
 71
     0
 91
        2
 92
        7
 72
     0
 73
     1
 93
        4
 10
117.5125618167609
 20
105.4790025027335
 10
117.5125618167609
 20
101.4189661982519
 10
121.5165798608689
 20
99.14452750407479
 10
123.2584834840799
 20
102.1615930813645
 97
        0
 92
        7
 72
     0
 73
     1
 93
        4
 10
117.5125618167609
 20
101.4189661982519
 10
117.5125618167609
 20
97.39609873407884
 10
119.7584834840799
 20
96.09941525487345
 10
121.5165798608689
 20
99.14452750407479
 97
        0
 75
     0
 76
     1
 52
0.0
 41
0.05
 77
     0
 78
     4
 53
37.5
 43
-35.62644054890757
 44
10.68467482145252
 45
-0.0800015647992023
 46
2.447066186646711
 79
     6
 49
0.0
 49
-1.9304
 49
0.0
 49
-2.159
 49
0.0
 49
-2.06375
 53
7.499999999999999
 43
-35.62644054890757
 44
10.68467482145252
 45
2.247616415690013
 46
3.584125502841771
 79
     6
 49
0.0
 49
-1.0414
 49
0.0
 49
-1.7399
 49
0.0
 49
-0.6667500000000001
 53
327.5
 43
-37.18854054890755
 44
10.68467482145252
 45
3.95496185120729
 46
0.0071859233927285
 79
     6
 49
0.0
 49
-0.635
 49
0.0
 49
-2.286
 49
0.0
 49
-2.9845
 53
317.5
 43
-37.18854054890755
 44
10.68467482145252
 45
3.817782262361486
 46
1.114646616286081
 79
     6
 49
0.0
 49
-0.3175
 49
0.0
 49
-1.498599999999999
 49
0.0
 49
-1.7145
 47
0.0527983771059153
 98
        2
 10
120.4461618815426
 20
103.007180901244
 10
119.7061414969293
 20
98.78331058839785
  0
LINE
  5
8FCD
102
{ACAD_REACTORS
330
9027
102
}
330
18
100
AcDbEntity
  8
本体外線
 48
0.08
100
AcDbLine
 10
63.51256181676046
 20
94.99668968285353
 30
0.0
 11
63.51256181676041
 21
110.996689682854
 31
0.0
  0
LINE
  5
8FCE
102
{ACAD_REACTORS
330
9027
102
}
330
18
100
AcDbEntity
  8
本体外線
100
AcDbLine
 10
116.5125618167609
 20
110.996689682854
 30
0.0
 11
116.5125618167609
 21
94.99668968285353
 31
0.0
  0
LINE
  5
8FCF
330
18
100
AcDbEntity
  8
本体外線
100
AcDbLine
 10
63.51256181676046
 20
94.99668968285353
 30
0.0
 11
116.5125618167609
 21
94.99668968285353
 31
0.0
  0
LINE
  5
8FD0
102
{ACAD_REACTORS
330
9027
102
}
330
18
100
AcDbEntity
  8
本体外線
 48
0.08
100
AcDbLine
 10
62.01256181676041
 20
112.9966896828538
 30
0.0
 11
62.01256181676041
 21
114.9966896828535
 31
0.0
  0
LINE
  5
8FD1
102
{ACAD_REACTORS
330
9027
102
}
330
18
100
AcDbEntity
  8
本体外線
100
AcDbLine
 10
118.0125618167609
 20
114.9966896828535
 30
0.0
 11
118.0125618167609
 21
112.9966896828538
 31
0.0
  0
LINE
  5
8FD2
102
{ACAD_REACTORS
330
9027
102
}
330
18
100
AcDbEntity
  8
本体外線
100
AcDbLine
 10
63.51256181676041
 20
94.99668968285352
 30
0.0
 11
62.01256181676041
 21
92.99668968285381
 31
0.0
  0
LINE
  5
8FD3
102
{ACAD_REACTORS
330
9027
102
}
330
18
100
AcDbEntity
  8
本体外線
100
AcDbLine
 10
116.5125618167609
 20
94.99668968285352
 30
0.0
 11
118.0125618167609
 21
92.99668968285379
 31
0.0
  0
LINE
  5
8FF4
102
{ACAD_REACTORS
330
9027
102
}
330
18
100
AcDbEntity
  8
0
100
AcDbLine
 10
117.5125618167609
 20
96.81874846488925
 30
0.0
 11
117.5125618167609
 21
93.66335634952033
 31
0.0
  0
HATCH
  5
9027
330
18
100
AcDbEntity
  8
剖面線
100
AcDbHatch
 10
0.0
 20
0.0
 30
0.0
210
0.0
220
0.0
230
1.0
  2
ANSI31
 70
     0
 71
     1
 91
        6
 92
        7
 72
     0
 73
     1
 93
       10
 10
62.51256181676041
 20
112.3300230161872
 10
62.01256181676041
 20
112.9966896828538
 10
62.01256181676041
 20
114.9966896828535
 10
56.01256181676041
 20
114.9966896828535
 10
56.01256181676041
 20
114.4966896828535
 10
55.71256181676091
 20
114.4966896828535
 10
55.71256181676091
 20
95.45620182960053
 10
57.13256181676046
 20
92.99668968285351
 10
62.01256181676018
 20
92.99668968285351
 10
62.51256181676047
 20
93.66335634952042
 97
       10
330
8E34
330
8FD0
330
8E09
330
8E29
330
8E2B
330
8E4B
330
8E65
330
8E0A
330
8FD2
330
8E2F
 92
        7
 72
     0
 73
     1
 93
        4
 10
63.51256181676042
 20
110.996689682854
 10
62.51256181676041
 20
112.3300230161872
 10
62.51256181676046
 20
93.66335634952045
 10
63.51256181676045
 20
94.99668968285359
 97
        4
330
8E34
330
8E2F
330
8FD2
330
8FCD
 92
        7
 72
     0
 73
     1
 93
        6
 10
117.5125618167609
 20
93.66335634952038
 10
118.0125618167611
 20
92.99668968285354
 10
122.8925618167608
 20
92.99668968285356
 10
123.8953821397888
 20
94.73362543320051
 10
122.5097414937335
 20
93.93362543320026
 10
117.5125618167609
 20
96.81874846488923
 97
        5
330
8FF4
330
8FD3
330
8E0A
330
8E52
330
8E60
 92
        7
 72
     0
 73
     1
 93
        4
 10
117.5125618167609
 20
96.81874846488923
 10
116.5125618167609
 20
97.39609873407889
 10
116.5125618167609
 20
94.99668968285353
 10
117.5125618167609
 20
93.66335634952035
 97
        4
330
8E60
330
8FCE
330
8FD3
330
8FF4
 92
        7
 72
     0
 73
     1
 93
        4
 10
117.5125618167608
 20
112.3300230161871
 10
116.5125618167609
 20
110.996689682854
 10
116.5125618167609
 20
106.6337030411127
 10
117.5125618167609
 20
106.0563527719232
 97
        4
330
8E4E
330
8FCE
330
8E5F
330
8E37
 92
        7
 72
     1
 73
     1
 93
       11
 10
127.5125618167609
 20
112.4966896828535
 42
0.4142135623730956
 10
125.5125618167609
 20
114.4966896828535
 42
0.0
 10
124.0125618167609
 20
114.4966896828535
 42
0.0
 10
124.0125618167609
 20
114.9966896828535
 42
0.0
 10
118.0125618167609
 20
114.9966896828535
 42
0.0
 10
118.0125618167609
 20
112.9966896828538
 42
0.0
 10
117.5125618167608
 20
112.3300230161871
 42
0.0
 10
117.5125618167609
 20
106.0563527719232
 42
0.0
 10
126.5097414937337
 20
100.8618286634755
 42
0.0
 10
126.5097414937337
 20
99.26182866347609
 42
0.0
 10
127.5125618167609
 20
100.9987644138218
 42
0.0
 97
       10
330
8E31
330
8E2E
330
8E2D
330
8E09
330
8FD1
330
8E4E
330
8E37
330
8E5F
330
8E52
330
8E2C
 75
     0
 76
     1
 52
0.0
 41
0.5
 77
     0
 78
     1
 53
45.0
 43
-210.5186231023738
 44
0.0
 45
-1.122532015133643
 46
1.122532015133644
 79
     0
 47
0.0554800798901921
 98
        6
 10
60.33941356126479
 20
104.3503577548998
 10
63.2980366467425
 20
104.5544475025306
 10
118.167600884221
 20
95.62672733097508
 10
117.1126333890356
 20
95.95960805436311
 10
117.2792072040649
 20
107.4439849658382
 10
123.6645332020314
 20
107.8323454599904
  0
DIMENSION
  5
90D2
330
18
100
AcDbEntity
  8
DIM
100
AcDbDimension
  2
*D12
 10
114.0432803817708
 20
103.3896536052038
 30
0.0
 11
168.9464617036639
 21
95.09309381596386
 31
0.0
 12
-210.5186231023738
 22
0.0
 32
0.0
 70
    34
  1
30%%d
 71
     5
 42
-1.0
  3
A
100
AcDb2LineAngularDimension
 13
56.01256181676041
 23
114.9966896828535
 33
0.0
 14
124.0125618167609
 24
114.9966896828535
 34
0.0
 15
126.9492057816152
 25
96.05858371735362
 35
0.0
 16
169.3090664512135
 26
87.84444091634583
 36
0.0
1001
ACAD
1000
DSTYLE
1002
{
1070
    79
1070
     2
1070
   179
1070
     1
1002
}
  0
MTEXT
  5
918D
330
18
100
AcDbEntity
  8
0
100
AcDbMText
 10
49.81948278949767
 20
19.3739983431626
 30
0.0
 40
5.0
 41
0.0
 71
     1
 72
     5
  1
\Ftxt.shx,bigfont.shx|c128;小柳
  7
JL
 73
     1
 44
1.0
  0
ENDSEC
  0
SECTION
  2
OBJECTS
  0
DICTIONARY
  5
C
330
0
100
AcDbDictionary
281
     1
  3
ACAD_COLOR
350
9191
  3
ACAD_GROUP
350
D
  3
ACAD_LAYOUT
350
5CF3
  3
ACAD_MATERIAL
350
9190
  3
ACAD_MLINESTYLE
350
1B
  3
ACAD_PLOTSETTINGS
350
5CF4
  3
ACAD_PLOTSTYLENAME
350
5CF1
  3
ACAD_TABLESTYLE
350
9192
  3
ACDBVARIABLEDICTIONARY
350
45D
  0
DICTIONARY
  5
45F
330
18
100
AcDbDictionary
280
     1
281
     1
  3
ACAD_LAYOUTSELFREF
360
5D8B
  3
ACAD_SORTENTS
360
460
  0
DICTIONARY
  5
5D89
330
15
100
AcDbDictionary
280
     1
281
     1
  3
ACAD_LAYOUTSELFREF
360
5D8A
  0
DICTIONARY
  5
9191
102
{ACAD_REACTORS
330
C
102
}
330
C
100
AcDbDictionary
281
     1
  0
DICTIONARY
  5
D
102
{ACAD_REACTORS
330
C
102
}
330
C
100
AcDbDictionary
281
     1
  0
DICTIONARY
  5
5CF3
102
{ACAD_REACTORS
330
C
102
}
330
C
100
AcDbDictionary
281
     1
  3
Model
350
5CF5
  3
配置1
350
5CF6
  0
DICTIONARY
  5
9190
102
{ACAD_REACTORS
330
C
102
}
330
C
100
AcDbDictionary
281
     1
  0
DICTIONARY
  5
1B
102
{ACAD_REACTORS
330
C
102
}
330
C
100
AcDbDictionary
281
     1
  3
STANDARD
350
1C
  0
DICTIONARY
  5
5CF4
102
{ACAD_REACTORS
330
C
102
}
330
C
100
AcDbDictionary
281
     1
  0
ACDBDICTIONARYWDFLT
  5
5CF1
102
{ACAD_REACTORS
330
C
102
}
330
C
100
AcDbDictionary
281
     1
  3
Normal
350
5CF2
100
AcDbDictionaryWithDefault
340
5CF2
  0
DICTIONARY
  5
9192
102
{ACAD_REACTORS
330
C
102
}
330
C
100
AcDbDictionary
281
     1
  3
Standard
350
9193
  0
DICTIONARY
  5
45D
102
{ACAD_REACTORS
330
C
102
}
330
C
100
AcDbDictionary
281
     1
  3
CTABLESTYLE
350
919B
  3
SORTENTS
350
45E
  0
XRECORD
  5
5D8B
102
{ACAD_REACTORS
330
45F
102
}
330
45F
100
AcDbXrecord
280
     1
340
18
  0
SORTENTSTABLE
  5
460
102
{ACAD_REACTORS
330
45F
102
}
330
45F
100
AcDbSortentsTable
330
18
331
C0
  5
CB
  0
XRECORD
  5
5D8A
102
{ACAD_REACTORS
330
5D89
102
}
330
5D89
100
AcDbXrecord
280
     1
340
15
  0
LAYOUT
  5
5CF5
102
{ACAD_REACTORS
330
5CF3
102
}
330
5CF3
100
AcDbPlotSettings
  1

  2
EPSON STYLUS COLOR 440
  4

  6

 40
0.0
 41
0.0
 42
0.0
 43
0.0
 44
0.0
 45
0.0
 46
0.0
 47
0.0
 48
0.0
 49
0.0
140
0.0
141
0.0
142
1.0
143
1.0
 70
  1712
 72
     0
 73
     0
 74
     0
  7
a.ctb
 75
     0
147
1.0
 76
     0
 77
     2
 78
   300
148
0.0
149
0.0
100
AcDbLayout
  1
Model
 70
     1
 71
     0
 10
0.0
 20
0.0
 11
12.0
 21
9.0
 12
0.0
 22
0.0
 32
0.0
 14
0.0
 24
0.0
 34
0.0
 15
0.0
 25
0.0
 35
0.0
146
0.0
 13
0.0
 23
0.0
 33
0.0
 16
1.0
 26
0.0
 36
0.0
 17
0.0
 27
1.0
 37
0.0
 76
     0
330
18
  0
LAYOUT
  5
5CF6
102
{ACAD_REACTORS
330
5CF3
102
}
330
5CF3
100
AcDbPlotSettings
  1

  2
EPSON STYLUS COLOR 440
  4

  6

 40
0.0
 41
0.0
 42
0.0
 43
0.0
 44
0.0
 45
0.0
 46
0.0
 47
0.0
 48
0.0
 49
0.0
140
0.0
141
0.0
142
1.0
143
1.0
 70
   688
 72
     0
 73
     0
 74
     5
  7
a.ctb
 75
    16
147
1.0
 76
     0
 77
     2
 78
   300
148
0.0
149
0.0
100
AcDbLayout
  1
ｰtｸm1
 70
     1
 71
     1
 10
0.0
 20
0.0
 11
420.0
 21
297.0
 12
0.0
 22
0.0
 32
0.0
 14
1.000000000000000E+20
 24
1.000000000000000E+20
 34
1.000000000000000E+20
 15
-1.000000000000000E+20
 25
-1.000000000000000E+20
 35
-1.000000000000000E+20
146
0.0
 13
0.0
 23
0.0
 33
0.0
 16
1.0
 26
0.0
 36
0.0
 17
0.0
 27
1.0
 37
0.0
 76
     0
330
15
  0
MLINESTYLE
  5
1C
102
{ACAD_REACTORS
330
1B
102
}
330
1B
100
AcDbMlineStyle
  2
STANDARD
 70
     0
  3

 62
   256
 51
90.0
 52
90.0
 71
     2
 49
0.5
 62
   256
  6
BYLAYER
 49
-0.5
 62
   256
  6
BYLAYER
  0
ACDBPLACEHOLDER
  5
5CF2
102
{ACAD_REACTORS
330
5CF1
102
}
330
5CF1
  0
TABLESTYLE
  5
9193
102
{ACAD_REACTORS
330
9192
102
}
330
9192
100
AcDbTableStyle
  3
Standard
 70
     0
 71
     8
 40
1.5
 41
1.5
280
     0
281
     0
  7
STANDARD
140
4.5
170
     2
 62
     0
 63
     7
283
     0
274
    -2
284
     1
 64
     0
275
    -2
285
     1
 65
     0
276
    -2
286
     1
 66
     0
277
    -2
287
     1
 67
     0
278
    -2
288
     1
 68
     0
279
    -2
289
     1
 69
     0
  7
STANDARD
140
6.0
170
     5
 62
     0
 63
     7
283
     0
274
    -2
284
     1
 64
     0
275
    -2
285
     1
 65
     0
276
    -2
286
     1
 66
     0
277
    -2
287
     1
 67
     0
278
    -2
288
     1
 68
     0
279
    -2
289
     1
 69
     0
  7
STANDARD
140
4.5
170
     5
 62
     0
 63
     7
283
     0
274
    -2
284
     1
 64
     0
275
    -2
285
     1
 65
     0
276
    -2
286
     1
 66
     0
277
    -2
287
     1
 67
     0
278
    -2
288
     1
 68
     0
279
    -2
289
     1
 69
     0
  0
DICTIONARYVAR
  5
919B
102
{ACAD_REACTORS
330
45D
102
}
330
45D
100
DictionaryVariables
280
     0
  1
STANDARD
  0
DICTIONARYVAR
  5
45E
102
{ACAD_REACTORS
330
45D
102
}
330
45D
100
DictionaryVariables
280
     0
  1
127
  0
ENDSEC
  0
EOF
