  0
SECTION
  2
HEADER
  9
$ACADVER
  1
AC1015
  9
$ACADMAINTVER
 70
    20
  9
$DWGCODEPAGE
  3
ANSI_950
  9
$INSBASE
 10
0.0
 20
0.0
 30
0.0
  9
$EXTMIN
 10
98.98187493704462
 20
-0.0057512793450769
 30
-0.0000304961565476
  9
$EXTMAX
 10
198.0021997732304
 20
145.0005664950924
 30
2.00003052409793
  9
$LIMMIN
 10
0.0
 20
0.0
  9
$LIMMAX
 10
420.0
 20
297.0
  9
$ORTHOMODE
 70
     1
  9
$REGENMODE
 70
     1
  9
$FILLMODE
 70
     1
  9
$QTEXTMODE
 70
     0
  9
$MIRRTEXT
 70
     1
  9
$LTSCALE
 40
1.0
  9
$ATTMODE
 70
     1
  9
$TEXTSIZE
 40
2.5
  9
$TRACEWID
 40
1.0
  9
$TEXTSTYLE
  7
A
  9
$CLAYER
  8
\U+5185框線
  9
$CELTYPE
  6
ByLayer
  9
$CECOLOR
 62
   256
  9
$CELTSCALE
 40
1.0
  9
$DISPSILH
 70
     0
  9
$DIMSCALE
 40
1.0
  9
$DIMASZ
 40
1.5
  9
$DIMEXO
 40
0.625
  9
$DIMDLI
 40
0.5
  9
$DIMRND
 40
0.0
  9
$DIMDLE
 40
0.0
  9
$DIMEXE
 40
0.5
  9
$DIMTP
 40
0.0
  9
$DIMTM
 40
0.0
  9
$DIMTXT
 40
1.5
  9
$DIMCEN
 40
2.5
  9
$DIMTSZ
 40
0.0
  9
$DIMTOL
 70
     0
  9
$DIMLIM
 70
     0
  9
$DIMTIH
 70
     0
  9
$DIMTOH
 70
     0
  9
$DIMSE1
 70
     0
  9
$DIMSE2
 70
     0
  9
$DIMTAD
 70
     3
  9
$DIMZIN
 70
     8
  9
$DIMBLK
  1

  9
$DIMASO
 70
     1
  9
$DIMSHO
 70
     1
  9
$DIMPOST
  1

  9
$DIMAPOST
  1

  9
$DIMALT
 70
     0
  9
$DIMALTD
 70
     3
  9
$DIMALTF
 40
0.03937007874016
  9
$DIMLFAC
 40
1.0
  9
$DIMTOFL
 70
     1
  9
$DIMTVP
 40
0.0
  9
$DIMTIX
 70
     0
  9
$DIMSOXD
 70
     0
  9
$DIMSAH
 70
     0
  9
$DIMBLK1
  1

  9
$DIMBLK2
  1

  9
$DIMSTYLE
  2
ISO-25
  9
$DIMCLRD
 70
     6
  9
$DIMCLRE
 70
     6
  9
$DIMCLRT
 70
     3
  9
$DIMTFAC
 40
1.0
  9
$DIMGAP
 40
0.9
  9
$DIMJUST
 70
     0
  9
$DIMSD1
 70
     0
  9
$DIMSD2
 70
     0
  9
$DIMTOLJ
 70
     0
  9
$DIMTZIN
 70
     8
  9
$DIMALTZ
 70
     0
  9
$DIMALTTZ
 70
     0
  9
$DIMUPT
 70
     0
  9
$DIMDEC
 70
     1
  9
$DIMTDEC
 70
     1
  9
$DIMALTU
 70
     2
  9
$DIMALTTD
 70
     3
  9
$DIMTXSTY
  7
Standard
  9
$DIMAUNIT
 70
     0
  9
$DIMADEC
 70
     0
  9
$DIMALTRND
 40
0.0
  9
$DIMAZIN
 70
     0
  9
$DIMDSEP
 70
    46
  9
$DIMATFIT
 70
     2
  9
$DIMFRAC
 70
     0
  9
$DIMLDRBLK
  1

  9
$DIMLUNIT
 70
     2
  9
$DIMLWD
 70
    -2
  9
$DIMLWE
 70
    -2
  9
$DIMTMOVE
 70
     0
  9
$LUNITS
 70
     2
  9
$LUPREC
 70
     2
  9
$SKETCHINC
 40
1.0
  9
$FILLETRAD
 40
0.0
  9
$AUNITS
 70
     0
  9
$AUPREC
 70
     0
  9
$MENU
  1
.
  9
$ELEVATION
 40
0.0
  9
$PELEVATION
 40
0.0
  9
$THICKNESS
 40
0.0
  9
$LIMCHECK
 70
     0
  9
$CHAMFERA
 40
0.0
  9
$CHAMFERB
 40
0.0
  9
$CHAMFERC
 40
20.0
  9
$CHAMFERD
 40
0.0
  9
$SKPOLY
 70
     0
  9
$TDCREATE
 40
2452787.461415857
  9
$TDUCREATE
 40
2452787.128082523
  9
$TDUPDATE
 40
2459230.462813716
  9
$TDUUPDATE
 40
2459230.129480382
  9
$TDINDWG
 40
0.8602322801
  9
$TDUSRTIMER
 40
0.8602277199
  9
$USRTIMER
 70
     1
  9
$ANGBASE
 50
0.0
  9
$ANGDIR
 70
     0
  9
$PDMODE
 70
     0
  9
$PDSIZE
 40
0.0
  9
$PLINEWID
 40
0.0
  9
$SPLFRAME
 70
     0
  9
$SPLINETYPE
 70
     6
  9
$SPLINESEGS
 70
     8
  9
$HANDSEED
  5
8FA0
  9
$SURFTAB1
 70
     6
  9
$SURFTAB2
 70
     6
  9
$SURFTYPE
 70
     6
  9
$SURFU
 70
     6
  9
$SURFV
 70
     6
  9
$UCSBASE
  2

  9
$UCSNAME
  2

  9
$UCSORG
 10
0.0
 20
0.0
 30
0.0
  9
$UCSXDIR
 10
1.0
 20
0.0
 30
0.0
  9
$UCSYDIR
 10
0.0
 20
1.0
 30
0.0
  9
$UCSORTHOREF
  2

  9
$UCSORTHOVIEW
 70
     1
  9
$UCSORGTOP
 10
0.0
 20
0.0
 30
0.0
  9
$UCSORGBOTTOM
 10
0.0
 20
0.0
 30
0.0
  9
$UCSORGLEFT
 10
0.0
 20
0.0
 30
0.0
  9
$UCSORGRIGHT
 10
0.0
 20
0.0
 30
0.0
  9
$UCSORGFRONT
 10
0.0
 20
0.0
 30
0.0
  9
$UCSORGBACK
 10
0.0
 20
0.0
 30
0.0
  9
$PUCSBASE
  2

  9
$PUCSNAME
  2

  9
$PUCSORG
 10
0.0
 20
0.0
 30
0.0
  9
$PUCSXDIR
 10
1.0
 20
0.0
 30
0.0
  9
$PUCSYDIR
 10
0.0
 20
1.0
 30
0.0
  9
$PUCSORTHOREF
  2

  9
$PUCSORTHOVIEW
 70
     0
  9
$PUCSORGTOP
 10
0.0
 20
0.0
 30
0.0
  9
$PUCSORGBOTTOM
 10
0.0
 20
0.0
 30
0.0
  9
$PUCSORGLEFT
 10
0.0
 20
0.0
 30
0.0
  9
$PUCSORGRIGHT
 10
0.0
 20
0.0
 30
0.0
  9
$PUCSORGFRONT
 10
0.0
 20
0.0
 30
0.0
  9
$PUCSORGBACK
 10
0.0
 20
0.0
 30
0.0
  9
$USERI1
 70
     0
  9
$USERI2
 70
     0
  9
$USERI3
 70
     0
  9
$USERI4
 70
     0
  9
$USERI5
 70
     0
  9
$USERR1
 40
0.0
  9
$USERR2
 40
0.0
  9
$USERR3
 40
0.0
  9
$USERR4
 40
0.0
  9
$USERR5
 40
0.0
  9
$WORLDVIEW
 70
     1
  9
$SHADEDGE
 70
     3
  9
$SHADEDIF
 70
    70
  9
$TILEMODE
 70
     1
  9
$MAXACTVP
 70
    48
  9
$PINSBASE
 10
0.0
 20
0.0
 30
0.0
  9
$PLIMCHECK
 70
     0
  9
$PEXTMIN
 10
1.000000000000000E+20
 20
1.000000000000000E+20
 30
1.000000000000000E+20
  9
$PEXTMAX
 10
-1.000000000000000E+20
 20
-1.000000000000000E+20
 30
-1.000000000000000E+20
  9
$PLIMMIN
 10
0.0
 20
0.0
  9
$PLIMMAX
 10
420.0
 20
297.0
  9
$UNITMODE
 70
     0
  9
$VISRETAIN
 70
     1
  9
$PLINEGEN
 70
     0
  9
$PSLTSCALE
 70
     1
  9
$TREEDEPTH
 70
  3020
  9
$CMLSTYLE
  2
Standard
  9
$CMLJUST
 70
     0
  9
$CMLSCALE
 40
20.0
  9
$PROXYGRAPHICS
 70
     1
  9
$MEASUREMENT
 70
     1
  9
$CELWEIGHT
370
    -1
  9
$ENDCAPS
280
     0
  9
$JOINSTYLE
280
     0
  9
$LWDISPLAY
290
     0
  9
$INSUNITS
 70
     4
  9
$HYPERLINKBASE
  1

  9
$STYLESHEET
  1
LIN.ctb
  9
$XEDIT
290
     1
  9
$CEPSNTYPE
380
     0
  9
$PSTYLEMODE
290
     1
  9
$FINGERPRINTGUID
  2
{5BDD02C0-903B-11D7-82B1-0040F4716458}
  9
$VERSIONGUID
  2
{2626A20D-FBAA-4E3F-AEBB-946AF2F11A93}
  9
$EXTNAMES
290
     1
  9
$PSVPSCALE
 40
0.0
  9
$OLESTARTUP
290
     0
  0
ENDSEC
  0
SECTION
  2
CLASSES
  0
CLASS
  1
ACDBDICTIONARYWDFLT
  2
AcDbDictionaryWithDefault
  3
ObjectDBX Classes
 90
        0
280
     0
281
     0
  0
CLASS
  1
DICTIONARYVAR
  2
AcDbDictionaryVar
  3
ObjectDBX Classes
 90
        0
280
     0
281
     0
  0
CLASS
  1
TABLESTYLE
  2
AcDbTableStyle
  3
ObjectDBX Classes
 90
     4095
280
     0
281
     0
  0
CLASS
  1
MATERIAL
  2
AcDbMaterial
  3
ObjectDBX Classes
 90
     1153
280
     0
281
     0
  0
CLASS
  1
VISUALSTYLE
  2
AcDbVisualStyle
  3
ObjectDBX Classes
 90
     4095
280
     0
281
     0
  0
CLASS
  1
SCALE
  2
AcDbScale
  3
ObjectDBX Classes
 90
     1153
280
     0
281
     0
  0
CLASS
  1
MLEADERSTYLE
  2
AcDbMLeaderStyle
  3
ACDB_MLEADERSTYLE_CLASS
 90
     4095
280
     0
281
     0
  0
CLASS
  1
AMGSETTINGSOBJ
  2
AmgSettingsObj
  3
"AcadM|Product Description: AutoCAD Mechanical|Company: Autodesk, Inc."
 90
     1024
280
     0
281
     0
  0
CLASS
  1
ACME_DOCUMENT
  2
AcMeDbDoc
  3
AcMeServices
 90
     1024
280
     0
281
     0
  0
CLASS
  1
ACMESCOPE
  2
AcMeScope
  3
AcMeServices
 90
     1024
280
     0
281
     0
  0
CLASS
  1
ACMECOMMANDHISTORY
  2
AcMeCommandHistory
  3
AcMeServices
 90
     1024
280
     0
281
     0
  0
CLASS
  1
ACIMSYSVARMAN
  2
AcImSysVarManager
  3
AcMeServices
 90
     1024
280
     0
281
     0
  0
CLASS
  1
ACIMINTSYSVAR
  2
AcImIntSysVar
  3
AcMeServices
 90
     1024
280
     0
281
     0
  0
CLASS
  1
ACMESTATEMGR
  2
AcMeStateMgr
  3
AcMeServices
 90
     1024
280
     0
281
     0
  0
CLASS
  1
ACDBENTITYCACHE
  2
AcMeEntityCache
  3
AcMeServices
 90
     1024
280
     0
281
     0
  0
CLASS
  1
ACGREFMASTER
  2
AcGrefMaster
  3
AcAttribServices
 90
     1024
280
     0
281
     0
  0
CLASS
  1
AM_DRAWING_MGR
  2
AcDmDwgMgr
  3
AcMechDwgViewMgmt
 90
     1024
280
     0
281
     0
  0
CLASS
  1
AM_DWG_DOCUMENT
  2
AcDmDwgDocument
  3
AcMechDwgViewMgmt
 90
     1024
280
     0
281
     0
  0
CLASS
  1
AM_DWG_SHEET
  2
AcDmSheet
  3
AcMechDwgViewMgmt
 90
     1024
280
     0
281
     0
  0
CLASS
  1
AM_VIEWDIMPARMAP
  2
AcDmViewDimParMap
  3
AcMechDwgViewMgmt
 90
     1024
280
     0
281
     0
  0
CLASS
  1
AMDTINTERNALREACTOR
  2
AmdtInternalReactor
  3
AcMeServices
 90
     1024
280
     0
281
     0
  0
CLASS
  1
ACIMREALSYSVAR
  2
AcImRealSysVar
  3
AcMeServices
 90
     1024
280
     0
281
     0
  0
CLASS
  1
AM_DWGMGR_NAME
  2
AcDmDwgMgrName
  3
AcMechDwgViewMgmt
 90
     1024
280
     0
281
     0
  0
CLASS
  1
ACME_DATABASE
  2
AcMeDbDatabase
  3
AcMeServices
 90
     1024
280
     0
281
     0
  0
CLASS
  1
ACRFINSADJUSTERMGR
  2
AcRfInsAdjusterMgr
  3
AcMeServices
 90
     1024
280
     0
281
     0
  0
CLASS
  1
ACGREFACADMASTER
  2
AcGrefacadMaster
  3
AcGrefServices
 90
     1024
280
     0
281
     0
  0
CLASS
  1
AMDTMENUSTATEMGR
  2
AmdtMenuStateMgr
  3
McadcomServices
 90
     1024
280
     0
281
     0
  0
CLASS
  1
AMDTMCOMMENUSTATE
  2
AmdtMcomMenuState
  3
McadcomServices
 90
     1024
280
     0
281
     0
  0
CLASS
  1
AMIMASTER
  2
AmiMaster
  3
AmiServices
 90
     1024
280
     0
281
     0
  0
CLASS
  1
MAPIAMMOUDLE
  2
MApiAmModule
  3
MApiAmServices
 90
     1024
280
     0
281
     0
  0
CLASS
  1
ACIMSTRSYSVAR
  2
AcImStrSysVar
  3
AcMeServices
 90
     1024
280
     0
281
     0
  0
CLASS
  1
AMDTDMMENUSTATE
  2
AmdtDmMenuState
  3
AcMechDwgViewMgmt
 90
     1024
280
     0
281
     0
  0
CLASS
  1
AMDTAMMENUSTATE
  2
AmdtAmMenuState
  3
DesignerAssemblies
 90
     1024
280
     0
281
     0
  0
CLASS
  1
ACAMPROJECT
  2
AcAmProject
  3
DesignerAssemblies
 90
     1024
280
     0
281
     0
  0
CLASS
  1
ACAMGRCOMPDEF
  2
AcAmGrCompDef
  3
DesignerAssemblies
 90
     1024
280
     0
281
     0
  0
CLASS
  1
ACAMCOMPDEF
  2
AcAmCompDef
  3
DesignerAssemblies
 90
     1024
280
     0
281
     0
  0
CLASS
  1
ACAMCOMPDEFMGR
  2
AcAmCompDefMgr
  3
DesignerAssemblies
 90
     1024
280
     0
281
     0
  0
CLASS
  1
AMCONTEXTMGR
  2
AcAmContextMgr
  3
DesignerAssemblies
 90
     1024
280
     0
281
     0
  0
CLASS
  1
ACAMCONTEXTMODELER
  2
AcAmContextModeler
  3
DesignerAssemblies
 90
     1024
280
     0
281
     0
  0
CLASS
  1
ACMDATADICTIONARY
  2
AcmDataDictionary
  3
"AcmSymBB|Product Description: AutoCAD Mechanical|Company: Autodesk, Inc."
 90
     1024
280
     0
281
     0
  0
CLASS
  1
ACAMGRCOMPDEFSET
  2
AcAmGrCompDefSet
  3
DesignerAssemblies
 90
     1024
280
     0
281
     0
  0
CLASS
  1
AMDTBROWSERDBTAB
  2
AmdtBrowserDbTab
  3
McadcomServices
 90
     1024
280
     0
281
     0
  0
CLASS
  1
CBROWSERAPPOBJECT
  2
CBrowserAppObject
  3
McadcomServices
 90
     1024
280
     0
281
     0
  0
CLASS
  1
DM_PLACEHOLDER
  2
AcDmSelsetPlaceholder
  3
AcMechDwgViewMgmt
 90
     1024
280
     0
281
     0
  0
CLASS
  1
ACMSTANDARDISO
  2
AcmStandardISO
  3
"Amdt_StdImp|Product Description: AutoCAD Mechanical|Company: Autodesk, Inc."
 90
     1024
280
     0
281
     0
  0
CLASS
  1
AMDTEDGESTANDARDISO13715
  2
AmdtEdgeStdISO13715
  3
"Amdt_StdImp|Product Description: AutoCAD Mechanical|Company: Autodesk, Inc."
 90
     1024
280
     0
281
     0
  0
CLASS
  1
ACMSURFSTANDARDISO2002
  2
AcmSurfTextStdISO2002
  3
"Amdt_StdImp|Product Description: AutoCAD Mechanical|Company: Autodesk, Inc."
 90
     1024
280
     0
281
     0
  0
CLASS
  1
ACMFCFSTANDARDISO
  2
AcmFCFStdISO
  3
"Amdt_StdImp|Product Description: AutoCAD Mechanical|Company: Autodesk, Inc."
 90
     1024
280
     0
281
     0
  0
CLASS
  1
ACMWELDSTANDARDISO
  2
AcmWeldingStdISO
  3
"Amdt_StdImp|Product Description: AutoCAD Mechanical|Company: Autodesk, Inc."
 90
     1024
280
     0
281
     0
  0
CLASS
  1
ACMIDSTANDARDISO
  2
AcmIdStdISO
  3
"Amdt_StdImp|Product Description: AutoCAD Mechanical|Company: Autodesk, Inc."
 90
     1024
280
     0
281
     0
  0
CLASS
  1
ACMDATUMSTANDARDISO
  2
AcmDatumStdISO
  3
"Amdt_StdImp|Product Description: AutoCAD Mechanical|Company: Autodesk, Inc."
 90
     1024
280
     0
281
     0
  0
CLASS
  1
ACMBOMSTANDARDISO
  2
AcmBOMStdISO
  3
"Amdt_StdImp|Product Description: AutoCAD Mechanical|Company: Autodesk, Inc."
 90
     1024
280
     0
281
     0
  0
CLASS
  1
ACMDETAILSTANDARDISO
  2
AmdtDetailSymStdISO
  3
"Amdt_StdImp|Product Description: AutoCAD Mechanical|Company: Autodesk, Inc."
 90
     1024
280
     0
281
     0
  0
CLASS
  1
ACMSECTIONSTANDARDISO2001
  2
AmdtSectionSymStdISO2001
  3
"Amdt_StdImp|Product Description: AutoCAD Mechanical|Company: Autodesk, Inc."
 90
     1024
280
     0
281
     0
  0
CLASS
  1
ACMCENTERLINESTANDARDISO
  2
AmdtCenterLineStdISO
  3
"Amdt_StdImp|Product Description: AutoCAD Mechanical|Company: Autodesk, Inc."
 90
     1024
280
     0
281
     0
  0
CLASS
  1
ACMTHREADLINESTANDARDISO
  2
AmdtThreadLineStdISO
  3
"Amdt_StdImp|Product Description: AutoCAD Mechanical|Company: Autodesk, Inc."
 90
     1024
280
     0
281
     0
  0
CLASS
  1
ACMNOTESTANDARDISO
  2
AmdtNoteStdISO
  3
"Amdt_StdImp|Product Description: AutoCAD Mechanical|Company: Autodesk, Inc."
 90
     1024
280
     0
281
     0
  0
CLASS
  1
ACMTAPERSTANDARDISO
  2
AcmTaperStdISO
  3
"Amdt_StdImp|Product Description: AutoCAD Mechanical|Company: Autodesk, Inc."
 90
     1024
280
     0
281
     0
  0
CLASS
  1
ACMANOOTATIONVIEWSTANDARDISO
  2
AmdtAnViewStdISO
  3
"Amdt_StdImp|Product Description: AutoCAD Mechanical|Company: Autodesk, Inc."
 90
     1024
280
     0
281
     0
  0
CLASS
  1
ACAMGLAYSTD
  2
AcAmgLayStd
  3
"AmgLay|Product Description: AutoCAD Mechanical|Company: Autodesk, Inc."
 90
     1024
280
     0
281
     0
  0
CLASS
  1
ACAMGDIMSTD
  2
AcAmgDimStd
  3
"AmgDim|Product Description: AutoCAD Mechanical|Company: Autodesk, Inc."
 90
     1024
280
     0
281
     0
  0
CLASS
  1
AMGOBJPROPCFG
  2
AmgObjPropCfg
  3
"AmgLay|Product Description: AutoCAD Mechanical|Company: Autodesk, Inc."
 90
     1025
280
     0
281
     0
  0
CLASS
  1
ACAMGHOLECHARTSTDISO
  2
AcAmgHoleChartStdISO
  3
AmgDim|Product Description: AutoCAD Mechanical|Company: Autodesk, Inc.
 90
     1024
280
     0
281
     0
  0
CLASS
  1
ACAMGTITLESTD
  2
AcAmgTitleStd
  3
"AmgTitle|Product Description: AutoCAD Mechanical|Company: Autodesk, Inc."
 90
     4095
280
     0
281
     0
  0
CLASS
  1
AMDTNOTETEMPLATEDB
  2
AmdtNoteTemplateDB
  3
AcmSymBB|Product Description: AutoCAD Mechanical|Company: Autodesk, Inc.
 90
     1024
280
     0
281
     0
  0
CLASS
  1
ACAMGFILTERDAT
  2
AcAmgFilterDat
  3
"AcadM|Product Description: AutoCAD Mechanical|Company: Autodesk, Inc."
 90
    33792
280
     0
281
     0
  0
CLASS
  1
AEC_REFEDIT_STATUS_TRACKER
  2
AecDbRefEditStatusTracker
  3
AecArchBase60|Product Desc: Autodesk Architectural Desktop 2007 |Company: Autodesk,Inc. |WEB Address: www.autodesk.com
 90
    32897
280
     0
281
     0
  0
CLASS
  1
NPOCOLLECTION
  2
AcDbImpNonPersistentObjectsCollection
  3
ObjectDBX Classes
 90
    33921
280
     0
281
     0
  0
CLASS
  1
CELLSTYLEMAP
  2
AcDbCellStyleMap
  3
ObjectDBX Classes
 90
     1152
280
     0
281
     0
  0
CLASS
  1
ACDBPLACEHOLDER
  2
AcDbPlaceHolder
  3
ObjectDBX Classes
 90
        0
280
     0
281
     0
  0
CLASS
  1
LAYOUT
  2
AcDbLayout
  3
ObjectDBX Classes
 90
        0
280
     0
281
     0
  0
ENDSEC
  0
SECTION
  2
TABLES
  0
TABLE
  2
VPORT
  5
8
330
0
100
AcDbSymbolTable
 70
     1
  0
VPORT
  5
8B10
330
8
100
AcDbSymbolTableRecord
100
AcDbViewportTableRecord
  2
*Active
 70
     0
 10
0.0
 20
0.0
 11
1.0
 21
1.0
 12
148.4920373551375
 22
72.4974076078737
 13
0.0
 23
0.0
 14
10.0
 24
10.0
 15
10.0
 25
10.0
 16
0.0
 26
0.0
 36
1.0
 17
0.0
 27
0.0
 37
0.0
 40
146.0495286936781
 41
1.769507803121248
 42
50.0
 43
0.0
 44
0.0
 50
0.0
 51
0.0
 71
     0
 72
   100
 73
     1
 74
     3
 75
     0
 76
     0
 77
     0
 78
     0
281
     0
 65
     0
110
0.0
120
0.0
130
0.0
111
1.0
121
0.0
131
0.0
112
0.0
122
1.0
132
0.0
 79
     0
146
0.0
  0
ENDTAB
  0
TABLE
  2
LTYPE
  5
5
330
0
100
AcDbSymbolTable
 70
    17
  0
LTYPE
  5
14
330
5
100
AcDbSymbolTableRecord
100
AcDbLinetypeTableRecord
  2
ByBlock
 70
     0
  3

 72
    65
 73
     0
 40
0.0
  0
LTYPE
  5
15
330
5
100
AcDbSymbolTableRecord
100
AcDbLinetypeTableRecord
  2
ByLayer
 70
     0
  3

 72
    65
 73
     0
 40
0.0
  0
LTYPE
  5
16
330
5
100
AcDbSymbolTableRecord
100
AcDbLinetypeTableRecord
  2
Continuous
 70
     0
  3
Solid line
 72
    65
 73
     0
 40
0.0
  0
LTYPE
  5
159
330
5
100
AcDbSymbolTableRecord
100
AcDbLinetypeTableRecord
  2
CENTER
 70
     0
  3
Center ____ _ ____ _ ____ _ ____ _ ____ _ ____
 72
    65
 73
     4
 40
50.8
 49
31.75
 74
     0
 49
-6.349999999999998
 74
     0
 49
6.349999999999998
 74
     0
 49
-6.349999999999998
 74
     0
  0
LTYPE
  5
3BD
330
5
100
AcDbSymbolTableRecord
100
AcDbLinetypeTableRecord
  2
ACAD_ISO03W100
 70
     0
  3
ISO dash space __    __    __    __    __    __
 72
    65
 73
     2
 40
30.0
 49
12.0
 74
     0
 49
-18.0
 74
     0
  0
LTYPE
  5
22C1
330
5
100
AcDbSymbolTableRecord
100
AcDbLinetypeTableRecord
  2
HIDDENX2
 70
     0
  3
Hidden (2x) ____ ____ ____ ____ ____ ____ ____
 72
    65
 73
     2
 40
19.05
 49
12.7
 74
     0
 49
-6.349999999999998
 74
     0
  0
LTYPE
  5
7FF5
330
5
100
AcDbSymbolTableRecord
100
AcDbLinetypeTableRecord
  2
HIDDEN2
 70
     0
  3
Hidden (.5x) _ _ _ _ _ _ _ _ _ _ _ _ _ _ _ _ _
 72
    65
 73
     2
 40
4.762499999999998
 49
3.174999999999998
 74
     0
 49
-1.587499999999999
 74
     0
  0
LTYPE
  5
88A6
330
5
100
AcDbSymbolTableRecord
100
AcDbLinetypeTableRecord
  2
HIDDEN
 70
     0
  3
Hidden __ __ __ __ __ __ __ __ __ __ __ __ __ _
 72
    65
 73
     2
 40
9.524999999999996
 49
6.349999999999998
 74
     0
 49
-3.174999999999998
 74
     0
  0
LTYPE
  5
8B8F
330
5
100
AcDbSymbolTableRecord
100
AcDbLinetypeTableRecord
  2
PHANTOM2
 70
     0
  3
Phantom (.5x) ___ _ _ ___ _ _ ___ _ _ ___ _ _
 72
    65
 73
     6
 40
31.75
 49
15.875
 74
     0
 49
-3.174999999999999
 74
     0
 49
3.174999999999999
 74
     0
 49
-3.174999999999999
 74
     0
 49
3.174999999999999
 74
     0
 49
-3.174999999999999
 74
     0
  0
LTYPE
  5
8BCD
330
5
100
AcDbSymbolTableRecord
100
AcDbLinetypeTableRecord
  2
AM_ISO02W050
 70
     0
  3
__ __ __ __ __ __ __ __ __ __ __ __ __ __ __
 72
    65
 73
     2
 40
7.5
 49
6.0
 74
     0
 49
-1.5
 74
     0
  0
LTYPE
  5
8BCE
330
5
100
AcDbSymbolTableRecord
100
AcDbLinetypeTableRecord
  2
AM_ISO08W050
 70
     0
  3
____ . ____ . ____ . ____ . ____ . ____ . ____
 72
    65
 73
     4
 40
18.0
 49
12.0
 74
     0
 49
-1.5
 74
     0
 49
3.0
 74
     0
 49
-1.5
 74
     0
  0
LTYPE
  5
8BCF
330
5
100
AcDbSymbolTableRecord
100
AcDbLinetypeTableRecord
  2
AM_ISO09W050
 70
     0
  3
_____ . . _____ . . _____ . . ____ .. ____
 72
    65
 73
     6
 40
22.5
 49
12.0
 74
     0
 49
-1.5
 74
     0
 49
3.0
 74
     0
 49
-1.5
 74
     0
 49
3.0
 74
     0
 49
-1.5
 74
     0
  0
LTYPE
  5
8BD0
330
5
100
AcDbSymbolTableRecord
100
AcDbLinetypeTableRecord
  2
Amconstr
 70
     0
  3
_______________________
 72
    65
 73
     2
 40
9999.0
 49
9999.0
 74
     0
 49
0.0
 74
     0
  0
LTYPE
  5
8BD1
330
5
100
AcDbSymbolTableRecord
100
AcDbLinetypeTableRecord
  2
AM_ISO08W050x2
 70
     0
  3
__ . __ . __ . __ . __ . __
 72
    65
 73
     4
 40
9.0
 49
6.0
 74
     0
 49
-0.75
 74
     0
 49
1.5
 74
     0
 49
-0.75
 74
     0
  0
LTYPE
  5
8BD2
330
5
100
AcDbSymbolTableRecord
100
AcDbLinetypeTableRecord
  2
AM_ISO02W050x2
 70
     0
  3
 _ _ _ _ _ _ _ _ _ _ _ _
 72
    65
 73
     2
 40
3.75
 49
3.0
 74
     0
 49
-0.75
 74
     0
  0
LTYPE
  5
8BD5
330
5
100
AcDbSymbolTableRecord
100
AcDbLinetypeTableRecord
  2
Amzigzag
 70
     0
  3
/\/-/\/-/\/-/\/-/\/-/\/
 72
    65
 73
     2
 40
11.0001
 49
0.0001
 74
     4
 75
   136
340
8BD4
 46
0.04
 50
0.0
 44
0.0
 45
0.0
 49
-11.0
 74
     0
  0
LTYPE
  5
8BE4
330
5
100
AcDbSymbolTableRecord
100
AcDbLinetypeTableRecord
  2
ACISOWELD
 70
     0
  3
_ _ _ _ _
 72
    65
 73
     2
 40
2.0
 49
2.0
 74
     0
 49
-1.0
 74
     0
  0
LTYPE
  5
8BE5
330
5
100
AcDbSymbolTableRecord
100
AcDbLinetypeTableRecord
  2
ACISOTGB
 70
     0
  3
__ . . __ . .
 72
    65
 73
     6
 40
9.0
 49
4.0
 74
     0
 49
-1.0
 74
     0
 49
1.0
 74
     0
 49
-1.0
 74
     0
 49
1.0
 74
     0
 49
-1.0
 74
     0
  0
LTYPE
  5
8BE6
330
5
100
AcDbSymbolTableRecord
100
AcDbLinetypeTableRecord
  2
ACISOTGL
 70
     0
  3
_ _ _ _ _
 72
    65
 73
     2
 40
3.0
 49
2.0
 74
     0
 49
-1.0
 74
     0
  0
ENDTAB
  0
TABLE
  2
LAYER
  5
2
102
{ACAD_XDICTIONARY
360
8C22
102
}
330
0
100
AcDbSymbolTable
 70
    12
  0
LAYER
  5
10
102
{ACAD_XDICTIONARY
360
8E36
102
}
330
2
100
AcDbSymbolTableRecord
100
AcDbLayerTableRecord
  2
0
 70
     0
 62
     7
  6
Continuous
370
    -3
390
F
  0
LAYER
  5
70
330
2
100
AcDbSymbolTableRecord
100
AcDbLayerTableRecord
  2
Defpoints
 70
     0
 62
     7
  6
Continuous
290
     0
370
    -3
390
F
  0
LAYER
  5
22C5
102
{ACAD_XDICTIONARY
360
8E38
102
}
330
2
100
AcDbSymbolTableRecord
100
AcDbLayerTableRecord
  2
中心線
 70
     0
 62
     1
  6
CENTER
370
    -3
390
F
  0
LAYER
  5
22C6
102
{ACAD_XDICTIONARY
360
8E3A
102
}
330
2
100
AcDbSymbolTableRecord
100
AcDbLayerTableRecord
  2
\U+5185框線
 70
     0
 62
     9
  6
Continuous
370
    -3
390
F
  0
LAYER
  5
22C7
102
{ACAD_XDICTIONARY
360
8E3C
102
}
330
2
100
AcDbSymbolTableRecord
100
AcDbLayerTableRecord
  2
本体\U+5185線
 70
     0
 62
     4
  6
HIDDENX2
370
    -3
390
F
  0
LAYER
  5
22C8
102
{ACAD_XDICTIONARY
360
8E3E
102
}
330
2
100
AcDbSymbolTableRecord
100
AcDbLayerTableRecord
  2
標註線
 70
     0
 62
     6
  6
Continuous
370
    -3
390
F
  0
LAYER
  5
22C9
102
{ACAD_XDICTIONARY
360
8E40
102
}
330
2
100
AcDbSymbolTableRecord
100
AcDbLayerTableRecord
  2
公差
 70
     0
 62
     3
  6
Continuous
370
    -3
390
F
  0
LAYER
  5
22CA
102
{ACAD_XDICTIONARY
360
8E42
102
}
330
2
100
AcDbSymbolTableRecord
100
AcDbLayerTableRecord
  2
本体外線
 70
     0
 62
     2
  6
Continuous
370
    -3
390
F
  0
LAYER
  5
22CB
102
{ACAD_XDICTIONARY
360
8E44
102
}
330
2
100
AcDbSymbolTableRecord
100
AcDbLayerTableRecord
  2
外\U+67A2線
 70
     0
 62
     8
  6
Continuous
370
    -3
390
F
  0
LAYER
  5
22CD
102
{ACAD_XDICTIONARY
360
8E46
102
}
330
2
100
AcDbSymbolTableRecord
100
AcDbLayerTableRecord
  2
剖面線
 70
     0
 62
     5
  6
Continuous
370
    -3
390
F
  0
LAYER
  5
22CF
102
{ACAD_XDICTIONARY
360
8E48
102
}
330
2
100
AcDbSymbolTableRecord
100
AcDbLayerTableRecord
  2
文字
 70
     0
 62
     6
  6
Continuous
370
    -3
390
F
  0
LAYER
  5
7FF6
102
{ACAD_XDICTIONARY
360
8E4A
102
}
330
2
100
AcDbSymbolTableRecord
100
AcDbLayerTableRecord
  2
-
 70
     0
 62
     8
  6
Continuous
370
    -3
390
F
  0
ENDTAB
  0
TABLE
  2
STYLE
  5
3
330
0
100
AcDbSymbolTable
 70
     8
  0
STYLE
  5
11
330
3
100
AcDbSymbolTableRecord
100
AcDbTextStyleTableRecord
  2
Standard
 70
     0
 40
0.0
 41
1.0
 50
0.0
 71
     0
 42
2.5
  3
txt
  4

  0
STYLE
  5
2294
330
3
100
AcDbSymbolTableRecord
100
AcDbTextStyleTableRecord
  2
A
 70
     0
 40
1.0
 41
1.0
 50
0.0
 71
     0
 42
2.5
  3
MS Mincho.ttf
  4

1001
ACAD
1000
MS Mincho
1071
    32785
  0
STYLE
  5
7FF7
330
3
100
AcDbSymbolTableRecord
100
AcDbTextStyleTableRecord
  2
JL
 70
     0
 40
10.0
 41
0.5
 50
0.0
 71
     0
 42
5.0
  3
MS Mincho.ttf
  4

1001
ACAD
1000
MS Mincho
1071
    32785
  0
STYLE
  5
7FF8
330
3
100
AcDbSymbolTableRecord
100
AcDbTextStyleTableRecord
  2
LKK
 70
     0
 40
50.0
 41
1.5
 50
0.0
 71
     0
 42
50.0
  3
MS PGothic.ttf
  4

1001
ACAD
1000
MS PGothic
1071
    32818
  0
STYLE
  5
8BD4
330
3
100
AcDbSymbolTableRecord
100
AcDbTextStyleTableRecord
  2

 70
     1
 40
0.0
 41
1.0
 50
0.0
 71
     0
 42
2.5
  3
genltshp.shx
  4

  0
STYLE
  5
8BE2
330
3
100
AcDbSymbolTableRecord
100
AcDbTextStyleTableRecord
  2
ACISOTS
 70
     0
 40
1.0
 41
1.0
 50
0.0
 71
     0
 42
2.5
  3
isocp.shx
  4
chineset.shx
  0
STYLE
  5
8BE3
330
3
100
AcDbSymbolTableRecord
100
AcDbTextStyleTableRecord
  2
ACISOGDT
 70
     0
 40
0.0
 41
1.0
 50
0.0
 71
     0
 42
2.5
  3
amgdt.shx
  4

  0
ENDTAB
  0
TABLE
  2
VIEW
  5
6
330
0
100
AcDbSymbolTable
 70
     0
  0
ENDTAB
  0
TABLE
  2
UCS
  5
7
330
0
100
AcDbSymbolTable
 70
     0
  0
ENDTAB
  0
TABLE
  2
APPID
  5
9
330
0
100
AcDbSymbolTable
 70
    21
  0
APPID
  5
12
330
9
100
AcDbSymbolTableRecord
100
AcDbRegAppTableRecord
  2
ACAD
 70
     0
  0
APPID
  5
14F
330
9
100
AcDbSymbolTableRecord
100
AcDbRegAppTableRecord
  2
DCO15
 70
     0
  0
APPID
  5
8B64
330
9
100
AcDbSymbolTableRecord
100
AcDbRegAppTableRecord
  2
MCAD_NO_VIS
 70
     0
  0
APPID
  5
8B65
330
9
100
AcDbSymbolTableRecord
100
AcDbRegAppTableRecord
  2
ACAD_TEMP_GRAPHIC
 70
     0
  0
APPID
  5
8B91
330
9
100
AcDbSymbolTableRecord
100
AcDbRegAppTableRecord
  2
AD_DRAW
 70
     0
  0
APPID
  5
8B94
330
9
100
AcDbSymbolTableRecord
100
AcDbRegAppTableRecord
  2
ACATTRIBSERVICES
 70
     0
  0
APPID
  5
8BAD
330
9
100
AcDbSymbolTableRecord
100
AcDbRegAppTableRecord
  2
DESIGNERASSEMBLIES
 70
     0
  0
APPID
  5
8BB2
330
9
100
AcDbSymbolTableRecord
100
AcDbRegAppTableRecord
  2
ACADM_DIM_EDIT
 70
     0
  0
APPID
  5
8BB3
330
9
100
AcDbSymbolTableRecord
100
AcDbRegAppTableRecord
  2
AMDT_DM_ADJ
 70
     0
  0
APPID
  5
8BCA
330
9
100
AcDbSymbolTableRecord
100
AcDbRegAppTableRecord
  2
ACAD_DSTYLE_DIMJAG
 70
     0
  0
APPID
  5
8BCB
330
9
100
AcDbSymbolTableRecord
100
AcDbRegAppTableRecord
  2
ACAD_DSTYLE_DIMBREAK
 70
     0
  0
APPID
  5
8C21
330
9
100
AcDbSymbolTableRecord
100
AcDbRegAppTableRecord
  2
ACAD_DSTYLE_DIMTALN
 70
     0
  0
APPID
  5
8DDB
330
9
100
AcDbSymbolTableRecord
100
AcDbRegAppTableRecord
  2
GENIUS_GENDTOL_13
 70
     0
  0
APPID
  5
8DDC
330
9
100
AcDbSymbolTableRecord
100
AcDbRegAppTableRecord
  2
ACAD_DSTYLE_DIMINSPECT
 70
     0
  0
APPID
  5
8E35
330
9
100
AcDbSymbolTableRecord
100
AcDbRegAppTableRecord
  2
GENIUS_GENDIMSH_14
 70
     0
  0
APPID
  5
8ED0
330
9
100
AcDbSymbolTableRecord
100
AcDbRegAppTableRecord
  2
ACAD_PSEXT
 70
     0
  0
APPID
  5
8F83
330
9
100
AcDbSymbolTableRecord
100
AcDbRegAppTableRecord
  2
ACAD_MLEADERVER
 70
     0
  0
APPID
  5
8F84
330
9
100
AcDbSymbolTableRecord
100
AcDbRegAppTableRecord
  2
ACAD_DSTYLE_DIMARC_LENGTH_SYMBOL
 70
     0
  0
APPID
  5
8F85
330
9
100
AcDbSymbolTableRecord
100
AcDbRegAppTableRecord
  2
ACAD_DSTYLE_DIM_LINETYPE
 70
     0
  0
APPID
  5
8F86
330
9
100
AcDbSymbolTableRecord
100
AcDbRegAppTableRecord
  2
ACAD_DSTYLE_DIM_EXT1_LINETYPE
 70
     0
  0
APPID
  5
8F87
330
9
100
AcDbSymbolTableRecord
100
AcDbRegAppTableRecord
  2
ACAD_DSTYLE_DIM_EXT2_LINETYPE
 70
     0
  0
ENDTAB
  0
TABLE
  2
DIMSTYLE
  5
A
330
0
100
AcDbSymbolTable
 70
    10
100
AcDbDimStyleTable
 71
     2
340
27
340
8C20
  0
DIMSTYLE
105
27
102
{ACAD_REACTORS
330
77F2
330
77F3
330
77F4
330
77F5
330
77F7
330
77FA
330
77FD
330
77FE
330
7804
330
780A
330
780B
330
780E
330
780F
330
7815
330
7823
330
7832
330
783E
330
784E
330
8000
330
8052
330
8053
330
8059
330
805A
330
805B
330
806B
330
806C
330
8072
330
8074
330
8085
330
8086
330
8087
330
8088
330
809D
330
80A0
102
}
330
A
100
AcDbSymbolTableRecord
100
AcDbDimStyleTableRecord
  2
ISO-25
 70
     0
 41
1.5
 42
0.625
 43
0.5
 44
0.5
 73
     0
 74
     0
 77
     3
 78
     8
140
1.5
141
2.5
143
0.03937007874016
147
0.9
171
     3
172
     1
176
     6
177
     6
178
     3
271
     1
272
     1
274
     3
283
     0
284
     8
289
     2
340
11
  0
DIMSTYLE
105
8BC9
102
{ACAD_REACTORS
330
8EAE
102
}
330
A
100
AcDbSymbolTableRecord
100
AcDbDimStyleTableRecord
  2
AM_ISO
 70
     0
  4
"
 41
3.5
 42
1.0
 43
10.0
 44
1.0
 47
0.1
 48
0.1
 73
     0
 74
     0
 77
     1
 78
     8
 79
     2
140
3.5
141
0.0
143
0.0393701
146
0.71
147
1.5
172
     1
176
   256
177
   256
178
     2
271
     2
272
     3
274
     4
283
     0
284
     8
340
11
371
    -1
372
    -1
1001
ACAD_DSTYLE_DIMJAG
1070
   388
1040
1.5
1001
ACAD_DSTYLE_DIMBREAK
1070
   391
1040
3.75
1001
ACAD_DSTYLE_DIMARC_LENGTH_SYMBOL
1070
   379
1070
     1
1001
ACAD_DSTYLE_DIM_LINETYPE
1070
   380
1005
14
1001
ACAD_DSTYLE_DIM_EXT1_LINETYPE
1070
   381
1005
14
1001
ACAD_DSTYLE_DIM_EXT2_LINETYPE
1070
   382
1005
14
  0
DIMSTYLE
105
8BD6
330
A
100
AcDbSymbolTableRecord
100
AcDbDimStyleTableRecord
  2
AM_ISO$3
 70
     0
  4
"
 41
3.5
 42
1.0
 43
10.0
 44
1.0
 47
0.1
 48
0.1
 73
     0
 77
     1
 78
     8
 79
     2
140
3.5
141
0.0
143
0.0393701
146
0.71
147
1.5
176
   256
177
   256
178
     2
271
     2
272
     3
274
     4
283
     0
284
     8
288
     1
289
     0
340
11
371
    -1
372
    -1
1001
ACAD_DSTYLE_DIMBREAK
1070
   391
1040
3.75
1001
ACAD_DSTYLE_DIMJAG
1070
   388
1040
1.5
1001
ACAD_DSTYLE_DIMARC_LENGTH_SYMBOL
1070
   379
1070
     1
1001
ACAD_DSTYLE_DIM_LINETYPE
1070
   380
1005
14
1001
ACAD_DSTYLE_DIM_EXT1_LINETYPE
1070
   381
1005
14
1001
ACAD_DSTYLE_DIM_EXT2_LINETYPE
1070
   382
1005
14
  0
DIMSTYLE
105
8BD7
330
A
100
AcDbSymbolTableRecord
100
AcDbDimStyleTableRecord
  2
AM_ISO$4
 70
     0
  4
"
 41
3.5
 42
1.0
 43
10.0
 44
1.0
 47
0.1
 48
0.1
 73
     0
 77
     1
 78
     8
 79
     2
140
3.5
141
0.0
143
0.0393701
146
0.71
147
1.5
176
   256
177
   256
178
     2
271
     2
272
     3
274
     4
283
     0
284
     8
288
     1
289
     0
340
11
371
    -1
372
    -1
1001
ACAD_DSTYLE_DIMBREAK
1070
   391
1040
3.75
1001
ACAD_DSTYLE_DIMJAG
1070
   388
1040
1.5
1001
ACAD_DSTYLE_DIMARC_LENGTH_SYMBOL
1070
   379
1070
     1
1001
ACAD_DSTYLE_DIM_LINETYPE
1070
   380
1005
14
1001
ACAD_DSTYLE_DIM_EXT1_LINETYPE
1070
   381
1005
14
1001
ACAD_DSTYLE_DIM_EXT2_LINETYPE
1070
   382
1005
14
  0
DIMSTYLE
105
8BD8
330
A
100
AcDbSymbolTableRecord
100
AcDbDimStyleTableRecord
  2
AM_ISO$6
 70
     0
  4
"
 41
3.5
 42
1.0
 43
10.0
 44
1.0
 47
0.1
 48
0.1
 73
     0
 74
     0
 78
     8
 79
     2
140
3.5
141
0.0
143
0.0393701
146
0.71
147
1.5
172
     1
176
   256
177
   256
178
     2
271
     2
272
     3
274
     4
283
     0
284
     8
340
11
371
    -1
372
    -1
1001
ACAD_DSTYLE_DIMBREAK
1070
   391
1040
3.75
1001
ACAD_DSTYLE_DIMJAG
1070
   388
1040
1.5
1001
ACAD_DSTYLE_DIMARC_LENGTH_SYMBOL
1070
   379
1070
     1
1001
ACAD_DSTYLE_DIM_LINETYPE
1070
   380
1005
14
1001
ACAD_DSTYLE_DIM_EXT1_LINETYPE
1070
   381
1005
14
1001
ACAD_DSTYLE_DIM_EXT2_LINETYPE
1070
   382
1005
14
  0
DIMSTYLE
105
8BD9
330
A
100
AcDbSymbolTableRecord
100
AcDbDimStyleTableRecord
  2
AM_ISO$7
 70
     0
  4
"
 41
3.5
 42
1.0
 43
10.0
 44
1.0
 47
0.1
 48
0.1
 73
     0
 74
     0
 77
     1
 78
     8
 79
     2
140
3.5
141
0.0
143
0.0393701
146
0.71
147
1.5
172
     1
176
   256
177
   256
178
     2
271
     2
272
     3
274
     4
283
     0
284
     8
340
11
371
    -1
372
    -1
1001
ACAD_DSTYLE_DIMBREAK
1070
   391
1040
3.75
1001
ACAD_DSTYLE_DIMJAG
1070
   388
1040
1.5
1001
ACAD_DSTYLE_DIMARC_LENGTH_SYMBOL
1070
   379
1070
     1
1001
ACAD_DSTYLE_DIM_LINETYPE
1070
   380
1005
14
1001
ACAD_DSTYLE_DIM_EXT1_LINETYPE
1070
   381
1005
14
1001
ACAD_DSTYLE_DIM_EXT2_LINETYPE
1070
   382
1005
14
  0
DIMSTYLE
105
8BDA
330
A
100
AcDbSymbolTableRecord
100
AcDbDimStyleTableRecord
  2
AM_ISO$SF
 70
     0
  4
"
 41
3.5
 42
1.0
 43
10.0
 44
1.0
 47
0.1
 48
0.1
 73
     0
 74
     0
 75
     1
 76
     1
 77
     1
 78
     8
 79
     2
140
3.5
141
0.0
143
0.0393701
146
0.71
147
1.5
172
     1
176
   256
177
   256
178
     2
271
     2
272
     3
274
     4
283
     0
284
     8
340
11
371
    -1
372
    -1
1001
ACAD_DSTYLE_DIMBREAK
1070
   391
1040
3.75
1001
ACAD_DSTYLE_DIMJAG
1070
   388
1040
1.5
1001
ACAD_DSTYLE_DIMARC_LENGTH_SYMBOL
1070
   379
1070
     1
1001
ACAD_DSTYLE_DIM_LINETYPE
1070
   380
1005
14
1001
ACAD_DSTYLE_DIM_EXT1_LINETYPE
1070
   381
1005
14
1001
ACAD_DSTYLE_DIM_EXT2_LINETYPE
1070
   382
1005
14
  0
DIMSTYLE
105
8BDF
330
A
100
AcDbSymbolTableRecord
100
AcDbDimStyleTableRecord
  2
AM_ISO$SH
 70
     0
  4
"
 41
3.5
 42
1.0
 43
10.0
 44
1.0
 47
0.1
 48
0.1
 73
     0
 74
     0
 75
     1
 76
     1
 77
     1
 78
     8
 79
     2
140
3.5
141
0.0
143
0.0393701
144
2.0
146
0.71
147
1.5
172
     1
173
     1
176
   256
177
   256
178
     2
271
     2
272
     3
274
     4
283
     0
284
     8
340
11
343
8BDB
371
    -1
372
    -1
1001
ACAD_DSTYLE_DIMBREAK
1070
   391
1040
3.75
1001
ACAD_DSTYLE_DIMJAG
1070
   388
1040
1.5
1001
ACAD_DSTYLE_DIMARC_LENGTH_SYMBOL
1070
   379
1070
     1
1001
ACAD_DSTYLE_DIM_LINETYPE
1070
   380
1005
14
1001
ACAD_DSTYLE_DIM_EXT1_LINETYPE
1070
   381
1005
14
1001
ACAD_DSTYLE_DIM_EXT2_LINETYPE
1070
   382
1005
14
  0
DIMSTYLE
105
8C20
102
{ACAD_REACTORS
330
8D56
330
8D57
330
8D42
330
8D55
102
}
330
A
100
AcDbSymbolTableRecord
100
AcDbDimStyleTableRecord
  2
STANDARD NET
 70
     0
 40
0.5
 41
3.5
 42
1.199999999999999
 44
1.199999999999999
 73
     0
 74
     0
 77
     3
 78
     8
 79
     2
140
3.5
147
1.199999999999999
172
     1
176
   256
177
   256
178
     3
179
     2
271
     2
272
     2
340
11
341
8A46
342
8A46
1001
ACAD_DSTYLE_DIMJAG
1070
   388
1040
1.5
1001
ACAD_DSTYLE_DIMTALN
1070
   392
1070
     0
  0
ENDTAB
  0
TABLE
  2
BLOCK_RECORD
  5
1
330
0
100
AcDbSymbolTable
 70
    63
  0
BLOCK_RECORD
  5
1F
102
{ACAD_XDICTIONARY
360
8AB
102
}
330
1
100
AcDbSymbolTableRecord
100
AcDbBlockTableRecord
  2
*Model_Space
340
22
  0
BLOCK_RECORD
  5
1B
102
{ACAD_XDICTIONARY
360
8AD
102
}
330
1
100
AcDbSymbolTableRecord
100
AcDbBlockTableRecord
  2
*Paper_Space
340
1E
  0
BLOCK_RECORD
  5
23
102
{ACAD_XDICTIONARY
360
8AF
102
}
330
1
100
AcDbSymbolTableRecord
100
AcDbBlockTableRecord
  2
*Paper_Space0
340
26
  0
BLOCK_RECORD
  5
6E82
330
1
100
AcDbSymbolTableRecord
100
AcDbBlockTableRecord
  2
*D1
340
0
  0
BLOCK_RECORD
  5
7719
330
1
100
AcDbSymbolTableRecord
100
AcDbBlockTableRecord
  2
*D2
340
0
  0
BLOCK_RECORD
  5
7723
330
1
100
AcDbSymbolTableRecord
100
AcDbBlockTableRecord
  2
*D3
340
0
  0
BLOCK_RECORD
  5
7731
330
1
100
AcDbSymbolTableRecord
100
AcDbBlockTableRecord
  2
*D4
340
0
  0
BLOCK_RECORD
  5
773D
330
1
100
AcDbSymbolTableRecord
100
AcDbBlockTableRecord
  2
*D5
340
0
  0
BLOCK_RECORD
  5
7749
330
1
100
AcDbSymbolTableRecord
100
AcDbBlockTableRecord
  2
*D6
340
0
  0
BLOCK_RECORD
  5
7757
330
1
100
AcDbSymbolTableRecord
100
AcDbBlockTableRecord
  2
*D7
340
0
  0
BLOCK_RECORD
  5
7763
330
1
100
AcDbSymbolTableRecord
100
AcDbBlockTableRecord
  2
*D8
340
0
  0
BLOCK_RECORD
  5
776C
330
1
100
AcDbSymbolTableRecord
100
AcDbBlockTableRecord
  2
*D9
340
0
  0
BLOCK_RECORD
  5
777A
330
1
100
AcDbSymbolTableRecord
100
AcDbBlockTableRecord
  2
*D10
340
0
  0
BLOCK_RECORD
  5
7786
330
1
100
AcDbSymbolTableRecord
100
AcDbBlockTableRecord
  2
*D11
340
0
  0
BLOCK_RECORD
  5
7794
330
1
100
AcDbSymbolTableRecord
100
AcDbBlockTableRecord
  2
*D12
340
0
  0
BLOCK_RECORD
  5
77A0
330
1
100
AcDbSymbolTableRecord
100
AcDbBlockTableRecord
  2
*D13
340
0
  0
BLOCK_RECORD
  5
77AE
330
1
100
AcDbSymbolTableRecord
100
AcDbBlockTableRecord
  2
*D14
340
0
  0
BLOCK_RECORD
  5
77B7
330
1
100
AcDbSymbolTableRecord
100
AcDbBlockTableRecord
  2
*D15
340
0
  0
BLOCK_RECORD
  5
77C3
330
1
100
AcDbSymbolTableRecord
100
AcDbBlockTableRecord
  2
*D16
340
0
  0
BLOCK_RECORD
  5
77CF
330
1
100
AcDbSymbolTableRecord
100
AcDbBlockTableRecord
  2
*D17
340
0
  0
BLOCK_RECORD
  5
77DB
330
1
100
AcDbSymbolTableRecord
100
AcDbBlockTableRecord
  2
*D18
340
0
  0
BLOCK_RECORD
  5
77E7
330
1
100
AcDbSymbolTableRecord
100
AcDbBlockTableRecord
  2
*D19
340
0
  0
BLOCK_RECORD
  5
77F1
330
1
100
AcDbSymbolTableRecord
100
AcDbBlockTableRecord
  2
A$C5E4C49E2
340
0
  0
BLOCK_RECORD
  5
7E9D
330
1
100
AcDbSymbolTableRecord
100
AcDbBlockTableRecord
  2
A$C6F967C31
340
0
  0
BLOCK_RECORD
  5
7EB0
330
1
100
AcDbSymbolTableRecord
100
AcDbBlockTableRecord
  2
A$C3E173C42
340
0
  0
BLOCK_RECORD
  5
7F34
330
1
100
AcDbSymbolTableRecord
100
AcDbBlockTableRecord
  2
*D23
340
0
  0
BLOCK_RECORD
  5
7F40
330
1
100
AcDbSymbolTableRecord
100
AcDbBlockTableRecord
  2
*D24
340
0
  0
BLOCK_RECORD
  5
7F4C
330
1
100
AcDbSymbolTableRecord
100
AcDbBlockTableRecord
  2
*D25
340
0
  0
BLOCK_RECORD
  5
7F5B
330
1
100
AcDbSymbolTableRecord
100
AcDbBlockTableRecord
  2
*D26
340
0
  0
BLOCK_RECORD
  5
7F6A
330
1
100
AcDbSymbolTableRecord
100
AcDbBlockTableRecord
  2
*D27
340
0
  0
BLOCK_RECORD
  5
7F73
330
1
100
AcDbSymbolTableRecord
100
AcDbBlockTableRecord
  2
*D28
340
0
  0
BLOCK_RECORD
  5
7F82
330
1
100
AcDbSymbolTableRecord
100
AcDbBlockTableRecord
  2
*D29
340
0
  0
BLOCK_RECORD
  5
7F8E
330
1
100
AcDbSymbolTableRecord
100
AcDbBlockTableRecord
  2
*D30
340
0
  0
BLOCK_RECORD
  5
7F9A
330
1
100
AcDbSymbolTableRecord
100
AcDbBlockTableRecord
  2
*D31
340
0
  0
BLOCK_RECORD
  5
7FA8
330
1
100
AcDbSymbolTableRecord
100
AcDbBlockTableRecord
  2
*D32
340
0
  0
BLOCK_RECORD
  5
7FB4
330
1
100
AcDbSymbolTableRecord
100
AcDbBlockTableRecord
  2
*D33
340
0
  0
BLOCK_RECORD
  5
7FC0
330
1
100
AcDbSymbolTableRecord
100
AcDbBlockTableRecord
  2
*D34
340
0
  0
BLOCK_RECORD
  5
7FCC
330
1
100
AcDbSymbolTableRecord
100
AcDbBlockTableRecord
  2
*D35
340
0
  0
BLOCK_RECORD
  5
7FD7
330
1
100
AcDbSymbolTableRecord
100
AcDbBlockTableRecord
  2
*D36
340
0
  0
BLOCK_RECORD
  5
7FE0
330
1
100
AcDbSymbolTableRecord
100
AcDbBlockTableRecord
  2
*D37
340
0
  0
BLOCK_RECORD
  5
7FE9
330
1
100
AcDbSymbolTableRecord
100
AcDbBlockTableRecord
  2
*D38
340
0
  0
BLOCK_RECORD
  5
7FF9
330
1
100
AcDbSymbolTableRecord
100
AcDbBlockTableRecord
  2
A$C6E02058C
340
0
  0
BLOCK_RECORD
  5
82C8
330
1
100
AcDbSymbolTableRecord
100
AcDbBlockTableRecord
  2
A$C13A045B8
340
0
  0
BLOCK_RECORD
  5
86D8
330
1
100
AcDbSymbolTableRecord
100
AcDbBlockTableRecord
  2
A$C71F9132B
340
0
  0
BLOCK_RECORD
  5
87A9
330
1
100
AcDbSymbolTableRecord
100
AcDbBlockTableRecord
  2
A$C17121088
340
0
102
{BLKREFS
331
87C5
102
}
  0
BLOCK_RECORD
  5
87C4
330
1
100
AcDbSymbolTableRecord
100
AcDbBlockTableRecord
  2
A$C41C27F33
340
0
  0
BLOCK_RECORD
  5
87F3
330
1
100
AcDbSymbolTableRecord
100
AcDbBlockTableRecord
  2
*D44
340
0
  0
BLOCK_RECORD
  5
8829
330
1
100
AcDbSymbolTableRecord
100
AcDbBlockTableRecord
  2
*D45
340
0
  0
BLOCK_RECORD
  5
8836
330
1
100
AcDbSymbolTableRecord
100
AcDbBlockTableRecord
  2
*D46
340
0
  0
BLOCK_RECORD
  5
8A46
330
1
100
AcDbSymbolTableRecord
100
AcDbBlockTableRecord
  2
_Open30
340
0
102
{BLKREFS
331
8BF3
331
8BF4
331
8BFF
331
8C00
331
8C0B
331
8C0C
331
8C19
331
8C1A
331
8CF9
331
8CFA
331
8D02
331
8D03
331
8D0B
331
8D0C
331
8D16
331
8D17
331
8D1F
331
8D20
331
8D28
331
8D29
331
8D31
331
8D32
331
8D3A
331
8D3B
331
8E12
331
8E13
331
8E1D
331
8E1E
331
8E26
331
8E27
331
8E2F
331
8E30
102
}
  0
BLOCK_RECORD
  5
8BDB
330
1
100
AcDbSymbolTableRecord
100
AcDbBlockTableRecord
  2
GENAXEH
340
0
  0
BLOCK_RECORD
  5
8D85
330
1
100
AcDbSymbolTableRecord
100
AcDbBlockTableRecord
  2
*D57
340
0
  0
BLOCK_RECORD
  5
8D91
330
1
100
AcDbSymbolTableRecord
100
AcDbBlockTableRecord
  2
*D58
340
0
  0
BLOCK_RECORD
  5
8D9D
330
1
100
AcDbSymbolTableRecord
100
AcDbBlockTableRecord
  2
*D59
340
0
  0
BLOCK_RECORD
  5
8DA9
330
1
100
AcDbSymbolTableRecord
100
AcDbBlockTableRecord
  2
*D60
340
0
  0
ENDTAB
  0
ENDSEC
  0
SECTION
  2
BLOCKS
  0
BLOCK
  5
20
330
1F
100
AcDbEntity
  8
0
100
AcDbBlockBegin
  2
*Model_Space
 70
     0
 10
0.0
 20
0.0
 30
0.0
  3
*Model_Space
  1

  0
ENDBLK
  5
21
330
1F
100
AcDbEntity
  8
0
100
AcDbBlockEnd
  0
BLOCK
  5
1C
330
1B
100
AcDbEntity
 67
     1
  8
0
100
AcDbBlockBegin
  2
*Paper_Space
 70
     0
 10
0.0
 20
0.0
 30
0.0
  3
*Paper_Space
  1

  0
ENDBLK
  5
1D
330
1B
100
AcDbEntity
 67
     1
  8
0
100
AcDbBlockEnd
  0
BLOCK
  5
24
330
23
100
AcDbEntity
 67
     1
  8
0
100
AcDbBlockBegin
  2
*Paper_Space0
 70
     0
 10
0.0
 20
0.0
 30
0.0
  3
*Paper_Space0
  1

  0
ENDBLK
  5
25
330
23
100
AcDbEntity
 67
     1
  8
0
100
AcDbBlockEnd
  0
BLOCK
  5
83ED
330
6E82
100
AcDbEntity
  8
0
100
AcDbBlockBegin
  2
*D1
 70
     1
 10
0.0
 20
0.0
 30
0.0
  3
*D1
  1

  0
LINE
  5
8D1C
330
6E82
100
AcDbEntity
  8
標註線
 62
     6
370
    -2
100
AcDbLine
 10
36.67781773303913
 20
102.6180412100729
 30
0.0
 11
30.2129864820229
 21
102.6180412100729
 31
0.0
  0
LINE
  5
8D1D
330
6E82
100
AcDbEntity
  8
標註線
 62
     6
370
    -2
100
AcDbLine
 10
36.67781773303913
 20
86.61804121007291
 30
0.0
 11
30.2129864820229
 21
86.61804121007293
 31
0.0
  0
LINE
  5
8D1E
330
6E82
100
AcDbEntity
  8
標註線
 62
     6
370
    -2
100
AcDbLine
 10
30.7129864820229
 20
101.6180412100729
 30
0.0
 11
30.7129864820229
 21
87.61804121007292
 31
0.0
  0
INSERT
  5
8D1F
330
6E82
100
AcDbEntity
  8
標註線
 62
     6
370
    -2
100
AcDbBlockReference
  2
_Open30
 10
30.7129864820229
 20
102.6180412100729
 30
0.0
 50
90.0
  0
INSERT
  5
8D20
330
6E82
100
AcDbEntity
  8
標註線
 62
     6
370
    -2
100
AcDbBlockReference
  2
_Open30
 10
30.7129864820229
 20
86.61804121007293
 30
0.0
 50
270.0
  0
MTEXT
  5
8D21
330
6E82
100
AcDbEntity
  8
標註線
 62
     3
100
AcDbMText
 10
29.31298648202289
 20
94.61804121007293
 30
0.0
 40
1.8
 41
0.0
 71
     5
 72
     1
  1
%%C16
 11
0.0000000000000001
 21
1.0
 31
0.0
 73
     1
 44
1.0
1001
ACAD
1000
MTEXTBEGIN
1070
    73
1070
     1
1070
    44
1040
1.0
1070
    74
1070
     0
1000
MTEXTEND
  0
POINT
  5
8D22
330
6E82
100
AcDbEntity
  8
Defpoints
 62
     0
100
AcDbPoint
 10
37.30281773303913
 20
102.6180412100729
 30
0.0
  0
POINT
  5
8D23
330
6E82
100
AcDbEntity
  8
Defpoints
 62
     0
100
AcDbPoint
 10
37.30281773303913
 20
86.61804121007291
 30
0.0
  0
POINT
  5
8D24
330
6E82
100
AcDbEntity
  8
Defpoints
 62
     0
100
AcDbPoint
 10
30.7129864820229
 20
86.61804121007293
 30
0.0
  0
ENDBLK
  5
83F7
330
6E82
100
AcDbEntity
  8
0
100
AcDbBlockEnd
  0
BLOCK
  5
7721
330
7719
100
AcDbEntity
  8
0
100
AcDbBlockBegin
  2
*D2
 70
     1
 10
0.0
 20
0.0
 30
0.0
  3
*D2
  1

  0
LINE
  5
771A
330
7719
100
AcDbEntity
  8
0
  6
ByBlock
 62
     6
100
AcDbLine
 10
567.2956856926007
 20
305.5953669514652
 30
0.0
 11
571.6975277534323
 21
314.0140239982573
 31
0.0
  0
LINE
  5
771B
330
7719
100
AcDbEntity
  8
0
  6
ByBlock
 62
     6
100
AcDbLine
 10
572.3925554472478
 20
315.3432856372246
 30
0.0
 11
578.9882043992422
 21
327.9576651993545
 31
0.0
  0
SOLID
  5
771C
330
7719
100
AcDbEntity
  8
0
  6
ByBlock
 62
     6
100
AcDbTrace
 10
567.0741420861062
 20
305.7112049004345
 30
0.0
 11
567.5172292990953
 21
305.479529002496
 31
0.0
 12
566.6006579987854
 22
304.2661053124982
 32
0.0
 13
566.6006579987854
 23
304.2661053124982
 33
0.0
  0
SOLID
  5
771D
330
7719
100
AcDbEntity
  8
0
  6
ByBlock
 62
     6
100
AcDbTrace
 10
571.4759841469376
 20
314.1298619472266
 30
0.0
 11
571.9190713599267
 21
313.8981860492882
 31
0.0
 12
572.3925554472478
 22
315.3432856372246
 32
0.0
 13
572.3925554472478
 23
315.3432856372246
 33
0.0
  0
MTEXT
  5
771E
102
{ACAD_XDICTIONARY
360
8EE7
102
}
330
7719
100
AcDbEntity
  8
0
  6
ByBlock
 62
     3
100
AcDbMText
 10
575.4102350468188
 20
324.8915177284851
 30
0.0
 40
1.5
 41
0.0
 71
     5
 72
     1
  1
\U+220512.50
 11
0.4633517958769711
 21
0.8861744259780833
 31
0.0
 73
     1
 44
1.0
1001
ACAD
1000
MTEXTBEGIN
1070
    73
1070
     1
1070
    44
1040
1.0
1070
    74
1070
     0
1000
MTEXTEND
  0
POINT
  5
771F
330
7719
100
AcDbEntity
  8
Defpoints
  6
ByBlock
 62
     0
100
AcDbPoint
 10
572.3925554472478
 20
315.3432856372246
 30
0.0
  0
POINT
  5
7720
330
7719
100
AcDbEntity
  8
Defpoints
  6
ByBlock
 62
     0
100
AcDbPoint
 10
566.6006579987854
 20
304.2661053124982
 30
0.0
  0
ENDBLK
  5
7722
330
7719
100
AcDbEntity
  8
0
100
AcDbBlockEnd
  0
BLOCK
  5
772F
330
7723
100
AcDbEntity
  8
0
100
AcDbBlockBegin
  2
*D3
 70
     1
 10
0.0
 20
0.0
 30
0.0
  3
*D3
  1

  0
LINE
  5
7724
330
7723
100
AcDbEntity
  8
0
  6
ByBlock
 62
     6
100
AcDbLine
 10
569.4966067230167
 20
309.2506906731947
 30
0.0
 11
569.4966067230167
 21
299.8315027365901
 31
0.0
  0
LINE
  5
7725
330
7723
100
AcDbEntity
  8
0
  6
ByBlock
 62
     6
100
AcDbLine
 10
572.5966067230167
 20
310.073674918657
 30
0.0
 11
572.5966067230167
 21
299.8315027365901
 31
0.0
  0
LINE
  5
7726
330
7723
100
AcDbEntity
  8
0
  6
ByBlock
 62
     6
100
AcDbLine
 10
567.9966067230167
 20
300.3315027365901
 30
0.0
 11
566.4966067230166
 21
300.3315027365901
 31
0.0
  0
LINE
  5
7727
330
7723
100
AcDbEntity
  8
0
  6
ByBlock
 62
     6
100
AcDbLine
 10
574.0966067230167
 20
300.3315027365901
 30
0.0
 11
575.5966067230168
 21
300.3315027365901
 31
0.0
  0
LINE
  5
7728
330
7723
100
AcDbEntity
  8
0
  6
ByBlock
 62
     6
100
AcDbLine
 10
569.4966067230167
 20
300.3315027365901
 30
0.0
 11
572.5966067230167
 21
300.3315027365901
 31
0.0
  0
SOLID
  5
7729
330
7723
100
AcDbEntity
  8
0
  6
ByBlock
 62
     6
100
AcDbTrace
 10
567.9966067230167
 20
300.5815027365901
 30
0.0
 11
567.9966067230167
 21
300.0815027365901
 31
0.0
 12
569.4966067230167
 22
300.3315027365901
 32
0.0
 13
569.4966067230167
 23
300.3315027365901
 33
0.0
  0
SOLID
  5
772A
330
7723
100
AcDbEntity
  8
0
  6
ByBlock
 62
     6
100
AcDbTrace
 10
574.0966067230167
 20
300.5815027365901
 30
0.0
 11
574.0966067230167
 21
300.0815027365901
 31
0.0
 12
572.5966067230167
 22
300.3315027365901
 32
0.0
 13
572.5966067230167
 23
300.3315027365901
 33
0.0
  0
MTEXT
  5
772B
330
7723
100
AcDbEntity
  8
0
  6
ByBlock
 62
     3
100
AcDbMText
 10
571.0466067230168
 20
302.0815027365901
 30
0.0
 40
1.5
 41
0.0
 71
     5
 72
     1
  1
3.1
 73
     1
 44
1.0
1001
ACAD
1000
MTEXTBEGIN
1070
    73
1070
     1
1070
    44
1040
1.0
1070
    74
1070
     0
1000
MTEXTEND
  0
POINT
  5
772C
330
7723
100
AcDbEntity
  8
Defpoints
  6
ByBlock
 62
     0
100
AcDbPoint
 10
569.4966067230167
 20
309.7506906731947
 30
0.0
  0
POINT
  5
772D
330
7723
100
AcDbEntity
  8
Defpoints
  6
ByBlock
 62
     0
100
AcDbPoint
 10
572.5966067230167
 20
310.573674918657
 30
0.0
  0
POINT
  5
772E
330
7723
100
AcDbEntity
  8
Defpoints
  6
ByBlock
 62
     0
100
AcDbPoint
 10
572.5966067230167
 20
300.3315027365901
 30
0.0
  0
ENDBLK
  5
7730
330
7723
100
AcDbEntity
  8
0
100
AcDbBlockEnd
  0
BLOCK
  5
773B
330
7731
100
AcDbEntity
  8
0
100
AcDbBlockBegin
  2
*D4
 70
     1
 10
0.0
 20
0.0
 30
0.0
  3
*D4
  1

  0
LINE
  5
7732
330
7731
100
AcDbEntity
  8
0
  6
ByBlock
 62
     6
100
AcDbLine
 10
552.1966067230168
 20
323.5006906731948
 30
0.0
 11
546.1224688441156
 21
323.5006906731948
 31
0.0
  0
LINE
  5
7733
330
7731
100
AcDbEntity
  8
0
  6
ByBlock
 62
     6
100
AcDbLine
 10
552.1966067230168
 20
307.5006906731947
 30
0.0
 11
546.1224688441156
 21
307.5006906731947
 31
0.0
  0
LINE
  5
7734
330
7731
100
AcDbEntity
  8
0
  6
ByBlock
 62
     6
100
AcDbLine
 10
546.6224688441156
 20
322.0006906731947
 30
0.0
 11
546.6224688441156
 21
309.0006906731947
 31
0.0
  0
SOLID
  5
7735
330
7731
100
AcDbEntity
  8
0
  6
ByBlock
 62
     6
100
AcDbTrace
 10
546.3724688441154
 20
322.0006906731947
 30
0.0
 11
546.8724688441154
 21
322.0006906731947
 31
0.0
 12
546.6224688441156
 22
323.5006906731948
 32
0.0
 13
546.6224688441156
 23
323.5006906731948
 33
0.0
  0
SOLID
  5
7736
330
7731
100
AcDbEntity
  8
0
  6
ByBlock
 62
     6
100
AcDbTrace
 10
546.3724688441154
 20
309.0006906731947
 30
0.0
 11
546.8724688441154
 21
309.0006906731947
 31
0.0
 12
546.6224688441156
 22
307.5006906731947
 32
0.0
 13
546.6224688441156
 23
307.5006906731947
 33
0.0
  0
MTEXT
  5
7737
102
{ACAD_XDICTIONARY
360
8EE9
102
}
330
7731
100
AcDbEntity
  8
0
  6
ByBlock
 62
     3
100
AcDbMText
 10
544.8724688441155
 20
315.5006906731947
 30
0.0
 40
1.5
 41
0.0
 71
     5
 72
     1
  1
\U+220516
 11
0.0000000000000001
 21
1.0
 31
0.0
 73
     1
 44
1.0
1001
ACAD
1000
MTEXTBEGIN
1070
    73
1070
     1
1070
    44
1040
1.0
1070
    74
1070
     0
1000
MTEXTEND
  0
POINT
  5
7738
330
7731
100
AcDbEntity
  8
Defpoints
  6
ByBlock
 62
     0
100
AcDbPoint
 10
552.6966067230167
 20
323.5006906731948
 30
0.0
  0
POINT
  5
7739
330
7731
100
AcDbEntity
  8
Defpoints
  6
ByBlock
 62
     0
100
AcDbPoint
 10
552.6966067230167
 20
307.5006906731947
 30
0.0
  0
POINT
  5
773A
330
7731
100
AcDbEntity
  8
Defpoints
  6
ByBlock
 62
     0
100
AcDbPoint
 10
546.6224688441156
 20
307.5006906731947
 30
0.0
  0
ENDBLK
  5
773C
330
7731
100
AcDbEntity
  8
0
100
AcDbBlockEnd
  0
BLOCK
  5
7747
330
773D
100
AcDbEntity
  8
0
100
AcDbBlockBegin
  2
*D5
 70
     1
 10
0.0
 20
0.0
 30
0.0
  3
*D5
  1

  0
LINE
  5
773E
330
773D
100
AcDbEntity
  8
0
  6
ByBlock
 62
     6
100
AcDbLine
 10
564.7766067230167
 20
353.1202732437214
 30
0.0
 11
561.5931400218086
 21
353.1202732437214
 31
0.0
  0
LINE
  5
773F
330
773D
100
AcDbEntity
  8
0
  6
ByBlock
 62
     6
100
AcDbLine
 10
564.7766067230167
 20
346.7702732437214
 30
0.0
 11
561.5931400218086
 21
346.7702732437214
 31
0.0
  0
LINE
  5
7740
330
773D
100
AcDbEntity
  8
0
  6
ByBlock
 62
     6
100
AcDbLine
 10
562.0931400218085
 20
351.6202732437215
 30
0.0
 11
562.0931400218085
 21
348.2702732437214
 31
0.0
  0
SOLID
  5
7741
330
773D
100
AcDbEntity
  8
0
  6
ByBlock
 62
     6
100
AcDbTrace
 10
561.8431400218086
 20
351.6202732437215
 30
0.0
 11
562.3431400218086
 21
351.6202732437215
 31
0.0
 12
562.0931400218085
 22
353.1202732437214
 32
0.0
 13
562.0931400218085
 23
353.1202732437214
 33
0.0
  0
SOLID
  5
7742
330
773D
100
AcDbEntity
  8
0
  6
ByBlock
 62
     6
100
AcDbTrace
 10
561.8431400218086
 20
348.2702732437214
 30
0.0
 11
562.3431400218086
 21
348.2702732437214
 31
0.0
 12
562.0931400218085
 22
346.7702732437214
 32
0.0
 13
562.0931400218085
 23
346.7702732437214
 33
0.0
  0
MTEXT
  5
7743
102
{ACAD_XDICTIONARY
360
8EEB
102
}
330
773D
100
AcDbEntity
  8
0
  6
ByBlock
 62
     3
100
AcDbMText
 10
560.3431400218084
 20
349.9452732437214
 30
0.0
 40
1.5
 41
0.0
 71
     5
 72
     1
  1
\U+22056.3
 11
0.0000000000000001
 21
1.0
 31
0.0
 73
     1
 44
1.0
1001
ACAD
1000
MTEXTBEGIN
1070
    73
1070
     1
1070
    44
1040
1.0
1070
    74
1070
     0
1000
MTEXTEND
  0
POINT
  5
7744
330
773D
100
AcDbEntity
  8
Defpoints
  6
ByBlock
 62
     0
100
AcDbPoint
 10
565.2766067230166
 20
353.1202732437214
 30
0.0
  0
POINT
  5
7745
330
773D
100
AcDbEntity
  8
Defpoints
  6
ByBlock
 62
     0
100
AcDbPoint
 10
565.2766067230166
 20
346.7702732437214
 30
0.0
  0
POINT
  5
7746
330
773D
100
AcDbEntity
  8
Defpoints
  6
ByBlock
 62
     0
100
AcDbPoint
 10
562.0931400218085
 20
346.7702732437214
 30
0.0
  0
ENDBLK
  5
7748
330
773D
100
AcDbEntity
  8
0
100
AcDbBlockEnd
  0
BLOCK
  5
7755
330
7749
100
AcDbEntity
  8
0
100
AcDbBlockBegin
  2
*D6
 70
     1
 10
0.0
 20
0.0
 30
0.0
  3
*D6
  1

  0
LINE
  5
774A
330
7749
100
AcDbEntity
  8
0
  6
ByBlock
 62
     6
100
AcDbLine
 10
552.6966067230167
 20
356.2998120812389
 30
0.0
 11
552.6966067230167
 21
362.2472190643602
 31
0.0
  0
LINE
  5
774B
330
7749
100
AcDbEntity
  8
0
  6
ByBlock
 62
     6
100
AcDbLine
 10
551.8966067230167
 20
356.2998120812389
 30
0.0
 11
551.8966067230167
 21
362.2472190643602
 31
0.0
  0
LINE
  5
774C
330
7749
100
AcDbEntity
  8
0
  6
ByBlock
 62
     6
100
AcDbLine
 10
554.1966067230166
 20
361.7472190643602
 30
0.0
 11
555.6966067230168
 21
361.7472190643602
 31
0.0
  0
LINE
  5
774D
330
7749
100
AcDbEntity
  8
0
  6
ByBlock
 62
     6
100
AcDbLine
 10
550.3966067230167
 20
361.7472190643602
 30
0.0
 11
544.1466067230167
 21
361.7472190643602
 31
0.0
  0
LINE
  5
774E
330
7749
100
AcDbEntity
  8
0
  6
ByBlock
 62
     6
100
AcDbLine
 10
552.6966067230167
 20
361.7472190643602
 30
0.0
 11
551.8966067230167
 21
361.7472190643602
 31
0.0
  0
SOLID
  5
774F
330
7749
100
AcDbEntity
  8
0
  6
ByBlock
 62
     6
100
AcDbTrace
 10
554.1966067230166
 20
361.9972190643602
 30
0.0
 11
554.1966067230166
 21
361.4972190643602
 31
0.0
 12
552.6966067230167
 22
361.7472190643602
 32
0.0
 13
552.6966067230167
 23
361.7472190643602
 33
0.0
  0
SOLID
  5
7750
330
7749
100
AcDbEntity
  8
0
  6
ByBlock
 62
     6
100
AcDbTrace
 10
550.3966067230167
 20
361.9972190643602
 30
0.0
 11
550.3966067230167
 21
361.4972190643602
 31
0.0
 12
551.8966067230167
 22
361.7472190643602
 32
0.0
 13
551.8966067230167
 23
361.7472190643602
 33
0.0
  0
MTEXT
  5
7751
330
7749
100
AcDbEntity
  8
0
  6
ByBlock
 62
     3
100
AcDbMText
 10
546.5216067230167
 20
363.4972190643602
 30
0.0
 40
1.5
 41
0.0
 71
     5
 72
     1
  1
0.8
 73
     1
 44
1.0
1001
ACAD
1000
MTEXTBEGIN
1070
    73
1070
     1
1070
    44
1040
1.0
1070
    74
1070
     0
1000
MTEXTEND
  0
POINT
  5
7752
330
7749
100
AcDbEntity
  8
Defpoints
  6
ByBlock
 62
     0
100
AcDbPoint
 10
552.6966067230167
 20
355.7998120812389
 30
0.0
  0
POINT
  5
7753
330
7749
100
AcDbEntity
  8
Defpoints
  6
ByBlock
 62
     0
100
AcDbPoint
 10
551.8966067230167
 20
355.7998120812389
 30
0.0
  0
POINT
  5
7754
330
7749
100
AcDbEntity
  8
Defpoints
  6
ByBlock
 62
     0
100
AcDbPoint
 10
551.8966067230167
 20
361.7472190643602
 30
0.0
  0
ENDBLK
  5
7756
330
7749
100
AcDbEntity
  8
0
100
AcDbBlockEnd
  0
BLOCK
  5
7761
330
7757
100
AcDbEntity
  8
0
100
AcDbBlockBegin
  2
*D7
 70
     1
 10
0.0
 20
0.0
 30
0.0
  3
*D7
  1

  0
LINE
  5
7758
330
7757
100
AcDbEntity
  8
0
  6
ByBlock
 62
     6
100
AcDbLine
 10
572.8966067230166
 20
354.5452732437214
 30
0.0
 11
583.2882240135022
 21
354.5452732437214
 31
0.0
  0
LINE
  5
7759
330
7757
100
AcDbEntity
  8
0
  6
ByBlock
 62
     6
100
AcDbLine
 10
572.8966067230166
 20
345.3452732437215
 30
0.0
 11
583.2882240135022
 21
345.3452732437215
 31
0.0
  0
LINE
  5
775A
330
7757
100
AcDbEntity
  8
0
  6
ByBlock
 62
     6
100
AcDbLine
 10
582.7882240135022
 20
353.0452732437214
 30
0.0
 11
582.7882240135022
 21
346.8452732437214
 31
0.0
  0
SOLID
  5
775B
330
7757
100
AcDbEntity
  8
0
  6
ByBlock
 62
     6
100
AcDbTrace
 10
582.5382240135024
 20
353.0452732437214
 30
0.0
 11
583.0382240135024
 21
353.0452732437214
 31
0.0
 12
582.7882240135022
 22
354.5452732437214
 32
0.0
 13
582.7882240135022
 23
354.5452732437214
 33
0.0
  0
SOLID
  5
775C
330
7757
100
AcDbEntity
  8
0
  6
ByBlock
 62
     6
100
AcDbTrace
 10
582.5382240135024
 20
346.8452732437214
 30
0.0
 11
583.0382240135024
 21
346.8452732437214
 31
0.0
 12
582.7882240135022
 22
345.3452732437215
 32
0.0
 13
582.7882240135022
 23
345.3452732437215
 33
0.0
  0
MTEXT
  5
775D
102
{ACAD_XDICTIONARY
360
8EED
102
}
330
7757
100
AcDbEntity
  8
0
  6
ByBlock
 62
     3
100
AcDbMText
 10
581.0382240135022
 20
350.2674574786121
 30
0.0
 40
1.5
 41
0.0
 71
     5
 72
     1
  1
\U+22059.2
 11
0.0000000000000001
 21
1.0
 31
0.0
 73
     1
 44
1.0
1001
ACAD
1000
MTEXTBEGIN
1070
    73
1070
     1
1070
    44
1040
1.0
1070
    74
1070
     0
1000
MTEXTEND
  0
POINT
  5
775E
330
7757
100
AcDbEntity
  8
Defpoints
  6
ByBlock
 62
     0
100
AcDbPoint
 10
572.3966067230167
 20
354.5452732437214
 30
0.0
  0
POINT
  5
775F
330
7757
100
AcDbEntity
  8
Defpoints
  6
ByBlock
 62
     0
100
AcDbPoint
 10
572.3966067230167
 20
345.3452732437215
 30
0.0
  0
POINT
  5
7760
330
7757
100
AcDbEntity
  8
Defpoints
  6
ByBlock
 62
     0
100
AcDbPoint
 10
582.7882240135022
 20
345.3452732437215
 30
0.0
  0
ENDBLK
  5
7762
330
7757
100
AcDbEntity
  8
0
100
AcDbBlockEnd
  0
BLOCK
  5
776A
330
7763
100
AcDbEntity
  8
0
100
AcDbBlockBegin
  2
*D8
 70
     1
 10
0.0
 20
0.0
 30
0.0
  3
*D8
  1

  0
LINE
  5
7764
330
7763
100
AcDbEntity
  8
0
  6
ByBlock
 62
     6
100
AcDbLine
 10
550.9180927038982
 20
306.9724621967711
 30
0.0
 11
545.7183170348677
 21
302.9560917431677
 31
0.0
  0
LINE
  5
7765
330
7763
100
AcDbEntity
  8
0
  6
ByBlock
 62
     6
100
AcDbLine
 10
552.8966067230165
 20
308.5006906731948
 30
0.0
 11
552.1052011153691
 21
307.8893992826252
 31
0.0
  0
SOLID
  5
7766
330
7763
100
AcDbEntity
  8
0
  6
ByBlock
 62
     6
100
AcDbTrace
 10
550.7652698562558
 20
307.1703135986828
 30
0.0
 11
551.0709155515406
 21
306.7746107948591
 31
0.0
 12
552.1052011153691
 22
307.8893992826252
 32
0.0
 13
552.1052011153691
 23
307.8893992826252
 33
0.0
  0
MTEXT
  5
7767
330
7763
100
AcDbEntity
  8
0
  6
ByBlock
 62
     3
100
AcDbMText
 10
546.2313683166658
 20
305.5636343376895
 30
0.0
 40
1.5
 41
0.0
 71
     5
 72
     1
  1
R1
 11
0.791405607647345
 21
0.6112913905694542
 31
0.0
 73
     1
 44
1.0
1001
ACAD
1000
MTEXTBEGIN
1070
    73
1070
     1
1070
    44
1040
1.0
1070
    74
1070
     0
1000
MTEXTEND
  0
POINT
  5
7768
330
7763
100
AcDbEntity
  8
Defpoints
  6
ByBlock
 62
     0
100
AcDbPoint
 10
552.1052011153691
 20
307.8893992826252
 30
0.0
  0
POINT
  5
7769
330
7763
100
AcDbEntity
  8
Defpoints
  6
ByBlock
 62
     0
100
AcDbPoint
 10
552.8966067230165
 20
308.5006906731948
 30
0.0
  0
ENDBLK
  5
776B
330
7763
100
AcDbEntity
  8
0
100
AcDbBlockEnd
  0
BLOCK
  5
7778
330
776C
100
AcDbEntity
  8
0
100
AcDbBlockBegin
  2
*D9
 70
     1
 10
0.0
 20
0.0
 30
0.0
  3
*D9
  1

  0
LINE
  5
776D
330
776C
100
AcDbEntity
  8
0
  6
ByBlock
 62
     6
100
AcDbLine
 10
565.4766067230167
 20
320.786304531416
 30
0.0
 11
565.4766067230167
 21
328.3987542910547
 31
0.0
  0
LINE
  5
776E
330
776C
100
AcDbEntity
  8
0
  6
ByBlock
 62
     6
100
AcDbLine
 10
563.7766067230167
 20
320.7863045314161
 30
0.0
 11
563.7766067230167
 21
328.3987542910547
 31
0.0
  0
LINE
  5
776F
330
776C
100
AcDbEntity
  8
0
  6
ByBlock
 62
     6
100
AcDbLine
 10
566.9766067230169
 20
327.8987542910547
 30
0.0
 11
568.4766067230167
 21
327.8987542910547
 31
0.0
  0
LINE
  5
7770
330
776C
100
AcDbEntity
  8
0
  6
ByBlock
 62
     6
100
AcDbLine
 10
562.2766067230166
 20
327.8987542910547
 30
0.0
 11
560.7766067230167
 21
327.8987542910547
 31
0.0
  0
LINE
  5
7771
330
776C
100
AcDbEntity
  8
0
  6
ByBlock
 62
     6
100
AcDbLine
 10
565.4766067230167
 20
327.8987542910547
 30
0.0
 11
563.7766067230167
 21
327.8987542910547
 31
0.0
  0
SOLID
  5
7772
330
776C
100
AcDbEntity
  8
0
  6
ByBlock
 62
     6
100
AcDbTrace
 10
566.9766067230169
 20
328.1487542910547
 30
0.0
 11
566.9766067230169
 21
327.6487542910547
 31
0.0
 12
565.4766067230167
 22
327.8987542910547
 32
0.0
 13
565.4766067230167
 23
327.8987542910547
 33
0.0
  0
SOLID
  5
7773
330
776C
100
AcDbEntity
  8
0
  6
ByBlock
 62
     6
100
AcDbTrace
 10
562.2766067230166
 20
328.1487542910547
 30
0.0
 11
562.2766067230166
 21
327.6487542910547
 31
0.0
 12
563.7766067230167
 22
327.8987542910547
 32
0.0
 13
563.7766067230167
 23
327.8987542910547
 33
0.0
  0
MTEXT
  5
7774
330
776C
100
AcDbEntity
  8
0
  6
ByBlock
 62
     3
100
AcDbMText
 10
564.6266067230166
 20
329.6487542910547
 30
0.0
 40
1.5
 41
0.0
 71
     5
 72
     1
  1
1.7
 73
     1
 44
1.0
1001
ACAD
1000
MTEXTBEGIN
1070
    73
1070
     1
1070
    44
1040
1.0
1070
    74
1070
     0
1000
MTEXTEND
  0
POINT
  5
7775
330
776C
100
AcDbEntity
  8
Defpoints
  6
ByBlock
 62
     0
100
AcDbPoint
 10
565.4766067230167
 20
320.286304531416
 30
0.0
  0
POINT
  5
7776
330
776C
100
AcDbEntity
  8
Defpoints
  6
ByBlock
 62
     0
100
AcDbPoint
 10
563.7766067230167
 20
320.2863045314161
 30
0.0
  0
POINT
  5
7777
330
776C
100
AcDbEntity
  8
Defpoints
  6
ByBlock
 62
     0
100
AcDbPoint
 10
563.7766067230167
 20
327.8987542910547
 30
0.0
  0
ENDBLK
  5
7779
330
776C
100
AcDbEntity
  8
0
100
AcDbBlockEnd
  0
BLOCK
  5
7784
330
777A
100
AcDbEntity
  8
0
100
AcDbBlockBegin
  2
*D10
 70
     1
 10
0.0
 20
0.0
 30
0.0
  3
*D10
  1

  0
LINE
  5
777B
330
777A
100
AcDbEntity
  8
0
  6
ByBlock
 62
     6
100
AcDbLine
 10
551.8966067230167
 20
309.1461518356773
 30
0.0
 11
551.8966067230167
 21
296.2881542692914
 31
0.0
  0
LINE
  5
777C
330
777A
100
AcDbEntity
  8
0
  6
ByBlock
 62
     6
100
AcDbLine
 10
572.5966067230167
 20
309.5736749186571
 30
0.0
 11
572.5966067230167
 21
296.2881542692914
 31
0.0
  0
LINE
  5
777D
330
777A
100
AcDbEntity
  8
0
  6
ByBlock
 62
     6
100
AcDbLine
 10
553.3966067230168
 20
296.7881542692913
 30
0.0
 11
571.0966067230167
 21
296.7881542692913
 31
0.0
  0
SOLID
  5
777E
330
777A
100
AcDbEntity
  8
0
  6
ByBlock
 62
     6
100
AcDbTrace
 10
553.3966067230168
 20
297.0381542692913
 30
0.0
 11
553.3966067230168
 21
296.5381542692913
 31
0.0
 12
551.8966067230167
 22
296.7881542692913
 32
0.0
 13
551.8966067230167
 23
296.7881542692913
 33
0.0
  0
SOLID
  5
777F
330
777A
100
AcDbEntity
  8
0
  6
ByBlock
 62
     6
100
AcDbTrace
 10
571.0966067230167
 20
297.0381542692913
 30
0.0
 11
571.0966067230167
 21
296.5381542692913
 31
0.0
 12
572.5966067230167
 22
296.7881542692913
 32
0.0
 13
572.5966067230167
 23
296.7881542692913
 33
0.0
  0
MTEXT
  5
7780
330
777A
100
AcDbEntity
  8
0
  6
ByBlock
 62
     3
100
AcDbMText
 10
562.2466067230168
 20
298.5381542692914
 30
0.0
 40
1.5
 41
0.0
 71
     5
 72
     1
  1
20.7
 73
     1
 44
1.0
1001
ACAD
1000
MTEXTBEGIN
1070
    73
1070
     1
1070
    44
1040
1.0
1070
    74
1070
     0
1000
MTEXTEND
  0
POINT
  5
7781
330
777A
100
AcDbEntity
  8
Defpoints
  6
ByBlock
 62
     0
100
AcDbPoint
 10
551.8966067230167
 20
309.6461518356773
 30
0.0
  0
POINT
  5
7782
330
777A
100
AcDbEntity
  8
Defpoints
  6
ByBlock
 62
     0
100
AcDbPoint
 10
572.5966067230167
 20
310.073674918657
 30
0.0
  0
POINT
  5
7783
330
777A
100
AcDbEntity
  8
Defpoints
  6
ByBlock
 62
     0
100
AcDbPoint
 10
572.5966067230167
 20
296.7881542692913
 30
0.0
  0
ENDBLK
  5
7785
330
777A
100
AcDbEntity
  8
0
100
AcDbBlockEnd
  0
BLOCK
  5
7792
330
7786
100
AcDbEntity
  8
0
100
AcDbBlockBegin
  2
*D11
 70
     1
 10
0.0
 20
0.0
 30
0.0
  3
*D11
  1

  0
LINE
  5
7787
330
7786
100
AcDbEntity
  8
0
  6
ByBlock
 62
     6
100
AcDbLine
 10
567.9966067230167
 20
355.0452732437214
 30
0.0
 11
567.9966067230167
 21
362.5115925902414
 31
0.0
  0
LINE
  5
7788
330
7786
100
AcDbEntity
  8
0
  6
ByBlock
 62
     6
100
AcDbLine
 10
572.5966067230167
 20
355.8722889982592
 30
0.0
 11
572.5966067230167
 21
362.5115925902414
 31
0.0
  0
LINE
  5
7789
330
7786
100
AcDbEntity
  8
0
  6
ByBlock
 62
     6
100
AcDbLine
 10
566.4966067230166
 20
362.0115925902414
 30
0.0
 11
564.9966067230167
 21
362.0115925902414
 31
0.0
  0
LINE
  5
778A
330
7786
100
AcDbEntity
  8
0
  6
ByBlock
 62
     6
100
AcDbLine
 10
574.0966067230167
 20
362.0115925902414
 30
0.0
 11
575.5966067230168
 21
362.0115925902414
 31
0.0
  0
LINE
  5
778B
330
7786
100
AcDbEntity
  8
0
  6
ByBlock
 62
     6
100
AcDbLine
 10
567.9966067230167
 20
362.0115925902414
 30
0.0
 11
572.5966067230167
 21
362.0115925902414
 31
0.0
  0
SOLID
  5
778C
330
7786
100
AcDbEntity
  8
0
  6
ByBlock
 62
     6
100
AcDbTrace
 10
566.4966067230166
 20
362.2615925902414
 30
0.0
 11
566.4966067230166
 21
361.7615925902414
 31
0.0
 12
567.9966067230167
 22
362.0115925902414
 32
0.0
 13
567.9966067230167
 23
362.0115925902414
 33
0.0
  0
SOLID
  5
778D
330
7786
100
AcDbEntity
  8
0
  6
ByBlock
 62
     6
100
AcDbTrace
 10
574.0966067230167
 20
362.2615925902414
 30
0.0
 11
574.0966067230167
 21
361.7615925902414
 31
0.0
 12
572.5966067230167
 22
362.0115925902414
 32
0.0
 13
572.5966067230167
 23
362.0115925902414
 33
0.0
  0
MTEXT
  5
778E
330
7786
100
AcDbEntity
  8
0
  6
ByBlock
 62
     3
100
AcDbMText
 10
570.2966067230168
 20
363.7615925902414
 30
0.0
 40
1.5
 41
0.0
 71
     5
 72
     1
  1
4.6
 73
     1
 44
1.0
1001
ACAD
1000
MTEXTBEGIN
1070
    73
1070
     1
1070
    44
1040
1.0
1070
    74
1070
     0
1000
MTEXTEND
  0
POINT
  5
778F
330
7786
100
AcDbEntity
  8
Defpoints
  6
ByBlock
 62
     0
100
AcDbPoint
 10
567.9966067230167
 20
354.5452732437214
 30
0.0
  0
POINT
  5
7790
330
7786
100
AcDbEntity
  8
Defpoints
  6
ByBlock
 62
     0
100
AcDbPoint
 10
572.5966067230167
 20
355.3722889982591
 30
0.0
  0
POINT
  5
7791
330
7786
100
AcDbEntity
  8
Defpoints
  6
ByBlock
 62
     0
100
AcDbPoint
 10
572.5966067230167
 20
362.0115925902414
 30
0.0
  0
ENDBLK
  5
7793
330
7786
100
AcDbEntity
  8
0
100
AcDbBlockEnd
  0
BLOCK
  5
779E
330
7794
100
AcDbEntity
  8
0
100
AcDbBlockBegin
  2
*D12
 70
     1
 10
0.0
 20
0.0
 30
0.0
  3
*D12
  1

  0
LINE
  5
7795
330
7794
100
AcDbEntity
  8
0
  6
ByBlock
 62
     6
100
AcDbLine
 10
563.2766067230167
 20
310.7150768149734
 30
0.0
 11
560.9107113747104
 21
310.7150768149734
 31
0.0
  0
LINE
  5
7796
330
7794
100
AcDbEntity
  8
0
  6
ByBlock
 62
     6
100
AcDbLine
 10
563.2766067230167
 20
320.2863045314161
 30
0.0
 11
560.9107113747104
 21
320.2863045314161
 31
0.0
  0
LINE
  5
7797
330
7794
100
AcDbEntity
  8
0
  6
ByBlock
 62
     6
100
AcDbLine
 10
561.4107113747104
 20
312.2150768149734
 30
0.0
 11
561.4107113747104
 21
318.7863045314161
 31
0.0
  0
SOLID
  5
7798
330
7794
100
AcDbEntity
  8
0
  6
ByBlock
 62
     6
100
AcDbTrace
 10
561.1607113747104
 20
312.2150768149734
 30
0.0
 11
561.6607113747104
 21
312.2150768149734
 31
0.0
 12
561.4107113747104
 22
310.7150768149734
 32
0.0
 13
561.4107113747104
 23
310.7150768149734
 33
0.0
  0
SOLID
  5
7799
330
7794
100
AcDbEntity
  8
0
  6
ByBlock
 62
     6
100
AcDbTrace
 10
561.1607113747104
 20
318.7863045314161
 30
0.0
 11
561.6607113747104
 21
318.7863045314161
 31
0.0
 12
561.4107113747104
 22
320.2863045314161
 32
0.0
 13
561.4107113747104
 23
320.2863045314161
 33
0.0
  0
MTEXT
  5
779A
102
{ACAD_XDICTIONARY
360
8EEF
102
}
330
7794
100
AcDbEntity
  8
0
  6
ByBlock
 62
     3
100
AcDbMText
 10
559.6607113747104
 20
315.5006906731947
 30
0.0
 40
1.5
 41
0.0
 71
     5
 72
     1
  1
\U+22059.6
 11
0.0000000000000001
 21
1.0
 31
0.0
 73
     1
 44
1.0
1001
ACAD
1000
MTEXTBEGIN
1070
    73
1070
     1
1070
    44
1040
1.0
1070
    74
1070
     0
1000
MTEXTEND
  0
POINT
  5
779B
330
7794
100
AcDbEntity
  8
Defpoints
  6
ByBlock
 62
     0
100
AcDbPoint
 10
563.7766067230167
 20
310.7150768149734
 30
0.0
  0
POINT
  5
779C
330
7794
100
AcDbEntity
  8
Defpoints
  6
ByBlock
 62
     0
100
AcDbPoint
 10
563.7766067230167
 20
320.2863045314161
 30
0.0
  0
POINT
  5
779D
330
7794
100
AcDbEntity
  8
Defpoints
  6
ByBlock
 62
     0
100
AcDbPoint
 10
561.4107113747104
 20
320.2863045314161
 30
0.0
  0
ENDBLK
  5
779F
330
7794
100
AcDbEntity
  8
0
100
AcDbBlockEnd
  0
BLOCK
  5
77AC
330
77A0
100
AcDbEntity
  8
0
100
AcDbBlockBegin
  2
*D13
 70
     1
 10
0.0
 20
0.0
 30
0.0
  3
*D13
  1

  0
LINE
  5
77A1
330
77A0
100
AcDbEntity
  8
0
  6
ByBlock
 62
     6
100
AcDbLine
 10
551.8966067230167
 20
316.1592343123786
 30
0.0
 11
551.8966067230167
 21
322.7143772668246
 31
0.0
  0
LINE
  5
77A2
330
77A0
100
AcDbEntity
  8
0
  6
ByBlock
 62
     6
100
AcDbLine
 10
554.8966067230168
 20
304.4501566373437
 30
0.0
 11
554.8966067230168
 21
322.7143772668246
 31
0.0
  0
LINE
  5
77A3
330
77A0
100
AcDbEntity
  8
0
  6
ByBlock
 62
     6
100
AcDbLine
 10
550.3966067230168
 20
322.2143772668246
 30
0.0
 11
548.8966067230168
 21
322.2143772668246
 31
0.0
  0
LINE
  5
77A4
330
77A0
100
AcDbEntity
  8
0
  6
ByBlock
 62
     6
100
AcDbLine
 10
556.3966067230166
 20
322.2143772668246
 30
0.0
 11
557.8966067230168
 21
322.2143772668246
 31
0.0
  0
LINE
  5
77A5
330
77A0
100
AcDbEntity
  8
0
  6
ByBlock
 62
     6
100
AcDbLine
 10
551.8966067230167
 20
322.2143772668246
 30
0.0
 11
554.8966067230168
 21
322.2143772668246
 31
0.0
  0
SOLID
  5
77A6
330
77A0
100
AcDbEntity
  8
0
  6
ByBlock
 62
     6
100
AcDbTrace
 10
550.3966067230168
 20
322.4643772668246
 30
0.0
 11
550.3966067230168
 21
321.9643772668245
 31
0.0
 12
551.8966067230167
 22
322.2143772668246
 32
0.0
 13
551.8966067230167
 23
322.2143772668246
 33
0.0
  0
SOLID
  5
77A7
330
77A0
100
AcDbEntity
  8
0
  6
ByBlock
 62
     6
100
AcDbTrace
 10
556.3966067230166
 20
322.4643772668246
 30
0.0
 11
556.3966067230166
 21
321.9643772668245
 31
0.0
 12
554.8966067230168
 22
322.2143772668246
 32
0.0
 13
554.8966067230168
 23
322.2143772668246
 33
0.0
  0
MTEXT
  5
77A8
330
77A0
100
AcDbEntity
  8
0
  6
ByBlock
 62
     3
100
AcDbMText
 10
553.3966067230168
 20
323.9643772668245
 30
0.0
 40
1.5
 41
0.0
 71
     5
 72
     1
  1
3
 73
     1
 44
1.0
1001
ACAD
1000
MTEXTBEGIN
1070
    73
1070
     1
1070
    44
1040
1.0
1070
    74
1070
     0
1000
MTEXTEND
  0
POINT
  5
77A9
330
77A0
100
AcDbEntity
  8
Defpoints
  6
ByBlock
 62
     0
100
AcDbPoint
 10
551.8966067230167
 20
315.6592343123786
 30
0.0
  0
POINT
  5
77AA
330
77A0
100
AcDbEntity
  8
Defpoints
  6
ByBlock
 62
     0
100
AcDbPoint
 10
554.8966067230168
 20
303.9501566373437
 30
0.0
  0
POINT
  5
77AB
330
77A0
100
AcDbEntity
  8
Defpoints
  6
ByBlock
 62
     0
100
AcDbPoint
 10
554.8966067230168
 20
322.2143772668246
 30
0.0
  0
ENDBLK
  5
77AD
330
77A0
100
AcDbEntity
  8
0
100
AcDbBlockEnd
  0
BLOCK
  5
77B5
330
77AE
100
AcDbEntity
  8
0
100
AcDbBlockBegin
  2
*D14
 70
     1
 10
0.0
 20
0.0
 30
0.0
  3
*D14
  1

  0
LINE
  5
77AF
330
77AE
100
AcDbEntity
  8
0
  6
ByBlock
 62
     6
100
AcDbLine
 10
556.2200504330046
 20
319.1056833551618
 30
0.0
 11
558.6300761911068
 21
326.9378952570203
 31
0.0
  0
LINE
  5
77B0
330
77AE
100
AcDbEntity
  8
0
  6
ByBlock
 62
     6
100
AcDbLine
 10
554.8966067230162
 20
314.8046954748611
 30
0.0
 11
555.7789025296754
 21
317.6720207283949
 31
0.0
  0
SOLID
  5
77B1
330
77AE
100
AcDbEntity
  8
0
  6
ByBlock
 62
     6
100
AcDbTrace
 10
555.9811066618769
 20
319.1792080057167
 30
0.0
 11
556.4589942041326
 21
319.0321587046069
 31
0.0
 12
555.7789025296754
 22
317.6720207283949
 32
0.0
 13
555.7789025296754
 23
317.6720207283949
 33
0.0
  0
MTEXT
  5
77B2
330
77AE
100
AcDbEntity
  8
0
  6
ByBlock
 62
     3
100
AcDbMText
 10
556.2957479382181
 20
325.3020738707544
 30
0.0
 40
1.5
 41
0.0
 71
     5
 72
     1
  1
R3
 11
0.2940986022196279
 21
0.9557750845112364
 31
0.0
 73
     1
 44
1.0
1001
ACAD
1000
MTEXTBEGIN
1070
    73
1070
     1
1070
    44
1040
1.0
1070
    74
1070
     0
1000
MTEXTEND
  0
POINT
  5
77B3
330
77AE
100
AcDbEntity
  8
Defpoints
  6
ByBlock
 62
     0
100
AcDbPoint
 10
555.7789025296754
 20
317.6720207283949
 30
0.0
  0
POINT
  5
77B4
330
77AE
100
AcDbEntity
  8
Defpoints
  6
ByBlock
 62
     0
100
AcDbPoint
 10
554.8966067230162
 20
314.8046954748611
 30
0.0
  0
ENDBLK
  5
77B6
330
77AE
100
AcDbEntity
  8
0
100
AcDbBlockEnd
  0
BLOCK
  5
77C1
330
77B7
100
AcDbEntity
  8
0
100
AcDbBlockBegin
  2
*D15
 70
     1
 10
0.0
 20
0.0
 30
0.0
  3
*D15
  1

  0
LINE
  5
77B8
330
77B7
100
AcDbEntity
  8
0
  6
ByBlock
 62
     6
100
AcDbLine
 10
554.4966067230168
 20
307.0006906731947
 30
0.0
 11
554.4966067230168
 21
299.8315027365901
 31
0.0
  0
LINE
  5
77B9
330
77B7
100
AcDbEntity
  8
0
  6
ByBlock
 62
     6
100
AcDbLine
 10
569.4966067230167
 20
308.7506906731948
 30
0.0
 11
569.4966067230167
 21
299.8315027365901
 31
0.0
  0
LINE
  5
77BA
330
77B7
100
AcDbEntity
  8
0
  6
ByBlock
 62
     6
100
AcDbLine
 10
555.9966067230168
 20
300.3315027365901
 30
0.0
 11
567.9966067230167
 21
300.3315027365901
 31
0.0
  0
SOLID
  5
77BB
330
77B7
100
AcDbEntity
  8
0
  6
ByBlock
 62
     6
100
AcDbTrace
 10
555.9966067230168
 20
300.5815027365901
 30
0.0
 11
555.9966067230168
 21
300.0815027365901
 31
0.0
 12
554.4966067230168
 22
300.3315027365901
 32
0.0
 13
554.4966067230168
 23
300.3315027365901
 33
0.0
  0
SOLID
  5
77BC
330
77B7
100
AcDbEntity
  8
0
  6
ByBlock
 62
     6
100
AcDbTrace
 10
567.9966067230167
 20
300.5815027365901
 30
0.0
 11
567.9966067230167
 21
300.0815027365901
 31
0.0
 12
569.4966067230167
 22
300.3315027365901
 32
0.0
 13
569.4966067230167
 23
300.3315027365901
 33
0.0
  0
MTEXT
  5
77BD
330
77B7
100
AcDbEntity
  8
0
  6
ByBlock
 62
     3
100
AcDbMText
 10
561.9966067230168
 20
302.0815027365901
 30
0.0
 40
1.5
 41
0.0
 71
     5
 72
     1
  1
15
 73
     1
 44
1.0
1001
ACAD
1000
MTEXTBEGIN
1070
    73
1070
     1
1070
    44
1040
1.0
1070
    74
1070
     0
1000
MTEXTEND
  0
POINT
  5
77BE
330
77B7
100
AcDbEntity
  8
Defpoints
  6
ByBlock
 62
     0
100
AcDbPoint
 10
554.4966067230168
 20
307.5006906731947
 30
0.0
  0
POINT
  5
77BF
330
77B7
100
AcDbEntity
  8
Defpoints
  6
ByBlock
 62
     0
100
AcDbPoint
 10
569.4966067230167
 20
309.2506906731947
 30
0.0
  0
POINT
  5
77C0
330
77B7
100
AcDbEntity
  8
Defpoints
  6
ByBlock
 62
     0
100
AcDbPoint
 10
569.4966067230167
 20
300.3315027365901
 30
0.0
  0
ENDBLK
  5
77C2
330
77B7
100
AcDbEntity
  8
0
100
AcDbBlockEnd
  0
BLOCK
  5
77CD
330
77C3
100
AcDbEntity
  8
0
100
AcDbBlockBegin
  2
*D16
 70
     1
 10
0.0
 20
0.0
 30
0.0
  3
*D16
  1

  0
LINE
  5
77C4
330
77C3
100
AcDbEntity
  8
0
  6
ByBlock
 62
     6
100
AcDbLine
 10
565.4766067230167
 20
353.6202732437214
 30
0.0
 11
565.4766067230167
 21
365.6203995274168
 31
0.0
  0
LINE
  5
77C5
330
77C3
100
AcDbEntity
  8
0
  6
ByBlock
 62
     6
100
AcDbLine
 10
572.5966067230167
 20
353.6202732437214
 30
0.0
 11
572.5966067230167
 21
365.6203995274168
 31
0.0
  0
LINE
  5
77C6
330
77C3
100
AcDbEntity
  8
0
  6
ByBlock
 62
     6
100
AcDbLine
 10
566.9766067230167
 20
365.1203995274169
 30
0.0
 11
571.0966067230167
 21
365.1203995274169
 31
0.0
  0
SOLID
  5
77C7
330
77C3
100
AcDbEntity
  8
0
  6
ByBlock
 62
     6
100
AcDbTrace
 10
566.9766067230167
 20
365.3703995274169
 30
0.0
 11
566.9766067230167
 21
364.8703995274169
 31
0.0
 12
565.4766067230167
 22
365.1203995274169
 32
0.0
 13
565.4766067230167
 23
365.1203995274169
 33
0.0
  0
SOLID
  5
77C8
330
77C3
100
AcDbEntity
  8
0
  6
ByBlock
 62
     6
100
AcDbTrace
 10
571.0966067230167
 20
365.3703995274169
 30
0.0
 11
571.0966067230167
 21
364.8703995274169
 31
0.0
 12
572.5966067230167
 22
365.1203995274169
 32
0.0
 13
572.5966067230167
 23
365.1203995274169
 33
0.0
  0
MTEXT
  5
77C9
330
77C3
100
AcDbEntity
  8
0
  6
ByBlock
 62
     3
100
AcDbMText
 10
569.0366067230167
 20
366.8703995274169
 30
0.0
 40
1.5
 41
0.0
 71
     5
 72
     1
  1
7.1
 73
     1
 44
1.0
1001
ACAD
1000
MTEXTBEGIN
1070
    73
1070
     1
1070
    44
1040
1.0
1070
    74
1070
     0
1000
MTEXTEND
  0
POINT
  5
77CA
330
77C3
100
AcDbEntity
  8
Defpoints
  6
ByBlock
 62
     0
100
AcDbPoint
 10
565.4766067230167
 20
353.1202732437214
 30
0.0
  0
POINT
  5
77CB
330
77C3
100
AcDbEntity
  8
Defpoints
  6
ByBlock
 62
     0
100
AcDbPoint
 10
572.5966067230167
 20
353.1202732437214
 30
0.0
  0
POINT
  5
77CC
330
77C3
100
AcDbEntity
  8
Defpoints
  6
ByBlock
 62
     0
100
AcDbPoint
 10
572.5966067230167
 20
365.1203995274169
 30
0.0
  0
ENDBLK
  5
77CE
330
77C3
100
AcDbEntity
  8
0
100
AcDbBlockEnd
  0
BLOCK
  5
77D9
330
77CF
100
AcDbEntity
  8
0
100
AcDbBlockBegin
  2
*D17
 70
     1
 10
0.0
 20
0.0
 30
0.0
  3
*D17
  1

  0
LINE
  5
77D0
330
77CF
100
AcDbEntity
  8
0
  6
ByBlock
 62
     6
100
AcDbLine
 10
572.5966067230167
 20
316.0006906731947
 30
0.0
 11
572.5966067230167
 21
328.3987542910547
 31
0.0
  0
LINE
  5
77D1
330
77CF
100
AcDbEntity
  8
0
  6
ByBlock
 62
     6
100
AcDbLine
 10
565.4766067230167
 20
316.0006906731947
 30
0.0
 11
565.4766067230167
 21
328.3987542910547
 31
0.0
  0
LINE
  5
77D2
330
77CF
100
AcDbEntity
  8
0
  6
ByBlock
 62
     6
100
AcDbLine
 10
571.0966067230167
 20
327.8987542910547
 30
0.0
 11
566.9766067230169
 21
327.8987542910547
 31
0.0
  0
SOLID
  5
77D3
330
77CF
100
AcDbEntity
  8
0
  6
ByBlock
 62
     6
100
AcDbTrace
 10
571.0966067230167
 20
328.1487542910547
 30
0.0
 11
571.0966067230167
 21
327.6487542910547
 31
0.0
 12
572.5966067230167
 22
327.8987542910547
 32
0.0
 13
572.5966067230167
 23
327.8987542910547
 33
0.0
  0
SOLID
  5
77D4
330
77CF
100
AcDbEntity
  8
0
  6
ByBlock
 62
     6
100
AcDbTrace
 10
566.9766067230169
 20
328.1487542910547
 30
0.0
 11
566.9766067230169
 21
327.6487542910547
 31
0.0
 12
565.4766067230167
 22
327.8987542910547
 32
0.0
 13
565.4766067230167
 23
327.8987542910547
 33
0.0
  0
MTEXT
  5
77D5
330
77CF
100
AcDbEntity
  8
0
  6
ByBlock
 62
     3
100
AcDbMText
 10
569.0366067230167
 20
329.6487542910547
 30
0.0
 40
1.5
 41
0.0
 71
     5
 72
     1
  1
7.1
 73
     1
 44
1.0
1001
ACAD
1000
MTEXTBEGIN
1070
    73
1070
     1
1070
    44
1040
1.0
1070
    74
1070
     0
1000
MTEXTEND
  0
POINT
  5
77D6
330
77CF
100
AcDbEntity
  8
Defpoints
  6
ByBlock
 62
     0
100
AcDbPoint
 10
572.5966067230167
 20
315.5006906731947
 30
0.0
  0
POINT
  5
77D7
330
77CF
100
AcDbEntity
  8
Defpoints
  6
ByBlock
 62
     0
100
AcDbPoint
 10
565.4766067230167
 20
315.5006906731947
 30
0.0
  0
POINT
  5
77D8
330
77CF
100
AcDbEntity
  8
Defpoints
  6
ByBlock
 62
     0
100
AcDbPoint
 10
565.4766067230167
 20
327.8987542910547
 30
0.0
  0
ENDBLK
  5
77DA
330
77CF
100
AcDbEntity
  8
0
100
AcDbBlockEnd
  0
BLOCK
  5
77E5
330
77DB
100
AcDbEntity
  8
0
100
AcDbBlockBegin
  2
*D18
 70
     1
 10
0.0
 20
0.0
 30
0.0
  3
*D18
  1

  0
LINE
  5
77DC
330
77DB
100
AcDbEntity
  8
0
  6
ByBlock
 62
     6
100
AcDbLine
 10
551.3966067230168
 20
355.9304632991841
 30
0.0
 11
547.0634553674057
 21
355.9304632991841
 31
0.0
  0
LINE
  5
77DD
330
77DB
100
AcDbEntity
  8
0
  6
ByBlock
 62
     6
100
AcDbLine
 10
551.3966067230168
 20
343.9600831882589
 30
0.0
 11
547.0634553674057
 21
343.9600831882589
 31
0.0
  0
LINE
  5
77DE
330
77DB
100
AcDbEntity
  8
0
  6
ByBlock
 62
     6
100
AcDbLine
 10
547.5634553674057
 20
354.4304632991841
 30
0.0
 11
547.5634553674057
 21
345.4600831882589
 31
0.0
  0
SOLID
  5
77DF
330
77DB
100
AcDbEntity
  8
0
  6
ByBlock
 62
     6
100
AcDbTrace
 10
547.3134553674055
 20
354.4304632991841
 30
0.0
 11
547.8134553674057
 21
354.4304632991841
 31
0.0
 12
547.5634553674057
 22
355.9304632991841
 32
0.0
 13
547.5634553674057
 23
355.9304632991841
 33
0.0
  0
SOLID
  5
77E0
330
77DB
100
AcDbEntity
  8
0
  6
ByBlock
 62
     6
100
AcDbTrace
 10
547.3134553674055
 20
345.4600831882589
 30
0.0
 11
547.8134553674057
 21
345.4600831882589
 31
0.0
 12
547.5634553674057
 22
343.9600831882589
 32
0.0
 13
547.5634553674057
 23
343.9600831882589
 33
0.0
  0
MTEXT
  5
77E1
102
{ACAD_XDICTIONARY
360
8EF1
102
}
330
77DB
100
AcDbEntity
  8
0
  6
ByBlock
 62
     3
100
AcDbMText
 10
545.8134553674057
 20
349.9452732437214
 30
0.0
 40
1.5
 41
0.0
 71
     5
 72
     1
  1
\U+220512
 11
0.0000000000000001
 21
1.0
 31
0.0
 73
     1
 44
1.0
1001
ACAD
1000
MTEXTBEGIN
1070
    73
1070
     1
1070
    44
1040
1.0
1070
    74
1070
     0
1000
MTEXTEND
  0
POINT
  5
77E2
330
77DB
100
AcDbEntity
  8
Defpoints
  6
ByBlock
 62
     0
100
AcDbPoint
 10
551.8966067230167
 20
355.9304632991841
 30
0.0
  0
POINT
  5
77E3
330
77DB
100
AcDbEntity
  8
Defpoints
  6
ByBlock
 62
     0
100
AcDbPoint
 10
551.8966067230167
 20
343.9600831882589
 30
0.0
  0
POINT
  5
77E4
330
77DB
100
AcDbEntity
  8
Defpoints
  6
ByBlock
 62
     0
100
AcDbPoint
 10
547.5634553674057
 20
343.9600831882589
 30
0.0
  0
ENDBLK
  5
77E6
330
77DB
100
AcDbEntity
  8
0
100
AcDbBlockEnd
  0
BLOCK
  5
77EF
330
77E7
100
AcDbEntity
  8
0
100
AcDbBlockBegin
  2
*D19
 70
     1
 10
0.0
 20
0.0
 30
0.0
  3
*D19
  1

  0
LINE
  5
77E8
330
77E7
100
AcDbEntity
  8
0
  6
ByBlock
 62
     6
100
AcDbLine
 10
555.0855021114506
 20
354.658626850389
 30
0.0
 11
553.9077113345824
 21
345.2319196370549
 31
0.0
  0
LINE
  5
77E9
330
77E7
100
AcDbEntity
  8
0
  6
ByBlock
 62
     6
100
AcDbLine
 10
553.7217443698137
 20
343.7434921823179
 30
0.0
 11
551.7640261462458
 21
328.0744643191013
 31
0.0
  0
SOLID
  5
77EA
330
77E7
100
AcDbEntity
  8
0
  6
ByBlock
 62
     6
100
AcDbTrace
 10
554.8374308689943
 20
354.6896213445172
 30
0.0
 11
555.3335733539068
 21
354.6276323562609
 31
0.0
 12
555.2714690762193
 22
356.1470543051259
 32
0.0
 13
555.2714690762193
 23
356.1470543051259
 33
0.0
  0
SOLID
  5
77EB
330
77E7
100
AcDbEntity
  8
0
  6
ByBlock
 62
     6
100
AcDbTrace
 10
553.6596400921264
 20
345.2629141311831
 30
0.0
 11
554.1557825770386
 21
345.2009251429268
 31
0.0
 12
553.7217443698137
 22
343.7434921823179
 32
0.0
 13
553.7217443698137
 23
343.7434921823179
 33
0.0
  0
MTEXT
  5
77EC
102
{ACAD_XDICTIONARY
360
8EF3
102
}
330
77E7
100
AcDbEntity
  8
0
  6
ByBlock
 62
     3
100
AcDbMText
 10
550.5699310962945
 20
332.6326725209808
 30
0.0
 40
1.5
 41
0.0
 71
     5
 72
     1
  1
\U+220512.50
 11
0.1239779765124328
 21
0.9922849698246379
 31
0.0
 73
     1
 44
1.0
1001
ACAD
1000
MTEXTBEGIN
1070
    73
1070
     1
1070
    44
1040
1.0
1070
    74
1070
     0
1000
MTEXTEND
  0
POINT
  5
77ED
330
77E7
100
AcDbEntity
  8
Defpoints
  6
ByBlock
 62
     0
100
AcDbPoint
 10
553.7217443698137
 20
343.7434921823179
 30
0.0
  0
POINT
  5
77EE
330
77E7
100
AcDbEntity
  8
Defpoints
  6
ByBlock
 62
     0
100
AcDbPoint
 10
555.2714690762193
 20
356.1470543051259
 30
0.0
  0
ENDBLK
  5
77F0
330
77E7
100
AcDbEntity
  8
0
100
AcDbBlockEnd
  0
BLOCK
  5
7857
330
77F1
100
AcDbEntity
  8
0
100
AcDbBlockBegin
  2
A$C5E4C49E2
 70
     0
 10
0.0
 20
0.0
 30
0.0
  3
A$C5E4C49E2
  1

  0
DIMENSION
  5
77F2
330
77F1
100
AcDbEntity
  8
標註線
100
AcDbDimension
  2
*D15
 10
25.37413774098479
 20
4.043348470997499
 30
0.0
 11
17.87413774098491
 21
5.7933484709975
 31
0.0
 12
-544.1224689820318
 22
-296.2881542655926
 32
0.0
 71
     5
 42
-1.0
  3
ISO-25
100
AcDbAlignedDimension
 13
10.37413774098491
 23
11.21253640760216
 33
0.0
 14
25.37413774098479
 24
12.96253640760216
 34
0.0
100
AcDbRotatedDimension
1001
ACAD
1000
DSTYLE
1002
{
1070
    41
1040
1.5
1070
   140
1040
1.5
1002
}
  0
DIMENSION
  5
77F3
330
77F1
100
AcDbEntity
  8
標註線
100
AcDbDimension
  2
*D10
 10
28.47413774098482
 20
0.5000000036987445
 30
0.0
 11
18.12413774098491
 21
2.250000003698743
 31
0.0
 12
-544.1224689820318
 22
-296.2881542655926
 32
0.0
 71
     5
 42
-1.0
  3
ISO-25
100
AcDbAlignedDimension
 13
7.774137740984883
 23
13.3579975700847
 33
0.0
 14
28.47413774098482
 24
13.78552065306445
 34
0.0
100
AcDbRotatedDimension
1001
ACAD
1000
DSTYLE
1002
{
1070
    41
1040
1.5
1070
   140
1040
1.5
1002
}
  0
DIMENSION
  5
77F4
330
77F1
100
AcDbEntity
  8
標註線
100
AcDbDimension
  2
*D8
 10
8.774137740984656
 20
12.21253640760221
 30
0.0
 11
3.178659268130445
 21
7.890520258714047
 31
0.0
 12
-544.1224689820318
 22
-296.2881542655926
 32
0.0
 70
   132
 71
     5
 42
-1.0
  3
ISO-25
100
AcDbRadialDimension
 15
7.982732133337322
 25
11.60124501703257
 35
0.0
 40
0.0
1001
ACAD
1000
DSTYLE
1002
{
1070
    41
1040
1.5
1070
   140
1040
1.5
1002
}
  0
DIMENSION
  5
77F5
330
77F1
100
AcDbEntity
  8
標註線
100
AcDbDimension
  2
*D3
 10
28.47413774098482
 20
4.043348470997499
 30
0.0
 11
26.92413774098486
 21
4.043348470997499
 31
0.0
 12
-544.1224689820318
 22
-296.2881542655926
 32
0.0
 70
   128
 71
     5
 42
-1.0
  3
ISO-25
100
AcDbAlignedDimension
 13
25.37413774098479
 23
13.46253640760216
 33
0.0
 14
28.47413774098482
 24
14.28552065306445
 34
0.0
100
AcDbRotatedDimension
1001
ACAD
1000
DSTYLE
1002
{
1070
    41
1040
1.5
1070
   140
1040
1.5
1002
}
  0
HATCH
  5
77F6
330
77F1
100
AcDbEntity
  8
剖面線
100
AcDbHatch
 10
0.0
 20
0.0
 30
0.0
210
0.0
220
0.0
230
1.0
  2
ANSI31
 70
     0
 71
     1
 91
        6
 92
        7
 72
     1
 73
     1
 93
        6
 10
10.37413774098491
 20
67.35311417646244
 42
0.0
 10
8.774137740984883
 20
67.3531141764625
 42
0.4142135623731024
 10
7.774137740984883
 20
66.35311417646248
 42
0.0
 10
7.774137740984883
 20
65.33830423192501
 42
0.0
 10
8.574137740984838
 20
65.33830423192501
 42
-0.0731645564032819
 10
10.37413774098491
 20
65.60311417646312
 42
0.0
 97
        6
330
7856
330
77FB
330
7834
330
7839
330
7831
330
77FC
 92
        7
 72
     1
 73
     1
 93
       12
 10
12.97265925589681
 20
65.03731912848059
 42
0.0
 10
19.65413774098499
 20
62.52811417646245
 42
0.0
 10
21.35413774098504
 20
62.52811417646256
 42
0.0
 10
23.87413774098479
 20
63.9531141764624
 42
0.0
 10
25.37413774098479
 20
63.9531141764624
 42
0.0
 10
25.37413774098479
 20
65.60311417646244
 42
0.1764657840862497
 10
21.35413774098481
 20
64.13872803468371
 42
0.0
 10
19.65413774098488
 20
64.13872803468382
 42
0.0
 10
11.85521286966968
 20
67.1515559868525
 42
0.0924248478221698
 10
10.77413774098488
 20
67.35311417646238
 42
0.0
 10
10.37413774098491
 20
67.35311417646244
 42
0.0
 10
10.37413774098491
 20
65.60311417646312
 42
-0.1076080053105014
 97
       12
330
7855
330
7856
330
77FC
330
7831
330
7842
330
7844
330
7800
330
7854
330
7852
330
7801
330
7845
330
77F9
 92
        7
 72
     1
 73
     1
 93
        4
 10
28.47413774098482
 20
63.9531141764624
 42
0.0
 10
28.47413774098482
 20
64.7801299310002
 42
0.1304795188701214
 10
25.37413774098479
 20
65.6031141764625
 42
0.0
 10
25.37413774098468
 20
63.95311417646236
 42
0.0
 97
        4
330
7801
330
7852
330
7854
330
7851
 92
        7
 72
     1
 73
     1
 93
        4
 10
25.37413774098479
 20
54.75311417646246
 42
0.0
 10
25.37413774098479
 20
53.10311417646244
 42
0.1304795188701211
 10
28.47413774098482
 20
53.92609842192474
 42
0.0
 10
28.47413774098482
 20
54.75311417646246
 42
0.0
 97
        4
330
7853
330
7852
330
7803
330
7851
 92
        7
 72
     1
 73
     1
 93
       12
 10
21.35413774098493
 20
54.567500318241
 42
0.176465784086242
 10
25.37413774098479
 20
53.10311417646244
 42
0.0
 10
25.37413774098479
 20
54.75311417646254
 42
0.0
 10
23.87413774098468
 20
54.75311417646246
 42
0.0
 10
21.35413774098493
 20
56.17811417646243
 42
0.0
 10
19.65413774098499
 20
56.17811417646243
 42
0.0
 10
12.97265925589681
 20
53.66890922444429
 42
-0.1076080053105014
 10
10.37413774098491
 20
53.10311417646175
 42
0.0
 10
10.37413774098491
 20
51.35311417646244
 42
0.0
 10
10.77413774098488
 20
51.35311417646244
 42
0.0924248478221906
 10
11.85521286966991
 20
51.55467236607245
 42
0.0
 10
19.65413774098442
 20
54.56750031824106
 42
0.0
 97
       12
330
7840
330
783F
330
7830
330
77FC
330
782E
330
782D
330
782B
330
7841
330
7803
330
7852
330
7853
330
7802
 92
        7
 72
     1
 73
     1
 93
        6
 10
8.574137740984838
 20
53.36792412099987
 42
0.0
 10
7.774137740984883
 20
53.36792412099987
 42
0.0
 10
7.774137740984883
 20
52.35311417646244
 42
0.4142135623730951
 10
8.774137740984883
 20
51.35311417646244
 42
0.0
 10
10.37413774098491
 20
51.35311417646244
 42
0.0
 10
10.37413774098491
 20
53.10311417646175
 42
-0.0731645564032818
 97
        6
330
7830
330
7837
330
7838
330
782C
330
782E
330
77FC
 75
     0
 76
     1
 52
0.0
 41
1.0
 77
     0
 78
     1
 53
45.0
 43
-544.1224689820318
 44
-290.592159067259
 45
-2.245064030267287
 46
2.245064030267287
 79
     0
 47
0.1233665839746628
 98
        6
 10
9.950867289539587
 20
66.2247883756367
 10
12.17324691222745
 20
65.85468845789836
 10
26.61871159954751
 20
64.62102262465425
 10
27.23603914539854
 20
54.13486320984446
 10
21.43316009999285
 20
54.99842912535025
 10
8.963143330583875
 20
52.40773104330275
  0
DIMENSION
  5
77F7
330
77F1
100
AcDbEntity
  8
標註線
100
AcDbDimension
  2
*D16
 10
28.47413774098482
 20
74.5282404601579
 30
0.0
 11
24.91413774098487
 21
76.27824046015792
 31
0.0
 12
-544.1224689820318
 22
-290.592159067259
 32
0.0
 71
     5
 42
-1.0
  3
ISO-25
100
AcDbAlignedDimension
 13
21.35413774098481
 23
62.52811417646245
 33
0.0
 14
28.47413774098482
 24
62.52811417646245
 34
0.0
100
AcDbRotatedDimension
1001
ACAD
1000
DSTYLE
1002
{
1070
    41
1040
1.5
1070
   140
1040
1.5
1002
}
  0
LINE
  5
77F8
330
77F1
100
AcDbEntity
  8
標註線
100
AcDbLine
 10
8.574137740984838
 20
65.70765301397989
 30
0.0
 11
8.574137740984838
 21
71.90757163494929
 31
0.0
  0
LINE
  5
77F9
102
{ACAD_REACTORS
330
77F6
102
}
330
77F1
100
AcDbEntity
  8
本体外線
100
AcDbLine
 10
19.65413774098476
 20
64.13872803468376
 30
0.0
 11
11.85521286966968
 21
67.1515559868525
 31
0.0
  0
DIMENSION
  5
77FA
330
77F1
100
AcDbEntity
  8
標註線
100
AcDbDimension
  2
*D11
 10
28.47413774098482
 20
71.41943352298238
 30
0.0
 11
26.17413774098486
 21
71.41943352298238
 31
0.0
 12
-544.1224689820318
 22
-290.592159067259
 32
0.0
 70
   128
 71
     5
 42
-1.0
  3
ISO-25
100
AcDbAlignedDimension
 13
23.87413774098479
 23
63.9531141764624
 33
0.0
 14
28.47413774098482
 24
64.78012993100015
 34
0.0
100
AcDbRotatedDimension
1001
ACAD
1000
DSTYLE
1002
{
1070
    41
1040
1.5
1070
   140
1040
1.5
1002
}
  0
ARC
  5
77FB
102
{ACAD_REACTORS
330
77F6
102
}
330
77F1
100
AcDbEntity
  8
本体外線
100
AcDbCircle
 10
8.774137740984883
 20
66.35311417646248
 30
0.0
 40
1.0
100
AcDbArc
 50
89.99999999999856
 51
180.0
  0
LINE
  5
77FC
102
{ACAD_REACTORS
330
77F6
102
}
330
77F1
100
AcDbEntity
  8
中心線
 48
0.1
100
AcDbLine
 10
10.37413774098491
 20
67.35311417646244
 30
0.0
 11
10.37413774098491
 21
51.35311417646244
 31
0.0
  0
DIMENSION
  5
77FD
330
77F1
100
AcDbEntity
  8
標註線
100
AcDbDimension
  2
*D6
 10
7.77413774098477
 20
71.15505999710132
 30
0.0
 11
2.39913774098477
 21
71.15505999710132
 31
0.0
 12
-544.1224689820318
 22
-290.592159067259
 32
0.0
 70
   128
 71
     5
 42
-1.0
  3
ISO-25
100
AcDbAlignedDimension
 13
8.574137740984838
 23
65.2076530139799
 33
0.0
 14
7.77413774098477
 24
65.20765301397995
 34
0.0
100
AcDbRotatedDimension
1001
ACAD
1000
DSTYLE
1002
{
1070
    41
1040
1.5
1070
   140
1040
1.5
1002
}
  0
DIMENSION
  5
77FE
330
77F1
100
AcDbEntity
  8
標註線
100
AcDbDimension
  2
*D17
 10
21.35413774098493
 20
31.61060002546208
 30
0.0
 11
24.91413774098487
 21
33.36060002546208
 31
0.0
 12
-544.1224689820318
 22
-296.2881542655926
 32
0.0
 71
     5
 42
-1.0
  3
ISO-25
100
AcDbAlignedDimension
 13
28.47413774098482
 23
19.21253640760216
 33
0.0
 14
21.35413774098493
 24
19.21253640760216
 34
0.0
100
AcDbRotatedDimension
1001
ACAD
1000
DSTYLE
1002
{
1070
    41
1040
1.5
1070
   140
1040
1.5
1002
}
  0
LINE
  5
77FF
330
77F1
100
AcDbEntity
  8
中心線
 48
0.1
100
AcDbLine
 10
4.774137740985112
 20
59.35311417646244
 30
0.0
 11
31.47413774098505
 21
59.35311417646244
 31
0.0
  0
LINE
  5
7800
102
{ACAD_REACTORS
330
77F6
102
}
330
77F1
100
AcDbEntity
  8
本体外線
100
AcDbLine
 10
21.35413774098481
 20
62.52811417646245
 30
0.0
 11
23.87413774098479
 21
63.9531141764624
 31
0.0
  0
ARC
  5
7801
102
{ACAD_REACTORS
330
77F6
102
}
330
77F1
100
AcDbEntity
  8
本体外線
100
AcDbCircle
 10
25.37413774098479
 20
59.35311417646244
 30
0.0
 40
6.25
100
AcDbArc
 50
60.26428689244752
 51
130.0308514276097
  0
LINE
  5
7802
102
{ACAD_REACTORS
330
77F6
102
}
330
77F1
100
AcDbEntity
  8
本体外線
100
AcDbLine
 10
21.35413774098481
 20
56.17811417646243
 30
0.0
 11
23.87413774098479
 21
54.75311417646246
 31
0.0
  0
ARC
  5
7803
102
{ACAD_REACTORS
330
77F6
102
}
330
77F1
100
AcDbEntity
  8
本体外線
100
AcDbCircle
 10
25.37413774098479
 20
59.35311417646244
 30
0.0
 40
6.25
100
AcDbArc
 50
229.9691485723907
 51
299.7357131075527
  0
DIMENSION
  5
7804
330
77F1
100
AcDbEntity
  8
標註線
100
AcDbDimension
  2
*D9
 10
19.65413774098476
 20
31.61060002546208
 30
0.0
 11
20.50413774098479
 21
31.61060002546208
 31
0.0
 12
-544.1224689820318
 22
-296.2881542655926
 32
0.0
 70
   128
 71
     5
 42
-1.0
  3
ISO-25
100
AcDbAlignedDimension
 13
21.35413774098493
 23
23.99815026582343
 33
0.0
 14
19.65413774098476
 24
23.99815026582349
 34
0.0
100
AcDbRotatedDimension
1001
ACAD
1000
DSTYLE
1002
{
1070
    41
1040
1.5
1070
   140
1040
1.5
1002
}
  0
LINE
  5
7805
330
77F1
100
AcDbEntity
  8
本体\U+5185線
  6
ACAD_ISO03W100
 62
     3
 48
0.05
100
AcDbLine
 10
21.35413774098481
 20
22.38753640760217
 30
0.0
 11
23.87413774098479
 21
23.81253640760212
 31
0.0
  0
LINE
  5
7806
330
77F1
100
AcDbEntity
  8
本体\U+5185線
  6
ACAD_ISO03W100
 62
     3
 48
0.05
100
AcDbLine
 10
21.35413774098481
 20
16.03753640760215
 30
0.0
 11
23.87413774098479
 21
14.61253640760219
 31
0.0
  0
LINE
  5
7807
330
77F1
100
AcDbEntity
  8
中心線
 48
0.1
100
AcDbLine
 10
4.774137740984882
 20
19.21253640760216
 30
0.0
 11
31.47413774098481
 21
19.21253640760216
 31
0.0
  0
ARC
  5
7808
330
77F1
100
AcDbEntity
  8
本体外線
100
AcDbCircle
 10
25.37413774098479
 20
19.21253640760216
 30
0.0
 40
6.25
100
AcDbArc
 50
60.26428689244752
 51
130.0308514276097
  0
ARC
  5
7809
330
77F1
100
AcDbEntity
  8
本体外線
100
AcDbCircle
 10
25.37413774098479
 20
19.21253640760216
 30
0.0
 40
6.25
100
AcDbArc
 50
229.9691485723907
 51
299.7357131075527
  0
DIMENSION
  5
780A
330
77F1
100
AcDbEntity
  8
標註線
100
AcDbDimension
  2
*D2
 10
22.4781890167535
 20
13.67394624523911
 30
0.0
 11
32.83857131024865
 21
33.48849301844143
 31
0.0
 12
-544.1224689820318
 22
-290.592159067259
 32
0.0
 70
   131
  1
<>0
 71
     5
 42
-1.0
  3
ISO-25
100
AcDbDiametricDimension
 15
28.27008646521586
 25
24.75112656996555
 35
0.0
 40
0.0
1001
ACAD
1000
DSTYLE
1002
{
1070
    41
1040
1.5
1070
   140
1040
1.5
1002
}
  0
DIMENSION
  5
780B
330
77F1
100
AcDbEntity
  8
標註線
100
AcDbDimension
  2
*D19
 10
11.14900009418738
 20
65.55489523786696
 30
0.0
 11
8.183960811455674
 21
41.82355199482509
 31
0.0
 12
-544.1224689820318
 22
-290.592159067259
 32
0.0
 70
   131
  1
<>0
 71
     5
 42
-1.0
  3
ISO-25
100
AcDbDiametricDimension
 15
9.599275387781972
 25
53.15133311505896
 35
0.0
 40
0.0
1001
ACAD
1000
DSTYLE
1002
{
1070
    41
1040
1.5
1070
   140
1040
1.5
1002
}
  0
LINE
  5
780C
330
77F1
100
AcDbEntity
  8
本体\U+5185線
  6
ACAD_ISO03W100
 62
     3
 48
0.05
100
AcDbLine
 10
12.97265925589636
 20
24.89674135962031
 30
0.0
 11
19.65413774098488
 21
22.38753640760206
 31
0.0
  0
LINE
  5
780D
330
77F1
100
AcDbEntity
  8
本体\U+5185線
  6
ACAD_ISO03W100
 62
     3
 48
0.05
100
AcDbLine
 10
8.574137740984838
 20
25.19772646306456
 30
0.0
 11
8.574137740984838
 21
13.22734635214078
 31
0.0
  0
DIMENSION
  5
780E
330
77F1
100
AcDbEntity
  8
標註線
100
AcDbDimension
  2
*D13
 10
10.77413774098488
 20
31.62221819956557
 30
0.0
 11
9.274137740984883
 21
31.62221819956557
 31
0.0
 12
-544.1224689820318
 22
-290.592159067259
 32
0.0
 70
   128
 71
     5
 42
-1.0
  3
ISO-25
100
AcDbAlignedDimension
 13
7.774137740984883
 23
25.06707524511961
 33
0.0
 14
10.77413774098488
 24
13.3579975700847
 34
0.0
100
AcDbRotatedDimension
1001
ACAD
1000
DSTYLE
1002
{
1070
    41
1040
1.5
1070
   140
1040
1.5
1002
}
  0
DIMENSION
  5
780F
330
77F1
100
AcDbEntity
  8
標註線
100
AcDbDimension
  2
*D12
 10
17.28824239267851
 20
23.99815026582349
 30
0.0
 11
15.53824239267851
 21
19.21253640760216
 31
0.0
 12
-544.1224689820318
 22
-296.2881542655926
 32
0.0
  1
%%c9.6
 71
     5
 42
-1.0
  3
ISO-25
100
AcDbAlignedDimension
 13
19.65413774098488
 23
14.42692254938083
 33
0.0
 14
19.65413774098488
 24
23.99815026582349
 34
0.0
 50
90.0
100
AcDbRotatedDimension
1001
ACAD
1000
DSTYLE
1002
{
1070
    41
1040
1.5
1070
   140
1040
1.5
1002
}
  0
LINE
  5
7810
330
77F1
100
AcDbEntity
  8
本体外線
100
AcDbLine
 10
21.35413774098493
 20
23.99815026582343
 30
0.0
 11
21.35413774098493
 21
14.42692254938083
 31
0.0
  0
LINE
  5
7811
330
77F1
100
AcDbEntity
  8
本体外線
100
AcDbLine
 10
19.65413774098488
 20
23.99815026582349
 30
0.0
 11
19.65413774098488
 21
14.42692254938089
 31
0.0
  0
LINE
  5
7812
330
77F1
100
AcDbEntity
  8
本体外線
100
AcDbLine
 10
21.35413774098481
 20
23.99815026582343
 30
0.0
 11
21.35413774098481
 21
14.42692254938083
 31
0.0
  0
LINE
  5
7813
330
77F1
100
AcDbEntity
  8
本体外線
100
AcDbLine
 10
7.774137740984883
 20
26.21253640760222
 30
0.0
 11
7.774137740984883
 21
13.3579975700847
 31
0.0
  0
LINE
  5
7814
330
77F1
100
AcDbEntity
  8
中心線
 48
0.1
100
AcDbLine
 10
10.37413774098491
 20
27.21253640760216
 30
0.0
 11
10.37413774098491
 21
11.21253640760216
 31
0.0
  0
DIMENSION
  5
7815
330
77F1
100
AcDbEntity
  8
標註線
100
AcDbDimension
  2
*D4
 10
2.499999862083654
 20
11.21253640760216
 30
0.0
 11
0.749999862083655
 21
19.21253640760216
 31
0.0
 12
-544.1224689820318
 22
-296.2881542655926
 32
0.0
  1
%%c16
 71
     5
 42
-1.0
  3
ISO-25
100
AcDbAlignedDimension
 13
8.574137740984838
 23
27.21253640760216
 33
0.0
 14
8.574137740984838
 24
11.21253640760216
 34
0.0
 50
90.0
100
AcDbRotatedDimension
1001
ACAD
1000
DSTYLE
1002
{
1070
    41
1040
1.5
1070
   140
1040
1.5
1002
}
  0
ARC
  5
7816
330
77F1
100
AcDbEntity
  8
本体\U+5185線
  6
ACAD_ISO03W100
 62
     3
 48
0.05
100
AcDbCircle
 10
10.37413774098491
 20
19.2125364076013
 30
0.0
 40
6.25
100
AcDbArc
 50
253.2617432386218
 51
294.5674032897645
  0
ARC
  5
7817
330
77F1
100
AcDbEntity
  8
本体外線
100
AcDbCircle
 10
10.77413774098488
 20
14.2125364076021
 30
0.0
 40
3.0
100
AcDbArc
 50
270.0
 51
291.1222067612012
  0
LINE
  5
7818
330
77F1
100
AcDbEntity
  8
本体\U+5185線
  6
ACAD_ISO03W100
 62
     3
 48
0.05
100
AcDbLine
 10
8.574137740984838
 20
13.22734635213942
 30
0.0
 11
7.774137740984883
 21
13.22734635213942
 31
0.0
  0
ARC
  5
7819
330
77F1
100
AcDbEntity
  8
本体外線
100
AcDbCircle
 10
8.774137740984883
 20
12.21253640760216
 30
0.0
 40
1.0
100
AcDbArc
 50
180.0
 51
270.0
  0
LINE
  5
781A
330
77F1
100
AcDbEntity
  8
本体外線
100
AcDbLine
 10
8.774137740984883
 20
11.21253640760216
 30
0.0
 11
10.81224900031895
 21
11.21253640760216
 31
0.0
  0
LINE
  5
781B
330
77F1
100
AcDbEntity
  8
本体外線
100
AcDbLine
 10
7.774137740984883
 20
13.3579975700847
 30
0.0
 11
7.774137740984883
 21
12.21253640760216
 31
0.0
  0
LINE
  5
781C
330
77F1
100
AcDbEntity
  8
本体\U+5185線
  6
ACAD_ISO03W100
 62
     3
 48
0.05
100
AcDbLine
 10
12.97265925589636
 20
13.52833145558367
 30
0.0
 11
19.65413774098488
 21
16.03753640760192
 31
0.0
  0
LINE
  5
781D
330
77F1
100
AcDbEntity
  8
本体外線
100
AcDbLine
 10
19.65413774098488
 20
14.42692254938083
 30
0.0
 11
11.8552128696698
 21
11.41409459721211
 31
0.0
  0
POINT
  5
781E
330
77F1
100
AcDbEntity
  8
Defpoints
  6
ByBlock
 62
     0
100
AcDbPoint
 10
21.35413774098481
 20
14.92692254938077
 30
0.0
  0
LINE
  5
781F
330
77F1
100
AcDbEntity
  8
本体外線
100
AcDbLine
 10
21.35413774098493
 20
14.42692254938083
 30
0.0
 11
19.65413774098488
 21
14.42692254938078
 31
0.0
  0
LINE
  5
7820
330
77F1
100
AcDbEntity
  8
本体\U+5185線
  6
ACAD_ISO03W100
 62
     3
 48
0.05
100
AcDbLine
 10
19.65413774098499
 20
16.03753640760215
 30
0.0
 11
21.15413774098499
 21
16.03753640760215
 31
0.0
  0
LINE
  5
7821
330
77F1
100
AcDbEntity
  8
本体\U+5185線
  6
ACAD_ISO03W100
 62
     3
 48
0.05
100
AcDbLine
 10
19.65413774098488
 20
22.38753640760223
 30
0.0
 11
21.15413774098499
 21
22.38753640760223
 31
0.0
  0
ARC
  5
7822
330
77F1
100
AcDbEntity
  8
本体\U+5185線
  6
ACAD_ISO03W100
 62
     3
 48
0.05
100
AcDbCircle
 10
10.37413774098491
 20
19.21253640760267
 30
0.0
 40
6.25
100
AcDbArc
 50
65.43259671023548
 51
106.7382567613782
  0
DIMENSION
  5
7823
330
77F1
100
AcDbEntity
  8
標註線
100
AcDbDimension
  2
*D14
 10
10.77413774098431
 20
24.2125364076021
 30
0.0
 11
13.84588535408079
 21
34.19524224961106
 31
0.0
 12
-544.1224689820318
 22
-290.592159067259
 32
0.0
 70
   132
 71
     5
 42
-1.0
  3
ISO-25
100
AcDbRadialDimension
 15
11.65643354764347
 25
27.07986166113585
 35
0.0
 40
0.0
1001
ACAD
1000
DSTYLE
1002
{
1070
    41
1040
1.5
1070
   140
1040
1.5
1002
}
  0
ARC
  5
7824
330
77F1
100
AcDbEntity
  8
本体外線
100
AcDbCircle
 10
10.77413774098488
 20
24.21253640760222
 30
0.0
 40
3.0
100
AcDbArc
 50
68.87779323879893
 51
90.0
  0
POINT
  5
7825
330
77F1
100
AcDbEntity
  8
Defpoints
  6
ByBlock
 62
     0
100
AcDbPoint
 10
8.574137740984838
 20
25.06707524511945
 30
0.0
  0
LINE
  5
7826
330
77F1
100
AcDbEntity
  8
本体\U+5185線
  6
ACAD_ISO03W100
 62
     3
 48
0.05
100
AcDbLine
 10
8.574137740984838
 20
25.19772646306456
 30
0.0
 11
7.774137740984883
 21
25.19772646306456
 31
0.0
  0
ARC
  5
7827
330
77F1
100
AcDbEntity
  8
本体外線
100
AcDbCircle
 10
8.774137740984883
 20
26.21253640760222
 30
0.0
 40
1.0
100
AcDbArc
 50
89.99999999999856
 51
180.0
  0
LINE
  5
7828
330
77F1
100
AcDbEntity
  8
本体外線
100
AcDbLine
 10
8.774137740984883
 20
27.21253640760222
 30
0.0
 11
10.77413774098488
 21
27.21253640760222
 31
0.0
  0
LINE
  5
7829
330
77F1
100
AcDbEntity
  8
本体外線
100
AcDbLine
 10
19.65413774098488
 20
23.99815026582349
 30
0.0
 11
11.8552128696698
 21
27.0109782179922
 31
0.0
  0
LINE
  5
782A
330
77F1
100
AcDbEntity
  8
本体外線
100
AcDbLine
 10
21.35413774098493
 20
23.99815026582343
 30
0.0
 11
19.65413774098476
 21
23.99815026582349
 31
0.0
  0
LINE
  5
782B
102
{ACAD_REACTORS
330
77F6
102
}
330
77F1
100
AcDbEntity
  8
本体外線
100
AcDbLine
 10
19.65413774098476
 20
54.5675003182411
 30
0.0
 11
11.85521286966968
 21
51.5546723660724
 31
0.0
  0
ARC
  5
782C
102
{ACAD_REACTORS
330
77F6
102
}
330
77F1
100
AcDbEntity
  8
本体外線
100
AcDbCircle
 10
8.774137740984883
 20
52.35311417646244
 30
0.0
 40
1.0
100
AcDbArc
 50
180.0
 51
270.0
  0
ARC
  5
782D
102
{ACAD_REACTORS
330
77F6
102
}
330
77F1
100
AcDbEntity
  8
本体外線
100
AcDbCircle
 10
10.77413774098477
 20
54.35311417646238
 30
0.0
 40
3.0
100
AcDbArc
 50
270.0
 51
291.1222067612012
  0
LINE
  5
782E
102
{ACAD_REACTORS
330
77F6
102
}
330
77F1
100
AcDbEntity
  8
本体外線
100
AcDbLine
 10
8.774137740984883
 20
51.35311417646244
 30
0.0
 11
10.81224900031895
 21
51.35311417646244
 31
0.0
  0
MTEXT
  5
782F
330
77F1
100
AcDbEntity
  8
公差
100
AcDbMText
 10
6.795187682015465
 20
46.58244621588846
 30
0.0
 40
1.0
 41
0.0
 71
     5
 72
     1
  1
  -0.2\P   -0.25
 11
0.12288224867933
 21
0.9924212578131886
 31
0.0
 73
     1
 44
1.0
1001
ACAD
1000
MTEXTBEGIN
1070
    73
1070
     1
1070
    44
1040
1.0
1070
    74
1070
     0
1000
MTEXTEND
  0
ARC
  5
7830
102
{ACAD_REACTORS
330
77F6
102
}
330
77F1
100
AcDbEntity
  8
本体外線
100
AcDbCircle
 10
10.37413774098491
 20
59.35311417646175
 30
0.0
 40
6.25
100
AcDbArc
 50
253.2617432386218
 51
294.5674032897645
  0
ARC
  5
7831
102
{ACAD_REACTORS
330
77F6
102
}
330
77F1
100
AcDbEntity
  8
本体外線
100
AcDbCircle
 10
10.37413774098491
 20
59.35311417646311
 30
0.0
 40
6.25
100
AcDbArc
 50
65.43259671023548
 51
106.7382567613782
  0
DIMENSION
  5
7832
330
77F1
100
AcDbEntity
  8
標註線
100
AcDbDimension
  2
*D18
 10
3.440986385373776
 20
53.36792412099987
 30
0.0
 11
1.690986385373775
 21
59.35311417646244
 31
0.0
 12
-544.1224689820318
 22
-290.592159067259
 32
0.0
  1
%%c<>
 71
     5
 42
-1.0
  3
ISO-25
100
AcDbAlignedDimension
 13
7.774137740984883
 23
65.33830423192501
 33
0.0
 14
7.774137740984883
 24
53.36792412099987
 34
0.0
 50
90.0
100
AcDbRotatedDimension
1001
ACAD
1000
DSTYLE
1002
{
1070
    41
1040
1.5
1070
   140
1040
1.5
1002
}
  0
LINE
  5
7833
330
77F1
100
AcDbEntity
  8
本体外線
100
AcDbLine
 10
8.574137740984838
 20
65.33830423192501
 30
0.0
 11
8.574137740984838
 21
53.36792412100122
 31
0.0
  0
LINE
  5
7834
102
{ACAD_REACTORS
330
77F6
102
}
330
77F1
100
AcDbEntity
  8
本体外線
100
AcDbLine
 10
7.774137740984883
 20
66.35311417646248
 30
0.0
 11
7.774137740984883
 21
53.49857533894499
 31
0.0
  0
LINE
  5
7835
330
77F1
100
AcDbEntity
  8
本体外線
100
AcDbLine
 10
7.774137740984883
 20
65.2076530139799
 30
0.0
 11
7.774137740984883
 21
53.49857533894499
 31
0.0
  0
POINT
  5
7836
330
77F1
100
AcDbEntity
  8
Defpoints
  6
ByBlock
 62
     0
100
AcDbPoint
 10
8.574137740984838
 20
53.49857533894499
 30
0.0
  0
LINE
  5
7837
102
{ACAD_REACTORS
330
77F6
102
}
330
77F1
100
AcDbEntity
  8
本体外線
100
AcDbLine
 10
8.574137740984838
 20
53.36792412099987
 30
0.0
 11
7.774137740984883
 21
53.36792412099987
 31
0.0
  0
LINE
  5
7838
102
{ACAD_REACTORS
330
77F6
102
}
330
77F1
100
AcDbEntity
  8
本体外線
100
AcDbLine
 10
7.774137740984883
 20
53.49857533894499
 30
0.0
 11
7.774137740984883
 21
52.35311417646244
 31
0.0
  0
LINE
  5
7839
102
{ACAD_REACTORS
330
77F6
102
}
330
77F1
100
AcDbEntity
  8
本体外線
100
AcDbLine
 10
8.574137740984838
 20
65.33830423192501
 30
0.0
 11
7.774137740984883
 21
65.33830423192501
 31
0.0
  0
POINT
  5
783A
330
77F1
100
AcDbEntity
  8
Defpoints
  6
ByBlock
 62
     0
100
AcDbPoint
 10
8.574137740984838
 20
65.2076530139799
 30
0.0
  0
LINE
  5
783B
330
77F1
100
AcDbEntity
  8
本体外線
100
AcDbLine
 10
19.65413774098488
 20
62.52811417646251
 30
0.0
 11
19.65413774098488
 21
56.17811417646243
 31
0.0
  0
LINE
  5
783C
330
77F1
100
AcDbEntity
  8
本体外線
100
AcDbLine
 10
21.35413774098493
 20
62.52811417646251
 30
0.0
 11
21.35413774098493
 21
56.17811417646237
 31
0.0
  0
LINE
  5
783D
330
77F1
100
AcDbEntity
  8
本体外線
100
AcDbLine
 10
21.35413774098481
 20
62.52811417646245
 30
0.0
 11
21.3541377409847
 21
56.17811417646243
 31
0.0
  0
DIMENSION
  5
783E
330
77F1
100
AcDbEntity
  8
標註線
100
AcDbDimension
  2
*D5
 10
17.97067103977667
 20
56.17811417646243
 30
0.0
 11
17.97067103977667
 21
59.35311417646244
 31
0.0
 12
-544.1224689820318
 22
-290.592159067259
 32
0.0
 70
   128
  1
%%c6.3
 71
     5
 42
-1.0
  3
ISO-25
100
AcDbAlignedDimension
 13
21.15413774098488
 23
62.52811417646245
 33
0.0
 14
21.15413774098488
 24
56.17811417646243
 34
0.0
 50
90.0
100
AcDbRotatedDimension
1001
ACAD
1000
DSTYLE
1002
{
1070
    41
1040
1.5
1070
   140
1040
1.5
1002
}
  0
LINE
  5
783F
102
{ACAD_REACTORS
330
77F6
102
}
330
77F1
100
AcDbEntity
  8
本体外線
100
AcDbLine
 10
12.97265925589636
 20
53.66890922444412
 30
0.0
 11
19.65413774098488
 21
56.17811417646237
 31
0.0
  0
LINE
  5
7840
102
{ACAD_REACTORS
330
77F6
102
}
330
77F1
100
AcDbEntity
  8
本体外線
100
AcDbLine
 10
19.65413774098499
 20
56.17811417646243
 30
0.0
 11
21.35413774098493
 21
56.17811417646243
 31
0.0
  0
LINE
  5
7841
102
{ACAD_REACTORS
330
77F6
102
}
330
77F1
100
AcDbEntity
  8
本体外線
100
AcDbLine
 10
21.35413774098493
 20
54.5675003182411
 30
0.0
 11
19.65413774098488
 21
54.56750031824106
 31
0.0
  0
LINE
  5
7842
102
{ACAD_REACTORS
330
77F6
102
}
330
77F1
100
AcDbEntity
  8
本体外線
100
AcDbLine
 10
12.97265925589636
 20
65.03731912848076
 30
0.0
 11
19.65413774098488
 21
62.52811417646251
 31
0.0
  0
POINT
  5
7843
330
77F1
100
AcDbEntity
  8
Defpoints
  6
ByBlock
 62
     0
100
AcDbPoint
 10
12.53413774098283
 20
65.08460830974747
 30
0.0
  0
LINE
  5
7844
102
{ACAD_REACTORS
330
77F6
102
}
330
77F1
100
AcDbEntity
  8
本体外線
100
AcDbLine
 10
19.65413774098488
 20
62.52811417646251
 30
0.0
 11
21.35413774098493
 21
62.52811417646256
 31
0.0
  0
LINE
  5
7845
102
{ACAD_REACTORS
330
77F6
102
}
330
77F1
100
AcDbEntity
  8
本体外線
100
AcDbLine
 10
21.35413774098493
 20
64.13872803468371
 30
0.0
 11
19.65413774098476
 21
64.13872803468376
 31
0.0
  0
LINE
  5
7846
330
77F1
100
AcDbEntity
  8
本体\U+5185線
  6
ACAD_ISO03W100
 62
     3
 48
0.05
100
AcDbLine
 10
28.47413774098482
 20
23.81253640760218
 30
0.0
 11
28.47413774098482
 21
14.61253640760213
 31
0.0
  0
LINE
  5
7847
330
77F1
100
AcDbEntity
  8
本体外線
100
AcDbLine
 10
28.47413774098482
 20
24.63955216213987
 30
0.0
 11
28.47413774098482
 21
13.78552065306445
 31
0.0
  0
LINE
  5
7848
330
77F1
100
AcDbEntity
  8
本体\U+5185線
  6
ACAD_ISO03W100
 62
     3
 48
0.05
100
AcDbLine
 10
23.87413774098479
 20
23.81253640760212
 30
0.0
 11
23.87413774098479
 21
14.61253640760225
 31
0.0
  0
LINE
  5
7849
330
77F1
100
AcDbEntity
  8
中心線
 48
0.1
100
AcDbLine
 10
25.37413774098479
 20
25.46253640760216
 30
0.0
 11
25.37413774098479
 21
12.96253640760216
 31
0.0
  0
POINT
  5
784A
330
77F1
100
AcDbEntity
  8
Defpoints
  6
ByBlock
 62
     0
100
AcDbPoint
 10
25.37413774098479
 20
13.46253640760216
 30
0.0
  0
LINE
  5
784B
330
77F1
100
AcDbEntity
  8
本体\U+5185線
  6
ACAD_ISO03W100
 62
     3
 48
0.05
100
AcDbLine
 10
23.87413774098479
 20
14.61253640760219
 30
0.0
 11
28.47413774098482
 21
14.61253640760213
 31
0.0
  0
LINE
  5
784C
330
77F1
100
AcDbEntity
  8
本体\U+5185線
  6
ACAD_ISO03W100
 62
     3
 48
0.05
100
AcDbLine
 10
23.87413774098479
 20
23.81253640760212
 30
0.0
 11
28.47413774098482
 21
23.81253640760218
 31
0.0
  0
MTEXT
  5
784D
330
77F1
100
AcDbEntity
  8
公差
100
AcDbMText
 10
33.95677755278859
 20
38.9091896716418
 30
0.0
 40
1.0
 41
0.0
 71
     5
 72
     1
  1
  +0.05\P-0
 11
0.469471562785891
 21
0.8829475928589268
 31
0.0
 73
     1
 44
1.0
1001
ACAD
1000
MTEXTBEGIN
1070
    73
1070
     1
1070
    44
1040
1.0
1070
    74
1070
     0
1000
MTEXTEND
  0
DIMENSION
  5
784E
330
77F1
100
AcDbEntity
  8
標註線
100
AcDbDimension
  2
*D7
 10
38.66575503147044
 20
54.75311417646246
 30
0.0
 11
38.66575503147044
 21
59.67529841135314
 31
0.0
 12
-544.1224689820318
 22
-290.592159067259
 32
0.0
 70
   128
  1
%%c9.2
 71
     5
 42
-1.0
  3
ISO-25
100
AcDbAlignedDimension
 13
28.27413774098477
 23
63.9531141764624
 33
0.0
 14
28.27413774098477
 24
54.75311417646246
 34
0.0
 50
90.0
100
AcDbRotatedDimension
1001
ACAD
1000
DSTYLE
1002
{
1070
    41
1040
1.5
1070
   140
1040
1.5
1002
}
  0
LINE
  5
784F
330
77F1
100
AcDbEntity
  8
本体外線
100
AcDbLine
 10
23.87413774098479
 20
63.9531141764624
 30
0.0
 11
23.87413774098479
 21
54.75311417646254
 31
0.0
  0
LINE
  5
7850
330
77F1
100
AcDbEntity
  8
本体\U+5185線
  6
ACAD_ISO03W100
 62
     3
 48
0.05
100
AcDbLine
 10
28.47413774098482
 20
63.95311417646245
 30
0.0
 11
28.47413774098482
 21
54.75311417646242
 31
0.0
  0
LINE
  5
7851
102
{ACAD_REACTORS
330
77F6
102
}
330
77F1
100
AcDbEntity
  8
本体外線
100
AcDbLine
 10
28.47413774098482
 20
64.78012993100015
 30
0.0
 11
28.47413774098482
 21
53.92609842192474
 31
0.0
  0
LINE
  5
7852
102
{ACAD_REACTORS
330
77F6
102
}
330
77F1
100
AcDbEntity
  8
中心線
 48
0.1
100
AcDbLine
 10
25.37413774098479
 20
65.60311417646244
 30
0.0
 11
25.37413774098479
 21
53.10311417646244
 31
0.0
  0
LINE
  5
7853
102
{ACAD_REACTORS
330
77F6
102
}
330
77F1
100
AcDbEntity
  8
本体外線
100
AcDbLine
 10
23.87413774098479
 20
54.75311417646246
 30
0.0
 11
28.47413774098482
 21
54.75311417646242
 31
0.0
  0
LINE
  5
7854
102
{ACAD_REACTORS
330
77F6
102
}
330
77F1
100
AcDbEntity
  8
本体外線
100
AcDbLine
 10
23.87413774098479
 20
63.9531141764624
 30
0.0
 11
28.47413774098482
 21
63.95311417646245
 31
0.0
  0
ARC
  5
7855
102
{ACAD_REACTORS
330
77F6
102
}
330
77F1
100
AcDbEntity
  8
本体外線
100
AcDbCircle
 10
10.77413774098477
 20
64.3531141764625
 30
0.0
 40
3.0
100
AcDbArc
 50
68.87779323879893
 51
90.0
  0
LINE
  5
7856
102
{ACAD_REACTORS
330
77F6
102
}
330
77F1
100
AcDbEntity
  8
本体外線
100
AcDbLine
 10
8.774137740984883
 20
67.3531141764625
 30
0.0
 11
10.81224900031895
 21
67.35311417646238
 31
0.0
  0
ENDBLK
  5
7858
330
77F1
100
AcDbEntity
  8
0
100
AcDbBlockEnd
  0
BLOCK
  5
7EA2
330
7E9D
100
AcDbEntity
  8
0
100
AcDbBlockBegin
  2
A$C6F967C31
 70
     0
 10
0.0
 20
0.0
 30
0.0
  3
A$C6F967C31
  1

  0
MTEXT
  5
7E9E
102
{ACAD_XDICTIONARY
360
8EF5
102
}
330
7E9D
100
AcDbEntity
  8
文字
 48
2.0
370
    25
100
AcDbMText
 10
3.919999884809612
 20
11.6436088990161
 30
0.0
 40
2.399999999999999
 41
0.0
 71
     5
 72
     1
  1
\Ftxt.shx,bigfont.shx|c128;\M+194F5\M+19290\M+18146
 73
     1
 44
1.0
1001
ACAD
1000
MTEXTBEGIN
1070
    73
1070
     1
1070
    44
1040
1.0
1070
    74
1070
     0
1000
MTEXTEND
  0
MTEXT
  5
7E9F
102
{ACAD_XDICTIONARY
360
8EF7
102
}
330
7E9D
100
AcDbEntity
  8
文字
 48
2.0
370
    25
100
AcDbMText
 10
21.30557514179372
 20
4.379705686228476
 30
0.0
 40
1.5
 41
0.0
 71
     5
 72
     1
  1
\Ftxt.shx,bigfont.shx|c128;\M+193E0\M+18A4F\M+18B85\M+18C61\M+188CA\M+19275\M+1907B\M+191C5\M+18CF51000\M+18194\M+188C8\M+18FE3\P 
 73
     1
 44
1.0
1001
ACAD
1000
MTEXTBEGIN
1070
    73
1070
     1
1070
    44
1040
1.0
1070
    74
1070
     0
1000
MTEXTEND
  0
MTEXT
  5
7EA0
102
{ACAD_XDICTIONARY
360
8EF9
102
}
330
7E9D
100
AcDbEntity
  8
文字
 48
2.0
370
    25
100
AcDbMText
 10
21.70841934060832
 20
1.864393567751504
 30
0.0
 40
1.5
 41
0.0
 71
     5
 72
     1
  1
\Ftxt.shx,bigfont.shx|c128;\M+1907D\M+196CA\M+18B9F\M+18E51\M+18D6C\M+188C82KG\M+19085\M+188B3\M+19573\M+19085\M+19852\M+188D7\M+18F80\P 
 73
     1
 44
1.0
1001
ACAD
1000
MTEXTBEGIN
1070
    73
1070
     1
1070
    44
1040
1.0
1070
    74
1070
     0
1000
MTEXTEND
  0
MTEXT
  5
7EA1
102
{ACAD_XDICTIONARY
360
8EFB
102
}
330
7E9D
100
AcDbEntity
  8
文字
 48
2.0
370
    25
100
AcDbMText
 10
19.34171117077972
 20
-0.4999998842221772
 30
0.0
 40
1.5
 41
0.0
 71
     5
 72
     1
  1
\Ftxt.shx,bigfont.shx|c128;\M+193E0\M+18A4F\M+18B85\M+18C61\M+1905E\M+1897E\M+193785/100\M+188C8\M+193E0\P 
 73
     1
 44
1.0
1001
ACAD
1000
MTEXTBEGIN
1070
    73
1070
     1
1070
    44
1040
1.0
1070
    74
1070
     0
1000
MTEXTEND
  0
ENDBLK
  5
7EA3
330
7E9D
100
AcDbEntity
  8
0
100
AcDbBlockEnd
  0
BLOCK
  5
7EB2
330
7EB0
100
AcDbEntity
  8
0
100
AcDbBlockBegin
  2
A$C3E173C42
 70
     0
 10
0.0
 20
0.0
 30
0.0
  3
A$C3E173C42
  1

  0
MTEXT
  5
7EB1
102
{ACAD_XDICTIONARY
360
8EFD
102
}
330
7EB0
100
AcDbEntity
  8
文字
 62
     7
 48
2.0
370
    25
100
AcDbMText
 10
1.800000626176596
 20
0.7499993151610626
 30
0.0
 40
1.5
 41
7.075035
 71
     5
 72
     1
  1
\Ftxt.shx,bigfont.shx|c128;\M+18FAC\M+196F6
  7
A
 73
     1
 44
1.0
1001
ACAD
1000
MTEXTBEGIN
1070
    73
1070
     1
1070
    44
1040
1.0
1070
    74
1070
     0
1000
MTEXTEND
  0
ENDBLK
  5
7EB3
330
7EB0
100
AcDbEntity
  8
0
100
AcDbBlockEnd
  0
BLOCK
  5
7F3E
330
7F34
100
AcDbEntity
  8
0
100
AcDbBlockBegin
  2
*D23
 70
     1
 10
0.0
 20
0.0
 30
0.0
  3
*D23
  1

  0
LINE
  5
7F35
330
7F34
100
AcDbEntity
  8
0
  6
ByBlock
 62
     6
100
AcDbLine
 10
36.32328461774405
 20
76.87374591338453
 30
0.0
 11
30.22079396538988
 21
76.87374591338453
 31
0.0
  0
LINE
  5
7F36
330
7F34
100
AcDbEntity
  8
0
  6
ByBlock
 62
     6
100
AcDbLine
 10
36.32328461774426
 20
60.87374591338459
 30
0.0
 11
30.22079396538988
 21
60.87374591338459
 31
0.0
  0
LINE
  5
7F37
330
7F34
100
AcDbEntity
  8
0
  6
ByBlock
 62
     6
100
AcDbLine
 10
30.72079396538987
 20
75.37374591338454
 30
0.0
 11
30.72079396538987
 21
62.37374591338459
 31
0.0
  0
SOLID
  5
7F38
330
7F34
100
AcDbEntity
  8
0
  6
ByBlock
 62
     6
100
AcDbTrace
 10
30.47079396538987
 20
75.37374591338454
 30
0.0
 11
30.97079396538987
 21
75.37374591338454
 31
0.0
 12
30.72079396538987
 22
76.87374591338453
 32
0.0
 13
30.72079396538987
 23
76.87374591338453
 33
0.0
  0
SOLID
  5
7F39
330
7F34
100
AcDbEntity
  8
0
  6
ByBlock
 62
     6
100
AcDbTrace
 10
30.47079396538987
 20
62.37374591338459
 30
0.0
 11
30.97079396538987
 21
62.37374591338459
 31
0.0
 12
30.72079396538987
 22
60.87374591338459
 32
0.0
 13
30.72079396538987
 23
60.87374591338459
 33
0.0
  0
MTEXT
  5
7F3A
102
{ACAD_XDICTIONARY
360
8EFF
102
}
330
7F34
100
AcDbEntity
  8
0
  6
ByBlock
 62
     3
100
AcDbMText
 10
29.17079396538987
 20
68.87374591338456
 30
0.0
 40
1.5
 41
0.0
 71
     5
 72
     1
  1
\U+220516
 11
0.0000000000000001
 21
1.0
 31
0.0
 73
     1
 44
1.0
1001
ACAD
1000
MTEXTBEGIN
1070
    73
1070
     1
1070
    44
1040
1.0
1070
    74
1070
     0
1000
MTEXTEND
  0
POINT
  5
7F3B
330
7F34
100
AcDbEntity
  8
Defpoints
  6
ByBlock
 62
     0
100
AcDbPoint
 10
36.94828461774405
 20
76.87374591338453
 30
0.0
  0
POINT
  5
7F3C
330
7F34
100
AcDbEntity
  8
Defpoints
  6
ByBlock
 62
     0
100
AcDbPoint
 10
36.94828461774426
 20
60.87374591338459
 30
0.0
  0
POINT
  5
7F3D
330
7F34
100
AcDbEntity
  8
Defpoints
  6
ByBlock
 62
     0
100
AcDbPoint
 10
30.72079396538987
 20
60.87374591338459
 30
0.0
  0
ENDBLK
  5
7F3F
330
7F34
100
AcDbEntity
  8
0
100
AcDbBlockEnd
  0
BLOCK
  5
7F4A
330
7F40
100
AcDbEntity
  8
0
100
AcDbBlockBegin
  2
*D24
 70
     1
 10
0.0
 20
0.0
 30
0.0
  3
*D24
  1

  0
LINE
  5
7F41
330
7F40
100
AcDbEntity
  8
0
  6
ByBlock
 62
     6
100
AcDbLine
 10
50.77328461774431
 20
72.37374591338454
 30
0.0
 11
77.85487205903648
 21
72.37374591338454
 31
0.0
  0
LINE
  5
7F42
330
7F40
100
AcDbEntity
  8
0
  6
ByBlock
 62
     6
100
AcDbLine
 10
50.77328461774431
 20
65.37374591338454
 30
0.0
 11
77.85487205903648
 21
65.37374591338454
 31
0.0
  0
LINE
  5
7F43
330
7F40
100
AcDbEntity
  8
0
  6
ByBlock
 62
     6
100
AcDbLine
 10
77.35487205903648
 20
70.87374591338454
 30
0.0
 11
77.35487205903648
 21
66.87374591338453
 31
0.0
  0
SOLID
  5
7F44
330
7F40
100
AcDbEntity
  8
0
  6
ByBlock
 62
     6
100
AcDbTrace
 10
77.10487205903651
 20
70.87374591338454
 30
0.0
 11
77.6048720590365
 21
70.87374591338454
 31
0.0
 12
77.35487205903648
 22
72.37374591338454
 32
0.0
 13
77.35487205903648
 23
72.37374591338454
 33
0.0
  0
SOLID
  5
7F45
330
7F40
100
AcDbEntity
  8
0
  6
ByBlock
 62
     6
100
AcDbTrace
 10
77.10487205903651
 20
66.87374591338453
 30
0.0
 11
77.6048720590365
 21
66.87374591338453
 31
0.0
 12
77.35487205903648
 22
65.37374591338454
 32
0.0
 13
77.35487205903648
 23
65.37374591338454
 33
0.0
  0
MTEXT
  5
7F46
102
{ACAD_XDICTIONARY
360
8F01
102
}
330
7F40
100
AcDbEntity
  8
0
  6
ByBlock
 62
     3
100
AcDbMText
 10
75.8048720590365
 20
68.87374591338454
 30
0.0
 40
1.5
 41
0.0
 71
     5
 72
     1
  1
\U+22057
 11
0.0000000000000001
 21
1.0
 31
0.0
 73
     1
 44
1.0
1001
ACAD
1000
MTEXTBEGIN
1070
    73
1070
     1
1070
    44
1040
1.0
1070
    74
1070
     0
1000
MTEXTEND
  0
POINT
  5
7F47
330
7F40
100
AcDbEntity
  8
Defpoints
  6
ByBlock
 62
     0
100
AcDbPoint
 10
50.14828461774431
 20
72.37374591338454
 30
0.0
  0
POINT
  5
7F48
330
7F40
100
AcDbEntity
  8
Defpoints
  6
ByBlock
 62
     0
100
AcDbPoint
 10
50.14828461774431
 20
65.37374591338454
 30
0.0
  0
POINT
  5
7F49
330
7F40
100
AcDbEntity
  8
Defpoints
  6
ByBlock
 62
     0
100
AcDbPoint
 10
77.35487205903648
 20
65.37374591338454
 30
0.0
  0
ENDBLK
  5
7F4B
330
7F40
100
AcDbEntity
  8
0
100
AcDbBlockEnd
  0
BLOCK
  5
7F59
330
7F4C
100
AcDbEntity
  8
0
100
AcDbBlockBegin
  2
*D25
 70
     1
 10
0.0
 20
0.0
 30
0.0
  3
*D25
  1

  0
LINE
  5
7F4D
330
7F4C
100
AcDbEntity
  8
0
  6
ByBlock
 62
     6
100
AcDbLine
 10
66.77328461774431
 20
114.2933989584239
 30
0.0
 11
73.32775968682631
 21
114.2933989584239
 31
0.0
  0
LINE
  5
7F4E
330
7F4C
100
AcDbEntity
  8
0
  6
ByBlock
 62
     6
100
AcDbLine
 10
66.77328461774431
 20
112.6933989584238
 30
0.0
 11
73.32775968682631
 21
112.6933989584238
 31
0.0
  0
LINE
  5
7F4F
330
7F4C
100
AcDbEntity
  8
0
  6
ByBlock
 62
     6
100
AcDbLine
 10
72.82775968682631
 20
115.7933989584239
 30
0.0
 11
72.82775968682631
 21
117.2933989584239
 31
0.0
  0
LINE
  5
7F50
330
7F4C
100
AcDbEntity
  8
0
  6
ByBlock
 62
     6
100
AcDbLine
 10
72.82775968682631
 20
111.1933989584238
 30
0.0
 11
72.82775968682631
 21
109.6933989584238
 31
0.0
  0
MTEXT
  5
7F51
102
{ACAD_XDICTIONARY
360
8F03
102
}
330
7F4C
100
AcDbEntity
  8
0
  6
ByBlock
 62
     3
100
AcDbMText
 10
71.27775968682633
 20
117.2933989584239
 30
0.0
 40
1.5
 41
0.0
 71
     5
 72
     1
  1
\U+22051.6
 11
0.0000000000000001
 21
1.0
 31
0.0
 73
     1
 44
1.0
1001
ACAD
1000
MTEXTBEGIN
1070
    73
1070
     1
1070
    44
1040
1.0
1070
    74
1070
     0
1000
MTEXTEND
  0
LINE
  5
7F52
330
7F4C
100
AcDbEntity
  8
0
  6
ByBlock
 62
     6
100
AcDbLine
 10
72.82775968682631
 20
114.2933989584239
 30
0.0
 11
72.82775968682631
 21
112.6933989584238
 31
0.0
  0
LINE
  5
7F53
330
7F4C
100
AcDbEntity
  8
0
  6
ByBlock
 62
     6
100
AcDbLine
 10
72.82775968682631
 20
114.2933989584239
 30
0.0
 11
72.82775968682631
 21
112.6933989584238
 31
0.0
  0
SOLID
  5
7F54
330
7F4C
100
AcDbEntity
  8
0
  6
ByBlock
 62
     6
100
AcDbTrace
 10
72.57775968682631
 20
115.7933989584239
 30
0.0
 11
73.07775968682631
 21
115.7933989584239
 31
0.0
 12
72.82775968682631
 22
114.2933989584239
 32
0.0
 13
72.82775968682631
 23
114.2933989584239
 33
0.0
  0
SOLID
  5
7F55
330
7F4C
100
AcDbEntity
  8
0
  6
ByBlock
 62
     6
100
AcDbTrace
 10
72.57775968682631
 20
111.1933989584238
 30
0.0
 11
73.07775968682631
 21
111.1933989584238
 31
0.0
 12
72.82775968682631
 22
112.6933989584238
 32
0.0
 13
72.82775968682631
 23
112.6933989584238
 33
0.0
  0
POINT
  5
7F56
330
7F4C
100
AcDbEntity
  8
Defpoints
  6
ByBlock
 62
     0
100
AcDbPoint
 10
66.14828461774431
 20
114.2933989584239
 30
0.0
  0
POINT
  5
7F57
330
7F4C
100
AcDbEntity
  8
Defpoints
  6
ByBlock
 62
     0
100
AcDbPoint
 10
66.14828461774431
 20
112.6933989584238
 30
0.0
  0
POINT
  5
7F58
330
7F4C
100
AcDbEntity
  8
Defpoints
  6
ByBlock
 62
     0
100
AcDbPoint
 10
72.82775968682631
 20
112.6933989584238
 30
0.0
  0
ENDBLK
  5
7F5A
330
7F4C
100
AcDbEntity
  8
0
100
AcDbBlockEnd
  0
BLOCK
  5
7F68
330
7F5B
100
AcDbEntity
  8
0
100
AcDbBlockBegin
  2
*D26
 70
     1
 10
0.0
 20
0.0
 30
0.0
  3
*D26
  1

  0
LINE
  5
7F5C
330
7F5B
100
AcDbEntity
  8
0
  6
ByBlock
 62
     6
100
AcDbLine
 10
49.52328461774431
 20
108.9656896821656
 30
0.0
 11
45.85485900407586
 21
108.9656896821656
 31
0.0
  0
LINE
  5
7F5D
330
7F5B
100
AcDbEntity
  8
0
  6
ByBlock
 62
     6
100
AcDbLine
 10
49.52328461774431
 20
105.1656896821657
 30
0.0
 11
45.85485900407586
 21
105.1656896821657
 31
0.0
  0
LINE
  5
7F5E
330
7F5B
100
AcDbEntity
  8
0
  6
ByBlock
 62
     6
100
AcDbLine
 10
46.35485900407586
 20
110.4656896821656
 30
0.0
 11
46.35485900407586
 21
111.9656896821656
 31
0.0
  0
LINE
  5
7F5F
330
7F5B
100
AcDbEntity
  8
0
  6
ByBlock
 62
     6
100
AcDbLine
 10
46.35485900407586
 20
103.6656896821657
 30
0.0
 11
46.35485900407586
 21
102.1656896821657
 31
0.0
  0
MTEXT
  5
7F60
102
{ACAD_XDICTIONARY
360
8F05
102
}
330
7F5B
100
AcDbEntity
  8
0
  6
ByBlock
 62
     3
100
AcDbMText
 10
44.20024491104017
 20
106.8181542064736
 30
0.0
 40
1.5
 41
0.0
 71
     5
 72
     1
  1
\U+22053.8
 11
0.0000000000000001
 21
1.0
 31
0.0
 73
     1
 44
1.0
1001
ACAD
1000
MTEXTBEGIN
1070
    73
1070
     1
1070
    44
1040
1.0
1070
    74
1070
     0
1000
MTEXTEND
  0
LINE
  5
7F61
330
7F5B
100
AcDbEntity
  8
0
  6
ByBlock
 62
     6
100
AcDbLine
 10
46.35485900407586
 20
108.9656896821656
 30
0.0
 11
46.35485900407586
 21
105.1656896821657
 31
0.0
  0
LINE
  5
7F62
330
7F5B
100
AcDbEntity
  8
0
  6
ByBlock
 62
     6
100
AcDbLine
 10
46.35485900407586
 20
108.9656896821656
 30
0.0
 11
46.35485900407586
 21
105.1656896821657
 31
0.0
  0
SOLID
  5
7F63
330
7F5B
100
AcDbEntity
  8
0
  6
ByBlock
 62
     6
100
AcDbTrace
 10
46.10485900407588
 20
110.4656896821656
 30
0.0
 11
46.60485900407588
 21
110.4656896821656
 31
0.0
 12
46.35485900407586
 22
108.9656896821656
 32
0.0
 13
46.35485900407586
 23
108.9656896821656
 33
0.0
  0
SOLID
  5
7F64
330
7F5B
100
AcDbEntity
  8
0
  6
ByBlock
 62
     6
100
AcDbTrace
 10
46.10485900407588
 20
103.6656896821657
 30
0.0
 11
46.60485900407588
 21
103.6656896821657
 31
0.0
 12
46.35485900407586
 22
105.1656896821657
 32
0.0
 13
46.35485900407586
 23
105.1656896821657
 33
0.0
  0
POINT
  5
7F65
330
7F5B
100
AcDbEntity
  8
Defpoints
  6
ByBlock
 62
     0
100
AcDbPoint
 10
50.14828461774431
 20
108.9656896821656
 30
0.0
  0
POINT
  5
7F66
330
7F5B
100
AcDbEntity
  8
Defpoints
  6
ByBlock
 62
     0
100
AcDbPoint
 10
50.14828461774431
 20
105.1656896821657
 30
0.0
  0
POINT
  5
7F67
330
7F5B
100
AcDbEntity
  8
Defpoints
  6
ByBlock
 62
     0
100
AcDbPoint
 10
46.35485900407586
 20
105.1656896821657
 30
0.0
  0
ENDBLK
  5
7F69
330
7F5B
100
AcDbEntity
  8
0
100
AcDbBlockEnd
  0
BLOCK
  5
7F71
330
7F6A
100
AcDbEntity
  8
0
100
AcDbBlockBegin
  2
*D27
 70
     1
 10
0.0
 20
0.0
 30
0.0
  3
*D27
  1

  0
LINE
  5
7F6B
330
7F6A
100
AcDbEntity
  8
0
  6
ByBlock
 62
     6
100
AcDbLine
 10
31.12268133814574
 20
53.93481969119681
 30
0.0
 11
36.5437090378511
 21
61.0771981318939
 31
0.0
  0
MTEXT
  5
7F6C
330
7F6A
100
AcDbEntity
  8
0
  6
ByBlock
 62
     3
100
AcDbMText
 10
30.97626832064267
 20
56.30569784671338
 30
0.0
 40
1.5
 41
0.0
 71
     5
 72
     1
  1
R1
 11
0.6045755798928054
 21
0.7965477814904002
 31
0.0
 73
     1
 44
1.0
1001
ACAD
1000
MTEXTBEGIN
1070
    73
1070
     1
1070
    44
1040
1.0
1070
    74
1070
     0
1000
MTEXTEND
  0
LINE
  5
7F6D
330
7F6A
100
AcDbEntity
  8
0
  6
ByBlock
 62
     6
100
AcDbLine
 10
37.14828461774408
 20
61.87374591338453
 30
0.0
 11
36.5437090378511
 21
61.0771981318939
 31
0.0
  0
SOLID
  5
7F6E
330
7F6A
100
AcDbEntity
  8
0
  6
ByBlock
 62
     6
100
AcDbTrace
 10
35.43770872263929
 20
60.03352035463151
 30
0.0
 11
35.8359826133845
 21
59.73123256468511
 31
0.0
 12
36.5437090378511
 22
61.0771981318939
 32
0.0
 13
36.5437090378511
 23
61.0771981318939
 33
0.0
  0
POINT
  5
7F6F
330
7F6A
100
AcDbEntity
  8
Defpoints
  6
ByBlock
 62
     0
100
AcDbPoint
 10
36.5437090378511
 20
61.0771981318939
 30
0.0
  0
POINT
  5
7F70
330
7F6A
100
AcDbEntity
  8
Defpoints
  6
ByBlock
 62
     0
100
AcDbPoint
 10
37.14828461774408
 20
61.87374591338453
 30
0.0
  0
ENDBLK
  5
7F72
330
7F6A
100
AcDbEntity
  8
0
100
AcDbBlockEnd
  0
BLOCK
  5
7F80
330
7F73
100
AcDbEntity
  8
0
100
AcDbBlockBegin
  2
*D28
 70
     1
 10
0.0
 20
0.0
 30
0.0
  3
*D28
  1

  0
LINE
  5
7F74
330
7F73
100
AcDbEntity
  8
0
  6
ByBlock
 62
     6
100
AcDbLine
 10
36.94828461774405
 20
113.5452285196831
 30
0.0
 11
36.94828461774405
 21
118.65923933973
 31
0.0
  0
LINE
  5
7F75
330
7F73
100
AcDbEntity
  8
0
  6
ByBlock
 62
     6
100
AcDbLine
 10
36.14828461774408
 20
113.5452285196831
 30
0.0
 11
36.14828461774408
 21
118.65923933973
 31
0.0
  0
LINE
  5
7F76
330
7F73
100
AcDbEntity
  8
0
  6
ByBlock
 62
     6
100
AcDbLine
 10
38.44828461774405
 20
118.15923933973
 30
0.0
 11
39.94828461774405
 21
118.15923933973
 31
0.0
  0
LINE
  5
7F77
330
7F73
100
AcDbEntity
  8
0
  6
ByBlock
 62
     6
100
AcDbLine
 10
34.64828461774408
 20
118.15923933973
 30
0.0
 11
33.14828461774408
 21
118.15923933973
 31
0.0
  0
MTEXT
  5
7F78
330
7F73
100
AcDbEntity
  8
0
  6
ByBlock
 62
     3
100
AcDbMText
 10
35.09171893968886
 20
119.70923933973
 30
0.0
 40
1.5
 41
0.0
 71
     5
 72
     1
  1
0.8
 73
     1
 44
1.0
1001
ACAD
1000
MTEXTBEGIN
1070
    73
1070
     1
1070
    44
1040
1.0
1070
    74
1070
     0
1000
MTEXTEND
  0
LINE
  5
7F79
330
7F73
100
AcDbEntity
  8
0
  6
ByBlock
 62
     6
100
AcDbLine
 10
36.94828461774405
 20
118.15923933973
 30
0.0
 11
36.14828461774408
 21
118.15923933973
 31
0.0
  0
LINE
  5
7F7A
330
7F73
100
AcDbEntity
  8
0
  6
ByBlock
 62
     6
100
AcDbLine
 10
36.94828461774405
 20
118.15923933973
 30
0.0
 11
36.14828461774408
 21
118.15923933973
 31
0.0
  0
SOLID
  5
7F7B
330
7F73
100
AcDbEntity
  8
0
  6
ByBlock
 62
     6
100
AcDbTrace
 10
38.44828461774405
 20
118.40923933973
 30
0.0
 11
38.44828461774405
 21
117.90923933973
 31
0.0
 12
36.94828461774405
 22
118.15923933973
 32
0.0
 13
36.94828461774405
 23
118.15923933973
 33
0.0
  0
SOLID
  5
7F7C
330
7F73
100
AcDbEntity
  8
0
  6
ByBlock
 62
     6
100
AcDbTrace
 10
34.64828461774408
 20
118.40923933973
 30
0.0
 11
34.64828461774408
 21
117.90923933973
 31
0.0
 12
36.14828461774408
 22
118.15923933973
 32
0.0
 13
36.14828461774408
 23
118.15923933973
 33
0.0
  0
POINT
  5
7F7D
330
7F73
100
AcDbEntity
  8
Defpoints
  6
ByBlock
 62
     0
100
AcDbPoint
 10
36.94828461774405
 20
112.9202285196831
 30
0.0
  0
POINT
  5
7F7E
330
7F73
100
AcDbEntity
  8
Defpoints
  6
ByBlock
 62
     0
100
AcDbPoint
 10
36.14828461774408
 20
112.9202285196831
 30
0.0
  0
POINT
  5
7F7F
330
7F73
100
AcDbEntity
  8
Defpoints
  6
ByBlock
 62
     0
100
AcDbPoint
 10
36.14828461774408
 20
118.15923933973
 30
0.0
  0
ENDBLK
  5
7F81
330
7F73
100
AcDbEntity
  8
0
100
AcDbBlockEnd
  0
BLOCK
  5
7F8C
330
7F82
100
AcDbEntity
  8
0
100
AcDbBlockBegin
  2
*D29
 70
     1
 10
0.0
 20
0.0
 30
0.0
  3
*D29
  1

  0
LINE
  5
7F83
330
7F82
100
AcDbEntity
  8
0
  6
ByBlock
 62
     6
100
AcDbLine
 10
50.14828461774431
 20
64.74874591338454
 30
0.0
 11
50.14828461774431
 21
58.5636312172026
 31
0.0
  0
LINE
  5
7F84
330
7F82
100
AcDbEntity
  8
0
  6
ByBlock
 62
     6
100
AcDbLine
 10
66.14828461774436
 20
65.84874591338446
 30
0.0
 11
66.14828461774436
 21
58.5636312172026
 31
0.0
  0
LINE
  5
7F85
330
7F82
100
AcDbEntity
  8
0
  6
ByBlock
 62
     6
100
AcDbLine
 10
51.64828461774431
 20
59.06363121720261
 30
0.0
 11
64.64828461774437
 21
59.06363121720261
 31
0.0
  0
SOLID
  5
7F86
330
7F82
100
AcDbEntity
  8
0
  6
ByBlock
 62
     6
100
AcDbTrace
 10
51.64828461774431
 20
59.3136312172026
 30
0.0
 11
51.64828461774431
 21
58.8136312172026
 31
0.0
 12
50.14828461774431
 22
59.06363121720261
 32
0.0
 13
50.14828461774431
 23
59.06363121720261
 33
0.0
  0
SOLID
  5
7F87
330
7F82
100
AcDbEntity
  8
0
  6
ByBlock
 62
     6
100
AcDbTrace
 10
64.64828461774437
 20
59.3136312172026
 30
0.0
 11
64.64828461774437
 21
58.8136312172026
 31
0.0
 12
66.14828461774436
 22
59.06363121720261
 32
0.0
 13
66.14828461774436
 23
59.06363121720261
 33
0.0
  0
MTEXT
  5
7F88
330
7F82
100
AcDbEntity
  8
0
  6
ByBlock
 62
     3
100
AcDbMText
 10
58.14828461774434
 20
60.61363121720261
 30
0.0
 40
1.5
 41
0.0
 71
     5
 72
     1
  1
16
 73
     1
 44
1.0
1001
ACAD
1000
MTEXTBEGIN
1070
    73
1070
     1
1070
    44
1040
1.0
1070
    74
1070
     0
1000
MTEXTEND
  0
POINT
  5
7F89
330
7F82
100
AcDbEntity
  8
Defpoints
  6
ByBlock
 62
     0
100
AcDbPoint
 10
50.14828461774431
 20
65.37374591338454
 30
0.0
  0
POINT
  5
7F8A
330
7F82
100
AcDbEntity
  8
Defpoints
  6
ByBlock
 62
     0
100
AcDbPoint
 10
66.14828461774436
 20
66.47374591338446
 30
0.0
  0
POINT
  5
7F8B
330
7F82
100
AcDbEntity
  8
Defpoints
  6
ByBlock
 62
     0
100
AcDbPoint
 10
66.14828461774436
 20
59.06363121720261
 30
0.0
  0
ENDBLK
  5
7F8D
330
7F82
100
AcDbEntity
  8
0
100
AcDbBlockEnd
  0
BLOCK
  5
7F98
330
7F8E
100
AcDbEntity
  8
0
100
AcDbBlockBegin
  2
*D30
 70
     1
 10
0.0
 20
0.0
 30
0.0
  3
*D30
  1

  0
LINE
  5
7F8F
330
7F8E
100
AcDbEntity
  8
0
  6
ByBlock
 62
     6
100
AcDbLine
 10
66.77328461774476
 20
71.27374591338456
 30
0.0
 11
73.32775968682631
 21
71.27374591338456
 31
0.0
  0
LINE
  5
7F90
330
7F8E
100
AcDbEntity
  8
0
  6
ByBlock
 62
     6
100
AcDbLine
 10
66.77328461774476
 20
66.47374591338451
 30
0.0
 11
73.32775968682631
 21
66.47374591338451
 31
0.0
  0
LINE
  5
7F91
330
7F8E
100
AcDbEntity
  8
0
  6
ByBlock
 62
     6
100
AcDbLine
 10
72.82775968682631
 20
69.77374591338457
 30
0.0
 11
72.82775968682631
 21
67.9737459133845
 31
0.0
  0
MTEXT
  5
7F92
102
{ACAD_XDICTIONARY
360
8F07
102
}
330
7F8E
100
AcDbEntity
  8
0
  6
ByBlock
 62
     3
100
AcDbMText
 10
71.27775968682631
 20
68.87374591338454
 30
0.0
 40
1.5
 41
0.0
 71
     5
 72
     1
  1
\U+22054.8
 11
0.0000000000000001
 21
1.0
 31
0.0
 73
     1
 44
1.0
1001
ACAD
1000
MTEXTBEGIN
1070
    73
1070
     1
1070
    44
1040
1.0
1070
    74
1070
     0
1000
MTEXTEND
  0
SOLID
  5
7F93
330
7F8E
100
AcDbEntity
  8
0
  6
ByBlock
 62
     6
100
AcDbTrace
 10
72.57775968682631
 20
69.77374591338457
 30
0.0
 11
73.07775968682631
 21
69.77374591338457
 31
0.0
 12
72.82775968682631
 22
71.27374591338456
 32
0.0
 13
72.82775968682631
 23
71.27374591338456
 33
0.0
  0
SOLID
  5
7F94
330
7F8E
100
AcDbEntity
  8
0
  6
ByBlock
 62
     6
100
AcDbTrace
 10
72.57775968682631
 20
67.9737459133845
 30
0.0
 11
73.07775968682631
 21
67.9737459133845
 31
0.0
 12
72.82775968682631
 22
66.47374591338451
 32
0.0
 13
72.82775968682631
 23
66.47374591338451
 33
0.0
  0
POINT
  5
7F95
330
7F8E
100
AcDbEntity
  8
Defpoints
  6
ByBlock
 62
     0
100
AcDbPoint
 10
66.14828461774476
 20
71.27374591338456
 30
0.0
  0
POINT
  5
7F96
330
7F8E
100
AcDbEntity
  8
Defpoints
  6
ByBlock
 62
     0
100
AcDbPoint
 10
66.14828461774476
 20
66.47374591338451
 30
0.0
  0
POINT
  5
7F97
330
7F8E
100
AcDbEntity
  8
Defpoints
  6
ByBlock
 62
     0
100
AcDbPoint
 10
72.82775968682631
 20
66.47374591338451
 30
0.0
  0
ENDBLK
  5
7F99
330
7F8E
100
AcDbEntity
  8
0
100
AcDbBlockEnd
  0
BLOCK
  5
7FA6
330
7F9A
100
AcDbEntity
  8
0
100
AcDbBlockBegin
  2
*D31
 70
     1
 10
0.0
 20
0.0
 30
0.0
  3
*D31
  1

  0
LINE
  5
7F9B
330
7F9A
100
AcDbEntity
  8
0
  6
ByBlock
 62
     6
100
AcDbLine
 10
36.14828461774408
 20
76.49874591338459
 30
0.0
 11
36.14828461774408
 21
80.06168821664743
 31
0.0
  0
LINE
  5
7F9C
330
7F9A
100
AcDbEntity
  8
0
  6
ByBlock
 62
     6
100
AcDbLine
 10
39.1270755353441
 20
74.49874591338454
 30
0.0
 11
39.1270755353441
 21
80.06168821664743
 31
0.0
  0
LINE
  5
7F9D
330
7F9A
100
AcDbEntity
  8
0
  6
ByBlock
 62
     6
100
AcDbLine
 10
34.14828461774408
 20
79.56168821664744
 30
0.0
 11
32.14828461774408
 21
79.56168821664744
 31
0.0
  0
LINE
  5
7F9E
330
7F9A
100
AcDbEntity
  8
0
  6
ByBlock
 62
     6
100
AcDbLine
 10
41.12707553534407
 20
79.56168821664744
 30
0.0
 11
43.12707553534409
 21
79.56168821664744
 31
0.0
  0
LINE
  5
7F9F
330
7F9A
100
AcDbEntity
  8
0
  6
ByBlock
 62
     6
100
AcDbLine
 10
36.14828461774408
 20
79.56168821664744
 30
0.0
 11
39.1270755353441
 21
79.56168821664744
 31
0.0
  0
SOLID
  5
7FA0
330
7F9A
100
AcDbEntity
  8
0
  6
ByBlock
 62
     6
100
AcDbTrace
 10
34.14828461774408
 20
79.89502154998077
 30
0.0
 11
34.14828461774408
 21
79.22835488331411
 31
0.0
 12
36.14828461774408
 22
79.56168821664744
 32
0.0
 13
36.14828461774408
 23
79.56168821664744
 33
0.0
  0
SOLID
  5
7FA1
330
7F9A
100
AcDbEntity
  8
0
  6
ByBlock
 62
     6
100
AcDbTrace
 10
41.12707553534407
 20
79.89502154998077
 30
0.0
 11
41.12707553534407
 21
79.22835488331411
 31
0.0
 12
39.1270755353441
 22
79.56168821664744
 32
0.0
 13
39.1270755353441
 23
79.56168821664744
 33
0.0
  0
MTEXT
  5
7FA2
330
7F9A
100
AcDbEntity
  8
0
  6
ByBlock
 62
     3
100
AcDbMText
 10
37.63768007654409
 20
81.11168821664744
 30
0.0
 40
1.5
 41
0.0
 71
     5
 72
     1
  1
3
 73
     1
 44
1.0
1001
ACAD
1000
MTEXTBEGIN
1070
    73
1070
     1
1070
    44
1040
1.0
1070
    74
1070
     0
1000
MTEXTEND
  0
POINT
  5
7FA3
330
7F9A
100
AcDbEntity
  8
Defpoints
  6
ByBlock
 62
     0
100
AcDbPoint
 10
36.14828461774408
 20
75.87374591338459
 30
0.0
  0
POINT
  5
7FA4
330
7F9A
100
AcDbEntity
  8
Defpoints
  6
ByBlock
 62
     0
100
AcDbPoint
 10
39.1270755353441
 20
73.87374591338454
 30
0.0
  0
POINT
  5
7FA5
330
7F9A
100
AcDbEntity
  8
Defpoints
  6
ByBlock
 62
     0
100
AcDbPoint
 10
39.1270755353441
 20
79.56168821664744
 30
0.0
  0
ENDBLK
  5
7FA7
330
7F9A
100
AcDbEntity
  8
0
100
AcDbBlockEnd
  0
BLOCK
  5
7FB2
330
7FA8
100
AcDbEntity
  8
0
100
AcDbBlockBegin
  2
*D32
 70
     1
 10
0.0
 20
0.0
 30
0.0
  3
*D32
  1

  0
LINE
  5
7FA9
330
7FA8
100
AcDbEntity
  8
0
  6
ByBlock
 62
     6
100
AcDbLine
 10
35.52328461774431
 20
113.0508797376266
 30
0.0
 11
30.22079396538971
 21
113.0508797376266
 31
0.0
  0
LINE
  5
7FAA
330
7FA8
100
AcDbEntity
  8
0
  6
ByBlock
 62
     6
100
AcDbLine
 10
35.52328461774431
 20
101.0804996267015
 30
0.0
 11
30.22079396538971
 21
101.0804996267015
 31
0.0
  0
LINE
  5
7FAB
330
7FA8
100
AcDbEntity
  8
0
  6
ByBlock
 62
     6
100
AcDbLine
 10
30.72079396538971
 20
111.5508797376266
 30
0.0
 11
30.72079396538971
 21
102.5804996267015
 31
0.0
  0
SOLID
  5
7FAC
330
7FA8
100
AcDbEntity
  8
0
  6
ByBlock
 62
     6
100
AcDbTrace
 10
30.47079396538971
 20
111.5508797376266
 30
0.0
 11
30.97079396538971
 21
111.5508797376266
 31
0.0
 12
30.72079396538971
 22
113.0508797376266
 32
0.0
 13
30.72079396538971
 23
113.0508797376266
 33
0.0
  0
SOLID
  5
7FAD
330
7FA8
100
AcDbEntity
  8
0
  6
ByBlock
 62
     6
100
AcDbTrace
 10
30.47079396538971
 20
102.5804996267015
 30
0.0
 11
30.97079396538971
 21
102.5804996267015
 31
0.0
 12
30.72079396538971
 22
101.0804996267015
 32
0.0
 13
30.72079396538971
 23
101.0804996267015
 33
0.0
  0
MTEXT
  5
7FAE
102
{ACAD_XDICTIONARY
360
8F09
102
}
330
7FA8
100
AcDbEntity
  8
0
  6
ByBlock
 62
     3
100
AcDbMText
 10
29.17079396538971
 20
107.0656896821641
 30
0.0
 40
1.5
 41
0.0
 71
     5
 72
     1
  1
\U+220512
 11
0.0000000000000001
 21
1.0
 31
0.0
 73
     1
 44
1.0
1001
ACAD
1000
MTEXTBEGIN
1070
    73
1070
     1
1070
    44
1040
1.0
1070
    74
1070
     0
1000
MTEXTEND
  0
POINT
  5
7FAF
330
7FA8
100
AcDbEntity
  8
Defpoints
  6
ByBlock
 62
     0
100
AcDbPoint
 10
36.14828461774431
 20
113.0508797376266
 30
0.0
  0
POINT
  5
7FB0
330
7FA8
100
AcDbEntity
  8
Defpoints
  6
ByBlock
 62
     0
100
AcDbPoint
 10
36.14828461774431
 20
101.0804996267015
 30
0.0
  0
POINT
  5
7FB1
330
7FA8
100
AcDbEntity
  8
Defpoints
  6
ByBlock
 62
     0
100
AcDbPoint
 10
30.72079396538971
 20
101.0804996267015
 30
0.0
  0
ENDBLK
  5
7FB3
330
7FA8
100
AcDbEntity
  8
0
100
AcDbBlockEnd
  0
BLOCK
  5
7FBE
330
7FB4
100
AcDbEntity
  8
0
100
AcDbBlockBegin
  2
*D33
 70
     1
 10
0.0
 20
0.0
 30
0.0
  3
*D33
  1

  0
LINE
  5
7FB5
330
7FB4
100
AcDbEntity
  8
0
  6
ByBlock
 62
     6
100
AcDbLine
 10
38.74828461774422
 20
103.8683989584239
 30
0.0
 11
38.74828461774422
 21
98.86119056835822
 31
0.0
  0
LINE
  5
7FB6
330
7FB4
100
AcDbEntity
  8
0
  6
ByBlock
 62
     6
100
AcDbLine
 10
66.14828461774431
 20
111.2152873546487
 30
0.0
 11
66.14828461774431
 21
98.86119056835822
 31
0.0
  0
LINE
  5
7FB7
330
7FB4
100
AcDbEntity
  8
0
  6
ByBlock
 62
     6
100
AcDbLine
 10
40.74828461774422
 20
99.36119056835821
 30
0.0
 11
64.14828461774431
 21
99.36119056835821
 31
0.0
  0
SOLID
  5
7FB8
330
7FB4
100
AcDbEntity
  8
0
  6
ByBlock
 62
     6
100
AcDbTrace
 10
40.74828461774422
 20
99.69452390169156
 30
0.0
 11
40.74828461774422
 21
99.02785723502487
 31
0.0
 12
38.74828461774422
 22
99.36119056835821
 32
0.0
 13
38.74828461774422
 23
99.36119056835821
 33
0.0
  0
SOLID
  5
7FB9
330
7FB4
100
AcDbEntity
  8
0
  6
ByBlock
 62
     6
100
AcDbTrace
 10
64.14828461774431
 20
99.69452390169156
 30
0.0
 11
64.14828461774431
 21
99.02785723502487
 31
0.0
 12
66.14828461774431
 22
99.36119056835821
 32
0.0
 13
66.14828461774431
 23
99.36119056835821
 33
0.0
  0
MTEXT
  5
7FBA
330
7FB4
100
AcDbEntity
  8
0
  6
ByBlock
 62
     3
100
AcDbMText
 10
52.44828461774425
 20
100.9111905683582
 30
0.0
 40
1.5
 41
0.0
 71
     5
 72
     1
  1
27.4
 73
     1
 44
1.0
1001
ACAD
1000
MTEXTBEGIN
1070
    73
1070
     1
1070
    44
1040
1.0
1070
    74
1070
     0
1000
MTEXTEND
  0
POINT
  5
7FBB
330
7FB4
100
AcDbEntity
  8
Defpoints
  6
ByBlock
 62
     0
100
AcDbPoint
 10
38.74828461774422
 20
104.4933989584239
 30
0.0
  0
POINT
  5
7FBC
330
7FB4
100
AcDbEntity
  8
Defpoints
  6
ByBlock
 62
     0
100
AcDbPoint
 10
66.14828461774431
 20
111.8402873546487
 30
0.0
  0
POINT
  5
7FBD
330
7FB4
100
AcDbEntity
  8
Defpoints
  6
ByBlock
 62
     0
100
AcDbPoint
 10
66.14828461774431
 20
99.36119056835821
 30
0.0
  0
ENDBLK
  5
7FBF
330
7FB4
100
AcDbEntity
  8
0
100
AcDbBlockEnd
  0
BLOCK
  5
7FCA
330
7FC0
100
AcDbEntity
  8
0
100
AcDbBlockBegin
  2
*D34
 70
     1
 10
0.0
 20
0.0
 30
0.0
  3
*D34
  1

  0
LINE
  5
7FC1
330
7FC0
100
AcDbEntity
  8
0
  6
ByBlock
 62
     6
100
AcDbLine
 10
36.14828461774431
 20
99.44068968216571
 30
0.0
 11
36.14828461774431
 21
89.00394672336055
 31
0.0
  0
LINE
  5
7FC2
330
7FC0
100
AcDbEntity
  8
0
  6
ByBlock
 62
     6
100
AcDbLine
 10
66.14828461774407
 20
104.7875780783904
 30
0.0
 11
66.14828461774407
 21
89.00394672336055
 31
0.0
  0
LINE
  5
7FC3
330
7FC0
100
AcDbEntity
  8
0
  6
ByBlock
 62
     6
100
AcDbLine
 10
38.14828461774431
 20
89.50394672336058
 30
0.0
 11
64.14828461774407
 21
89.50394672336058
 31
0.0
  0
SOLID
  5
7FC4
330
7FC0
100
AcDbEntity
  8
0
  6
ByBlock
 62
     6
100
AcDbTrace
 10
38.14828461774431
 20
89.83728005669389
 30
0.0
 11
38.14828461774431
 21
89.17061339002724
 31
0.0
 12
36.14828461774431
 22
89.50394672336058
 32
0.0
 13
36.14828461774431
 23
89.50394672336058
 33
0.0
  0
SOLID
  5
7FC5
330
7FC0
100
AcDbEntity
  8
0
  6
ByBlock
 62
     6
100
AcDbTrace
 10
64.14828461774407
 20
89.83728005669389
 30
0.0
 11
64.14828461774407
 21
89.17061339002724
 31
0.0
 12
66.14828461774407
 22
89.50394672336058
 32
0.0
 13
66.14828461774407
 23
89.50394672336058
 33
0.0
  0
MTEXT
  5
7FC6
330
7FC0
100
AcDbEntity
  8
0
  6
ByBlock
 62
     3
100
AcDbMText
 10
51.14828461774418
 20
91.05394672336055
 30
0.0
 40
1.5
 41
0.0
 71
     5
 72
     1
  1
30
 73
     1
 44
1.0
1001
ACAD
1000
MTEXTBEGIN
1070
    73
1070
     1
1070
    44
1040
1.0
1070
    74
1070
     0
1000
MTEXTEND
  0
POINT
  5
7FC7
330
7FC0
100
AcDbEntity
  8
Defpoints
  6
ByBlock
 62
     0
100
AcDbPoint
 10
36.14828461774431
 20
100.0656896821657
 30
0.0
  0
POINT
  5
7FC8
330
7FC0
100
AcDbEntity
  8
Defpoints
  6
ByBlock
 62
     0
100
AcDbPoint
 10
66.14828461774407
 20
105.4125780783905
 30
0.0
  0
POINT
  5
7FC9
330
7FC0
100
AcDbEntity
  8
Defpoints
  6
ByBlock
 62
     0
100
AcDbPoint
 10
66.14828461774407
 20
89.50394672336058
 30
0.0
  0
ENDBLK
  5
7FCB
330
7FC0
100
AcDbEntity
  8
0
100
AcDbBlockEnd
  0
BLOCK
  5
7FD5
330
7FCC
100
AcDbEntity
  8
0
100
AcDbBlockBegin
  2
*D35
 70
     1
 10
0.0
 20
0.0
 30
0.0
  3
*D35
  1

  0
LINE
  5
7FCD
330
7FCC
100
AcDbEntity
  8
0
  6
ByBlock
 62
     6
100
AcDbLine
 10
45.1242084832004
 20
132.6804639920082
 30
0.0
 11
41.34990437140086
 21
121.3224521998696
 31
0.0
  0
LINE
  5
7FCE
330
7FCC
100
AcDbEntity
  8
0
  6
ByBlock
 62
     6
100
AcDbLine
 10
36.14666486408893
 20
105.6643457169788
 30
0.0
 11
35.51596916623296
 21
103.7663934160223
 31
0.0
  0
MTEXT
  5
7FCF
102
{ACAD_XDICTIONARY
360
8F0B
102
}
330
7FCC
100
AcDbEntity
  8
0
  6
ByBlock
 62
     3
100
AcDbMText
 10
42.53381058626476
 20
129.8003878236488
 30
0.0
 40
1.5
 41
0.0
 71
     5
 72
     1
  1
\U+220512.5
 11
0.3153478489279963
 21
0.9489761504782329
 31
0.0
 73
     1
 44
1.0
1001
ACAD
1000
MTEXTBEGIN
1070
    73
1070
     1
1070
    44
1040
1.0
1070
    74
1070
     0
1000
MTEXTEND
  0
LINE
  5
7FD0
330
7FCC
100
AcDbEntity
  8
0
  6
ByBlock
 62
     6
100
AcDbLine
 10
36.77736056194494
 20
107.5622980179353
 30
0.0
 11
40.71920867354487
 21
119.4244998989132
 31
0.0
  0
SOLID
  5
7FD1
330
7FCC
100
AcDbEntity
  8
0
  6
ByBlock
 62
     6
100
AcDbTrace
 10
35.8303394805962
 20
105.7694616666215
 30
0.0
 11
36.4629902475817
 21
105.5592297673361
 31
0.0
 12
36.77736056194494
 22
107.5622980179353
 32
0.0
 13
36.77736056194494
 23
107.5622980179353
 33
0.0
  0
SOLID
  5
7FD2
330
7FCC
100
AcDbEntity
  8
0
  6
ByBlock
 62
     6
100
AcDbTrace
 10
41.0335789879081
 20
121.4275681495123
 30
0.0
 11
41.6662297548936
 21
121.2173362502269
 31
0.0
 12
40.71920867354487
 22
119.4244998989132
 32
0.0
 13
40.71920867354487
 23
119.4244998989132
 33
0.0
  0
POINT
  5
7FD3
330
7FCC
100
AcDbEntity
  8
Defpoints
  6
ByBlock
 62
     0
100
AcDbPoint
 10
40.71920867354487
 20
119.4244998989132
 30
0.0
  0
POINT
  5
7FD4
330
7FCC
100
AcDbEntity
  8
Defpoints
  6
ByBlock
 62
     0
100
AcDbPoint
 10
36.77736056194494
 20
107.5622980179353
 30
0.0
  0
ENDBLK
  5
7FD6
330
7FCC
100
AcDbEntity
  8
0
100
AcDbBlockEnd
  0
BLOCK
  5
7FDE
330
7FD7
100
AcDbEntity
  8
0
100
AcDbBlockBegin
  2
*D36
 70
     1
 10
0.0
 20
0.0
 30
0.0
  3
*D36
  1

  0
LINE
  5
7FD8
330
7FD7
100
AcDbEntity
  8
0
  6
ByBlock
 62
     6
100
AcDbLine
 10
75.0602134137635
 20
59.52482291293902
 30
0.0
 11
65.97529495975109
 21
66.7237862130886
 31
0.0
  0
MTEXT
  5
7FD9
330
7FD7
100
AcDbEntity
  8
0
  6
ByBlock
 62
     3
100
AcDbMText
 10
73.7303500378095
 20
62.55625630348156
 30
0.0
 40
1.5
 41
0.0
 71
     5
 72
     1
  1
R0.8
 11
0.7837629275087111
 21
-0.621060120650952
 31
0.0
 73
     1
 44
1.0
1001
ACAD
1000
MTEXTBEGIN
1070
    73
1070
     1
1070
    44
1040
1.0
1070
    74
1070
     0
1000
MTEXTEND
  0
LINE
  5
7FDA
330
7FD7
100
AcDbEntity
  8
0
  6
ByBlock
 62
     6
100
AcDbLine
 10
65.34828461774413
 20
67.22063430960935
 30
0.0
 11
65.97529495975109
 21
66.7237862130886
 31
0.0
  0
SOLID
  5
7FDB
330
7FD7
100
AcDbEntity
  8
0
  6
ByBlock
 62
     6
100
AcDbTrace
 10
67.74984085498551
 20
65.74292028095626
 30
0.0
 11
67.33580077455153
 21
65.22041166261712
 31
0.0
 12
65.97529495975109
 22
66.7237862130886
 32
0.0
 13
65.97529495975109
 23
66.7237862130886
 33
0.0
  0
POINT
  5
7FDC
330
7FD7
100
AcDbEntity
  8
Defpoints
  6
ByBlock
 62
     0
100
AcDbPoint
 10
65.97529495975109
 20
66.7237862130886
 30
0.0
  0
POINT
  5
7FDD
330
7FD7
100
AcDbEntity
  8
Defpoints
  6
ByBlock
 62
     0
100
AcDbPoint
 10
65.34828461774413
 20
67.22063430960935
 30
0.0
  0
ENDBLK
  5
7FDF
330
7FD7
100
AcDbEntity
  8
0
100
AcDbBlockEnd
  0
BLOCK
  5
7FE7
330
7FE0
100
AcDbEntity
  8
0
100
AcDbBlockBegin
  2
*D37
 70
     1
 10
0.0
 20
0.0
 30
0.0
  3
*D37
  1

  0
LINE
  5
7FE1
330
7FE0
100
AcDbEntity
  8
0
  6
ByBlock
 62
     6
100
AcDbLine
 10
44.01306508983426
 20
85.48647158868741
 30
0.0
 11
40.29052257263201
 21
76.63895675370499
 31
0.0
  0
MTEXT
  5
7FE2
330
7FE0
100
AcDbEntity
  8
0
  6
ByBlock
 62
     3
100
AcDbMText
 10
41.78935068018858
 20
84.19802515040052
 30
0.0
 40
1.5
 41
0.0
 71
     5
 72
     1
  1
R3
 11
0.387815679095984
 21
0.9217369467734927
 31
0.0
 73
     1
 44
1.0
1001
ACAD
1000
MTEXTBEGIN
1070
    73
1070
     1
1070
    44
1040
1.0
1070
    74
1070
     0
1000
MTEXTEND
  0
LINE
  5
7FE3
330
7FE0
100
AcDbEntity
  8
0
  6
ByBlock
 62
     6
100
AcDbLine
 10
39.1270755353441
 20
73.87374591338454
 30
0.0
 11
40.29052257263201
 21
76.63895675370499
 31
0.0
  0
SOLID
  5
7FE4
330
7FE0
100
AcDbEntity
  8
0
  6
ByBlock
 62
     6
100
AcDbTrace
 10
40.7589082818995
 20
78.61170254028397
 30
0.0
 11
41.37339957974849
 21
78.35315875421997
 31
0.0
 12
40.29052257263201
 22
76.63895675370499
 32
0.0
 13
40.29052257263201
 23
76.63895675370499
 33
0.0
  0
POINT
  5
7FE5
330
7FE0
100
AcDbEntity
  8
Defpoints
  6
ByBlock
 62
     0
100
AcDbPoint
 10
40.29052257263201
 20
76.63895675370499
 30
0.0
  0
POINT
  5
7FE6
330
7FE0
100
AcDbEntity
  8
Defpoints
  6
ByBlock
 62
     0
100
AcDbPoint
 10
39.1270755353441
 20
73.87374591338454
 30
0.0
  0
ENDBLK
  5
7FE8
330
7FE0
100
AcDbEntity
  8
0
100
AcDbBlockEnd
  0
BLOCK
  5
7FF3
330
7FE9
100
AcDbEntity
  8
0
100
AcDbBlockBegin
  2
*D38
 70
     1
 10
0.0
 20
0.0
 30
0.0
  3
*D38
  1

  0
LINE
  5
7FEA
330
7FE9
100
AcDbEntity
  8
0
  6
ByBlock
 62
     6
100
AcDbLine
 10
50.14828461774431
 20
104.5406896821657
 30
0.0
 11
50.14828461774431
 21
96.25414215886385
 31
0.0
  0
LINE
  5
7FEB
330
7FE9
100
AcDbEntity
  8
0
  6
ByBlock
 62
     6
100
AcDbLine
 10
66.14828461774431
 20
104.7875780783904
 30
0.0
 11
66.14828461774431
 21
96.25414215886385
 31
0.0
  0
LINE
  5
7FEC
330
7FE9
100
AcDbEntity
  8
0
  6
ByBlock
 62
     6
100
AcDbLine
 10
52.1482846177443
 20
96.75414215886384
 30
0.0
 11
64.14828461774431
 21
96.75414215886384
 31
0.0
  0
SOLID
  5
7FED
330
7FE9
100
AcDbEntity
  8
0
  6
ByBlock
 62
     6
100
AcDbTrace
 10
52.1482846177443
 20
97.08747549219715
 30
0.0
 11
52.1482846177443
 21
96.42080882553052
 31
0.0
 12
50.14828461774431
 22
96.75414215886384
 32
0.0
 13
50.14828461774431
 23
96.75414215886384
 33
0.0
  0
SOLID
  5
7FEE
330
7FE9
100
AcDbEntity
  8
0
  6
ByBlock
 62
     6
100
AcDbTrace
 10
64.14828461774431
 20
97.08747549219715
 30
0.0
 11
64.14828461774431
 21
96.42080882553052
 31
0.0
 12
66.14828461774431
 22
96.75414215886384
 32
0.0
 13
66.14828461774431
 23
96.75414215886384
 33
0.0
  0
MTEXT
  5
7FEF
330
7FE9
100
AcDbEntity
  8
0
  6
ByBlock
 62
     3
100
AcDbMText
 10
58.14828461774431
 20
98.30414215886385
 30
0.0
 40
1.5
 41
0.0
 71
     5
 72
     1
  1
16
 73
     1
 44
1.0
1001
ACAD
1000
MTEXTBEGIN
1070
    73
1070
     1
1070
    44
1040
1.0
1070
    74
1070
     0
1000
MTEXTEND
  0
POINT
  5
7FF0
330
7FE9
100
AcDbEntity
  8
Defpoints
  6
ByBlock
 62
     0
100
AcDbPoint
 10
50.14828461774431
 20
105.1656896821657
 30
0.0
  0
POINT
  5
7FF1
330
7FE9
100
AcDbEntity
  8
Defpoints
  6
ByBlock
 62
     0
100
AcDbPoint
 10
66.14828461774431
 20
105.4125780783905
 30
0.0
  0
POINT
  5
7FF2
330
7FE9
100
AcDbEntity
  8
Defpoints
  6
ByBlock
 62
     0
100
AcDbPoint
 10
66.14828461774431
 20
96.75414215886384
 30
0.0
  0
ENDBLK
  5
7FF4
330
7FE9
100
AcDbEntity
  8
0
100
AcDbBlockEnd
  0
BLOCK
  5
80AA
330
7FF9
100
AcDbEntity
  8
0
100
AcDbBlockBegin
  2
A$C6E02058C
 70
     0
 10
0.0
 20
0.0
 30
0.0
  3
A$C6E02058C
  1

  0
LINE
  5
7FFA
330
7FF9
100
AcDbEntity
  8
文字
 62
     7
 48
5.0
100
AcDbLine
 39
2.0
 10
73.00222550264526
 20
13.14190326482745
 30
0.0
 11
75.66812736049984
 21
13.80837872929106
 31
0.0
  0
LINE
  5
7FFB
330
7FF9
100
AcDbEntity
  8
-
 62
     9
100
AcDbLine
 10
99.00000028840146
 20
145.0000001342627
 30
0.0
 11
0.0000002884014521
 21
145.0000001342627
 31
0.0
  0
LINE
  5
7FFC
330
7FF9
100
AcDbEntity
  8
-
 62
     9
370
    30
100
AcDbLine
 10
99.00000028840146
 20
10.00000013426276
 30
0.0
 11
42.81381374538205
 21
10.00000013426276
 31
0.0
  0
LINE
  5
7FFD
330
7FF9
100
AcDbEntity
  8
-
 62
     9
370
    30
100
AcDbLine
 10
99.00000028840146
 20
25.00000013426279
 30
0.0
 11
0.0000002884014521
 21
25.00000013426276
 31
0.0
  0
LINE
  5
7FFE
330
7FF9
100
AcDbEntity
  8
-
 62
     9
100
AcDbLine
 10
0.0000002884014521
 20
0.0000001342627911
 30
0.0
 11
99.00000028840146
 21
0.0000001342627911
 31
0.0
  0
LINE
  5
7FFF
330
7FF9
100
AcDbEntity
  8
-
 62
     9
370
    30
100
AcDbLine
 10
99.00000028840146
 20
20.00000013426279
 30
0.0
 11
42.81381374538227
 21
20.00000013426279
 31
0.0
  0
DIMENSION
  5
8000
330
7FF9
100
AcDbEntity
  8
標註線
100
AcDbDimension
  2
*D27
 10
37.14828490614554
 20
61.87374604764732
 30
0.0
 11
32.21091767035423
 21
55.36860583214232
 31
0.0
 70
   132
 71
     5
 42
-1.0
  3
ISO-25
100
AcDbRadialDimension
 15
36.54370932625255
 25
61.07719826615668
 35
0.0
 40
0.0
1001
ACAD
1000
DSTYLE
1002
{
1070
    41
1040
1.5
1070
   140
1040
1.5
1002
}
  0
LINE
  5
8001
330
7FF9
100
AcDbEntity
  8
-
 62
     9
370
    30
100
AcDbLine
 10
0.0000002884014521
 20
0.0000001342627911
 30
0.0
 11
0.0000002884014521
 21
145.0000001342627
 31
0.0
  0
LINE
  5
8002
330
7FF9
100
AcDbEntity
  8
-
 62
     9
370
    30
100
AcDbLine
 10
28.7378519359097
 20
20.00000013426279
 30
0.0
 11
0.0000002884014521
 21
20.00000013426276
 31
0.0
  0
LINE
  5
8003
330
7FF9
100
AcDbEntity
  8
-
 62
     9
370
    30
100
AcDbLine
 10
28.7378519359097
 20
15.00000013426278
 30
0.0
 11
2.500000288401451
 21
15.00000013426278
 31
0.0
  0
LINE
  5
8004
330
7FF9
100
AcDbEntity
  8
-
 62
     9
370
    30
100
AcDbLine
 10
28.7378519359097
 20
15.00000013426278
 30
0.0
 11
0.0000002884014521
 21
15.00000013426278
 31
0.0
  0
MTEXT
  5
8005
102
{ACAD_XDICTIONARY
360
8F0D
102
}
330
7FF9
100
AcDbEntity
  8
文字
 48
2.0
370
    25
100
AcDbMText
 10
17.63195601717473
 20
26.5517322979145
 30
0.0
 40
1.687499999999999
 41
0.0
 71
     5
 72
     1
  1
\Ftxt.shx,bigfont.shx|c128;4.\M+196A2\M+18E77\M+18EA6\M+18A70\M+19594\M+182CDR0.5\M+182C6\M+182B7\M+182E9\P 
 73
     1
 44
1.0
1001
ACAD
1000
MTEXTBEGIN
1070
    73
1070
     1
1070
    44
1040
1.0
1070
    74
1070
     0
1000
MTEXTEND
  0
MTEXT
  5
8006
102
{ACAD_XDICTIONARY
360
8F0F
102
}
330
7FF9
100
AcDbEntity
  8
文字
 48
2.0
370
    25
100
AcDbMText
 10
20.92784843565926
 20
34.71379499034751
 30
0.0
 40
1.687499999999999
 41
0.0
 71
     5
 72
     1
  1
\Ftxt.shx,bigfont.shx|c128;1.\M+193E0\M+18A4F\M+18B85\M+18C61\M+188CA\M+19275\M+1907B\M+191C5\M+18CF51000\M+18194\M+188C8\M+18FE3\P 
 73
     1
 44
1.0
1001
ACAD
1000
MTEXTBEGIN
1070
    73
1070
     1
1070
    44
1040
1.0
1070
    74
1070
     0
1000
MTEXTEND
  0
MTEXT
  5
8007
102
{ACAD_XDICTIONARY
360
8F11
102
}
330
7FF9
100
AcDbEntity
  8
文字
 48
2.0
370
    25
100
AcDbMText
 10
21.38104815932582
 20
31.88406885706092
 30
0.0
 40
1.687499999999999
 41
0.0
 71
     5
 72
     1
  1
\Ftxt.shx,bigfont.shx|c128;2.\M+1907D\M+196CA\M+18B9F\M+18E51\M+18D6C\M+188C82KG\M+19085\M+188B3\M+19573\M+19085\M+19852\M+188D7\M+18F80\P 
 73
     1
 44
1.0
1001
ACAD
1000
MTEXTBEGIN
1070
    73
1070
     1
1070
    44
1040
1.0
1070
    74
1070
     0
1000
MTEXTEND
  0
MTEXT
  5
8008
102
{ACAD_XDICTIONARY
360
8F13
102
}
330
7FF9
100
AcDbEntity
  8
文字
 48
2.0
370
    25
100
AcDbMText
 10
18.71850146826875
 20
29.22412622359053
 30
0.0
 40
1.687499999999999
 41
0.0
 71
     5
 72
     1
  1
\Ftxt.shx,bigfont.shx|c128;3.\M+193E0\M+18A4F\M+18B85\M+18C61\M+1905E\M+1897E\M+193785/100\M+188C8\M+193E0\P 
 73
     1
 44
1.0
1001
ACAD
1000
MTEXTBEGIN
1070
    73
1070
     1
1070
    44
1040
1.0
1070
    74
1070
     0
1000
MTEXTEND
  0
MTEXT
  5
8009
102
{ACAD_XDICTIONARY
360
8F15
102
}
330
7FF9
100
AcDbEntity
  8
文字
 62
     7
 48
2.0
370
    25
100
AcDbMText
 10
11.03090685449138
 20
2.386038994344089
 30
0.0
 40
1.649999999999999
 41
0.0
 71
     5
 72
     1
  1
\Ftxt.shx,bigfont.shx|c128;\M+18D58\M+189FC\M+193E0\M+19765
 73
     1
 44
1.0
1001
ACAD
1000
MTEXTBEGIN
1070
    73
1070
     1
1070
    44
1040
1.0
1070
    74
1070
     0
1000
MTEXTEND
  0
MTEXT
  5
800A
102
{ACAD_XDICTIONARY
360
8F17
102
}
330
7FF9
100
AcDbEntity
  8
文字
 62
     7
 48
2.0
370
    25
100
AcDbMText
 10
11.03090685449138
 20
7.386038994344032
 30
0.0
 40
1.649999999999999
 41
0.0
 71
     5
 72
     1
  1
\Ftxt.shx,bigfont.shx|c128;\M+19056\M+18B4B\M+194AD\M+18D73
 73
     1
 44
1.0
1001
ACAD
1000
MTEXTBEGIN
1070
    73
1070
     1
1070
    44
1040
1.0
1070
    74
1070
     0
1000
MTEXTEND
  0
LINE
  5
800B
330
7FF9
100
AcDbEntity
  8
-
 62
     9
370
    30
100
AcDbLine
 10
28.7378519359097
 20
5.000000134262761
 30
0.0
 11
0.0000002884014521
 21
5.000000134262761
 31
0.0
  0
LINE
  5
800C
330
7FF9
100
AcDbEntity
  8
-
 62
     9
370
    30
100
AcDbLine
 10
28.7378519359097
 20
10.00000013426276
 30
0.0
 11
2.500000288401451
 21
10.00000013426276
 31
0.0
  0
LINE
  5
800D
330
7FF9
100
AcDbEntity
  8
-
 62
     9
370
    30
100
AcDbLine
 10
28.73785193590982
 20
10.00000013426276
 30
0.0
 11
0.0000002884014521
 21
10.00000013426276
 31
0.0
  0
LINE
  5
800E
330
7FF9
100
AcDbEntity
  8
-
370
    30
100
AcDbLine
 10
5.74289967406912
 20
0.0000001342627911
 30
0.0
 11
5.74289967406912
 21
25.00000013426276
 31
0.0
  0
LINE
  5
800F
330
7FF9
100
AcDbEntity
  8
文字
 62
     7
 48
2.0
370
    25
100
AcDbLine
 10
2.886103658239334
 20
3.738017530083851
 30
0.0
 11
1.566482238601565
 21
1.098774690807714
 31
0.0
  0
LINE
  5
8010
330
7FF9
100
AcDbEntity
  8
文字
 62
     7
 48
2.0
370
    25
100
AcDbLine
 10
2.886103658239334
 20
3.738017530083851
 30
0.0
 11
4.205725077877444
 21
1.098774690807714
 31
0.0
  0
LINE
  5
8011
330
7FF9
100
AcDbEntity
  8
文字
 62
     7
 48
2.0
370
    25
100
AcDbLine
 10
1.566482238601565
 20
1.098774690807714
 30
0.0
 11
4.205725077877444
 21
1.098774690807714
 31
0.0
  0
MTEXT
  5
8012
330
7FF9
100
AcDbEntity
  8
文字
 62
     7
 48
2.0
370
    25
100
AcDbMText
 10
3.019732776581122
 20
7.302057219671978
 30
0.0
 40
1.187999999999999
 41
0.0
 71
     5
 72
     1
  1
\Ftxt.shx,bigfont.shx|c128;0
 73
     1
 44
1.0
1001
ACAD
1000
MTEXTBEGIN
1070
    73
1070
     1
1070
    44
1040
1.0
1070
    74
1070
     0
1000
MTEXTEND
  0
LINE
  5
8013
330
7FF9
100
AcDbEntity
  8
文字
 62
     7
 48
2.0
370
    25
100
AcDbLine
 10
3.004260356114854
 20
8.920572839461128
 30
0.0
 11
1.684638936477085
 21
6.281330000184992
 31
0.0
  0
LINE
  5
8014
330
7FF9
100
AcDbEntity
  8
文字
 62
     7
 48
2.0
370
    25
100
AcDbLine
 10
1.684638936477085
 20
6.281330000184992
 30
0.0
 11
4.323881775752964
 21
6.281330000184992
 31
0.0
  0
LINE
  5
8015
330
7FF9
100
AcDbEntity
  8
文字
 62
     7
 48
2.0
370
    25
100
AcDbLine
 10
3.004260356114854
 20
8.920572839461128
 30
0.0
 11
4.323881775752964
 21
6.281330000184992
 31
0.0
  0
MTEXT
  5
8016
102
{ACAD_XDICTIONARY
360
8F19
102
}
330
7FF9
100
AcDbEntity
  8
文字
 48
2.0
370
    25
100
AcDbMText
 10
7.044018142729727
 20
40.59222222539893
 30
0.0
 40
2.25
 41
0.0
 71
     5
 72
     1
  1
\Ftxt.shx,bigfont.shx|c128;\M+194F5\M+19290\M+18146
 73
     1
 44
1.0
1001
ACAD
1000
MTEXTBEGIN
1070
    73
1070
     1
1070
    44
1040
1.0
1070
    74
1070
     0
1000
MTEXTEND
  0
LINE
  5
8017
330
7FF9
100
AcDbEntity
  8
-
 62
     9
100
AcDbLine
 10
77.46381374538214
 20
25.00000013426279
 30
0.0
 11
77.46381374538238
 21
0.0000001342627911
 31
0.0
  0
LINE
  5
8018
330
7FF9
100
AcDbEntity
  8
-
 62
     9
370
    30
100
AcDbLine
 10
28.7378519359097
 20
0.0000001342627911
 30
0.0
 11
28.7378519359097
 21
25.00000013426279
 31
0.0
  0
LINE
  5
8019
330
7FF9
100
AcDbEntity
  8
-
 62
     9
370
    30
100
AcDbLine
 10
23.64144022640369
 20
0.0000001342627911
 30
0.0
 11
23.64144022640369
 21
25.00000013426279
 31
0.0
  0
LINE
  5
801A
330
7FF9
100
AcDbEntity
  8
-
 62
     9
370
    30
100
AcDbLine
 10
37.4183681186912
 20
0.0810805720102792
 30
0.0
 11
37.4183681186912
 21
21.87500013426276
 31
0.0
  0
LINE
  5
801B
330
7FF9
100
AcDbEntity
  8
-
 62
     9
100
AcDbLine
 10
42.81381374538227
 20
25.00000013426279
 30
0.0
 11
42.81381374538227
 21
0.0000001342627627
 31
0.0
  0
LINE
  5
801C
330
7FF9
100
AcDbEntity
  8
-
 62
     9
370
    30
100
AcDbLine
 10
17.33107104495616
 20
0.0000001342627911
 30
0.0
 11
17.3310710449565
 21
25.00000013426276
 31
0.0
  0
MTEXT
  5
801D
102
{ACAD_XDICTIONARY
360
8F1B
102
}
330
7FF9
100
AcDbEntity
  8
0
100
AcDbMText
 10
44.26296572807757
 20
5.691763339275298
 30
0.0
 40
3.0
 41
0.0
 71
     1
 72
     5
  1
\Ftxt.shx,bigfont.shx|c128;\M+193FA\M+18B40\M+18A94\M+18EAE\M+189EF\M+18ED0
  7
LKK
 73
     1
 44
1.0
1001
ACAD
1000
MTEXTBEGIN
1070
    73
1070
     1
1070
    44
1040
1.0
1070
    74
1070
     0
1000
MTEXTEND
  0
MTEXT
  5
801E
330
7FF9
100
AcDbEntity
  8
文字
 62
     7
 48
2.0
370
    25
100
AcDbMText
 10
33.09559889682294
 20
1.61596032685972
 30
0.0
 40
1.056
 41
0.0
 71
     5
 72
     1
  1
\Ftxt.shx,bigfont.shx|c128;1000-1500
 73
     1
 44
1.0
1001
ACAD
1000
MTEXTBEGIN
1070
    73
1070
     1
1070
    44
1040
1.0
1070
    74
1070
     0
1000
MTEXTEND
  0
LINE
  5
801F
330
7FF9
100
AcDbEntity
  8
-
 62
     9
370
    30
100
AcDbLine
 10
42.81381374538227
 20
3.125000134262761
 30
0.0
 11
28.7378519359097
 21
3.125000134262761
 31
0.0
  0
LINE
  5
8020
330
7FF9
100
AcDbEntity
  8
-
 62
     9
370
    30
100
AcDbLine
 10
42.81381374538227
 20
6.250000134262763
 30
0.0
 11
28.7378519359097
 21
6.250000134262763
 31
0.0
  0
MTEXT
  5
8021
102
{ACAD_XDICTIONARY
360
8F1D
102
}
330
7FF9
100
AcDbEntity
  8
文字
 62
     7
 48
2.0
370
    25
100
AcDbMText
 10
20.48228270935795
 20
7.333999616389519
 30
0.0
 40
1.649999999999999
 41
0.0
 71
     5
 72
     1
  1
\Ftxt.shx,bigfont.shx|c128;\M+18CE0\M+196C1\M+18D47
 73
     1
 44
1.0
1001
ACAD
1000
MTEXTBEGIN
1070
    73
1070
     1
1070
    44
1040
1.0
1070
    74
1070
     0
1000
MTEXTEND
  0
MTEXT
  5
8022
102
{ACAD_XDICTIONARY
360
8F1F
102
}
330
7FF9
100
AcDbEntity
  8
文字
 62
     7
 48
2.0
370
    25
100
AcDbMText
 10
20.56770001732445
 20
2.333999616389518
 30
0.0
 40
1.649999999999999
 41
0.0
 71
     5
 72
     1
  1
\Ftxt.shx,bigfont.shx|c128;\M+19253\M+19396
 73
     1
 44
1.0
1001
ACAD
1000
MTEXTBEGIN
1070
    73
1070
     1
1070
    44
1040
1.0
1070
    74
1070
     0
1000
MTEXTEND
  0
MTEXT
  5
8023
102
{ACAD_XDICTIONARY
360
8F21
102
}
330
7FF9
100
AcDbEntity
  8
文字
 62
     7
 48
2.0
370
    25
100
AcDbMText
 10
26.09936609892372
 20
2.279448479390481
 30
0.0
 40
1.649999999999999
 41
0.0
 71
     5
 72
     1
  1
\Ftxt.shx,bigfont.shx|c128;\M+193FA\M+19574
 73
     1
 44
1.0
1001
ACAD
1000
MTEXTBEGIN
1070
    73
1070
     1
1070
    44
1040
1.0
1070
    74
1070
     0
1000
MTEXTEND
  0
MTEXT
  5
8024
330
7FF9
100
AcDbEntity
  8
0
100
AcDbMText
 10
24.02060547252574
 20
7.981407874791044
 30
0.0
 40
1.575
 41
0.0
 71
     1
 72
     5
  1
\Ftxt.shx,bigfont.shx|c128;04.10.13
  7
JL
 73
     1
 44
1.0
1001
ACAD
1000
MTEXTBEGIN
1070
    73
1070
     1
1070
    44
1040
1.0
1070
    74
1070
     0
1000
MTEXTEND
  0
MTEXT
  5
8025
330
7FF9
100
AcDbEntity
  8
文字
 62
     7
 48
2.0
370
    25
100
AcDbMText
 10
33.32173788524278
 20
4.722568928940431
 30
0.0
 40
1.056
 41
0.0
 71
     5
 72
     1
  1
\Ftxt.shx,bigfont.shx|c128;250-1000
 73
     1
 44
1.0
1001
ACAD
1000
MTEXTBEGIN
1070
    73
1070
     1
1070
    44
1040
1.0
1070
    74
1070
     0
1000
MTEXTEND
  0
MTEXT
  5
8026
330
7FF9
100
AcDbEntity
  8
文字
 62
     7
 48
2.0
370
    25
100
AcDbMText
 10
33.51557184568298
 20
7.791844428138261
 30
0.0
 40
1.187999999999999
 41
0.0
 71
     5
 72
     1
  1
\Ftxt.shx,bigfont.shx|c128;63-250
 73
     1
 44
1.0
1001
ACAD
1000
MTEXTBEGIN
1070
    73
1070
     1
1070
    44
1040
1.0
1070
    74
1070
     0
1000
MTEXTEND
  0
MTEXT
  5
8027
330
7FF9
100
AcDbEntity
  8
文字
 62
     7
 48
2.0
370
    25
100
AcDbMText
 10
39.98345667455453
 20
1.574569694633708
 30
0.0
 40
1.056
 41
0.0
 71
     5
 72
     1
  1
\Ftxt.shx,bigfont.shx|c128;%%p0.5
 73
     1
 44
1.0
1001
ACAD
1000
MTEXTBEGIN
1070
    73
1070
     1
1070
    44
1040
1.0
1070
    74
1070
     0
1000
MTEXTEND
  0
MTEXT
  5
8028
330
7FF9
100
AcDbEntity
  8
文字
 62
     7
 48
2.0
370
    25
100
AcDbMText
 10
39.91635349160015
 20
7.725875729010539
 30
0.0
 40
1.056
 41
0.0
 71
     5
 72
     1
  1
\Ftxt.shx,bigfont.shx|c128;%%p0.2
 73
     1
 44
1.0
1001
ACAD
1000
MTEXTBEGIN
1070
    73
1070
     1
1070
    44
1040
1.0
1070
    74
1070
     0
1000
MTEXTEND
  0
MTEXT
  5
8029
330
7FF9
100
AcDbEntity
  8
文字
 62
     7
 48
2.0
370
    25
100
AcDbMText
 10
39.98345667455453
 20
4.629040269019724
 30
0.0
 40
1.056
 41
0.0
 71
     5
 72
     1
  1
\Ftxt.shx,bigfont.shx|c128;%%p0.3
 73
     1
 44
1.0
1001
ACAD
1000
MTEXTBEGIN
1070
    73
1070
     1
1070
    44
1040
1.0
1070
    74
1070
     0
1000
MTEXTEND
  0
MTEXT
  5
802A
102
{ACAD_XDICTIONARY
360
8F23
102
}
330
7FF9
100
AcDbEntity
  8
0
100
AcDbMText
 10
43.43238052061429
 20
13.83799427687623
 30
0.0
 40
2.25
 41
0.0
 71
     1
 72
     5
  1
\Ftxt.shx,bigfont.shx|c128;\M+190BB \M+1907D
  7
JL
 73
     1
 44
1.0
1001
ACAD
1000
MTEXTBEGIN
1070
    73
1070
     1
1070
    44
1040
1.0
1070
    74
1070
     0
1000
MTEXTEND
  0
MTEXT
  5
802B
102
{ACAD_XDICTIONARY
360
8F25
102
}
330
7FF9
100
AcDbEntity
  8
0
100
AcDbMText
 10
43.31399467890411
 20
18.88214072705384
 30
0.0
 40
2.25
 41
0.0
 71
     1
 72
     5
  1
\Ftxt.shx,bigfont.shx|c128;\M+18C9F \M+1907D
  7
JL
 73
     1
 44
1.0
1001
ACAD
1000
MTEXTBEGIN
1070
    73
1070
     1
1070
    44
1040
1.0
1070
    74
1070
     0
1000
MTEXTEND
  0
MTEXT
  5
802C
102
{ACAD_XDICTIONARY
360
8F27
102
}
330
7FF9
100
AcDbEntity
  8
0
100
AcDbMText
 10
43.43403468944052
 20
23.6150633250987
 30
0.0
 40
2.25
 41
0.0
 71
     1
 72
     5
  1
\Ftxt.shx,bigfont.shx|c128;\M+18FB3 \M+19446
  7
JL
 73
     1
 44
1.0
1001
ACAD
1000
MTEXTBEGIN
1070
    73
1070
     1
1070
    44
1040
1.0
1070
    74
1070
     0
1000
MTEXTEND
  0
LINE
  5
802D
330
7FF9
100
AcDbEntity
  8
-
100
AcDbLine
 10
42.81381374538227
 20
15.00000013426278
 30
0.0
 11
77.46381374538225
 21
15.00000013426278
 31
0.0
  0
MTEXT
  5
802E
102
{ACAD_XDICTIONARY
360
8F29
102
}
330
7FF9
100
AcDbEntity
  8
文字
 62
     7
 48
2.0
370
    25
100
AcDbMText
 10
32.80904202682439
 20
20.26649814536057
 30
0.0
 40
1.32
 41
0.0
 71
     5
 72
     1
  1
\Ftxt.shx,bigfont.shx|c128;\M+190A1     \M+19640
 73
     1
 44
1.0
1001
ACAD
1000
MTEXTBEGIN
1070
    73
1070
     1
1070
    44
1040
1.0
1070
    74
1070
     0
1000
MTEXTEND
  0
LINE
  5
802F
330
7FF9
100
AcDbEntity
  8
-
 62
     9
370
    30
100
AcDbLine
 10
42.81381374538227
 20
18.75000013426276
 30
0.0
 11
28.7378519359097
 21
18.75000013426276
 31
0.0
  0
LINE
  5
8030
330
7FF9
100
AcDbEntity
  8
-
 62
     9
370
    30
100
AcDbLine
 10
42.81381374538227
 20
21.87500013426276
 30
0.0
 11
28.7378519359097
 21
21.87500013426276
 31
0.0
  0
LINE
  5
8031
330
7FF9
100
AcDbEntity
  8
-
 62
     9
370
    30
100
AcDbLine
 10
42.81381374538227
 20
15.62500013426278
 30
0.0
 11
28.7378519359097
 21
15.62500013426278
 31
0.0
  0
LINE
  5
8032
330
7FF9
100
AcDbEntity
  8
-
 62
     9
370
    30
100
AcDbLine
 10
42.81381374538227
 20
12.50000013426276
 30
0.0
 11
28.7378519359097
 21
12.50000013426276
 31
0.0
  0
LINE
  5
8033
330
7FF9
100
AcDbEntity
  8
-
 62
     9
370
    30
100
AcDbLine
 10
42.81381374538227
 20
9.375000134262762
 30
0.0
 11
28.7378519359097
 21
9.375000134262762
 31
0.0
  0
MTEXT
  5
8034
330
7FF9
100
AcDbEntity
  8
文字
 62
     7
 48
2.0
370
    25
100
AcDbMText
 10
34.67857371204309
 20
13.99413642547074
 30
0.0
 40
1.187999999999999
 41
0.0
 71
     5
 72
     1
  1
\Ftxt.shx,bigfont.shx|c128;4-16
 73
     1
 44
1.0
1001
ACAD
1000
MTEXTBEGIN
1070
    73
1070
     1
1070
    44
1040
1.0
1070
    74
1070
     0
1000
MTEXTEND
  0
MTEXT
  5
8035
330
7FF9
100
AcDbEntity
  8
文字
 62
     7
 48
2.0
370
    25
100
AcDbMText
 10
34.29090673930307
 20
11.01557606636902
 30
0.0
 40
1.187999999999999
 41
0.0
 71
     5
 72
     1
  1
\Ftxt.shx,bigfont.shx|c128;16-63
 73
     1
 44
1.0
1001
ACAD
1000
MTEXTBEGIN
1070
    73
1070
     1
1070
    44
1040
1.0
1070
    74
1070
     0
1000
MTEXTEND
  0
MTEXT
  5
8036
330
7FF9
100
AcDbEntity
  8
文字
 62
     7
 48
2.0
370
    25
100
AcDbMText
 10
35.32468659746337
 20
17.11384575925982
 30
0.0
 40
1.187999999999999
 41
0.0
 71
     5
 72
     1
  1
\Ftxt.shx,bigfont.shx|c128;1-4
 73
     1
 44
1.0
1001
ACAD
1000
MTEXTBEGIN
1070
    73
1070
     1
1070
    44
1040
1.0
1070
    74
1070
     0
1000
MTEXTEND
  0
MTEXT
  5
8037
330
7FF9
100
AcDbEntity
  8
文字
 62
     7
 48
2.0
370
    25
100
AcDbMText
 10
40.22976074577184
 20
14.03588170246976
 30
0.0
 40
1.056
 41
0.0
 71
     5
 72
     1
  1
\Ftxt.shx,bigfont.shx|c128;%%p0.07
 73
     1
 44
1.0
1001
ACAD
1000
MTEXTBEGIN
1070
    73
1070
     1
1070
    44
1040
1.0
1070
    74
1070
     0
1000
MTEXTEND
  0
MTEXT
  5
8038
330
7FF9
100
AcDbEntity
  8
文字
 62
     7
 48
2.0
370
    25
100
AcDbMText
 10
39.65339973203278
 20
10.95765292239062
 30
0.0
 40
1.056
 41
0.0
 71
     5
 72
     1
  1
\Ftxt.shx,bigfont.shx|c128;%%p0.1
 73
     1
 44
1.0
1001
ACAD
1000
MTEXTBEGIN
1070
    73
1070
     1
1070
    44
1040
1.0
1070
    74
1070
     0
1000
MTEXTEND
  0
MTEXT
  5
8039
330
7FF9
100
AcDbEntity
  8
文字
 62
     7
 48
2.0
370
    25
100
AcDbMText
 10
40.07449803084898
 20
17.08862382147239
 30
0.0
 40
1.056
 41
0.0
 71
     5
 72
     1
  1
\Ftxt.shx,bigfont.shx|c128;%%p0.05
 73
     1
 44
1.0
1001
ACAD
1000
MTEXTBEGIN
1070
    73
1070
     1
1070
    44
1040
1.0
1070
    74
1070
     0
1000
MTEXTEND
  0
MTEXT
  5
803A
102
{ACAD_XDICTIONARY
360
8F2B
102
}
330
7FF9
100
AcDbEntity
  8
文字
 62
     7
 48
2.0
370
    25
100
AcDbMText
 10
40.01747609366417
 20
20.2483395467134
 30
0.0
 40
0.9503999999999999
 41
0.0
 71
     5
 72
     1
  1
\Ftxt.shx,bigfont.shx|c128;\M+19765\M+18B96\M+18CF6\M+18DB7
 73
     1
 44
1.0
1001
ACAD
1000
MTEXTBEGIN
1070
    73
1070
     1
1070
    44
1040
1.0
1070
    74
1070
     0
1000
MTEXTEND
  0
MTEXT
  5
803B
102
{ACAD_XDICTIONARY
360
8F2D
102
}
330
7FF9
100
AcDbEntity
  8
文字
 62
     7
 48
2.0
370
    25
100
AcDbMText
 10
35.87462830458446
 20
23.40194420783405
 30
0.0
 40
1.25
 41
0.0
 71
     5
 72
     1
  1
\Ftxt.shx,bigfont.shx|c128;\M+188EA   \M+194CA   \M+18CF6   \M+18DB7
 73
     1
 44
1.0
1001
ACAD
1000
MTEXTBEGIN
1070
    73
1070
     1
1070
    44
1040
1.0
1070
    74
1070
     0
1000
MTEXTEND
  0
MTEXT
  5
803C
330
7FF9
100
AcDbEntity
  8
0
100
AcDbMText
 10
59.18782323984044
 20
13.42245914109023
 30
0.0
 40
2.25
 41
0.0
 71
     1
 72
     5
  1
\Ftxt.shx,bigfont.shx|c128;04.10.13
  7
JL
 73
     1
 44
1.0
1001
ACAD
1000
MTEXTBEGIN
1070
    73
1070
     1
1070
    44
1040
1.0
1070
    74
1070
     0
1000
MTEXTEND
  0
LINE
  5
803D
330
7FF9
100
AcDbEntity
  8
-
100
AcDbLine
 10
58.863813745382
 20
25.00000013426279
 30
0.0
 11
58.86381374538222
 21
10.00000013426276
 31
0.0
  0
LINE
  5
803E
330
7FF9
100
AcDbEntity
  8
-
 62
     9
100
AcDbLine
 10
54.36381374538235
 20
25.00000013426279
 30
0.0
 11
54.36381374538235
 21
10.00000013426276
 31
0.0
  0
LINE
  5
803F
330
7FF9
100
AcDbEntity
  8
-
100
AcDbLine
 10
47.31381374538226
 20
25.00000013426279
 30
0.0
 11
47.31381374538226
 21
10.00000013426276
 31
0.0
  0
MTEXT
  5
8040
102
{ACAD_XDICTIONARY
360
8F2F
102
}
330
7FF9
100
AcDbEntity
  8
0
100
AcDbMText
 10
48.69467632844759
 20
13.60198965367553
 30
0.0
 40
2.5
 41
0.0
 71
     1
 72
     5
  1
\Ftxt.shx,bigfont.shx|c128;\M+18CE0\M+196C1\M+18D47
  7
JL
 73
     1
 44
1.0
1001
ACAD
1000
MTEXTBEGIN
1070
    73
1070
     1
1070
    44
1040
1.0
1070
    74
1070
     0
1000
MTEXTEND
  0
MTEXT
  5
8041
102
{ACAD_XDICTIONARY
360
8F31
102
}
330
7FF9
100
AcDbEntity
  8
0
100
AcDbMText
 10
55.10029214195935
 20
13.42245914109023
 30
0.0
 40
2.25
 41
0.0
 71
     1
 72
     5
  1
\Ftxt.shx,bigfont.shx|c128;\M+193FA \M+19574
  7
JL
 73
     1
 44
1.0
1001
ACAD
1000
MTEXTBEGIN
1070
    73
1070
     1
1070
    44
1040
1.0
1070
    74
1070
     0
1000
MTEXTEND
  0
MTEXT
  5
8042
102
{ACAD_XDICTIONARY
360
8F33
102
}
330
7FF9
100
AcDbEntity
  8
0
100
AcDbMText
 10
55.10029214195902
 20
18.42245914109023
 30
0.0
 40
2.25
 41
0.0
 71
     1
 72
     5
  1
\Ftxt.shx,bigfont.shx|c128;\M+193FA \M+19574
  7
JL
 73
     1
 44
1.0
1001
ACAD
1000
MTEXTBEGIN
1070
    73
1070
     1
1070
    44
1040
1.0
1070
    74
1070
     0
1000
MTEXTEND
  0
MTEXT
  5
8043
102
{ACAD_XDICTIONARY
360
8F35
102
}
330
7FF9
100
AcDbEntity
  8
0
100
AcDbMText
 10
55.10029214195902
 20
23.42245914109023
 30
0.0
 40
2.25
 41
0.0
 71
     1
 72
     5
  1
\Ftxt.shx,bigfont.shx|c128;\M+193FA \M+19574
  7
JL
 73
     1
 44
1.0
1001
ACAD
1000
MTEXTBEGIN
1070
    73
1070
     1
1070
    44
1040
1.0
1070
    74
1070
     0
1000
MTEXTEND
  0
LINE
  5
8044
330
7FF9
100
AcDbEntity
  8
-
100
AcDbLine
 10
70.41381374538218
 20
25.00000013426279
 30
0.0
 11
70.41381374538218
 21
15.00000013426278
 31
0.0
  0
LINE
  5
8045
330
7FF9
100
AcDbEntity
  8
-
 62
     9
100
AcDbLine
 10
65.9138137453824
 20
25.00000013426279
 30
0.0
 11
65.9138137453824
 21
10.00000013426276
 31
0.0
  0
CIRCLE
  5
8046
330
7FF9
100
AcDbEntity
  8
文字
 62
     7
100
AcDbCircle
 10
68.67013498363156
 20
12.47542780036374
 30
0.0
 40
0.6664754644636605
  0
LINE
  5
8047
330
7FF9
100
AcDbEntity
  8
文字
 62
     7
370
    25
100
AcDbLine
 10
67.00433558869328
 20
12.47542780036374
 30
0.0
 11
70.43543089785839
 21
12.4754278003638
 31
0.0
  0
LINE
  5
8048
330
7FF9
100
AcDbEntity
  8
文字
 62
     7
370
    25
100
AcDbLine
 10
68.67013498363156
 20
10.81371563431892
 30
0.0
 11
68.67013498363156
 21
14.03157502566662
 31
0.0
  0
CIRCLE
  5
8049
330
7FF9
100
AcDbEntity
  8
文字
 62
     7
100
AcDbCircle
 10
68.67013498363156
 20
12.47542780036374
 30
0.0
 40
1.33295092892732
  0
MTEXT
  5
804A
102
{ACAD_XDICTIONARY
360
8F37
102
}
330
7FF9
100
AcDbEntity
  8
0
100
AcDbMText
 10
66.57207515535617
 20
18.7825638489152
 30
0.0
 40
2.25
 41
0.0
 71
     1
 72
     5
  1
\Ftxt.shx,bigfont.shx|c128;\M+18EDA \M+19378
  7
JL
 73
     1
 44
1.0
1001
ACAD
1000
MTEXTBEGIN
1070
    73
1070
     1
1070
    44
1040
1.0
1070
    74
1070
     0
1000
MTEXTEND
  0
LINE
  5
804B
330
7FF9
100
AcDbEntity
  8
文字
 62
     7
370
    25
100
AcDbLine
 10
72.61862433000408
 20
12.4754278003638
 30
0.0
 11
75.90745953398936
 21
12.4754278003638
 31
0.0
  0
LINE
  5
804C
330
7FF9
100
AcDbEntity
  8
文字
 62
     7
100
AcDbLine
 10
73.00222550264526
 20
11.80895233590013
 30
0.0
 11
75.66812736049984
 21
11.14247687143648
 31
0.0
  0
LINE
  5
804D
330
7FF9
100
AcDbEntity
  8
文字
 62
     7
370
    25
100
AcDbLine
 10
73.00222550264526
 20
11.80895233590013
 30
0.0
 11
73.00222550264526
 21
13.14190326482745
 31
0.0
  0
LINE
  5
804E
330
7FF9
100
AcDbEntity
  8
文字
 62
     7
370
    25
100
AcDbLine
 10
75.66812736049984
 20
11.14247687143648
 30
0.0
 11
75.66812736049984
 21
13.80837872929106
 31
0.0
  0
MTEXT
  5
804F
330
7FF9
100
AcDbEntity
  8
0
100
AcDbMText
 10
72.53230148818784
 20
18.7825638489152
 30
0.0
 40
2.25
 41
0.0
 71
     1
 72
     5
  1
\Ftxt.shx,bigfont.shx|c128;2 : 1
  7
JL
 73
     1
 44
1.0
1001
ACAD
1000
MTEXTBEGIN
1070
    73
1070
     1
1070
    44
1040
1.0
1070
    74
1070
     0
1000
MTEXTEND
  0
MTEXT
  5
8050
102
{ACAD_XDICTIONARY
360
8F39
102
}
330
7FF9
100
AcDbEntity
  8
0
100
AcDbMText
 10
66.57207515535617
 20
23.7825638489152
 30
0.0
 40
2.25
 41
0.0
 71
     1
 72
     5
  1
\Ftxt.shx,bigfont.shx|c128;\M+18DDE \M+18EBF
  7
JL
 73
     1
 44
1.0
1001
ACAD
1000
MTEXTBEGIN
1070
    73
1070
     1
1070
    44
1040
1.0
1070
    74
1070
     0
1000
MTEXTEND
  0
MTEXT
  5
8051
330
7FF9
100
AcDbEntity
  8
0
100
AcDbMText
 10
72.09546154449651
 20
23.7825638489152
 30
0.0
 40
2.25
 41
0.0
 71
     1
 72
     5
  1
\Ftxt.shx,bigfont.shx|c128;POM
  7
JL
 73
     1
 44
1.0
1001
ACAD
1000
MTEXTBEGIN
1070
    73
1070
     1
1070
    44
1040
1.0
1070
    74
1070
     0
1000
MTEXTEND
  0
DIMENSION
  5
8052
330
7FF9
100
AcDbEntity
  8
標註線
100
AcDbDimension
  2
*D34
 10
66.14828490614553
 20
95.93165613388157
 30
0.0
 11
51.14828490614565
 21
97.48165613388158
 31
0.0
 12
0.0000002884014521
 22
6.427709410521003
 32
0.0
 71
     5
 42
-1.0
  3
ISO-25
100
AcDbAlignedDimension
 13
36.14828490614576
 23
106.4933990926867
 33
0.0
 14
66.14828490614553
 24
111.8402874889115
 34
0.0
100
AcDbRotatedDimension
  0
DIMENSION
  5
8053
330
7FF9
100
AcDbEntity
  8
標註線
100
AcDbDimension
  2
*D33
 10
66.14828490614574
 20
99.36119070262101
 30
0.0
 11
52.44828490614572
 21
100.911190702621
 31
0.0
 71
     5
 42
-1.0
  3
ISO-25
100
AcDbAlignedDimension
 13
38.74828490614567
 23
104.4933990926866
 33
0.0
 14
66.14828490614574
 24
111.8402874889115
 34
0.0
100
AcDbRotatedDimension
  0
LINE
  5
8054
330
7FF9
100
AcDbEntity
  8
本体\U+5185線
  6
HIDDEN2
 48
0.5
100
AcDbLine
 10
41.34680642105894
 20
63.18954109562922
 30
0.0
 11
50.14828490614576
 21
66.97374604764724
 31
0.0
  0
LINE
  5
8055
330
7FF9
100
AcDbEntity
  8
本体\U+5185線
  6
HIDDEN2
 48
0.5
100
AcDbLine
 10
41.34680642105894
 20
74.55795099966451
 30
0.0
 11
50.14828490614576
 21
70.77374604764719
 31
0.0
  0
LINE
  5
8056
330
7FF9
100
AcDbEntity
  8
中心線
  6
CENTER
 48
0.1
100
AcDbLine
 10
35.14828490614576
 20
68.87374604764733
 30
0.0
 11
67.14828490614575
 21
68.87374604764733
 31
0.0
  0
LINE
  5
8057
330
7FF9
100
AcDbEntity
  8
本体外線
100
AcDbLine
 10
40.31841204303231
 20
76.62705642110978
 30
0.0
 11
50.14828490614576
 21
72.37374604764733
 31
0.0
  0
LINE
  5
8058
330
7FF9
100
AcDbEntity
  8
本体外線
100
AcDbLine
 10
40.31841204303231
 20
61.12043567418493
 30
0.0
 11
50.14828490614576
 21
65.37374604764733
 31
0.0
  0
DIMENSION
  5
8059
330
7FF9
100
AcDbEntity
  8
0
100
AcDbDimension
  2
*D37
 10
39.12707582374554
 20
73.87374604764731
 30
0.0
 11
43.21804323608893
 21
83.59691098206454
 31
0.0
 70
   132
 71
     5
 42
-1.0
  3
ISO-25
100
AcDbRadialDimension
 15
40.29052286103348
 25
76.63895688796777
 35
0.0
 40
0.0
1001
ACAD
1000
DSTYLE
1002
{
1070
   288
1070
     1
1002
}
  0
DIMENSION
  5
805A
330
7FF9
100
AcDbEntity
  8
標註線
100
AcDbDimension
  2
*D31
 10
39.12707582374554
 20
79.56168835091023
 30
0.0
 11
37.63768036494554
 21
81.11168835091023
 31
0.0
 71
     5
 42
-1.0
  3
ISO-25
100
AcDbAlignedDimension
 13
36.14828490614554
 23
75.87374604764739
 33
0.0
 14
39.12707582374554
 24
73.87374604764733
 34
0.0
100
AcDbRotatedDimension
  0
DIMENSION
  5
805B
330
7FF9
100
AcDbEntity
  8
標註線
100
AcDbDimension
  2
*D23
 10
30.72079425379133
 20
60.87374604764739
 30
0.0
 11
29.17079425379133
 21
68.87374604764736
 31
0.0
  1
%%C16
 71
     5
 42
-1.0
  3
ISO-25
100
AcDbAlignedDimension
 13
36.94828490614549
 23
76.87374604764733
 33
0.0
 14
36.94828490614572
 24
60.87374604764739
 34
0.0
 50
90.0
100
AcDbRotatedDimension
1001
ACAD
1000
DSTYLE
1002
{
1070
    41
1040
1.5
1070
   140
1040
1.5
1002
}
  0
LINE
  5
805C
330
7FF9
100
AcDbEntity
  8
本体\U+5185線
  6
HIDDEN2
 48
0.5
100
AcDbLine
 10
36.94828490614572
 20
74.8589361031095
 30
0.0
 11
36.94828490614572
 21
62.88855599218573
 31
0.0
  0
LINE
  5
805D
330
7FF9
100
AcDbEntity
  8
本体外線
100
AcDbLine
 10
36.14828490614554
 20
75.87374604764739
 30
0.0
 11
36.14828490614576
 21
61.87374604764737
 31
0.0
  0
LINE
  5
805E
330
7FF9
100
AcDbEntity
  8
中心線
  6
CENTER
 48
0.1
100
AcDbLine
 10
38.74828490614567
 20
77.87374604764739
 30
0.0
 11
38.74828490614567
 21
59.87374604764732
 31
0.0
  0
ARC
  5
805F
330
7FF9
100
AcDbEntity
  8
本体\U+5185線
  6
HIDDEN2
 48
0.5
100
AcDbCircle
 10
38.7482849061459
 20
68.87374604764625
 30
0.0
 40
6.25
100
AcDbArc
 50
253.2617432386218
 51
294.5674032897645
  0
LINE
  5
8060
330
7FF9
100
AcDbEntity
  8
本体外線
100
AcDbLine
 10
37.14828490614576
 20
60.87374604764739
 30
0.0
 11
39.12707582374554
 21
60.87374604764739
 31
0.0
  0
ARC
  5
8061
330
7FF9
100
AcDbEntity
  8
本体外線
100
AcDbCircle
 10
37.14828490614576
 20
61.87374604764737
 30
0.0
 40
1.0
100
AcDbArc
 50
180.0000000000009
 51
269.9999999999988
  0
POINT
  5
8062
330
7FF9
100
AcDbEntity
  8
本体\U+5185線
  6
HIDDEN2
 48
0.5
100
AcDbPoint
 10
36.94828490614572
 20
63.01920721012947
 30
0.0
  0
LINE
  5
8063
330
7FF9
100
AcDbEntity
  8
本体\U+5185線
  6
HIDDEN2
 48
0.5
100
AcDbLine
 10
36.94828490614572
 20
62.88855599218436
 30
0.0
 11
36.14828490614576
 21
62.88855599218436
 31
0.0
  0
ARC
  5
8064
330
7FF9
100
AcDbEntity
  8
本体外線
100
AcDbCircle
 10
39.12707582374578
 20
63.87374604764739
 30
0.0
 40
3.0
100
AcDbArc
 50
269.9999999999988
 51
293.3977639159262
  0
ARC
  5
8065
330
7FF9
100
AcDbEntity
  8
本体\U+5185線
  6
HIDDEN2
 48
0.5
100
AcDbCircle
 10
38.7482849061459
 20
68.87374604764762
 30
0.0
 40
6.25
100
AcDbArc
 50
65.43259671023548
 51
106.7382567613782
  0
LINE
  5
8066
330
7FF9
100
AcDbEntity
  8
本体外線
100
AcDbLine
 10
37.14828490614554
 20
76.87374604764737
 30
0.0
 11
39.12707582374578
 21
76.87374604764733
 31
0.0
  0
POINT
  5
8067
330
7FF9
100
AcDbEntity
  8
本体\U+5185線
  6
HIDDEN2
 48
0.5
100
AcDbPoint
 10
36.94828490614572
 20
74.72828488516437
 30
0.0
  0
LINE
  5
8068
330
7FF9
100
AcDbEntity
  8
本体\U+5185線
  6
HIDDEN2
 48
0.5
100
AcDbLine
 10
36.94828490614572
 20
74.8589361031095
 30
0.0
 11
36.14828490614576
 21
74.8589361031095
 31
0.0
  0
ARC
  5
8069
330
7FF9
100
AcDbEntity
  8
本体外線
100
AcDbCircle
 10
37.14828490614554
 20
75.87374604764739
 30
0.0
 40
1.0
100
AcDbArc
 50
90.0
 51
180.0000000000009
  0
ARC
  5
806A
330
7FF9
100
AcDbEntity
  8
本体外線
100
AcDbCircle
 10
39.12707582374554
 20
73.87374604764733
 30
0.0
 40
3.0
100
AcDbArc
 50
66.60223608407413
 51
89.99999999999873
  0
DIMENSION
  5
806B
330
7FF9
100
AcDbEntity
  8
標註線
100
AcDbDimension
  2
*D29
 10
66.14828490614582
 20
59.06363135146539
 30
0.0
 11
58.14828490614579
 21
60.61363135146539
 31
0.0
 71
     5
 42
-1.0
  3
ISO-25
100
AcDbAlignedDimension
 13
50.14828490614576
 23
65.37374604764733
 33
0.0
 14
66.14828490614582
 24
66.47374604764728
 34
0.0
100
AcDbRotatedDimension
1001
ACAD
1000
DSTYLE
1002
{
1070
    41
1040
1.5
1070
   140
1040
1.5
1002
}
  0
DIMENSION
  5
806C
330
7FF9
100
AcDbEntity
  8
標註線
100
AcDbDimension
  2
*D24
 10
77.35487234743795
 20
65.37374604764733
 30
0.0
 11
75.80487234743795
 21
68.87374604764733
 31
0.0
  1
%%c7
 71
     5
 42
-1.0
  3
ISO-25
100
AcDbAlignedDimension
 13
50.14828490614576
 23
72.37374604764733
 33
0.0
 14
50.14828490614576
 24
65.37374604764733
 34
0.0
 50
90.0
100
AcDbRotatedDimension
1001
ACAD
1000
DSTYLE
1002
{
1070
    41
1040
1.5
1070
   140
1040
1.5
1002
}
  0
LINE
  5
806D
330
7FF9
100
AcDbEntity
  8
本体\U+5185線
  6
HIDDEN2
 48
0.5
100
AcDbLine
 10
50.14828490614576
 20
70.77374604764736
 30
0.0
 11
66.14828490614574
 21
69.6737460476474
 31
0.0
  0
LINE
  5
806E
330
7FF9
100
AcDbEntity
  8
本体\U+5185線
  6
HIDDEN2
 48
0.5
100
AcDbLine
 10
50.14828490614576
 20
66.97374604764736
 30
0.0
 11
66.14828490614574
 21
68.07374604764731
 31
0.0
  0
LINE
  5
806F
330
7FF9
100
AcDbEntity
  8
本体外線
100
AcDbLine
 10
50.14828490614576
 20
72.37374604764733
 30
0.0
 11
65.40315538464
 21
71.32497370225087
 31
0.0
  0
LINE
  5
8070
330
7FF9
100
AcDbEntity
  8
本体外線
100
AcDbLine
 10
50.14828490614576
 20
65.37374604764733
 30
0.0
 11
65.40315538464023
 21
66.42251839304385
 31
0.0
  0
LINE
  5
8071
330
7FF9
100
AcDbEntity
  8
本体外線
100
AcDbLine
 10
50.14828490614576
 20
72.37374604764733
 30
0.0
 11
50.14828490614576
 21
65.37374604764733
 31
0.0
  0
DIMENSION
  5
8072
330
7FF9
100
AcDbEntity
  8
標註線
100
AcDbDimension
  2
*D30
 10
72.82775997522776
 20
66.47374604764728
 30
0.0
 11
72.82775997522776
 21
68.87374604764733
 31
0.0
 70
   128
  1
%%c<>
 71
     5
 42
-1.0
  3
ISO-25
100
AcDbAlignedDimension
 13
66.14828490614621
 23
71.27374604764736
 33
0.0
 14
66.14828490614621
 24
66.47374604764728
 34
0.0
 50
90.0
100
AcDbRotatedDimension
1001
ACAD
1000
DSTYLE
1002
{
1070
    41
1040
1.5
1070
   140
1040
1.5
1002
}
  0
LINE
  5
8073
330
7FF9
100
AcDbEntity
  8
本体外線
100
AcDbLine
 10
66.14828490614553
 20
70.52685765142252
 30
0.0
 11
66.14828490614553
 21
67.22063444387214
 31
0.0
  0
DIMENSION
  5
8074
330
7FF9
100
AcDbEntity
  8
0
100
AcDbDimension
  2
*D36
 10
65.34828490614557
 20
67.22063444387216
 30
0.0
 11
72.76770713920196
 21
61.34142390010584
 31
0.0
 70
   132
 71
     5
 42
-1.0
  3
ISO-25
100
AcDbRadialDimension
 15
65.97529524815255
 25
66.72378634735139
 35
0.0
 40
0.0
1001
ACAD
1000
DSTYLE
1002
{
1070
   288
1070
     1
1002
}
  0
LINE
  5
8075
330
7FF9
100
AcDbEntity
  8
本体外線
 62
     1
100
AcDbLine
 10
66.14828490614597
 20
66.47374604764728
 30
0.0
 11
66.14828490614621
 21
66.59457914169156
 31
0.0
  0
LINE
  5
8076
330
7FF9
100
AcDbEntity
  8
本体外線
 62
     1
100
AcDbLine
 10
65.96476373948229
 20
66.46112896743909
 30
0.0
 11
66.14828490614621
 21
66.47374604764728
 31
0.0
  0
LINE
  5
8077
330
7FF9
100
AcDbEntity
  8
本体外線
 62
     1
100
AcDbLine
 10
65.96476373948229
 20
66.46112896743909
 30
0.0
 11
66.14828490614621
 21
66.47374604764728
 31
0.0
  0
LINE
  5
8078
330
7FF9
100
AcDbEntity
  8
本体外線
 62
     1
100
AcDbLine
 10
66.14828490614597
 20
66.47374604764728
 30
0.0
 11
66.14828490614621
 21
66.59457914169156
 31
0.0
  0
ARC
  5
8079
330
7FF9
100
AcDbEntity
  8
本体外線
100
AcDbCircle
 10
65.34828490614557
 20
67.22063444387214
 30
0.0
 40
0.8
100
AcDbArc
 50
273.9328962722306
 51
0.0000000000008015
  0
LINE
  5
807A
330
7FF9
100
AcDbEntity
  8
本体外線
 62
     1
100
AcDbLine
 10
66.14828490614597
 20
71.27374604764736
 30
0.0
 11
66.14828490614621
 21
71.15291295360311
 31
0.0
  0
LINE
  5
807B
330
7FF9
100
AcDbEntity
  8
本体外線
 62
     1
100
AcDbLine
 10
65.96476373948229
 20
71.28636312785555
 30
0.0
 11
66.14828490614621
 21
71.27374604764736
 31
0.0
  0
LINE
  5
807C
330
7FF9
100
AcDbEntity
  8
本体外線
 62
     1
100
AcDbLine
 10
65.96476373948229
 20
71.28636312785555
 30
0.0
 11
66.14828490614621
 21
71.27374604764736
 31
0.0
  0
LINE
  5
807D
330
7FF9
100
AcDbEntity
  8
本体外線
 62
     1
100
AcDbLine
 10
66.14828490614597
 20
71.27374604764736
 30
0.0
 11
66.14828490614621
 21
71.15291295360311
 31
0.0
  0
ARC
  5
807E
330
7FF9
100
AcDbEntity
  8
本体外線
100
AcDbCircle
 10
65.34828490614557
 20
70.52685765142252
 30
0.0
 40
0.8
100
AcDbArc
 50
0.0000000000005089
 51
86.06710372776936
  0
HATCH
  5
807F
330
7FF9
100
AcDbEntity
  8
剖面線
100
AcDbHatch
 10
0.0
 20
0.0
 30
0.0
210
0.0
220
0.0
230
1.0
  2
ANSI31
 70
     0
 71
     1
 91
        4
 92
        7
 72
     1
 73
     1
 93
        6
 10
38.74828490614567
 20
119.7433990926871
 42
0.0
 10
38.74828490614568
 20
121.4933990926867
 42
0.0
 10
37.14828490614553
 20
121.4933990926867
 42
0.4142135623730976
 10
36.14828490614554
 20
120.4933990926866
 42
0.0
 10
36.14828490614556
 20
119.4785891481489
 42
0.0
 10
36.94828490614585
 20
119.4785891481489
 42
-0.0731645564032724
 97
        6
330
8092
330
8096
330
8089
330
8094
330
8093
330
808A
 92
        7
 72
     1
 73
     1
 93
       10
 10
41.34680642106114
 20
119.177604044703
 42
0.0
 10
50.14828490614579
 20
115.3933990926866
 42
0.0
 10
66.14828490614574
 20
114.2933990926867
 42
0.0
 10
66.14828490614574
 20
115.1465106964618
 42
0.3942487415961074
 10
65.4031553846402
 20
115.9446267472901
 42
0.0
 10
50.14828490614577
 20
116.9933990926866
 42
0.0
 10
40.31841204303217
 20
121.2467094661492
 42
0.1024481835865489
 10
39.12707582374574
 20
121.4933990926867
 42
0.0
 10
38.74828490614567
 20
121.4933990926867
 42
0.0
 10
38.74828490614567
 20
119.7433990926871
 42
-0.1076080053106586
 97
       10
330
8097
330
8092
330
808A
330
8093
330
8080
330
8099
330
809F
330
80A2
330
809A
330
8081
 92
        7
 72
     1
 73
     1
 93
        6
 10
36.94828490614586
 20
107.5082090372238
 42
0.0
 10
36.14828490614575
 20
107.5082090372238
 42
0.0
 10
36.14828490614576
 20
106.4933990926867
 42
0.4142135623730825
 10
37.14828490614575
 20
105.4933990926867
 42
0.0
 10
38.74828490614567
 20
105.4933990926866
 42
0.0
 10
38.74828490614567
 20
107.2433990926857
 42
-0.0731645564032713
 97
        6
330
808C
330
808E
330
8089
330
808F
330
808D
330
808A
 92
        7
 72
     1
 73
     1
 93
       10
 10
38.74828490614567
 20
107.2433990926857
 42
0.0
 10
38.74828490614567
 20
105.4933990926867
 42
0.0
 10
39.12707582374564
 20
105.4933990926866
 42
0.1024481835865734
 10
40.31841204303236
 20
105.7400887192242
 42
0.0
 10
50.14828490614577
 20
109.9933990926867
 42
0.0
 10
65.40315538464003
 20
111.0421714380831
 42
0.3942487415961817
 10
66.14828490614574
 20
111.8402874889115
 42
0.0
 10
66.14828490614574
 20
112.6933990926866
 42
0.0
 10
50.14828490614572
 20
111.5933990926866
 42
0.0
 10
41.34680642105659
 20
107.8091941406677
 42
-0.1076080053104565
 97
       10
330
809B
330
80A1
330
809F
330
809C
330
8082
330
808C
330
808A
330
808D
330
8091
330
8083
 75
     0
 76
     1
 52
0.0
 41
1.0
 77
     0
 78
     1
 53
45.0
 43
0.0000002884014521
 44
0.0000001342627911
 45
-2.245064030267287
 46
2.245064030267287
 79
     0
 47
0.0498005206964993
 98
        4
 10
37.46353041646627
 20
120.2266431215187
 10
40.20524025528675
 20
120.1768424612974
 10
38.11157098210073
 20
106.7307016806984
 10
40.45448642943982
 20
106.6809010204772
  0
LINE
  5
8080
102
{ACAD_REACTORS
330
807F
102
}
330
7FF9
100
AcDbEntity
  8
本体外線
100
AcDbLine
 10
41.34680642105894
 20
119.1776040447039
 30
0.0
 11
50.14828490614576
 21
115.3933990926866
 31
0.0
  0
LINE
  5
8081
102
{ACAD_REACTORS
330
807F
102
}
330
7FF9
100
AcDbEntity
  8
本体外線
100
AcDbLine
 10
40.31841204303231
 20
121.2467094661491
 30
0.0
 11
50.14828490614576
 21
116.9933990926866
 31
0.0
  0
LINE
  5
8082
102
{ACAD_REACTORS
330
807F
102
}
330
7FF9
100
AcDbEntity
  8
本体外線
100
AcDbLine
 10
41.34680642105894
 20
107.8091941406687
 30
0.0
 11
50.14828490614576
 21
111.5933990926867
 31
0.0
  0
LINE
  5
8083
102
{ACAD_REACTORS
330
807F
102
}
330
7FF9
100
AcDbEntity
  8
本体外線
100
AcDbLine
 10
40.31841204303231
 20
105.7400887192242
 30
0.0
 11
50.14828490614576
 21
109.9933990926867
 31
0.0
  0
LINE
  5
8084
330
7FF9
100
AcDbEntity
  8
中心線
  6
CENTER
 48
0.1
100
AcDbLine
 10
35.14828490614553
 20
113.4933990926866
 30
0.0
 11
67.14828490614554
 21
113.4933990926866
 31
0.0
  0
DIMENSION
  5
8085
330
7FF9
100
AcDbEntity
  8
標註線
100
AcDbDimension
  2
*D26
 10
46.35485929247733
 20
111.5933990926867
 30
0.0
 11
45.75024519944161
 21
113.2458636169946
 31
0.0
 12
0.0000002884014521
 22
6.427709410521003
 32
0.0
 70
   128
  1
%%C3.8
 71
     5
 42
-1.0
  3
ISO-25
100
AcDbAlignedDimension
 13
50.14828490614576
 23
115.3933990926866
 33
0.0
 14
50.14828490614576
 24
111.5933990926867
 34
0.0
 50
90.0
100
AcDbRotatedDimension
1001
ACAD
1000
DSTYLE
1002
{
1070
    41
1040
1.5
1070
   140
1040
1.5
1002
}
  0
DIMENSION
  5
8086
330
7FF9
100
AcDbEntity
  8
標註線
100
AcDbDimension
  2
*D35
 10
36.77736085034639
 20
107.5622981521981
 30
0.0
 11
44.00472390790747
 21
129.3115987920732
 31
0.0
 70
   131
 71
     5
 42
-1.0
  3
ISO-25
100
AcDbDiametricDimension
 15
40.71920896194632
 25
119.4245000331759
 35
0.0
 40
0.0
1001
ACAD
1000
DSTYLE
1002
{
1070
   288
1070
     1
1002
}
  0
DIMENSION
  5
8087
330
7FF9
100
AcDbEntity
  8
標註線
100
AcDbDimension
  2
*D28
 10
36.14828490614554
 20
124.586948750251
 30
0.0
 11
35.09171922809031
 21
124.586948750251
 31
0.0
 12
0.0000002884014521
 22
6.427709410521003
 32
0.0
 70
   128
 71
     5
 42
-1.0
  3
ISO-25
100
AcDbAlignedDimension
 13
36.94828490614549
 23
119.3479379302041
 33
0.0
 14
36.14828490614554
 24
119.3479379302041
 34
0.0
100
AcDbRotatedDimension
1001
ACAD
1000
DSTYLE
1002
{
1070
    41
1040
1.5
1070
   140
1040
1.5
1002
}
  0
DIMENSION
  5
8088
330
7FF9
100
AcDbEntity
  8
標註線
100
AcDbDimension
  2
*D32
 10
30.72079425379115
 20
107.5082090372225
 30
0.0
 11
29.17079425379116
 21
113.493399092685
 31
0.0
 12
0.0000002884014521
 22
6.427709410521003
 32
0.0
  1
%%c<>
 71
     5
 42
-1.0
  3
ISO-25
100
AcDbAlignedDimension
 13
36.14828490614576
 23
119.4785891481476
 33
0.0
 14
36.14828490614576
 24
107.5082090372225
 34
0.0
 50
90.0
100
AcDbRotatedDimension
1001
ACAD
1000
DSTYLE
1002
{
1070
    41
1040
1.5
1070
   140
1040
1.5
1002
}
  0
LINE
  5
8089
102
{ACAD_REACTORS
330
807F
102
}
330
7FF9
100
AcDbEntity
  8
本体外線
100
AcDbLine
 10
36.14828490614554
 20
120.4933990926867
 30
0.0
 11
36.14828490614576
 21
106.4933990926867
 31
0.0
  0
LINE
  5
808A
102
{ACAD_REACTORS
330
807F
102
}
330
7FF9
100
AcDbEntity
  8
中心線
  6
CENTER
 48
0.1
100
AcDbLine
 10
38.74828490614567
 20
122.4933990926867
 30
0.0
 11
38.74828490614567
 21
104.4933990926866
 31
0.0
  0
LINE
  5
808B
330
7FF9
100
AcDbEntity
  8
本体外線
100
AcDbLine
 10
36.94828490614572
 20
119.4785891481489
 30
0.0
 11
36.94828490614572
 21
107.5082090372251
 31
0.0
  0
ARC
  5
808C
102
{ACAD_REACTORS
330
807F
102
}
330
7FF9
100
AcDbEntity
  8
本体外線
100
AcDbCircle
 10
38.7482849061459
 20
113.4933990926857
 30
0.0
 40
6.25
100
AcDbArc
 50
253.2617432386218
 51
294.5674032897645
  0
LINE
  5
808D
102
{ACAD_REACTORS
330
807F
102
}
330
7FF9
100
AcDbEntity
  8
本体外線
100
AcDbLine
 10
37.14828490614576
 20
105.4933990926867
 30
0.0
 11
39.12707582374554
 21
105.4933990926866
 31
0.0
  0
LINE
  5
808E
102
{ACAD_REACTORS
330
807F
102
}
330
7FF9
100
AcDbEntity
  8
本体外線
100
AcDbLine
 10
36.94828490614572
 20
107.5082090372238
 30
0.0
 11
36.14828490614576
 21
107.5082090372238
 31
0.0
  0
ARC
  5
808F
102
{ACAD_REACTORS
330
807F
102
}
330
7FF9
100
AcDbEntity
  8
本体外線
100
AcDbCircle
 10
37.14828490614576
 20
106.4933990926867
 30
0.0
 40
1.0
100
AcDbArc
 50
180.0000000000009
 51
269.9999999999988
  0
POINT
  5
8090
330
7FF9
100
AcDbEntity
  8
本体外線
100
AcDbPoint
 10
36.94828490614572
 20
107.6388602551689
 30
0.0
  0
ARC
  5
8091
102
{ACAD_REACTORS
330
807F
102
}
330
7FF9
100
AcDbEntity
  8
本体外線
100
AcDbCircle
 10
39.12707582374578
 20
108.4933990926866
 30
0.0
 40
3.0
100
AcDbArc
 50
269.9999999999988
 51
293.3977639159262
  0
LINE
  5
8092
102
{ACAD_REACTORS
330
807F
102
}
330
7FF9
100
AcDbEntity
  8
本体外線
100
AcDbLine
 10
37.14828490614554
 20
121.4933990926867
 30
0.0
 11
39.12707582374554
 21
121.4933990926867
 31
0.0
  0
ARC
  5
8093
102
{ACAD_REACTORS
330
807F
102
}
330
7FF9
100
AcDbEntity
  8
本体外線
100
AcDbCircle
 10
38.7482849061459
 20
113.493399092687
 30
0.0
 40
6.25
100
AcDbArc
 50
65.43259671023548
 51
106.7382567613782
  0
LINE
  5
8094
102
{ACAD_REACTORS
330
807F
102
}
330
7FF9
100
AcDbEntity
  8
本体外線
100
AcDbLine
 10
36.94828490614572
 20
119.4785891481489
 30
0.0
 11
36.14828490614576
 21
119.4785891481489
 31
0.0
  0
POINT
  5
8095
330
7FF9
100
AcDbEntity
  8
本体外線
100
AcDbPoint
 10
36.94828490614572
 20
119.3479379302038
 30
0.0
  0
ARC
  5
8096
102
{ACAD_REACTORS
330
807F
102
}
330
7FF9
100
AcDbEntity
  8
本体外線
100
AcDbCircle
 10
37.14828490614554
 20
120.4933990926867
 30
0.0
 40
1.0
100
AcDbArc
 50
90.0
 51
180.0000000000009
  0
ARC
  5
8097
102
{ACAD_REACTORS
330
807F
102
}
330
7FF9
100
AcDbEntity
  8
本体外線
100
AcDbCircle
 10
39.12707582374554
 20
118.4933990926867
 30
0.0
 40
3.0
100
AcDbArc
 50
66.60223608407413
 51
90.0
  0
MTEXT
  5
8098
330
7FF9
100
AcDbEntity
  8
公差
100
AcDbMText
 10
43.63461672067268
 20
133.5714107407664
 30
0.0
 40
0.9999999999999998
 41
0.0
 71
     5
 72
     1
  1
  -0.2\P   -0.25
 11
0.2185901521442158
 21
0.9758167580983474
 31
0.0
 73
     1
 44
1.0
1001
ACAD
1000
MTEXTBEGIN
1070
    73
1070
     1
1070
    44
1040
1.0
1070
    74
1070
     0
1000
MTEXTEND
  0
LINE
  5
8099
102
{ACAD_REACTORS
330
807F
102
}
330
7FF9
100
AcDbEntity
  8
本体外線
100
AcDbLine
 10
50.14828490614576
 20
115.3933990926866
 30
0.0
 11
66.14828490614574
 21
114.2933990926867
 31
0.0
  0
LINE
  5
809A
102
{ACAD_REACTORS
330
807F
102
}
330
7FF9
100
AcDbEntity
  8
本体外線
100
AcDbLine
 10
50.14828490614576
 20
116.9933990926866
 30
0.0
 11
65.40315538464
 21
115.9446267472901
 31
0.0
  0
LINE
  5
809B
102
{ACAD_REACTORS
330
807F
102
}
330
7FF9
100
AcDbEntity
  8
本体外線
100
AcDbLine
 10
50.14828490614576
 20
109.9933990926867
 30
0.0
 11
65.40315538464023
 21
111.0421714380832
 31
0.0
  0
LINE
  5
809C
102
{ACAD_REACTORS
330
807F
102
}
330
7FF9
100
AcDbEntity
  8
本体外線
100
AcDbLine
 10
50.14828490614576
 20
111.5933990926867
 30
0.0
 11
66.14828490614574
 21
112.6933990926866
 31
0.0
  0
DIMENSION
  5
809D
330
7FF9
100
AcDbEntity
  8
0
100
AcDbDimension
  2
*D38
 10
66.14828490614574
 20
103.1818515693848
 30
0.0
 11
58.14828490614575
 21
104.7318515693848
 31
0.0
 12
0.0000002884014521
 22
6.427709410521003
 32
0.0
 71
     5
 42
-1.0
  3
ISO-25
100
AcDbAlignedDimension
 13
50.14828490614576
 23
111.5933990926867
 33
0.0
 14
66.14828490614574
 24
111.8402874889115
 34
0.0
100
AcDbRotatedDimension
  0
LINE
  5
809E
330
7FF9
100
AcDbEntity
  8
本体外線
100
AcDbLine
 10
50.14828490614576
 20
115.3933990926866
 30
0.0
 11
50.14828490614576
 21
111.5933990926867
 31
0.0
  0
LINE
  5
809F
102
{ACAD_REACTORS
330
807F
102
}
330
7FF9
100
AcDbEntity
  8
本体外線
100
AcDbLine
 10
66.14828490614574
 20
115.1465106964618
 30
0.0
 11
66.14828490614574
 21
111.8402874889115
 31
0.0
  0
DIMENSION
  5
80A0
330
7FF9
100
AcDbEntity
  8
標註線
100
AcDbDimension
  2
*D25
 10
72.82775997522776
 20
112.6933990926866
 30
0.0
 11
72.82775997522779
 21
117.2933990926867
 31
0.0
 70
   128
  1
%%C1.6
 71
     5
 42
-1.0
  3
ISO-25
100
AcDbAlignedDimension
 13
66.14828490614574
 23
114.2933990926867
 33
0.0
 14
66.14828490614574
 24
112.6933990926866
 34
0.0
 50
90.0
100
AcDbRotatedDimension
1001
ACAD
1000
DSTYLE
1002
{
1070
    41
1040
1.5
1070
   140
1040
1.5
1002
}
  0
ARC
  5
80A1
102
{ACAD_REACTORS
330
807F
102
}
330
7FF9
100
AcDbEntity
  8
本体外線
100
AcDbCircle
 10
65.34828490614557
 20
111.8402874889115
 30
0.0
 40
0.8
100
AcDbArc
 50
273.9328962722306
 51
0.0000000000008015
  0
ARC
  5
80A2
102
{ACAD_REACTORS
330
807F
102
}
330
7FF9
100
AcDbEntity
  8
本体外線
100
AcDbCircle
 10
65.34828490614557
 20
115.1465106964618
 30
0.0
 40
0.8
100
AcDbArc
 50
0.0000000000005089
 51
86.06710372776936
  0
LINE
  5
80A3
330
7FF9
100
AcDbEntity
  8
-
 62
     9
100
AcDbLine
 10
99.00000028840146
 20
145.0000001342627
 30
0.0
 11
99.00000028840146
 21
0.0000001342627627
 31
0.0
  0
MTEXT
  5
80A4
330
7FF9
100
AcDbEntity
  8
文字
 62
     7
 48
2.0
370
    25
100
AcDbMText
 10
87.05109079948
 20
2.514658107371103
 30
0.0
 40
1.5
 41
0.0
 71
     5
 72
     1
  1
\Ftxt.shx,bigfont.shx|c128;N N 8 2 0 2 2
 73
     1
 44
1.0
1001
ACAD
1000
MTEXTBEGIN
1070
    73
1070
     1
1070
    44
1040
1.0
1070
    74
1070
     0
1000
MTEXTEND
  0
MTEXT
  5
80A5
102
{ACAD_XDICTIONARY
360
8F3B
102
}
330
7FF9
100
AcDbEntity
  8
0
100
AcDbMText
 10
78.78464476424233
 20
8.901333299194874
 30
0.0
 40
2.0
 41
0.0
 71
     1
 72
     5
  1
\Ftxt.shx,bigfont.shx|c128;\M+1907D  \M+196CA  \M+194D4  \M+18D86
  7
JL
 73
     1
 44
1.0
1001
ACAD
1000
MTEXTBEGIN
1070
    73
1070
     1
1070
    44
1040
1.0
1070
    74
1070
     0
1000
MTEXTEND
  0
MTEXT
  5
80A6
102
{ACAD_XDICTIONARY
360
8F3D
102
}
330
7FF9
100
AcDbEntity
  8
文字
 62
     7
 48
2.0
100
AcDbMText
 10
88.43874606645853
 20
12.81419795038252
 30
0.0
 40
1.75
 41
0.0
 71
     5
 72
     1
  1
\Ftxt.shx,bigfont.shx|c128;\M+1836D\M+18359\M+1838B\P1/16"
 73
     1
 44
1.0
1001
ACAD
1000
MTEXTBEGIN
1070
    73
1070
     1
1070
    44
1040
1.0
1070
    74
1070
     0
1000
MTEXTEND
  0
MTEXT
  5
80A7
102
{ACAD_XDICTIONARY
360
8F3F
102
}
330
7FF9
100
AcDbEntity
  8
0
370
    25
100
AcDbMText
 10
78.82766391769758
 20
19.31271686085196
 30
0.0
 40
2.0
 41
0.0
 71
     1
 72
     5
  1
\Ftxt.shx,bigfont.shx|c128;\M+19569     \M+196BC
  7
JL
 73
     1
 44
1.0
1001
ACAD
1000
MTEXTBEGIN
1070
    73
1070
     1
1070
    44
1040
1.0
1070
    74
1070
     0
1000
MTEXTEND
  0
MTEXT
  5
80A8
102
{ACAD_XDICTIONARY
360
8F41
102
}
330
7FF9
100
AcDbEntity
  8
0
370
    25
100
AcDbMText
 10
78.82766391769758
 20
23.76682320052518
 30
0.0
 40
2.0
 41
0.0
 71
     1
 72
     5
  1
\Ftxt.shx,bigfont.shx|c128;\M+18B40     \M+18EED
  7
JL
 73
     1
 44
1.0
1001
ACAD
1000
MTEXTBEGIN
1070
    73
1070
     1
1070
    44
1040
1.0
1070
    74
1070
     0
1000
MTEXTEND
  0
MTEXT
  5
80A9
102
{ACAD_XDICTIONARY
360
8F43
102
}
330
7FF9
100
AcDbEntity
  8
0
370
    25
100
AcDbMText
 10
86.97574729982385
 20
23.76682320052518
 30
0.0
 40
2.0
 41
0.0
 71
     1
 72
     5
  1
\Ftxt.shx,bigfont.shx|c128;1/4"\M+18356\M+18358\M+18365\M+18380
  7
JL
 73
     1
 44
1.0
1001
ACAD
1000
MTEXTBEGIN
1070
    73
1070
     1
1070
    44
1040
1.0
1070
    74
1070
     0
1000
MTEXTEND
  0
ENDBLK
  5
80AB
330
7FF9
100
AcDbEntity
  8
0
100
AcDbBlockEnd
  0
BLOCK
  5
82CA
330
82C8
100
AcDbEntity
  8
0
100
AcDbBlockBegin
  2
A$C13A045B8
 70
     0
 10
0.0
 20
0.0
 30
0.0
  3
A$C13A045B8
  1

  0
MTEXT
  5
82C9
102
{ACAD_XDICTIONARY
360
8F45
102
}
330
82C8
100
AcDbEntity
  8
文字
 62
     7
 48
2.0
100
AcDbMText
 10
3.208333075701488
 20
2.333333439215522
 30
0.0
 40
1.75
 41
0.0
 71
     5
 72
     1
  1
\Ftxt.shx,bigfont.shx|c128;\M+1836D\M+18359\M+1838B\P1/16"
 73
     1
 44
1.0
1001
ACAD
1000
MTEXTBEGIN
1070
    73
1070
     1
1070
    44
1040
1.0
1070
    74
1070
     0
1000
MTEXTEND
  0
ENDBLK
  5
82CB
330
82C8
100
AcDbEntity
  8
0
100
AcDbBlockEnd
  0
BLOCK
  5
86DA
330
86D8
100
AcDbEntity
  8
0
100
AcDbBlockBegin
  2
A$C71F9132B
 70
     0
 10
0.0
 20
0.0
 30
0.0
  3
A$C71F9132B
  1

  0
MTEXT
  5
86D9
330
86D8
100
AcDbEntity
  8
公差
100
AcDbMText
 10
1.333333217577133
 20
0.4166664999711003
 30
0.0
 40
1.0
 41
0.0
 71
     5
 72
     1
  1
   -0.23\P   -0.37
 11
0.0000000000000001
 21
1.0
 31
0.0
 73
     1
 44
1.0
1001
ACAD
1000
MTEXTBEGIN
1070
    73
1070
     1
1070
    44
1040
1.0
1070
    74
1070
     0
1000
MTEXTEND
  0
ENDBLK
  5
86DB
330
86D8
100
AcDbEntity
  8
0
100
AcDbBlockEnd
  0
BLOCK
  5
87C2
330
87A9
100
AcDbEntity
  8
0
100
AcDbBlockBegin
  2
A$C17121088
 70
     0
 10
0.0
 20
0.0
 30
0.0
  3
A$C17121088
  1

  0
LINE
  5
87AA
330
87A9
100
AcDbEntity
  8
-
 62
     9
370
    30
100
AcDbLine
 10
8.680516108685083
 20
-0.0000000901823114
 30
0.0
 11
8.680516108685083
 21
21.79391947207006
 31
0.0
  0
MTEXT
  5
87AB
330
87A9
100
AcDbEntity
  8
文字
 62
     7
 48
2.0
370
    25
100
AcDbMText
 10
4.357746886816697
 20
1.534879664667013
 30
0.0
 40
1.056
 41
0.0
 71
     5
 72
     1
  1
\Ftxt.shx,bigfont.shx|c128;1000-2000
 73
     1
 44
1.0
1001
ACAD
1000
MTEXTBEGIN
1070
    73
1070
     1
1070
    44
1040
1.0
1070
    74
1070
     0
1000
MTEXTEND
  0
LINE
  5
87AC
330
87A9
100
AcDbEntity
  8
-
 62
     9
370
    30
100
AcDbLine
 10
14.07596173537615
 20
6.168919472070116
 30
0.0
 11
-0.0000000740964197
 21
6.168919472070116
 31
0.0
  0
LINE
  5
87AD
330
87A9
100
AcDbEntity
  8
-
 62
     9
370
    30
100
AcDbLine
 10
14.07596173537615
 20
3.043919472070115
 30
0.0
 11
-0.0000000740964197
 21
3.043919472070115
 31
0.0
  0
MTEXT
  5
87AE
330
87A9
100
AcDbEntity
  8
文字
 62
     7
 48
2.0
370
    25
100
AcDbMText
 10
4.58388587523666
 20
7.766488266747781
 30
0.0
 40
1.056
 41
0.0
 71
     5
 72
     1
  1
\Ftxt.shx,bigfont.shx|c128;120-400
 73
     1
 44
1.0
1001
ACAD
1000
MTEXTBEGIN
1070
    73
1070
     1
1070
    44
1040
1.0
1070
    74
1070
     0
1000
MTEXTEND
  0
MTEXT
  5
87AF
330
87A9
100
AcDbEntity
  8
文字
 62
     7
 48
2.0
370
    25
100
AcDbMText
 10
4.357746886816697
 20
4.659879664667013
 30
0.0
 40
1.056
 41
0.0
 71
     5
 72
     1
  1
\Ftxt.shx,bigfont.shx|c128;400-1000
 73
     1
 44
1.0
1001
ACAD
1000
MTEXTBEGIN
1070
    73
1070
     1
1070
    44
1040
1.0
1070
    74
1070
     0
1000
MTEXTEND
  0
MTEXT
  5
87B0
330
87A9
100
AcDbEntity
  8
文字
 62
     7
 48
2.0
370
    25
100
AcDbMText
 10
11.24560466454852
 20
1.493489032441
 30
0.0
 40
1.056
 41
0.0
 71
     5
 72
     1
  1
\Ftxt.shx,bigfont.shx|c128;%%p1.2
 73
     1
 44
1.0
1001
ACAD
1000
MTEXTBEGIN
1070
    73
1070
     1
1070
    44
1040
1.0
1070
    74
1070
     0
1000
MTEXTEND
  0
MTEXT
  5
87B1
330
87A9
100
AcDbEntity
  8
文字
 62
     7
 48
2.0
370
    25
100
AcDbMText
 10
11.24560466454852
 20
7.672959606827074
 30
0.0
 40
1.056
 41
0.0
 71
     5
 72
     1
  1
\Ftxt.shx,bigfont.shx|c128;%%p0.5
 73
     1
 44
1.0
1001
ACAD
1000
MTEXTBEGIN
1070
    73
1070
     1
1070
    44
1040
1.0
1070
    74
1070
     0
1000
MTEXTEND
  0
MTEXT
  5
87B2
330
87A9
100
AcDbEntity
  8
文字
 62
     7
 48
2.0
370
    25
100
AcDbMText
 10
11.24560466454852
 20
4.618489032441001
 30
0.0
 40
1.056
 41
0.0
 71
     5
 72
     1
  1
\Ftxt.shx,bigfont.shx|c128;%%p0.8
 73
     1
 44
1.0
1001
ACAD
1000
MTEXTBEGIN
1070
    73
1070
     1
1070
    44
1040
1.0
1070
    74
1070
     0
1000
MTEXTEND
  0
MTEXT
  5
87B3
102
{ACAD_XDICTIONARY
360
8F47
102
}
330
87A9
100
AcDbEntity
  8
文字
 62
     7
 48
2.0
370
    25
100
AcDbMText
 10
4.07119001681815
 20
20.18541748316795
 30
0.0
 40
1.32
 41
0.0
 71
     5
 72
     1
  1
\Ftxt.shx,bigfont.shx|c128;\M+190A1     \M+19640
 73
     1
 44
1.0
1001
ACAD
1000
MTEXTBEGIN
1070
    73
1070
     1
1070
    44
1040
1.0
1070
    74
1070
     0
1000
MTEXTEND
  0
LINE
  5
87B4
330
87A9
100
AcDbEntity
  8
-
 62
     9
370
    30
100
AcDbLine
 10
14.07596173537615
 20
21.79391947207006
 30
0.0
 11
-0.0000000740964197
 21
21.79391947207006
 31
0.0
  0
LINE
  5
87B5
330
87A9
100
AcDbEntity
  8
-
 62
     9
370
    30
100
AcDbLine
 10
14.07596173537615
 20
12.41891947207011
 30
0.0
 11
-0.0000000740964197
 21
12.41891947207011
 31
0.0
  0
LINE
  5
87B6
330
87A9
100
AcDbEntity
  8
-
 62
     9
370
    30
100
AcDbLine
 10
14.07596173537615
 20
9.293919472070117
 30
0.0
 11
-0.0000000740964197
 21
9.293919472070117
 31
0.0
  0
LINE
  5
87B7
330
87A9
100
AcDbEntity
  8
-
 62
     9
370
    30
100
AcDbLine
 10
14.07596173537615
 20
15.54391947207017
 30
0.0
 11
-0.0000000740964197
 21
15.54391947207017
 31
0.0
  0
LINE
  5
87B8
330
87A9
100
AcDbEntity
  8
-
 62
     9
370
    30
100
AcDbLine
 10
14.07596173537615
 20
18.66891947207011
 30
0.0
 11
-0.0000000740964197
 21
18.66891947207011
 31
0.0
  0
MTEXT
  5
87B9
330
87A9
100
AcDbEntity
  8
文字
 62
     7
 48
2.0
370
    25
100
AcDbMText
 10
5.553054729297058
 20
14.05949540417634
 30
0.0
 40
1.187999999999999
 41
0.0
 71
     5
 72
     1
  1
\Ftxt.shx,bigfont.shx|c128;6-30
 73
     1
 44
1.0
1001
ACAD
1000
MTEXTBEGIN
1070
    73
1070
     1
1070
    44
1040
1.0
1070
    74
1070
     0
1000
MTEXTEND
  0
MTEXT
  5
87BA
330
87A9
100
AcDbEntity
  8
文字
 62
     7
 48
2.0
370
    25
100
AcDbMText
 10
4.777719835676748
 20
10.83576376594561
 30
0.0
 40
1.187999999999999
 41
0.0
 71
     5
 72
     1
  1
\Ftxt.shx,bigfont.shx|c128;30-120
 73
     1
 44
1.0
1001
ACAD
1000
MTEXTBEGIN
1070
    73
1070
     1
1070
    44
1040
1.0
1070
    74
1070
     0
1000
MTEXTEND
  0
MTEXT
  5
87BB
330
87A9
100
AcDbEntity
  8
文字
 62
     7
 48
2.0
370
    25
100
AcDbMText
 10
5.636356088392401
 20
17.03805576327806
 30
0.0
 40
1.187999999999999
 41
0.0
 71
     5
 72
     1
  1
\Ftxt.shx,bigfont.shx|c128;0.5-6
 73
     1
 44
1.0
1001
ACAD
1000
MTEXTBEGIN
1070
    73
1070
     1
1070
    44
1040
1.0
1070
    74
1070
     0
1000
MTEXTEND
  0
MTEXT
  5
87BC
330
87A9
100
AcDbEntity
  8
文字
 62
     7
 48
2.0
370
    25
100
AcDbMText
 10
11.28437423348316
 20
14.00157226019797
 30
0.0
 40
1.056
 41
0.0
 71
     5
 72
     1
  1
\Ftxt.shx,bigfont.shx|c128;%%p0.2
 73
     1
 44
1.0
1001
ACAD
1000
MTEXTBEGIN
1070
    73
1070
     1
1070
    44
1040
1.0
1070
    74
1070
     0
1000
MTEXTEND
  0
MTEXT
  5
87BD
330
87A9
100
AcDbEntity
  8
文字
 62
     7
 48
2.0
370
    25
100
AcDbMText
 10
11.17850148159402
 20
10.76979506681783
 30
0.0
 40
1.056
 41
0.0
 71
     5
 72
     1
  1
\Ftxt.shx,bigfont.shx|c128;%%p0.3
 73
     1
 44
1.0
1001
ACAD
1000
MTEXTBEGIN
1070
    73
1070
     1
1070
    44
1040
1.0
1070
    74
1070
     0
1000
MTEXTEND
  0
MTEXT
  5
87BE
102
{ACAD_XDICTIONARY
360
8F49
102
}
330
87A9
100
AcDbEntity
  8
文字
 62
     7
 48
2.0
370
    25
100
AcDbMText
 10
11.27962408365795
 20
20.16725888452077
 30
0.0
 40
0.9503999999999999
 41
0.0
 71
     5
 72
     1
  1
\Ftxt.shx,bigfont.shx|c128;\M+19765\M+18B96\M+18CF6\M+18DB7
 73
     1
 44
1.0
1001
ACAD
1000
MTEXTBEGIN
1070
    73
1070
     1
1070
    44
1040
1.0
1070
    74
1070
     0
1000
MTEXTEND
  0
MTEXT
  5
87BF
330
87A9
100
AcDbEntity
  8
文字
 62
     7
 48
2.0
370
    25
100
AcDbMText
 10
11.49190873576583
 20
17.07980104027711
 30
0.0
 40
1.056
 41
0.0
 71
     5
 72
     1
  1
\Ftxt.shx,bigfont.shx|c128;%%p0.1
 73
     1
 44
1.0
1001
ACAD
1000
MTEXTBEGIN
1070
    73
1070
     1
1070
    44
1040
1.0
1070
    74
1070
     0
1000
MTEXTEND
  0
MTEXT
  5
87C0
102
{ACAD_XDICTIONARY
360
8F4B
102
}
330
87A9
100
AcDbEntity
  8
文字
 62
     7
 48
2.0
370
    25
100
AcDbMText
 10
7.244210538437982
 20
22.49124948236852
 30
0.0
 40
0.9503999999999999
 41
0.0
 71
     5
 72
     1
  1
\Ftxt.shx,bigfont.shx|c128;JIS B 0405\M+18140(\M+19286\M+18B89)
 73
     1
 44
1.0
1001
ACAD
1000
MTEXTBEGIN
1070
    73
1070
     1
1070
    44
1040
1.0
1070
    74
1070
     0
1000
MTEXTEND
  0
MTEXT
  5
87C1
102
{ACAD_XDICTIONARY
360
8F4D
102
}
330
87A9
100
AcDbEntity
  8
文字
 62
     7
 48
2.0
370
    25
100
AcDbMText
 10
7.136776294578452
 20
23.9516608450914
 30
0.0
 40
1.25
 41
0.0
 71
     5
 72
     1
  1
\Ftxt.shx,bigfont.shx|c128;\M+188EA   \M+194CA   \M+18CF6   \M+18DB7
 73
     1
 44
1.0
1001
ACAD
1000
MTEXTBEGIN
1070
    73
1070
     1
1070
    44
1040
1.0
1070
    74
1070
     0
1000
MTEXTEND
  0
ENDBLK
  5
87C3
330
87A9
100
AcDbEntity
  8
0
100
AcDbBlockEnd
  0
BLOCK
  5
87C6
330
87C4
100
AcDbEntity
  8
0
100
AcDbBlockBegin
  2
A$C41C27F33
 70
     0
 10
0.0
 20
0.0
 30
0.0
  3
A$C41C27F33
  1

  0
INSERT
  5
87C5
330
87C4
100
AcDbEntity
  8
外\U+67A2線
  6
ByBlock
100
AcDbBlockReference
  2
A$C17121088
 10
0.0000002018079499
 20
0.0000001437350647
 30
0.0
  0
ENDBLK
  5
87C7
330
87C4
100
AcDbEntity
  8
0
100
AcDbBlockEnd
  0
BLOCK
  5
881C
330
87F3
100
AcDbEntity
  8
0
100
AcDbBlockBegin
  2
*D44
 70
     1
 10
0.0
 20
0.0
 30
0.0
  3
*D44
  1

  0
LINE
  5
8D25
330
87F3
100
AcDbEntity
  8
\U+5185框線
 62
     6
370
    -2
100
AcDbLine
 10
67.12781773303911
 20
96.21804121007292
 30
0.0
 11
75.57489498150321
 21
96.21804121007292
 31
0.0
  0
LINE
  5
8D26
330
87F3
100
AcDbEntity
  8
\U+5185框線
 62
     6
370
    -2
100
AcDbLine
 10
67.12781773303911
 20
93.01804121007293
 30
0.0
 11
75.57489498150319
 21
93.01804121007293
 31
0.0
  0
LINE
  5
8D27
330
87F3
100
AcDbEntity
  8
\U+5185框線
 62
     6
370
    -2
100
AcDbLine
 10
75.07489498150319
 20
95.2180412100729
 30
0.0
 11
75.07489498150319
 21
94.01804121007293
 31
0.0
  0
INSERT
  5
8D28
330
87F3
100
AcDbEntity
  8
\U+5185框線
 62
     6
370
    -2
100
AcDbBlockReference
  2
_Open30
 10
75.0748949815032
 20
96.21804121007292
 30
0.0
 50
90.0
  0
INSERT
  5
8D29
330
87F3
100
AcDbEntity
  8
\U+5185框線
 62
     6
370
    -2
100
AcDbBlockReference
  2
_Open30
 10
75.07489498150319
 20
93.01804121007293
 30
0.0
 50
270.0
  0
MTEXT
  5
8D2A
330
87F3
100
AcDbEntity
  8
\U+5185框線
 62
     3
100
AcDbMText
 10
73.67489498150317
 20
94.61804121007293
 30
0.0
 40
1.8
 41
0.0
 71
     5
 72
     1
  1
%%c3.2
 11
0.0000000000000001
 21
1.0
 31
0.0
 73
     1
 44
1.0
1001
ACAD
1000
MTEXTBEGIN
1070
    73
1070
     1
1070
    44
1040
1.0
1070
    74
1070
     0
1000
MTEXTEND
  0
POINT
  5
8D2B
330
87F3
100
AcDbEntity
  8
Defpoints
 62
     0
100
AcDbPoint
 10
66.50281773303911
 20
96.21804121007292
 30
0.0
  0
POINT
  5
8D2C
330
87F3
100
AcDbEntity
  8
Defpoints
 62
     0
100
AcDbPoint
 10
66.50281773303911
 20
93.01804121007293
 30
0.0
  0
POINT
  5
8D2D
330
87F3
100
AcDbEntity
  8
Defpoints
 62
     0
100
AcDbPoint
 10
75.07489498150319
 20
93.01804121007293
 30
0.0
  0
ENDBLK
  5
8828
330
87F3
100
AcDbEntity
  8
0
100
AcDbBlockEnd
  0
BLOCK
  5
882A
330
8829
100
AcDbEntity
  8
0
100
AcDbBlockBegin
  2
*D45
 70
     1
 10
0.0
 20
0.0
 30
0.0
  3
*D45
  1

  0
LINE
  5
8D2E
330
8829
100
AcDbEntity
  8
\U+5185框線
 62
     6
370
    -2
100
AcDbLine
 10
66.50281773303911
 20
91.4431720830872
 30
0.0
 11
66.50281773303911
 21
79.69471014424385
 31
0.0
  0
LINE
  5
8D2F
330
8829
100
AcDbEntity
  8
\U+5185框線
 62
     6
370
    -2
100
AcDbLine
 10
39.00281773303909
 20
84.99304121007284
 30
0.0
 11
39.00281773303909
 21
79.69471014424385
 31
0.0
  0
LINE
  5
8D30
330
8829
100
AcDbEntity
  8
\U+5185框線
 62
     6
370
    -2
100
AcDbLine
 10
65.50281773303911
 20
80.19471014424386
 30
0.0
 11
40.00281773303909
 21
80.19471014424386
 31
0.0
  0
INSERT
  5
8D31
330
8829
100
AcDbEntity
  8
\U+5185框線
 62
     6
370
    -2
100
AcDbBlockReference
  2
_Open30
 10
66.50281773303911
 20
80.19471014424386
 30
0.0
  0
INSERT
  5
8D32
330
8829
100
AcDbEntity
  8
\U+5185框線
 62
     6
370
    -2
100
AcDbBlockReference
  2
_Open30
 10
39.00281773303909
 20
80.19471014424386
 30
0.0
 50
180.0
  0
MTEXT
  5
8D33
330
8829
100
AcDbEntity
  8
\U+5185框線
 62
     3
100
AcDbMText
 10
52.75281773303909
 20
81.59471014424386
 30
0.0
 40
1.8
 41
0.0
 71
     5
 72
     1
  1
27.5
 73
     1
 44
1.0
1001
ACAD
1000
MTEXTBEGIN
1070
    73
1070
     1
1070
    44
1040
1.0
1070
    74
1070
     0
1000
MTEXTEND
  0
POINT
  5
8D34
330
8829
100
AcDbEntity
  8
Defpoints
 62
     0
100
AcDbPoint
 10
66.50281773303911
 20
92.0681720830872
 30
0.0
  0
POINT
  5
8D35
330
8829
100
AcDbEntity
  8
Defpoints
 62
     0
100
AcDbPoint
 10
39.00281773303909
 20
85.61804121007284
 30
0.0
  0
POINT
  5
8D36
330
8829
100
AcDbEntity
  8
Defpoints
 62
     0
100
AcDbPoint
 10
39.00281773303909
 20
80.19471014424386
 30
0.0
  0
ENDBLK
  5
8834
330
8829
100
AcDbEntity
  8
0
100
AcDbBlockEnd
  0
BLOCK
  5
8837
330
8836
100
AcDbEntity
  8
0
100
AcDbBlockBegin
  2
*D46
 70
     1
 10
0.0
 20
0.0
 30
0.0
  3
*D46
  1

  0
LINE
  5
8D37
330
8836
100
AcDbEntity
  8
\U+5185框線
 62
     6
370
    -2
100
AcDbLine
 10
66.50281773303911
 20
90.8181720830872
 30
0.0
 11
66.50281773303911
 21
73.45344770786745
 31
0.0
  0
LINE
  5
8D38
330
8836
100
AcDbEntity
  8
\U+5185框線
 62
     6
370
    -2
100
AcDbLine
 10
36.50281773303917
 20
86.99304121007292
 30
0.0
 11
36.50281773303917
 21
73.45344770786745
 31
0.0
  0
LINE
  5
8D39
330
8836
100
AcDbEntity
  8
\U+5185框線
 62
     6
370
    -2
100
AcDbLine
 10
65.50281773303911
 20
73.95344770786746
 30
0.0
 11
37.50281773303917
 21
73.95344770786746
 31
0.0
  0
INSERT
  5
8D3A
330
8836
100
AcDbEntity
  8
\U+5185框線
 62
     6
370
    -2
100
AcDbBlockReference
  2
_Open30
 10
66.50281773303911
 20
73.95344770786746
 30
0.0
  0
INSERT
  5
8D3B
330
8836
100
AcDbEntity
  8
\U+5185框線
 62
     6
370
    -2
100
AcDbBlockReference
  2
_Open30
 10
36.50281773303917
 20
73.95344770786746
 30
0.0
 50
180.0
  0
MTEXT
  5
8D3C
330
8836
100
AcDbEntity
  8
\U+5185框線
 62
     3
100
AcDbMText
 10
51.50281773303913
 20
75.35344770786746
 30
0.0
 40
1.8
 41
0.0
 71
     5
 72
     1
  1
30
 73
     1
 44
1.0
1001
ACAD
1000
MTEXTBEGIN
1070
    73
1070
     1
1070
    44
1040
1.0
1070
    74
1070
     0
1000
MTEXTEND
  0
POINT
  5
8D3D
330
8836
100
AcDbEntity
  8
Defpoints
 62
     0
100
AcDbPoint
 10
66.50281773303911
 20
91.4431720830872
 30
0.0
  0
POINT
  5
8D3E
330
8836
100
AcDbEntity
  8
Defpoints
 62
     0
100
AcDbPoint
 10
36.50281773303917
 20
87.61804121007292
 30
0.0
  0
POINT
  5
8D3F
330
8836
100
AcDbEntity
  8
Defpoints
 62
     0
100
AcDbPoint
 10
36.50281773303917
 20
73.95344770786746
 30
0.0
  0
ENDBLK
  5
8841
330
8836
100
AcDbEntity
  8
0
100
AcDbBlockEnd
  0
BLOCK
  5
8A4A
330
8A46
100
AcDbEntity
  8
0
100
AcDbBlockBegin
  2
_Open30
 70
     0
 10
0.0
 20
0.0
 30
0.0
  3
_Open30
  1

  0
LINE
  5
8A47
330
8A46
100
AcDbEntity
  8
0
  6
ByBlock
 62
     0
370
    -2
100
AcDbLine
 10
-1.0
 20
0.26794919
 30
0.0
 11
0.0
 21
0.0
 31
0.0
  0
LINE
  5
8A48
330
8A46
100
AcDbEntity
  8
0
  6
ByBlock
 62
     0
370
    -2
100
AcDbLine
 10
0.0
 20
0.0
 30
0.0
 11
-1.0
 21
-0.26794919
 31
0.0
  0
LINE
  5
8A49
330
8A46
100
AcDbEntity
  8
0
  6
ByBlock
 62
     0
370
    -2
100
AcDbLine
 10
0.0
 20
0.0
 30
0.0
 11
-1.0
 21
0.0
 31
0.0
  0
ENDBLK
  5
8A4B
330
8A46
100
AcDbEntity
  8
0
100
AcDbBlockEnd
  0
BLOCK
  5
8BDD
330
8BDB
100
AcDbEntity
  8
0
100
AcDbBlockBegin
  2
GENAXEH
 70
     0
 10
0.0
 20
0.0
 30
0.0
  3
GENAXEH
  1

  0
LINE
  5
8BDC
330
8BDB
100
AcDbEntity
  8
0
100
AcDbLine
 10
-1.0
 20
0.0
 30
0.0
 11
1.0
 21
0.0
 31
0.0
  0
ENDBLK
  5
8BDE
330
8BDB
100
AcDbEntity
  8
0
100
AcDbBlockEnd
  0
BLOCK
  5
8D86
330
8D85
100
AcDbEntity
  8
0
100
AcDbBlockBegin
  2
*D57
 70
     1
 10
0.0
 20
0.0
 30
0.0
  3
*D57
  1

  0
LINE
  5
8E2C
330
8D85
100
AcDbEntity
  8
標註線
370
    -2
100
AcDbLine
 10
165.502817733039
 20
81.51490116070267
 30
0.0
 11
165.502817733039
 21
64.0251767854829
 31
0.0
  0
LINE
  5
8E2D
330
8D85
100
AcDbEntity
  8
標註線
370
    -2
100
AcDbLine
 10
135.5028177330391
 20
77.68977028768837
 30
0.0
 11
135.5028177330391
 21
64.02517678548291
 31
0.0
  0
LINE
  5
8E2E
330
8D85
100
AcDbEntity
  8
標註線
370
    -2
100
AcDbLine
 10
163.752817733039
 20
64.62517678548291
 30
0.0
 11
137.2528177330391
 21
64.62517678548291
 31
0.0
  0
INSERT
  5
8E2F
330
8D85
100
AcDbEntity
  8
標註線
370
    -2
100
AcDbBlockReference
  2
_Open30
 10
165.502817733039
 20
64.62517678548291
 30
0.0
 41
1.75
 42
1.75
 43
1.75
  0
INSERT
  5
8E30
330
8D85
100
AcDbEntity
  8
標註線
370
    -2
100
AcDbBlockReference
  2
_Open30
 10
135.5028177330391
 20
64.62517678548291
 30
0.0
 41
1.75
 42
1.75
 43
1.75
 50
180.0
  0
MTEXT
  5
8E31
330
8D85
100
AcDbEntity
  8
標註線
 62
     3
100
AcDbMText
 10
150.5028177330391
 20
66.1001767854829
 30
0.0
 40
1.75
 41
0.0
 71
     5
 72
     1
  1
\A1;30
 73
     1
 44
1.0
1001
ACAD
1000
MTEXTBEGIN
1070
    73
1070
     1
1070
    44
1040
1.0
1070
    74
1070
     0
1000
MTEXTEND
  0
POINT
  5
8E32
330
8D85
100
AcDbEntity
  8
Defpoints
 62
     0
100
AcDbPoint
 10
165.502817733039
 20
82.11490116070265
 30
0.0
  0
POINT
  5
8E33
330
8D85
100
AcDbEntity
  8
Defpoints
 62
     0
100
AcDbPoint
 10
135.5028177330391
 20
78.28977028768837
 30
0.0
  0
POINT
  5
8E34
330
8D85
100
AcDbEntity
  8
Defpoints
 62
     0
100
AcDbPoint
 10
135.5028177330391
 20
64.62517678548291
 30
0.0
  0
ENDBLK
  5
8D87
330
8D85
100
AcDbEntity
  8
0
100
AcDbBlockEnd
  0
BLOCK
  5
8D92
330
8D91
100
AcDbEntity
  8
0
100
AcDbBlockBegin
  2
*D58
 70
     1
 10
0.0
 20
0.0
 30
0.0
  3
*D58
  1

  0
LINE
  5
8E0F
330
8D91
100
AcDbEntity
  8
標註線
370
    -2
100
AcDbLine
 10
135.702817733039
 20
93.28977028768836
 30
0.0
 11
129.1129864820228
 21
93.28977028768836
 31
0.0
  0
LINE
  5
8E10
330
8D91
100
AcDbEntity
  8
標註線
370
    -2
100
AcDbLine
 10
135.702817733039
 20
77.28977028768837
 30
0.0
 11
129.1129864820228
 21
77.28977028768837
 31
0.0
  0
LINE
  5
8E11
330
8D91
100
AcDbEntity
  8
標註線
370
    -2
100
AcDbLine
 10
129.7129864820228
 20
91.53977028768835
 30
0.0
 11
129.7129864820228
 21
79.03977028768837
 31
0.0
  0
INSERT
  5
8E12
330
8D91
100
AcDbEntity
  8
標註線
370
    -2
100
AcDbBlockReference
  2
_Open30
 10
129.7129864820228
 20
93.28977028768836
 30
0.0
 41
1.75
 42
1.75
 43
1.75
 50
90.0
  0
INSERT
  5
8E13
330
8D91
100
AcDbEntity
  8
標註線
370
    -2
100
AcDbBlockReference
  2
_Open30
 10
129.7129864820228
 20
77.28977028768837
 30
0.0
 41
1.75
 42
1.75
 43
1.75
 50
270.0
  0
MTEXT
  5
8E14
330
8D91
100
AcDbEntity
  8
標註線
 62
     3
100
AcDbMText
 10
128.2379864820228
 20
85.28977028768837
 30
0.0
 40
1.75
 41
0.0
 71
     5
 72
     1
  1
\A1;%%C16
 11
0.0000000000000001
 21
1.0
 31
0.0
 73
     1
 44
1.0
1001
ACAD
1000
MTEXTBEGIN
1070
    73
1070
     1
1070
    44
1040
1.0
1070
    74
1070
     0
1000
MTEXTEND
  0
POINT
  5
8E15
330
8D91
100
AcDbEntity
  8
Defpoints
 62
     0
100
AcDbPoint
 10
136.302817733039
 20
93.28977028768836
 30
0.0
  0
POINT
  5
8E16
330
8D91
100
AcDbEntity
  8
Defpoints
 62
     0
100
AcDbPoint
 10
136.302817733039
 20
77.28977028768837
 30
0.0
  0
POINT
  5
8E17
330
8D91
100
AcDbEntity
  8
Defpoints
 62
     0
100
AcDbPoint
 10
129.7129864820228
 20
77.28977028768837
 30
0.0
  0
ENDBLK
  5
8D93
330
8D91
100
AcDbEntity
  8
0
100
AcDbBlockEnd
  0
BLOCK
  5
8D9E
330
8D9D
100
AcDbEntity
  8
0
100
AcDbBlockBegin
  2
*D59
 70
     1
 10
0.0
 20
0.0
 30
0.0
  3
*D59
  1

  0
LINE
  5
8E18
330
8D9D
100
AcDbEntity
  8
標註線
370
    -2
100
AcDbLine
 10
166.102817733039
 20
86.88977028768837
 30
0.0
 11
173.7081457265307
 21
86.88977028768837
 31
0.0
  0
LINE
  5
8E19
330
8D9D
100
AcDbEntity
  8
標註線
370
    -2
100
AcDbLine
 10
166.102817733039
 20
83.68977028768838
 30
0.0
 11
173.7081457265307
 21
83.68977028768838
 31
0.0
  0
LINE
  5
8E1A
330
8D9D
100
AcDbEntity
  8
標註線
370
    -2
100
AcDbLine
 10
173.1081457265307
 20
81.9397702876884
 30
0.0
 11
173.1081457265307
 21
80.18977028768839
 31
0.0
  0
LINE
  5
8E1B
330
8D9D
100
AcDbEntity
  8
標註線
370
    -2
100
AcDbLine
 10
173.1081457265307
 20
88.63977028768836
 30
0.0
 11
173.1081457265307
 21
96.83977028768836
 31
0.0
  0
LINE
  5
8E1C
330
8D9D
100
AcDbEntity
  8
標註線
370
    -2
100
AcDbLine
 10
173.1081457265307
 20
83.68977028768838
 30
0.0
 11
173.1081457265307
 21
86.88977028768837
 31
0.0
  0
INSERT
  5
8E1D
330
8D9D
100
AcDbEntity
  8
標註線
370
    -2
100
AcDbBlockReference
  2
_Open30
 10
173.1081457265307
 20
83.68977028768838
 30
0.0
 41
1.75
 42
1.75
 43
1.75
 50
90.0
  0
INSERT
  5
8E1E
330
8D9D
100
AcDbEntity
  8
標註線
370
    -2
100
AcDbBlockReference
  2
_Open30
 10
173.1081457265307
 20
86.88977028768837
 30
0.0
 41
1.75
 42
1.75
 43
1.75
 50
270.0
  0
MTEXT
  5
8E1F
330
8D9D
100
AcDbEntity
  8
標註線
 62
     3
100
AcDbMText
 10
171.6331457265306
 20
93.61477028768838
 30
0.0
 40
1.75
 41
0.0
 71
     5
 72
     1
  1
\A1;%%c3.2
 11
0.0000000000000001
 21
1.0
 31
0.0
 73
     1
 44
1.0
1001
ACAD
1000
MTEXTBEGIN
1070
    73
1070
     1
1070
    44
1040
1.0
1070
    74
1070
     0
1000
MTEXTEND
  0
POINT
  5
8E20
330
8D9D
100
AcDbEntity
  8
Defpoints
 62
     0
100
AcDbPoint
 10
165.502817733039
 20
86.88977028768837
 30
0.0
  0
POINT
  5
8E21
330
8D9D
100
AcDbEntity
  8
Defpoints
 62
     0
100
AcDbPoint
 10
165.502817733039
 20
83.68977028768838
 30
0.0
  0
POINT
  5
8E22
330
8D9D
100
AcDbEntity
  8
Defpoints
 62
     0
100
AcDbPoint
 10
173.1081457265307
 20
83.68977028768838
 30
0.0
  0
ENDBLK
  5
8D9F
330
8D9D
100
AcDbEntity
  8
0
100
AcDbBlockEnd
  0
BLOCK
  5
8DAA
330
8DA9
100
AcDbEntity
  8
0
100
AcDbBlockBegin
  2
*D60
 70
     1
 10
0.0
 20
0.0
 30
0.0
  3
*D60
  1

  0
LINE
  5
8E23
330
8DA9
100
AcDbEntity
  8
標註線
370
    -2
100
AcDbLine
 10
165.502817733039
 20
82.13990116070267
 30
0.0
 11
165.502817733039
 21
70.26643922185932
 31
0.0
  0
LINE
  5
8E24
330
8DA9
100
AcDbEntity
  8
標註線
370
    -2
100
AcDbLine
 10
138.002817733039
 20
75.68977028768831
 30
0.0
 11
138.002817733039
 21
70.26643922185932
 31
0.0
  0
LINE
  5
8E25
330
8DA9
100
AcDbEntity
  8
標註線
370
    -2
100
AcDbLine
 10
163.752817733039
 20
70.86643922185931
 30
0.0
 11
139.752817733039
 21
70.86643922185931
 31
0.0
  0
INSERT
  5
8E26
330
8DA9
100
AcDbEntity
  8
標註線
370
    -2
100
AcDbBlockReference
  2
_Open30
 10
165.502817733039
 20
70.86643922185931
 30
0.0
 41
1.75
 42
1.75
 43
1.75
  0
INSERT
  5
8E27
330
8DA9
100
AcDbEntity
  8
標註線
370
    -2
100
AcDbBlockReference
  2
_Open30
 10
138.002817733039
 20
70.86643922185931
 30
0.0
 41
1.75
 42
1.75
 43
1.75
 50
180.0
  0
MTEXT
  5
8E28
330
8DA9
100
AcDbEntity
  8
標註線
 62
     3
100
AcDbMText
 10
151.752817733039
 20
72.3414392218593
 30
0.0
 40
1.75
 41
0.0
 71
     5
 72
     1
  1
\A1;27.5
 73
     1
 44
1.0
1001
ACAD
1000
MTEXTBEGIN
1070
    73
1070
     1
1070
    44
1040
1.0
1070
    74
1070
     0
1000
MTEXTEND
  0
POINT
  5
8E29
330
8DA9
100
AcDbEntity
  8
Defpoints
 62
     0
100
AcDbPoint
 10
165.502817733039
 20
82.73990116070265
 30
0.0
  0
POINT
  5
8E2A
330
8DA9
100
AcDbEntity
  8
Defpoints
 62
     0
100
AcDbPoint
 10
138.002817733039
 20
76.28977028768829
 30
0.0
  0
POINT
  5
8E2B
330
8DA9
100
AcDbEntity
  8
Defpoints
 62
     0
100
AcDbPoint
 10
138.002817733039
 20
70.86643922185931
 30
0.0
  0
ENDBLK
  5
8DAB
330
8DA9
100
AcDbEntity
  8
0
100
AcDbBlockEnd
  0
ENDSEC
  0
SECTION
  2
ENTITIES
  0
MTEXT
  5
F7
330
1F
100
AcDbEntity
  8
0
100
AcDbMText
 10
323.2292812435755
 20
90.6709867743587
 30
0.0
 40
2.0
 41
0.0
 71
     5
 72
     1
  1

 73
     1
 44
1.0
1001
ACAD
1000
MTEXTBEGIN
1070
    73
1070
     1
1070
    44
1040
1.0
1070
    74
1070
     0
1000
MTEXTEND
  0
LINE
  5
8915
330
1F
100
AcDbEntity
  8
-
 62
     9
100
AcDbLine
 10
99.0
 20
144.9999999999999
 30
0.0
 11
99.0
 21
0.0
 31
0.0
  0
LINE
  5
8D40
330
1F
100
AcDbEntity
  8
本体外線
100
AcDbLine
 10
136.5028177330391
 20
93.28977028768836
 30
0.0
 11
138.5028177330392
 21
93.28977028768836
 31
0.0
  0
LINE
  5
8D41
330
1F
100
AcDbEntity
  8
中心線
  6
CENTER
 48
0.15
100
AcDbLine
 10
134.5028177330392
 20
85.28977028768835
 30
0.0
 11
166.502817733039
 21
85.28977028768835
 31
0.0
  0
DIMENSION
  5
8D42
330
1F
100
AcDbEntity
  8
標註線
100
AcDbDimension
  2
*D58
 10
129.7129864820228
 20
77.28977028768837
 30
0.0
 11
128.2379864820228
 21
85.28977028768837
 31
0.0
 70
    32
  1
%%C16
 71
     5
 42
15.99999999999998
  3
STANDARD NET
100
AcDbAlignedDimension
 13
136.302817733039
 23
93.28977028768836
 33
0.0
 14
136.302817733039
 24
77.28977028768837
 34
0.0
 50
90.0
100
AcDbRotatedDimension
1001
ACAD_DSTYLE_DIMINSPECT
1070
   396
1000
100%
1070
   395
1000

1070
   394
1070
    33
1070
   393
1070
     0
  0
LINE
  5
8D43
330
1F
100
AcDbEntity
  8
中心線
  6
CENTER
 48
0.15
100
AcDbLine
 10
138.002817733039
 20
94.28977028768835
 30
0.0
 11
138.002817733039
 21
76.28977028768829
 31
0.0
  0
LINE
  5
8D44
330
1F
100
AcDbEntity
  8
本体外線
100
AcDbLine
 10
135.5028177330391
 20
92.28977028768836
 30
0.0
 11
135.5028177330391
 21
78.28977028768837
 31
0.0
  0
LINE
  5
8D45
330
1F
100
AcDbEntity
  8
本体\U+5185線
  6
HIDDENX2
 48
0.1
100
AcDbLine
 10
149.1123977806032
 20
82.26639171287159
 30
0.0
 11
165.502817733039
 21
83.68977028768838
 31
0.0
  0
LINE
  5
8D46
330
1F
100
AcDbEntity
  8
本体\U+5185線
  6
HIDDENX2
 48
0.1
100
AcDbLine
 10
149.1123977806032
 20
88.31314886250515
 30
0.0
 11
165.502817733039
 21
86.88977028768837
 31
0.0
  0
LINE
  5
8D47
330
1F
100
AcDbEntity
  8
本体外線
100
AcDbLine
 10
146.5028177330391
 20
90.28977028768835
 30
0.0
 11
146.5028177330391
 21
80.28977028768835
 31
0.0
  0
ARC
  5
8D48
330
1F
100
AcDbEntity
  8
本体外線
100
AcDbCircle
 10
136.5028177330391
 20
78.28977028768837
 30
0.0
 40
1.0
100
AcDbArc
 50
180.0
 51
269.9999999999992
  0
ARC
  5
8D49
330
1F
100
AcDbEntity
  8
本体外線
100
AcDbCircle
 10
136.5028177330391
 20
92.28977028768836
 30
0.0
 40
1.0
100
AcDbArc
 50
90.0
 51
180.0
  0
LINE
  5
8D4A
330
1F
100
AcDbEntity
  8
本体外線
100
AcDbLine
 10
146.5028177330391
 20
90.28977028768835
 30
0.0
 11
165.0551601252981
 21
88.33689214113476
 31
0.0
  0
LINE
  5
8D4B
330
1F
100
AcDbEntity
  8
本体外線
100
AcDbLine
 10
146.5028177330391
 20
80.28977028768835
 30
0.0
 11
165.0551601252981
 21
82.24264843424192
 31
0.0
  0
LINE
  5
8D4C
330
1F
100
AcDbEntity
  8
本体外線
100
AcDbLine
 10
165.502817733039
 20
87.83963941467405
 30
0.0
 11
165.502817733039
 21
82.73990116070265
 31
0.0
  0
LINE
  5
8D4D
330
1F
100
AcDbEntity
  8
本体外線
100
AcDbLine
 10
135.5028177330392
 20
91.14430912520536
 30
0.0
 11
135.5028177330392
 21
79.4352314501705
 31
0.0
  0
ARC
  5
8D4E
330
1F
100
AcDbEntity
  8
本体外線
100
AcDbCircle
 10
138.5028177330392
 20
90.28977028768835
 30
0.0
 40
3.0
100
AcDbArc
 50
67.97568716295787
 51
90.0
  0
LINE
  5
8D4F
330
1F
100
AcDbEntity
  8
本体外線
100
AcDbLine
 10
146.5028177330391
 20
90.28977028768835
 30
0.0
 11
139.6278177330391
 21
93.07084472034926
 31
0.0
  0
LINE
  5
8D50
330
1F
100
AcDbEntity
  8
本体外線
100
AcDbLine
 10
136.5028177330391
 20
77.28977028768837
 30
0.0
 11
138.5028177330392
 21
77.28977028768837
 31
0.0
  0
ARC
  5
8D51
330
1F
100
AcDbEntity
  8
本体外線
100
AcDbCircle
 10
138.5028177330392
 20
80.2897702876884
 30
0.0
 40
3.0
100
AcDbArc
 50
270.0
 51
292.0243128370421
  0
LINE
  5
8D52
330
1F
100
AcDbEntity
  8
本体外線
100
AcDbLine
 10
146.5028177330391
 20
80.28977028768835
 30
0.0
 11
139.6278177330391
 21
77.50869585502751
 31
0.0
  0
ARC
  5
8D53
330
1F
100
AcDbEntity
  8
本体外線
100
AcDbCircle
 10
165.002817733039
 20
87.83963941467405
 30
0.0
 40
0.5
100
AcDbArc
 50
0.0
 51
83.99099404250549
  0
ARC
  5
8D54
330
1F
100
AcDbEntity
  8
本体外線
100
AcDbCircle
 10
165.002817733039
 20
82.73990116070265
 30
0.0
 40
0.5
100
AcDbArc
 50
276.0090059574945
 51
0.0
  0
DIMENSION
  5
8D55
330
1F
100
AcDbEntity
  8
標註線
100
AcDbDimension
  2
*D59
 10
173.1081457265307
 20
83.68977028768838
 30
0.0
 11
173.1081457265306
 21
93.61477028768838
 31
0.0
 70
   160
  1
%%c<>
 71
     5
 42
3.199999999999974
  3
STANDARD NET
100
AcDbAlignedDimension
 13
165.502817733039
 23
86.88977028768837
 33
0.0
 14
165.502817733039
 24
83.68977028768838
 34
0.0
 50
90.0
100
AcDbRotatedDimension
1001
ACAD_DSTYLE_DIMINSPECT
1070
   396
1000
100%
1070
   395
1000

1070
   394
1070
    33
1070
   393
1070
     0
  0
DIMENSION
  5
8D56
330
1F
100
AcDbEntity
  8
標註線
100
AcDbDimension
  2
*D60
 10
138.002817733039
 20
70.86643922185931
 30
0.0
 11
151.752817733039
 21
72.3414392218593
 31
0.0
 70
    32
 71
     5
 42
27.50000000000003
  3
STANDARD NET
100
AcDbAlignedDimension
 13
165.502817733039
 23
82.73990116070265
 33
0.0
 14
138.002817733039
 24
76.28977028768829
 34
0.0
100
AcDbRotatedDimension
1001
ACAD_DSTYLE_DIMINSPECT
1070
   396
1000
100%
1070
   395
1000

1070
   394
1070
    33
1070
   393
1070
     0
  0
DIMENSION
  5
8D57
330
1F
100
AcDbEntity
  8
標註線
100
AcDbDimension
  2
*D57
 10
135.5028177330391
 20
64.62517678548291
 30
0.0
 11
150.5028177330391
 21
66.1001767854829
 31
0.0
 70
    32
 71
     5
 42
29.99999999999995
  3
STANDARD NET
100
AcDbAlignedDimension
 13
165.502817733039
 23
82.11490116070265
 33
0.0
 14
135.5028177330391
 24
78.28977028768837
 34
0.0
100
AcDbRotatedDimension
1001
ACAD_DSTYLE_DIMINSPECT
1070
   396
1000
100%
1070
   395
1000

1070
   394
1070
    33
1070
   393
1070
     0
  0
LINE
  5
8D58
330
1F
100
AcDbEntity
  8
-
 62
     9
100
AcDbLine
 10
98.99999999999995
 20
145.0
 30
0.0
 11
197.9999999999999
 21
145.0
 31
0.0
  0
LINE
  5
8D59
330
1F
100
AcDbEntity
  8
-
100
AcDbLine
 10
101.5
 20
0.0
 30
0.0
 11
194.5
 21
0.0
 31
0.0
  0
LINE
  5
8D5A
330
1F
100
AcDbEntity
  8
-
 62
     9
370
    30
100
AcDbLine
 10
98.99999999999995
 20
6.499999999999973
 30
0.0
 11
98.99999999999995
 21
145.0
 31
0.0
  0
LINE
  5
8D5B
330
1F
100
AcDbEntity
  8
-
100
AcDbLine
 10
194.4999999999999
 20
0.0
 30
0.0
 11
101.5
 21
0.0
 31
0.0
  0
LINE
  5
8D5C
330
1F
100
AcDbEntity
  8
-
100
AcDbLine
 10
98.99999999999995
 20
0.0
 30
0.0
 11
197.9999999999999
 21
0.0
 31
0.0
  0
LINE
  5
8D5D
330
1F
100
AcDbEntity
  8
-
 62
     9
100
AcDbLine
 10
197.9999999999999
 20
144.9999999999999
 30
0.0
 11
197.9999999999999
 21
0.0
 31
0.0
  0
LINE
  5
8D5E
330
1F
100
AcDbEntity
  8
-
100
AcDbLine
 10
99.0
 20
0.0000000000000275
 30
0.0
 11
197.9999999999999
 21
0.0000000000000275
 31
0.0
  0
MTEXT
  5
8D5F
102
{ACAD_XDICTIONARY
360
8F88
102
}
330
1F
100
AcDbEntity
  8
文字
 62
     7
 48
2.0
100
AcDbMText
 10
160.5593621918638
 20
10.3649977240953
 30
0.0
 40
1.8
 41
0.0
 71
     5
 72
     1
  1
1/4"\P{\Ftxt,bigfont|c128;    \M+1836D\M+18359\M+1838B  1/8 "}
 73
     1
 44
1.0
1001
ACAD
1000
MTEXTBEGIN
1070
    73
1070
     1
1070
    44
1040
1.0
1070
    74
1070
     0
1000
MTEXTEND
  0
LINE
  5
8D60
330
1F
100
AcDbEntity
  8
文字
 62
     7
 48
5.0
100
AcDbLine
 39
2.0
 10
124.456505534926
 20
14.01149462237168
 30
0.0
 11
127.1224073927806
 21
14.67797008683527
 31
0.0
  0
MTEXT
  5
8D61
330
1F
100
AcDbEntity
  8
0
100
AcDbMText
 10
139.6175883259818
 20
14.61391152669461
 30
0.0
 40
2.25
 41
0.0
 71
     1
 72
     5
  1
{\Ftxt,bigfont|c128;NOT/S}
  7
JL
 73
     1
 44
1.0
1001
ACAD
1000
MTEXTBEGIN
1070
    73
1070
     1
1070
    44
1040
1.0
1070
    74
1070
     0
1000
MTEXTEND
  0
LINE
  5
8D62
330
1F
100
AcDbEntity
  8
-
 62
     9
100
AcDbLine
 10
99.0
 20
16.00000000000005
 30
0.0
 11
197.9999999999999
 21
16.00000000000005
 31
0.0
  0
LINE
  5
8D63
330
1F
100
AcDbEntity
  8
-
 62
     9
100
AcDbLine
 10
99.0
 20
11.00000000000005
 30
0.0
 11
146.9999999999999
 21
11.00000000000005
 31
0.0
  0
LINE
  5
8D64
330
1F
100
AcDbEntity
  8
-
 62
     9
100
AcDbLine
 10
99.0
 20
6.000000000000023
 30
0.0
 11
197.9999999999999
 21
6.000000000000053
 31
0.0
  0
LINE
  5
8D65
330
1F
100
AcDbEntity
  8
-
 62
     9
100
AcDbLine
 10
99.0
 20
16.00000000000005
 30
0.0
 11
99.0
 21
0.0000000000000275
 31
0.0
  0
CIRCLE
  5
8D66
330
1F
100
AcDbEntity
  8
文字
 62
     7
100
AcDbCircle
 10
120.1244150159123
 20
13.34501915790798
 30
0.0
 40
1.33295092892732
  0
LINE
  5
8D67
330
1F
100
AcDbEntity
  8
文字
 62
     7
370
    25
100
AcDbLine
 10
118.4586156209741
 20
13.34501915790798
 30
0.0
 11
121.889710930139
 21
13.34501915790798
 31
0.0
  0
MTEXT
  5
8D68
102
{ACAD_XDICTIONARY
360
8F8A
102
}
330
1F
100
AcDbEntity
  8
0
100
AcDbMText
 10
106.8425062644106
 20
4.302182336704753
 30
0.0
 40
3.0
 41
0.0
 71
     1
 72
     5
  1
\Ftxt.shx,bigfont.shx|c128;\M+193FA\M+18B40\M+18A94\M+18EAE\M+189EF\M+18ED0
  7
LKK
 73
     1
 44
1.0
1001
ACAD
1000
MTEXTBEGIN
1070
    73
1070
     1
1070
    44
1040
1.0
1070
    74
1070
     0
1000
MTEXTEND
  0
CIRCLE
  5
8D69
330
1F
100
AcDbEntity
  8
文字
 62
     7
100
AcDbCircle
 10
120.1244150159123
 20
13.34501915790798
 30
0.0
 40
0.6664754644636604
  0
LINE
  5
8D6A
330
1F
100
AcDbEntity
  8
文字
 62
     7
370
    25
100
AcDbLine
 10
120.1244150159123
 20
11.68330699186316
 30
0.0
 11
120.1244150159123
 21
14.90116638321086
 31
0.0
  0
MTEXT
  5
8D6B
102
{ACAD_XDICTIONARY
360
8F8C
102
}
330
1F
100
AcDbEntity
  8
0
100
AcDbMText
 10
100.0485988121615
 20
14.43235806153478
 30
0.0
 40
2.25
 41
0.0
 71
     1
 72
     5
  1
\Ftxt.shx,bigfont.shx|c128;\M+193FA \M+19574
  7
JL
 73
     1
 44
1.0
1001
ACAD
1000
MTEXTBEGIN
1070
    73
1070
     1
1070
    44
1040
1.0
1070
    74
1070
     0
1000
MTEXTEND
  0
LINE
  5
8D6C
330
1F
100
AcDbEntity
  8
-
100
AcDbLine
 10
105.0
 20
16.00000000000005
 30
0.0
 11
105.0
 21
6.000000000000023
 31
0.0
  0
LINE
  5
8D6D
330
1F
100
AcDbEntity
  8
-
 62
     9
100
AcDbLine
 10
115.0
 20
16.00000000000005
 30
0.0
 11
115.0
 21
6.000000000000023
 31
0.0
  0
MTEXT
  5
8D6E
102
{ACAD_XDICTIONARY
360
8F8E
102
}
330
1F
100
AcDbEntity
  8
0
100
AcDbMText
 10
100.1217328702062
 20
9.827952392133223
 30
0.0
 40
2.25
 41
0.0
 71
     1
 72
     5
  1
\Ftxt.shx,bigfont.shx|c128;\M+190BB \M+1907D
  7
JL
 73
     1
 44
1.0
1001
ACAD
1000
MTEXTBEGIN
1070
    73
1070
     1
1070
    44
1040
1.0
1070
    74
1070
     0
1000
MTEXTEND
  0
MTEXT
  5
8D6F
102
{ACAD_XDICTIONARY
360
8F90
102
}
330
1F
100
AcDbEntity
  8
0
100
AcDbMText
 10
116.6499660182187
 20
9.608694610618893
 30
0.0
 40
2.25
 41
0.0
 71
     1
 72
     5
  1
\Ftxt.shx,bigfont.shx|c128;\M+18C9F \M+1907D
  7
JL
 73
     1
 44
1.0
1001
ACAD
1000
MTEXTBEGIN
1070
    73
1070
     1
1070
    44
1040
1.0
1070
    74
1070
     0
1000
MTEXTEND
  0
LINE
  5
8D70
330
1F
100
AcDbEntity
  8
-
100
AcDbLine
 10
121.0
 20
10.99999999999994
 30
0.0
 11
121.0
 21
6.000000000000023
 31
0.0
  0
LINE
  5
8D71
330
1F
100
AcDbEntity
  8
-
100
AcDbLine
 10
137.0
 20
16.00000000000005
 30
0.0
 11
137.0
 21
6.000000000000023
 31
0.0
  0
LINE
  5
8D72
330
1F
100
AcDbEntity
  8
文字
 62
     7
370
    25
100
AcDbLine
 10
124.456505534926
 20
12.67854369344439
 30
0.0
 11
124.456505534926
 21
14.01149462237168
 31
0.0
  0
LINE
  5
8D73
330
1F
100
AcDbEntity
  8
文字
 62
     7
370
    25
100
AcDbLine
 10
127.1224073927806
 20
12.01206822898069
 30
0.0
 11
127.1224073927806
 21
14.67797008683527
 31
0.0
  0
LINE
  5
8D74
330
1F
100
AcDbEntity
  8
-
 62
     9
100
AcDbLine
 10
131.0
 20
16.00000000000005
 30
0.0
 11
131.0
 21
6.000000000000023
 31
0.0
  0
MTEXT
  5
8D75
102
{ACAD_XDICTIONARY
360
8F92
102
}
330
1F
100
AcDbEntity
  8
0
100
AcDbMText
 10
132.1543277978667
 20
14.50544370195081
 30
0.0
 40
2.25
 41
0.0
 71
     1
 72
     5
  1
\Ftxt.shx,bigfont.shx|c128;\M+18EDA \M+19378
  7
JL
 73
     1
 44
1.0
1001
ACAD
1000
MTEXTBEGIN
1070
    73
1070
     1
1070
    44
1040
1.0
1070
    74
1070
     0
1000
MTEXTEND
  0
MTEXT
  5
8D76
102
{ACAD_XDICTIONARY
360
8F94
102
}
330
1F
100
AcDbEntity
  8
0
100
AcDbMText
 10
132.3005945528914
 20
9.608694610618893
 30
0.0
 40
2.25
 41
0.0
 71
     1
 72
     5
  1
\Ftxt.shx,bigfont.shx|c128;\M+18FB3 \M+19446
  7
JL
 73
     1
 44
1.0
1001
ACAD
1000
MTEXTBEGIN
1070
    73
1070
     1
1070
    44
1040
1.0
1070
    74
1070
     0
1000
MTEXTEND
  0
MTEXT
  5
8D77
102
{ACAD_XDICTIONARY
360
8F96
102
}
330
1F
100
AcDbEntity
  8
0
100
AcDbMText
 10
123.9097413947488
 20
9.686999171581364
 30
0.0
 40
2.5
 41
0.0
 71
     1
 72
     5
  1
{\Ftxt,bigfont|c128;\M+18FAC\~\M+196F6}
  7
JL
 73
     1
 44
1.0
1001
ACAD
1000
MTEXTBEGIN
1070
    73
1070
     1
1070
    44
1040
1.0
1070
    74
1070
     0
1000
MTEXTEND
  0
LINE
  5
8D78
330
1F
100
AcDbEntity
  8
文字
 62
     7
100
AcDbLine
 10
124.456505534926
 20
12.67854369344439
 30
0.0
 11
127.1224073927806
 21
12.01206822898069
 31
0.0
  0
LINE
  5
8D79
330
1F
100
AcDbEntity
  8
文字
 62
     7
370
    25
100
AcDbLine
 10
124.0729043622848
 20
13.34501915790798
 30
0.0
 11
127.3617395662702
 21
13.34501915790798
 31
0.0
  0
LINE
  5
8D7A
330
1F
100
AcDbEntity
  8
-
100
AcDbLine
 10
184.5
 20
6.004535139213682
 30
0.0
 11
184.5
 21
0.0000000000000275
 31
0.0
  0
LINE
  5
8D7B
330
1F
100
AcDbEntity
  8
-
 62
     9
100
AcDbLine
 10
147.0
 20
16.00000000000005
 30
0.0
 11
147.0
 21
0.0955208054625994
 31
0.0
  0
MTEXT
  5
8D7C
330
1F
100
AcDbEntity
  8
文字
 62
     7
 48
2.0
370
    25
100
AcDbMText
 10
172.0617134453157
 20
1.818484967414547
 30
0.0
 40
2.25
 41
0.0
 71
     5
 72
     1
  1
{\Ftxt,bigfont|c128;NN82023}
 73
     1
 44
1.0
1001
ACAD
1000
MTEXTBEGIN
1070
    73
1070
     1
1070
    44
1040
1.0
1070
    74
1070
     0
1000
MTEXTEND
  0
MTEXT
  5
8D7D
102
{ACAD_XDICTIONARY
360
8F98
102
}
330
1F
100
AcDbEntity
  8
0
100
AcDbMText
 10
147.8285127813191
 20
5.576660723278704
 30
0.0
 40
2.5
 41
0.0
 71
     1
 72
     5
  1
\Ftxt.shx,bigfont.shx|c128;\M+1907D  \M+196CA  \M+194D4  \M+18D86
  7
JL
 73
     1
 44
1.0
1001
ACAD
1000
MTEXTBEGIN
1070
    73
1070
     1
1070
    44
1040
1.0
1070
    74
1070
     0
1000
MTEXTEND
  0
MTEXT
  5
8D7E
102
{ACAD_XDICTIONARY
360
8F9A
102
}
330
1F
100
AcDbEntity
  8
0
370
    25
100
AcDbMText
 10
147.5649772439823
 20
15.06099553721134
 30
0.0
 40
2.5
 41
0.0
 71
     1
 72
     5
  1
\Ftxt.shx,bigfont.shx|c128;\M+19569  \M+196BC
  7
JL
 73
     1
 44
1.0
1001
ACAD
1000
MTEXTBEGIN
1070
    73
1070
     1
1070
    44
1040
1.0
1070
    74
1070
     0
1000
MTEXTEND
  0
MTEXT
  5
8D7F
102
{ACAD_XDICTIONARY
360
8F9C
102
}
330
1F
100
AcDbEntity
  8
0
370
    25
100
AcDbMText
 10
176.7895678556736
 20
14.95040028065938
 30
0.0
 40
2.5
 41
0.0
 71
     1
 72
     5
  1
\Ftxt.shx,bigfont.shx|c128;\M+18C5E  \M+194D4
  7
JL
 73
     1
 44
1.0
1001
ACAD
1000
MTEXTBEGIN
1070
    73
1070
     1
1070
    44
1040
1.0
1070
    74
1070
     0
1000
MTEXTEND
  0
LINE
  5
8D80
330
1F
100
AcDbEntity
  8
-
 62
     9
100
AcDbLine
 10
175.6117800954342
 20
16.00000000000005
 30
0.0
 11
175.6117800954342
 21
6.000000000000023
 31
0.0
  0
MTEXT
  5
8D81
102
{ACAD_XDICTIONARY
360
8F9E
102
}
330
1F
100
AcDbEntity
  8
0
100
AcDbMText
 10
185.3677240755456
 20
5.596928204745751
 30
0.0
 40
2.5
 41
0.0
 71
     1
 72
     5
  1
\Ftxt.shx,bigfont.shx|c128;\M+195CF\M+18D58
  7
JL
 73
     1
 44
1.0
1001
ACAD
1000
MTEXTBEGIN
1070
    73
1070
     1
1070
    44
1040
1.0
1070
    74
1070
     0
1000
MTEXTEND
  0
MTEXT
  5
8D82
330
1F
100
AcDbEntity
  8
0
100
AcDbMText
 10
107.9097413947488
 20
9.686999171581364
 30
0.0
 40
2.5
 41
0.0
 71
     1
 72
     5
  1
\Ftxt.shx,bigfont.shx|c128;XXX
  7
JL
 73
     1
 44
1.0
1001
ACAD
1000
MTEXTBEGIN
1070
    73
1070
     1
1070
    44
1040
1.0
1070
    74
1070
     0
1000
MTEXTEND
  0
MTEXT
  5
8D83
330
1F
100
AcDbEntity
  8
0
100
AcDbMText
 10
105.9804099785462
 20
14.68699917158136
 30
0.0
 40
2.5
 41
0.0
 71
     1
 72
     5
  1
{\Ftxt,bigfont|c128;07.09.11}
  7
JL
 73
     1
 44
1.0
1001
ACAD
1000
MTEXTBEGIN
1070
    73
1070
     1
1070
    44
1040
1.0
1070
    74
1070
     0
1000
MTEXTEND
  0
MTEXT
  5
8D84
330
1F
100
AcDbEntity
  8
文字
 62
     7
 48
2.0
100
AcDbMText
 10
186.2050836800707
 20
10.74813432420506
 30
0.0
 40
2.25
 41
0.0
 71
     5
 72
     1
  1
\P{\Ftxt,bigfont|c128;    82023}
 73
     1
 44
1.0
1001
ACAD
1000
MTEXTBEGIN
1070
    73
1070
     1
1070
    44
1040
1.0
1070
    74
1070
     0
1000
MTEXTEND
  0
ENDSEC
  0
SECTION
  2
OBJECTS
  0
DICTIONARY
  5
C
330
0
100
AcDbDictionary
281
     1
  3
ACAD_COLOR
350
8846
  3
ACAD_GROUP
350
D
  3
ACAD_LAYOUT
350
1A
  3
ACAD_MATERIAL
350
8845
  3
ACAD_MLEADERSTYLE
350
8B56
  3
ACAD_MLINESTYLE
350
17
  3
ACAD_PLOTSETTINGS
350
19
  3
ACAD_PLOTSTYLENAME
350
E
  3
ACAD_SCALELIST
350
8B44
  3
ACAD_TABLESTYLE
350
8847
  3
ACAD_VISUALSTYLE
350
8B2B
  3
ACDB_RECOMPOSE_DATA
350
8EDF
  3
AcDbVariableDictionary
350
74C
  3
AcmDictionary
350
8BAE
  3
AEC_PROPERTY_SET_DEFS
350
8C6F
  3
AMG
350
8B5F
  3
AMGSNAPSETTINGS
350
8C73
  3
ASE_INDEX_DICTIONARY
350
14E
  3
DWGPROPS
350
8EE0
  0
DICTIONARY
  5
8C22
330
2
100
AcDbDictionary
280
     1
281
     1
  3
ACAD_LAYERSTATES
360
8C23
  0
DICTIONARY
  5
8E36
330
10
100
AcDbDictionary
280
     1
281
     1
  3
ADSK_XREC_LAYER_RECONCILED
360
8E37
  0
DICTIONARY
  5
8E38
330
22C5
100
AcDbDictionary
280
     1
281
     1
  3
ADSK_XREC_LAYER_RECONCILED
360
8E39
  0
DICTIONARY
  5
8E3A
330
22C6
100
AcDbDictionary
280
     1
281
     1
  3
ADSK_XREC_LAYER_RECONCILED
360
8E3B
  0
DICTIONARY
  5
8E3C
330
22C7
100
AcDbDictionary
280
     1
281
     1
  3
ADSK_XREC_LAYER_RECONCILED
360
8E3D
  0
DICTIONARY
  5
8E3E
330
22C8
100
AcDbDictionary
280
     1
281
     1
  3
ADSK_XREC_LAYER_RECONCILED
360
8E3F
  0
DICTIONARY
  5
8E40
330
22C9
100
AcDbDictionary
280
     1
281
     1
  3
ADSK_XREC_LAYER_RECONCILED
360
8E41
  0
DICTIONARY
  5
8E42
330
22CA
100
AcDbDictionary
280
     1
281
     1
  3
ADSK_XREC_LAYER_RECONCILED
360
8E43
  0
DICTIONARY
  5
8E44
330
22CB
100
AcDbDictionary
280
     1
281
     1
  3
ADSK_XREC_LAYER_RECONCILED
360
8E45
  0
DICTIONARY
  5
8E46
330
22CD
100
AcDbDictionary
280
     1
281
     1
  3
ADSK_XREC_LAYER_RECONCILED
360
8E47
  0
DICTIONARY
  5
8E48
330
22CF
100
AcDbDictionary
280
     1
281
     1
  3
ADSK_XREC_LAYER_RECONCILED
360
8E49
  0
DICTIONARY
  5
8E4A
330
7FF6
100
AcDbDictionary
280
     1
281
     1
  3
ADSK_XREC_LAYER_RECONCILED
360
8E4B
  0
DICTIONARY
  5
8AB
330
1F
100
AcDbDictionary
280
     1
281
     1
  3
ACAD_LAYOUTSELFREF
360
227F
  0
DICTIONARY
  5
8AD
330
1B
100
AcDbDictionary
280
     1
281
     1
  3
ACAD_LAYOUTSELFREF
360
227E
  0
DICTIONARY
  5
8AF
330
23
100
AcDbDictionary
280
     1
281
     1
  3
ACAD_LAYOUTSELFREF
360
2280
  0
DICTIONARY
  5
8EE7
330
771E
100
AcDbDictionary
280
     1
281
     1
  3
ACAD_MTEXT_RT
360
8EE8
  0
DICTIONARY
  5
8EE9
330
7737
100
AcDbDictionary
280
     1
281
     1
  3
ACAD_MTEXT_RT
360
8EEA
  0
DICTIONARY
  5
8EEB
330
7743
100
AcDbDictionary
280
     1
281
     1
  3
ACAD_MTEXT_RT
360
8EEC
  0
DICTIONARY
  5
8EED
330
775D
100
AcDbDictionary
280
     1
281
     1
  3
ACAD_MTEXT_RT
360
8EEE
  0
DICTIONARY
  5
8EEF
330
779A
100
AcDbDictionary
280
     1
281
     1
  3
ACAD_MTEXT_RT
360
8EF0
  0
DICTIONARY
  5
8EF1
330
77E1
100
AcDbDictionary
280
     1
281
     1
  3
ACAD_MTEXT_RT
360
8EF2
  0
DICTIONARY
  5
8EF3
330
77EC
100
AcDbDictionary
280
     1
281
     1
  3
ACAD_MTEXT_RT
360
8EF4
  0
DICTIONARY
  5
8EF5
330
7E9E
100
AcDbDictionary
280
     1
281
     1
  3
ACAD_MTEXT_RT
360
8EF6
  0
DICTIONARY
  5
8EF7
330
7E9F
100
AcDbDictionary
280
     1
281
     1
  3
ACAD_MTEXT_RT
360
8EF8
  0
DICTIONARY
  5
8EF9
330
7EA0
100
AcDbDictionary
280
     1
281
     1
  3
ACAD_MTEXT_RT
360
8EFA
  0
DICTIONARY
  5
8EFB
330
7EA1
100
AcDbDictionary
280
     1
281
     1
  3
ACAD_MTEXT_RT
360
8EFC
  0
DICTIONARY
  5
8EFD
330
7EB1
100
AcDbDictionary
280
     1
281
     1
  3
ACAD_MTEXT_RT
360
8EFE
  0
DICTIONARY
  5
8EFF
330
7F3A
100
AcDbDictionary
280
     1
281
     1
  3
ACAD_MTEXT_RT
360
8F00
  0
DICTIONARY
  5
8F01
330
7F46
100
AcDbDictionary
280
     1
281
     1
  3
ACAD_MTEXT_RT
360
8F02
  0
DICTIONARY
  5
8F03
330
7F51
100
AcDbDictionary
280
     1
281
     1
  3
ACAD_MTEXT_RT
360
8F04
  0
DICTIONARY
  5
8F05
330
7F60
100
AcDbDictionary
280
     1
281
     1
  3
ACAD_MTEXT_RT
360
8F06
  0
DICTIONARY
  5
8F07
330
7F92
100
AcDbDictionary
280
     1
281
     1
  3
ACAD_MTEXT_RT
360
8F08
  0
DICTIONARY
  5
8F09
330
7FAE
100
AcDbDictionary
280
     1
281
     1
  3
ACAD_MTEXT_RT
360
8F0A
  0
DICTIONARY
  5
8F0B
330
7FCF
100
AcDbDictionary
280
     1
281
     1
  3
ACAD_MTEXT_RT
360
8F0C
  0
DICTIONARY
  5
8F0D
330
8005
100
AcDbDictionary
280
     1
281
     1
  3
ACAD_MTEXT_RT
360
8F0E
  0
DICTIONARY
  5
8F0F
330
8006
100
AcDbDictionary
280
     1
281
     1
  3
ACAD_MTEXT_RT
360
8F10
  0
DICTIONARY
  5
8F11
330
8007
100
AcDbDictionary
280
     1
281
     1
  3
ACAD_MTEXT_RT
360
8F12
  0
DICTIONARY
  5
8F13
330
8008
100
AcDbDictionary
280
     1
281
     1
  3
ACAD_MTEXT_RT
360
8F14
  0
DICTIONARY
  5
8F15
330
8009
100
AcDbDictionary
280
     1
281
     1
  3
ACAD_MTEXT_RT
360
8F16
  0
DICTIONARY
  5
8F17
330
800A
100
AcDbDictionary
280
     1
281
     1
  3
ACAD_MTEXT_RT
360
8F18
  0
DICTIONARY
  5
8F19
330
8016
100
AcDbDictionary
280
     1
281
     1
  3
ACAD_MTEXT_RT
360
8F1A
  0
DICTIONARY
  5
8F1B
330
801D
100
AcDbDictionary
280
     1
281
     1
  3
ACAD_MTEXT_RT
360
8F1C
  0
DICTIONARY
  5
8F1D
330
8021
100
AcDbDictionary
280
     1
281
     1
  3
ACAD_MTEXT_RT
360
8F1E
  0
DICTIONARY
  5
8F1F
330
8022
100
AcDbDictionary
280
     1
281
     1
  3
ACAD_MTEXT_RT
360
8F20
  0
DICTIONARY
  5
8F21
330
8023
100
AcDbDictionary
280
     1
281
     1
  3
ACAD_MTEXT_RT
360
8F22
  0
DICTIONARY
  5
8F23
330
802A
100
AcDbDictionary
280
     1
281
     1
  3
ACAD_MTEXT_RT
360
8F24
  0
DICTIONARY
  5
8F25
330
802B
100
AcDbDictionary
280
     1
281
     1
  3
ACAD_MTEXT_RT
360
8F26
  0
DICTIONARY
  5
8F27
330
802C
100
AcDbDictionary
280
     1
281
     1
  3
ACAD_MTEXT_RT
360
8F28
  0
DICTIONARY
  5
8F29
330
802E
100
AcDbDictionary
280
     1
281
     1
  3
ACAD_MTEXT_RT
360
8F2A
  0
DICTIONARY
  5
8F2B
330
803A
100
AcDbDictionary
280
     1
281
     1
  3
ACAD_MTEXT_RT
360
8F2C
  0
DICTIONARY
  5
8F2D
330
803B
100
AcDbDictionary
280
     1
281
     1
  3
ACAD_MTEXT_RT
360
8F2E
  0
DICTIONARY
  5
8F2F
330
8040
100
AcDbDictionary
280
     1
281
     1
  3
ACAD_MTEXT_RT
360
8F30
  0
DICTIONARY
  5
8F31
330
8041
100
AcDbDictionary
280
     1
281
     1
  3
ACAD_MTEXT_RT
360
8F32
  0
DICTIONARY
  5
8F33
330
8042
100
AcDbDictionary
280
     1
281
     1
  3
ACAD_MTEXT_RT
360
8F34
  0
DICTIONARY
  5
8F35
330
8043
100
AcDbDictionary
280
     1
281
     1
  3
ACAD_MTEXT_RT
360
8F36
  0
DICTIONARY
  5
8F37
330
804A
100
AcDbDictionary
280
     1
281
     1
  3
ACAD_MTEXT_RT
360
8F38
  0
DICTIONARY
  5
8F39
330
8050
100
AcDbDictionary
280
     1
281
     1
  3
ACAD_MTEXT_RT
360
8F3A
  0
DICTIONARY
  5
8F3B
330
80A5
100
AcDbDictionary
280
     1
281
     1
  3
ACAD_MTEXT_RT
360
8F3C
  0
DICTIONARY
  5
8F3D
330
80A6
100
AcDbDictionary
280
     1
281
     1
  3
ACAD_MTEXT_RT
360
8F3E
  0
DICTIONARY
  5
8F3F
330
80A7
100
AcDbDictionary
280
     1
281
     1
  3
ACAD_MTEXT_RT
360
8F40
  0
DICTIONARY
  5
8F41
330
80A8
100
AcDbDictionary
280
     1
281
     1
  3
ACAD_MTEXT_RT
360
8F42
  0
DICTIONARY
  5
8F43
330
80A9
100
AcDbDictionary
280
     1
281
     1
  3
ACAD_MTEXT_RT
360
8F44
  0
DICTIONARY
  5
8F45
330
82C9
100
AcDbDictionary
280
     1
281
     1
  3
ACAD_MTEXT_RT
360
8F46
  0
DICTIONARY
  5
8F47
330
87B3
100
AcDbDictionary
280
     1
281
     1
  3
ACAD_MTEXT_RT
360
8F48
  0
DICTIONARY
  5
8F49
330
87BE
100
AcDbDictionary
280
     1
281
     1
  3
ACAD_MTEXT_RT
360
8F4A
  0
DICTIONARY
  5
8F4B
330
87C0
100
AcDbDictionary
280
     1
281
     1
  3
ACAD_MTEXT_RT
360
8F4C
  0
DICTIONARY
  5
8F4D
330
87C1
100
AcDbDictionary
280
     1
281
     1
  3
ACAD_MTEXT_RT
360
8F4E
  0
DICTIONARY
  5
8F88
330
8D5F
100
AcDbDictionary
280
     1
281
     1
  3
ACAD_MTEXT_RT
360
8F89
  0
DICTIONARY
  5
8F8A
330
8D68
100
AcDbDictionary
280
     1
281
     1
  3
ACAD_MTEXT_RT
360
8F8B
  0
DICTIONARY
  5
8F8C
330
8D6B
100
AcDbDictionary
280
     1
281
     1
  3
ACAD_MTEXT_RT
360
8F8D
  0
DICTIONARY
  5
8F8E
330
8D6E
100
AcDbDictionary
280
     1
281
     1
  3
ACAD_MTEXT_RT
360
8F8F
  0
DICTIONARY
  5
8F90
330
8D6F
100
AcDbDictionary
280
     1
281
     1
  3
ACAD_MTEXT_RT
360
8F91
  0
DICTIONARY
  5
8F92
330
8D75
100
AcDbDictionary
280
     1
281
     1
  3
ACAD_MTEXT_RT
360
8F93
  0
DICTIONARY
  5
8F94
330
8D76
100
AcDbDictionary
280
     1
281
     1
  3
ACAD_MTEXT_RT
360
8F95
  0
DICTIONARY
  5
8F96
330
8D77
100
AcDbDictionary
280
     1
281
     1
  3
ACAD_MTEXT_RT
360
8F97
  0
DICTIONARY
  5
8F98
330
8D7D
100
AcDbDictionary
280
     1
281
     1
  3
ACAD_MTEXT_RT
360
8F99
  0
DICTIONARY
  5
8F9A
330
8D7E
100
AcDbDictionary
280
     1
281
     1
  3
ACAD_MTEXT_RT
360
8F9B
  0
DICTIONARY
  5
8F9C
330
8D7F
100
AcDbDictionary
280
     1
281
     1
  3
ACAD_MTEXT_RT
360
8F9D
  0
DICTIONARY
  5
8F9E
330
8D81
100
AcDbDictionary
280
     1
281
     1
  3
ACAD_MTEXT_RT
360
8F9F
  0
DICTIONARY
  5
8846
102
{ACAD_REACTORS
330
C
102
}
330
C
100
AcDbDictionary
281
     1
  0
DICTIONARY
  5
D
102
{ACAD_REACTORS
330
C
102
}
330
C
100
AcDbDictionary
281
     1
  0
DICTIONARY
  5
1A
102
{ACAD_REACTORS
330
C
102
}
330
C
100
AcDbDictionary
281
     1
  3
Model
350
22
  3
配置1
350
1E
  3
配置2
350
26
  0
DICTIONARY
  5
8845
102
{ACAD_REACTORS
330
C
102
}
330
C
100
AcDbDictionary
281
     1
  3
ByBlock
350
8B1B
  3
ByLayer
350
8B13
  3
Global
350
8B23
  0
DICTIONARY
  5
8B56
102
{ACAD_REACTORS
330
C
102
}
330
C
100
AcDbDictionary
281
     1
  3
Standard
350
8B57
  0
DICTIONARY
  5
17
102
{ACAD_REACTORS
330
C
102
}
330
C
100
AcDbDictionary
281
     1
  3
Standard
350
18
  0
DICTIONARY
  5
19
102
{ACAD_REACTORS
330
C
102
}
330
C
100
AcDbDictionary
281
     1
  0
ACDBDICTIONARYWDFLT
  5
E
102
{ACAD_REACTORS
330
C
102
}
330
C
100
AcDbDictionary
281
     1
  3
Normal
350
F
100
AcDbDictionaryWithDefault
340
F
  0
DICTIONARY
  5
8B44
102
{ACAD_REACTORS
330
C
102
}
330
C
100
AcDbDictionary
281
     1
  3
A0
350
8B45
  3
A1
350
8B46
  3
A2
350
8B47
  3
A3
350
8B48
  3
A4
350
8B49
  3
A5
350
8B4A
  3
A6
350
8B4B
  3
A7
350
8B4C
  3
A8
350
8B4D
  3
A9
350
8B4E
  3
B0
350
8B4F
  3
B1
350
8B50
  3
B2
350
8B51
  3
B3
350
8B52
  3
B4
350
8B53
  3
B5
350
8B54
  3
B6
350
8B55
  0
DICTIONARY
  5
8847
102
{ACAD_REACTORS
330
C
102
}
330
C
100
AcDbDictionary
281
     1
  3
Standard
350
8848
  0
DICTIONARY
  5
8B2B
102
{ACAD_REACTORS
330
C
102
}
330
C
100
AcDbDictionary
281
     1
  3
2dWireframe
350
8B31
  3
Basic
350
8B30
  3
Brighten
350
8B37
  3
ColorChange
350
8B3B
  3
Conceptual
350
8B34
  3
Dim
350
8B36
  3
EdgeColorOff
350
8B43
  3
Facepattern
350
8B3A
  3
Flat
350
8B2C
  3
FlatWithEdges
350
8B2D
  3
Gouraud
350
8B2E
  3
GouraudWithEdges
350
8B2F
  3
Hidden
350
8B33
  3
JitterOff
350
8B41
  3
Linepattern
350
8B39
  3
OverhangOff
350
8B42
  3
Realistic
350
8B35
  3
Shaded
350
8B40
  3
Shaded with edges
350
8B3F
  3
Shades of Gray
350
8B3C
  3
Sketchy
350
8B3D
  3
Thicken
350
8B38
  3
Wireframe
350
8B32
  3
X-Ray
350
8B3E
  0
XRECORD
  5
8EDF
102
{ACAD_REACTORS
330
C
102
}
330
C
100
AcDbXrecord
280
     1
 90
        1
330
8848
  0
DICTIONARY
  5
74C
102
{ACAD_REACTORS
330
C
102
}
330
C
100
AcDbDictionary
281
     1
  3
CANNOSCALE
350
8E4E
  3
CMLEADERSTYLE
350
8E4C
  3
CTABLESTYLE
350
8A33
  3
DIMASSOC
350
8EDC
  3
INDEXCTL
350
8EDA
  3
LAYEREVAL
350
8E50
  3
LAYERNOTIFY
350
8E51
  3
LIGHTINGUNITS
350
8E4F
  3
MSLTSCALE
350
8E4D
  3
SORTENTS
350
74D
  3
XCLIPFRAME
350
8EDB
  0
DICTIONARY
  5
8BAE
102
{ACAD_REACTORS
330
C
102
}
330
C
100
AcDbDictionary
281
     1
  3
AcmStdDictionary
350
8BB7
  0
DICTIONARY
  5
8C6F
102
{ACAD_REACTORS
330
C
102
}
330
C
100
AcDbDictionary
281
     1
  0
DICTIONARY
  5
8B5F
102
{ACAD_REACTORS
330
C
102
}
330
C
100
AcDbDictionary
281
     1
  0
DICTIONARY
  5
8C73
102
{ACAD_REACTORS
330
C
102
}
330
C
100
AcDbDictionary
281
     1
  0
DICTIONARY
  5
14E
102
{ACAD_REACTORS
330
C
102
}
330
C
100
AcDbDictionary
281
     1
  3
ASEBlockHierarchyIndexRecord
350
150
1001
DCO15
1040
1467452171.78
  0
XRECORD
  5
8EE0
102
{ACAD_REACTORS
330
C
102
}
330
C
100
AcDbXrecord
280
     1
  1
DWGPROPS COOKIE
  2

  3

  4

  6

  7

  8
lin yen shu
  9

300
=
301
=
302
=
303
=
304
=
305
=
306
=
307
=
308
=
309
=
 40
0.8602309722222221
 41
2452787.461415857
 42
2459230.462813716
  1

 90
        0
  0
DICTIONARY
  5
8C23
102
{ACAD_REACTORS
330
8C22
102
}
330
8C22
100
AcDbDictionary
281
     1
  0
XRECORD
  5
8E37
102
{ACAD_REACTORS
330
8E36
102
}
330
8E36
100
AcDbXrecord
280
     1
290
     1
  0
XRECORD
  5
8E39
102
{ACAD_REACTORS
330
8E38
102
}
330
8E38
100
AcDbXrecord
280
     1
290
     1
  0
XRECORD
  5
8E3B
102
{ACAD_REACTORS
330
8E3A
102
}
330
8E3A
100
AcDbXrecord
280
     1
290
     1
  0
XRECORD
  5
8E3D
102
{ACAD_REACTORS
330
8E3C
102
}
330
8E3C
100
AcDbXrecord
280
     1
290
     1
  0
XRECORD
  5
8E3F
102
{ACAD_REACTORS
330
8E3E
102
}
330
8E3E
100
AcDbXrecord
280
     1
290
     1
  0
XRECORD
  5
8E41
102
{ACAD_REACTORS
330
8E40
102
}
330
8E40
100
AcDbXrecord
280
     1
290
     1
  0
XRECORD
  5
8E43
102
{ACAD_REACTORS
330
8E42
102
}
330
8E42
100
AcDbXrecord
280
     1
290
     1
  0
XRECORD
  5
8E45
102
{ACAD_REACTORS
330
8E44
102
}
330
8E44
100
AcDbXrecord
280
     1
290
     1
  0
XRECORD
  5
8E47
102
{ACAD_REACTORS
330
8E46
102
}
330
8E46
100
AcDbXrecord
280
     1
290
     1
  0
XRECORD
  5
8E49
102
{ACAD_REACTORS
330
8E48
102
}
330
8E48
100
AcDbXrecord
280
     1
290
     1
  0
XRECORD
  5
8E4B
102
{ACAD_REACTORS
330
8E4A
102
}
330
8E4A
100
AcDbXrecord
280
     1
290
     1
  0
XRECORD
  5
227F
102
{ACAD_REACTORS
330
8AB
102
}
330
8AB
100
AcDbXrecord
280
     1
340
1F
  0
XRECORD
  5
227E
102
{ACAD_REACTORS
330
8AD
102
}
330
8AD
100
AcDbXrecord
280
     1
340
1B
  0
XRECORD
  5
2280
102
{ACAD_REACTORS
330
8AF
102
}
330
8AF
100
AcDbXrecord
280
     1
340
23
  0
XRECORD
  5
8EE8
102
{ACAD_REACTORS
330
8EE7
102
}
330
8EE7
100
AcDbXrecord
280
     1
 40
3961.0
  1
\U+220512.50
  0
XRECORD
  5
8EEA
102
{ACAD_REACTORS
330
8EE9
102
}
330
8EE9
100
AcDbXrecord
280
     1
 40
2378.0
  1
\U+220516
  0
XRECORD
  5
8EEC
102
{ACAD_REACTORS
330
8EEB
102
}
330
8EEB
100
AcDbXrecord
280
     1
 40
2856.0
  1
\U+22056.3
  0
XRECORD
  5
8EEE
102
{ACAD_REACTORS
330
8EED
102
}
330
8EED
100
AcDbXrecord
280
     1
 40
2870.0
  1
\U+22059.2
  0
XRECORD
  5
8EF0
102
{ACAD_REACTORS
330
8EEF
102
}
330
8EEF
100
AcDbXrecord
280
     1
 40
2910.0
  1
\U+22059.6
  0
XRECORD
  5
8EF2
102
{ACAD_REACTORS
330
8EF1
102
}
330
8EF1
100
AcDbXrecord
280
     1
 40
2342.0
  1
\U+220512
  0
XRECORD
  5
8EF4
102
{ACAD_REACTORS
330
8EF3
102
}
330
8EF3
100
AcDbXrecord
280
     1
 40
3961.0
  1
\U+220512.50
  0
XRECORD
  5
8EF6
102
{ACAD_REACTORS
330
8EF5
102
}
330
8EF5
100
AcDbXrecord
280
     1
 40
89792.0
  1
\Ftxt.shx,bigfont.shx|c128;備註：
  0
XRECORD
  5
8EF8
102
{ACAD_REACTORS
330
8EF7
102
}
330
8EF7
100
AcDbXrecord
280
     1
 40
530265.0
  1
\Ftxt.shx,bigfont.shx|c128;\U+5185外球\U+5F84位置須打光1000＃以上\P 
  0
XRECORD
  5
8EFA
102
{ACAD_REACTORS
330
8EF9
102
}
330
8EF9
100
AcDbXrecord
280
     1
 40
589364.0
  1
\Ftxt.shx,bigfont.shx|c128;\U+56F3面供\U+53C2考以2KG水\U+5727不水漏為準\P 
  0
XRECORD
  5
8EFC
102
{ACAD_REACTORS
330
8EFB
102
}
330
8EFB
100
AcDbXrecord
280
     1
 40
360115.0
  1
\Ftxt.shx,bigfont.shx|c128;\U+5185外球\U+5F84真\U+5186度5/100以\U+5185\P 
  0
XRECORD
  5
8EFE
102
{ACAD_REACTORS
330
8EFD
102
}
330
8EFD
100
AcDbXrecord
280
     1
 40
69405.0
  1
\Ftxt.shx,bigfont.shx|c128;小柳
  0
XRECORD
  5
8F00
102
{ACAD_REACTORS
330
8EFF
102
}
330
8EFF
100
AcDbXrecord
280
     1
 40
2378.0
  1
\U+220516
  0
XRECORD
  5
8F02
102
{ACAD_REACTORS
330
8F01
102
}
330
8F01
100
AcDbXrecord
280
     1
 40
1940.0
  1
\U+22057
  0
XRECORD
  5
8F04
102
{ACAD_REACTORS
330
8F03
102
}
330
8F03
100
AcDbXrecord
280
     1
 40
2846.0
  1
\U+22051.6
  0
XRECORD
  5
8F06
102
{ACAD_REACTORS
330
8F05
102
}
330
8F05
100
AcDbXrecord
280
     1
 40
2882.0
  1
\U+22053.8
  0
XRECORD
  5
8F08
102
{ACAD_REACTORS
330
8F07
102
}
330
8F07
100
AcDbXrecord
280
     1
 40
2890.0
  1
\U+22054.8
  0
XRECORD
  5
8F0A
102
{ACAD_REACTORS
330
8F09
102
}
330
8F09
100
AcDbXrecord
280
     1
 40
2342.0
  1
\U+220512
  0
XRECORD
  5
8F0C
102
{ACAD_REACTORS
330
8F0B
102
}
330
8F0B
100
AcDbXrecord
280
     1
 40
3385.0
  1
\U+220512.5
  0
XRECORD
  5
8F0E
102
{ACAD_REACTORS
330
8F0D
102
}
330
8F0D
100
AcDbXrecord
280
     1
 40
370626.0
  1
\Ftxt.shx,bigfont.shx|c128;4.未指示角部\U+306FR0.5\U+3068\U+3059\U+308B\P 
  0
XRECORD
  5
8F10
102
{ACAD_REACTORS
330
8F0F
102
}
330
8F0F
100
AcDbXrecord
280
     1
 40
545583.0
  1
\Ftxt.shx,bigfont.shx|c128;1.\U+5185外球\U+5F84位置須打光1000＃以上\P 
  0
XRECORD
  5
8F12
102
{ACAD_REACTORS
330
8F11
102
}
330
8F11
100
AcDbXrecord
280
     1
 40
605646.0
  1
\Ftxt.shx,bigfont.shx|c128;2.\U+56F3面供\U+53C2考以2KG水\U+5727不水漏為準\P 
  0
XRECORD
  5
8F14
102
{ACAD_REACTORS
330
8F13
102
}
330
8F13
100
AcDbXrecord
280
     1
 40
372609.0
  1
\Ftxt.shx,bigfont.shx|c128;3.\U+5185外球\U+5F84真\U+5186度5/100以\U+5185\P 
  0
XRECORD
  5
8F16
102
{ACAD_REACTORS
330
8F15
102
}
330
8F15
100
AcDbXrecord
280
     1
 40
118583.0
  1
\Ftxt.shx,bigfont.shx|c128;更改\U+5185容
  0
XRECORD
  5
8F18
102
{ACAD_REACTORS
330
8F17
102
}
330
8F17
100
AcDbXrecord
280
     1
 40
118949.0
  1
\Ftxt.shx,bigfont.shx|c128;新規\U+767A行
  0
XRECORD
  5
8F1A
102
{ACAD_REACTORS
330
8F19
102
}
330
8F19
100
AcDbXrecord
280
     1
 40
89792.0
  1
\Ftxt.shx,bigfont.shx|c128;備註：
  0
XRECORD
  5
8F1C
102
{ACAD_REACTORS
330
8F1B
102
}
330
8F1B
100
AcDbXrecord
280
     1
 40
188571.0
  1
\Ftxt.shx,bigfont.shx|c128;日機株式\U+4F1A社
  0
XRECORD
  5
8F1E
102
{ACAD_REACTORS
330
8F1D
102
}
330
8F1D
100
AcDbXrecord
280
     1
 40
91655.0
  1
\Ftxt.shx,bigfont.shx|c128;\U+5449銘宏
  0
XRECORD
  5
8F20
102
{ACAD_REACTORS
330
8F1F
102
}
330
8F1F
100
AcDbXrecord
280
     1
 40
67140.0
  1
\Ftxt.shx,bigfont.shx|c128;\U+62C5\U+5F53
  0
XRECORD
  5
8F22
102
{ACAD_REACTORS
330
8F21
102
}
330
8F21
100
AcDbXrecord
280
     1
 40
68153.0
  1
\Ftxt.shx,bigfont.shx|c128;日付
  0
XRECORD
  5
8F24
102
{ACAD_REACTORS
330
8F23
102
}
330
8F23
100
AcDbXrecord
280
     1
 40
70077.0
  1
\Ftxt.shx,bigfont.shx|c128;製 \U+56F3
  0
XRECORD
  5
8F26
102
{ACAD_REACTORS
330
8F25
102
}
330
8F25
100
AcDbXrecord
280
     1
 40
70506.0
  1
\Ftxt.shx,bigfont.shx|c128;\U+691C \U+56F3
  0
XRECORD
  5
8F28
102
{ACAD_REACTORS
330
8F27
102
}
330
8F27
100
AcDbXrecord
280
     1
 40
69669.0
  1
\Ftxt.shx,bigfont.shx|c128;承 認
  0
XRECORD
  5
8F2A
102
{ACAD_REACTORS
330
8F29
102
}
330
8F29
100
AcDbXrecord
280
     1
 40
75507.0
  1
\Ftxt.shx,bigfont.shx|c128;寸     法
  0
XRECORD
  5
8F2C
102
{ACAD_REACTORS
330
8F2B
102
}
330
8F2B
100
AcDbXrecord
280
     1
 40
119970.0
  1
\Ftxt.shx,bigfont.shx|c128;容許公差
  0
XRECORD
  5
8F2E
102
{ACAD_REACTORS
330
8F2D
102
}
330
8F2D
100
AcDbXrecord
280
     1
 40
144192.0
  1
\Ftxt.shx,bigfont.shx|c128;一   般   公   差
  0
XRECORD
  5
8F30
102
{ACAD_REACTORS
330
8F2F
102
}
330
8F2F
100
AcDbXrecord
280
     1
 40
91655.0
  1
\Ftxt.shx,bigfont.shx|c128;\U+5449銘宏
  0
XRECORD
  5
8F32
102
{ACAD_REACTORS
330
8F31
102
}
330
8F31
100
AcDbXrecord
280
     1
 40
69783.0
  1
\Ftxt.shx,bigfont.shx|c128;日 付
  0
XRECORD
  5
8F34
102
{ACAD_REACTORS
330
8F33
102
}
330
8F33
100
AcDbXrecord
280
     1
 40
69783.0
  1
\Ftxt.shx,bigfont.shx|c128;日 付
  0
XRECORD
  5
8F36
102
{ACAD_REACTORS
330
8F35
102
}
330
8F35
100
AcDbXrecord
280
     1
 40
69783.0
  1
\Ftxt.shx,bigfont.shx|c128;日 付
  0
XRECORD
  5
8F38
102
{ACAD_REACTORS
330
8F37
102
}
330
8F37
100
AcDbXrecord
280
     1
 40
70369.0
  1
\Ftxt.shx,bigfont.shx|c128;尺 度
  0
XRECORD
  5
8F3A
102
{ACAD_REACTORS
330
8F39
102
}
330
8F39
100
AcDbXrecord
280
     1
 40
72280.0
  1
\Ftxt.shx,bigfont.shx|c128;材 質
  0
XRECORD
  5
8F3C
102
{ACAD_REACTORS
330
8F3B
102
}
330
8F3B
100
AcDbXrecord
280
     1
 40
134077.0
  1
\Ftxt.shx,bigfont.shx|c128;\U+56F3  面  番  \U+53F7
  0
XRECORD
  5
8F3E
102
{ACAD_REACTORS
330
8F3D
102
}
330
8F3D
100
AcDbXrecord
280
     1
 40
112887.0
  1
\Ftxt.shx,bigfont.shx|c128;\U+30CE\U+30BA\U+30EB\P1/16"
  0
XRECORD
  5
8F40
102
{ACAD_REACTORS
330
8F3F
102
}
330
8F3F
100
AcDbXrecord
280
     1
 40
77148.0
  1
\Ftxt.shx,bigfont.shx|c128;品     名
  0
XRECORD
  5
8F42
102
{ACAD_REACTORS
330
8F41
102
}
330
8F41
100
AcDbXrecord
280
     1
 40
77996.0
  1
\Ftxt.shx,bigfont.shx|c128;機     種
  0
XRECORD
  5
8F44
102
{ACAD_REACTORS
330
8F43
102
}
330
8F43
100
AcDbXrecord
280
     1
 40
128458.0
  1
\Ftxt.shx,bigfont.shx|c128;1/4"\U+30B7\U+30B9\U+30C6\U+30E0
  0
XRECORD
  5
8F46
102
{ACAD_REACTORS
330
8F45
102
}
330
8F45
100
AcDbXrecord
280
     1
 40
112887.0
  1
\Ftxt.shx,bigfont.shx|c128;\U+30CE\U+30BA\U+30EB\P1/16"
  0
XRECORD
  5
8F48
102
{ACAD_REACTORS
330
8F47
102
}
330
8F47
100
AcDbXrecord
280
     1
 40
75507.0
  1
\Ftxt.shx,bigfont.shx|c128;寸     法
  0
XRECORD
  5
8F4A
102
{ACAD_REACTORS
330
8F49
102
}
330
8F49
100
AcDbXrecord
280
     1
 40
119970.0
  1
\Ftxt.shx,bigfont.shx|c128;容許公差
  0
XRECORD
  5
8F4C
102
{ACAD_REACTORS
330
8F4B
102
}
330
8F4B
100
AcDbXrecord
280
     1
 40
128053.0
  1
\Ftxt.shx,bigfont.shx|c128;JIS B 0405　(中級)
  0
XRECORD
  5
8F4E
102
{ACAD_REACTORS
330
8F4D
102
}
330
8F4D
100
AcDbXrecord
280
     1
 40
144192.0
  1
\Ftxt.shx,bigfont.shx|c128;一   般   公   差
  0
XRECORD
  5
8F89
102
{ACAD_REACTORS
330
8F88
102
}
330
8F88
100
AcDbXrecord
280
     1
 40
120137.0
  1
1/4"\P{\Ftxt,bigfont|c128;    \U+30CE\U+30BA\U+30EB  1/8 "}
  0
XRECORD
  5
8F8B
102
{ACAD_REACTORS
330
8F8A
102
}
330
8F8A
100
AcDbXrecord
280
     1
 40
188571.0
  1
\Ftxt.shx,bigfont.shx|c128;日機株式\U+4F1A社
  0
XRECORD
  5
8F8D
102
{ACAD_REACTORS
330
8F8C
102
}
330
8F8C
100
AcDbXrecord
280
     1
 40
69783.0
  1
\Ftxt.shx,bigfont.shx|c128;日 付
  0
XRECORD
  5
8F8F
102
{ACAD_REACTORS
330
8F8E
102
}
330
8F8E
100
AcDbXrecord
280
     1
 40
70077.0
  1
\Ftxt.shx,bigfont.shx|c128;製 \U+56F3
  0
XRECORD
  5
8F91
102
{ACAD_REACTORS
330
8F90
102
}
330
8F90
100
AcDbXrecord
280
     1
 40
70506.0
  1
\Ftxt.shx,bigfont.shx|c128;\U+691C \U+56F3
  0
XRECORD
  5
8F93
102
{ACAD_REACTORS
330
8F92
102
}
330
8F92
100
AcDbXrecord
280
     1
 40
70369.0
  1
\Ftxt.shx,bigfont.shx|c128;尺 度
  0
XRECORD
  5
8F95
102
{ACAD_REACTORS
330
8F94
102
}
330
8F94
100
AcDbXrecord
280
     1
 40
69669.0
  1
\Ftxt.shx,bigfont.shx|c128;承 認
  0
XRECORD
  5
8F97
102
{ACAD_REACTORS
330
8F96
102
}
330
8F96
100
AcDbXrecord
280
     1
 40
59220.0
  1
{\Ftxt,bigfont|c128;小\~柳}
  0
XRECORD
  5
8F99
102
{ACAD_REACTORS
330
8F98
102
}
330
8F98
100
AcDbXrecord
280
     1
 40
134077.0
  1
\Ftxt.shx,bigfont.shx|c128;\U+56F3  面  番  \U+53F7
  0
XRECORD
  5
8F9B
102
{ACAD_REACTORS
330
8F9A
102
}
330
8F9A
100
AcDbXrecord
280
     1
 40
71889.0
  1
\Ftxt.shx,bigfont.shx|c128;品  名
  0
XRECORD
  5
8F9D
102
{ACAD_REACTORS
330
8F9C
102
}
330
8F9C
100
AcDbXrecord
280
     1
 40
72032.0
  1
\Ftxt.shx,bigfont.shx|c128;型  番
  0
XRECORD
  5
8F9F
102
{ACAD_REACTORS
330
8F9E
102
}
330
8F9E
100
AcDbXrecord
280
     1
 40
68955.0
  1
\Ftxt.shx,bigfont.shx|c128;\U+5909更
  0
LAYOUT
  5
22
102
{ACAD_XDICTIONARY
360
8EE3
102
}
102
{ACAD_REACTORS
330
1A
102
}
330
1A
100
AcDbPlotSettings
  1

  2
DWG To PDF.pc3
  4
ISO_full_bleed_A4_(210.00_x_297.00_MM)
  6

 40
0.7937499880790711
 41
0.7937499880790711
 42
0.7937469482421875
 43
0.79376220703125
 44
210.0
 45
297.0
 46
5.206251531839427
 47
2.706243902444953
 48
99.0
 49
0.0000000000000284
140
197.9999999999999
141
144.9999999999999
142
1.0
143
0.5
 70
 11940
 72
     1
 73
     0
 74
     4
  7
LIN.ctb
 75
     0
147
2.037327502102689
148
-99.0
149
-0.0000000000000284
100
AcDbLayout
  1
Model
 70
     1
 71
     0
 10
0.0
 20
0.0
 11
12.0
 21
9.0
 12
0.0
 22
0.0
 32
0.0
 14
0.0
 24
0.0
 34
0.0
 15
0.0
 25
0.0
 35
0.0
146
0.0
 13
0.0
 23
0.0
 33
0.0
 16
1.0
 26
0.0
 36
0.0
 17
0.0
 27
1.0
 37
0.0
 76
     0
330
1F
331
8B10
1001
ACAD_PSEXT
1000
DWG To PDF.pc3
1000
DWG To PDF
1000
檔案
1000

1070
     0
  0
LAYOUT
  5
1E
102
{ACAD_XDICTIONARY
360
8EE1
102
}
102
{ACAD_REACTORS
330
1A
102
}
330
1A
100
AcDbPlotSettings
  1

  2
EPSON Stylus C41 Series
  4

  6

 40
0.0
 41
0.0
 42
0.0
 43
0.0
 44
0.0
 45
0.0
 46
0.0
 47
0.0
 48
0.0
 49
0.0
140
0.0
141
0.0
142
1.0
143
1.0
 70
   688
 72
     0
 73
     0
 74
     5
  7
LIN.ctb
 75
    16
147
1.0
148
0.0
149
0.0
100
AcDbLayout
  1
\U+FF70t\U+FF78m1
 70
     1
 71
     1
 10
0.0
 20
0.0
 11
420.0
 21
297.0
 12
0.0
 22
0.0
 32
0.0
 14
1.000000000000000E+20
 24
1.000000000000000E+20
 34
1.000000000000000E+20
 15
-1.000000000000000E+20
 25
-1.000000000000000E+20
 35
-1.000000000000000E+20
146
0.0
 13
0.0
 23
0.0
 33
0.0
 16
1.0
 26
0.0
 36
0.0
 17
0.0
 27
1.0
 37
0.0
 76
     0
330
1B
  0
LAYOUT
  5
26
102
{ACAD_XDICTIONARY
360
8EE5
102
}
102
{ACAD_REACTORS
330
1A
102
}
330
1A
100
AcDbPlotSettings
  1

  2
EPSON Stylus C41 Series
  4

  6

 40
0.0
 41
0.0
 42
0.0
 43
0.0
 44
0.0
 45
0.0
 46
0.0
 47
0.0
 48
0.0
 49
0.0
140
0.0
141
0.0
142
1.0
143
1.0
 70
   688
 72
     0
 73
     0
 74
     5
  7
LIN.ctb
 75
    16
147
1.0
148
0.0
149
0.0
100
AcDbLayout
  1
\U+FF70t\U+FF78m2
 70
     1
 71
     2
 10
0.0
 20
0.0
 11
12.0
 21
9.0
 12
0.0
 22
0.0
 32
0.0
 14
0.0
 24
0.0
 34
0.0
 15
0.0
 25
0.0
 35
0.0
146
0.0
 13
0.0
 23
0.0
 33
0.0
 16
1.0
 26
0.0
 36
0.0
 17
0.0
 27
1.0
 37
0.0
 76
     0
330
23
  0
MATERIAL
  5
8B1B
102
{ACAD_XDICTIONARY
360
8B1C
102
}
102
{ACAD_REACTORS
330
8845
102
}
330
8845
100
AcDbMaterial
  1
ByBlock
 72
     0
 43
0.0008202099737533
 43
0.0
 43
0.0
 43
0.0
 43
0.0
 43
0.0008202099737533
 43
0.0
 43
0.0
 43
0.0
 43
0.0
 43
1.0
 43
0.0
 43
0.0
 43
0.0
 43
0.0
 43
1.0
 77
     0
 47
0.0008202099737533
 47
0.0
 47
0.0
 47
0.0
 47
0.0
 47
0.0008202099737533
 47
0.0
 47
0.0
 47
0.0
 47
0.0
 47
1.0
 47
0.0
 47
0.0
 47
0.0
 47
0.0
 47
1.0
171
     0
 49
0.0008202099737533
 49
0.0
 49
0.0
 49
0.0
 49
0.0
 49
0.0008202099737533
 49
0.0
 49
0.0
 49
0.0
 49
0.0
 49
1.0
 49
0.0
 49
0.0
 49
0.0
 49
0.0
 49
1.0
175
     0
142
0.0008202099737533
142
0.0
142
0.0
142
0.0
142
0.0
142
0.0008202099737533
142
0.0
142
0.0
142
0.0
142
0.0
142
1.0
142
0.0
142
0.0
142
0.0
142
0.0
142
1.0
179
     0
144
0.0008202099737533
144
0.0
144
0.0
144
0.0
144
0.0
144
0.0008202099737533
144
0.0
144
0.0
144
0.0
144
0.0
144
1.0
144
0.0
144
0.0
144
0.0
144
0.0
144
1.0
147
0.0008202099737533
147
0.0
147
0.0
147
0.0
147
0.0
147
0.0008202099737533
147
0.0
147
0.0
147
0.0
147
0.0
147
1.0
147
0.0
147
0.0
147
0.0
147
0.0
147
1.0
  0
MATERIAL
  5
8B13
102
{ACAD_XDICTIONARY
360
8B14
102
}
102
{ACAD_REACTORS
330
8845
102
}
330
8845
100
AcDbMaterial
  1
ByLayer
 72
     0
 43
0.0008202099737533
 43
0.0
 43
0.0
 43
0.0
 43
0.0
 43
0.0008202099737533
 43
0.0
 43
0.0
 43
0.0
 43
0.0
 43
1.0
 43
0.0
 43
0.0
 43
0.0
 43
0.0
 43
1.0
 77
     0
 47
0.0008202099737533
 47
0.0
 47
0.0
 47
0.0
 47
0.0
 47
0.0008202099737533
 47
0.0
 47
0.0
 47
0.0
 47
0.0
 47
1.0
 47
0.0
 47
0.0
 47
0.0
 47
0.0
 47
1.0
171
     0
 49
0.0008202099737533
 49
0.0
 49
0.0
 49
0.0
 49
0.0
 49
0.0008202099737533
 49
0.0
 49
0.0
 49
0.0
 49
0.0
 49
1.0
 49
0.0
 49
0.0
 49
0.0
 49
0.0
 49
1.0
175
     0
142
0.0008202099737533
142
0.0
142
0.0
142
0.0
142
0.0
142
0.0008202099737533
142
0.0
142
0.0
142
0.0
142
0.0
142
1.0
142
0.0
142
0.0
142
0.0
142
0.0
142
1.0
179
     0
144
0.0008202099737533
144
0.0
144
0.0
144
0.0
144
0.0
144
0.0008202099737533
144
0.0
144
0.0
144
0.0
144
0.0
144
1.0
144
0.0
144
0.0
144
0.0
144
0.0
144
1.0
147
0.0008202099737533
147
0.0
147
0.0
147
0.0
147
0.0
147
0.0008202099737533
147
0.0
147
0.0
147
0.0
147
0.0
147
1.0
147
0.0
147
0.0
147
0.0
147
0.0
147
1.0
  0
MATERIAL
  5
8B23
102
{ACAD_XDICTIONARY
360
8B24
102
}
102
{ACAD_REACTORS
330
8845
102
}
330
8845
100
AcDbMaterial
  1
Global
 72
     0
 43
0.0008202099737533
 43
0.0
 43
0.0
 43
0.0
 43
0.0
 43
0.0008202099737533
 43
0.0
 43
0.0
 43
0.0
 43
0.0
 43
1.0
 43
0.0
 43
0.0
 43
0.0
 43
0.0
 43
1.0
 77
     0
 47
0.0008202099737533
 47
0.0
 47
0.0
 47
0.0
 47
0.0
 47
0.0008202099737533
 47
0.0
 47
0.0
 47
0.0
 47
0.0
 47
1.0
 47
0.0
 47
0.0
 47
0.0
 47
0.0
 47
1.0
171
     0
 49
0.0008202099737533
 49
0.0
 49
0.0
 49
0.0
 49
0.0
 49
0.0008202099737533
 49
0.0
 49
0.0
 49
0.0
 49
0.0
 49
1.0
 49
0.0
 49
0.0
 49
0.0
 49
0.0
 49
1.0
175
     0
142
0.0008202099737533
142
0.0
142
0.0
142
0.0
142
0.0
142
0.0008202099737533
142
0.0
142
0.0
142
0.0
142
0.0
142
1.0
142
0.0
142
0.0
142
0.0
142
0.0
142
1.0
179
     0
144
0.0008202099737533
144
0.0
144
0.0
144
0.0
144
0.0
144
0.0008202099737533
144
0.0
144
0.0
144
0.0
144
0.0
144
1.0
144
0.0
144
0.0
144
0.0
144
0.0
144
1.0
147
0.0008202099737533
147
0.0
147
0.0
147
0.0
147
0.0
147
0.0008202099737533
147
0.0
147
0.0
147
0.0
147
0.0
147
1.0
147
0.0
147
0.0
147
0.0
147
0.0
147
1.0
  0
MLEADERSTYLE
  5
8B57
102
{ACAD_REACTORS
330
8B56
102
}
330
8B56
100
AcDbMLeaderStyle
170
     2
171
     1
172
     0
 90
        2
 40
0.0
 41
0.0
173
     1
 91
-1056964608
340
14
 92
       -2
290
     1
 42
2.0
291
     1
 43
0.36
  3
Standard
 44
4.0
300

342
11
174
     1
178
     6
175
     1
176
     0
 93
-1056964608
 45
4.0
292
     0
297
     0
 46
4.0
 94
-1056964608
 47
1.0
 49
1.0
140
1.0
293
     1
141
0.0
294
     1
177
     0
142
1.0
295
     0
296
     0
143
0.125
1001
ACAD_MLEADERVER
1070
     2
  0
MLINESTYLE
  5
18
102
{ACAD_REACTORS
330
17
102
}
330
17
100
AcDbMlineStyle
  2
STANDARD
 70
     0
  3

 62
   256
 51
90.0
 52
90.0
 71
     2
 49
0.5
 62
   256
  6
BYLAYER
 49
-0.5
 62
   256
  6
BYLAYER
  0
ACDBPLACEHOLDER
  5
F
102
{ACAD_REACTORS
330
E
102
}
330
E
  0
SCALE
  5
8B45
102
{ACAD_REACTORS
330
8B44
102
}
330
8B44
100
AcDbScale
 70
     0
300
1:1
140
1.0
141
1.0
290
     1
  0
SCALE
  5
8B46
102
{ACAD_REACTORS
330
8B44
102
}
330
8B44
100
AcDbScale
 70
     0
300
1:2
140
1.0
141
2.0
290
     0
  0
SCALE
  5
8B47
102
{ACAD_REACTORS
330
8B44
102
}
330
8B44
100
AcDbScale
 70
     0
300
1:4
140
1.0
141
4.0
290
     0
  0
SCALE
  5
8B48
102
{ACAD_REACTORS
330
8B44
102
}
330
8B44
100
AcDbScale
 70
     0
300
1:5
140
1.0
141
5.0
290
     0
  0
SCALE
  5
8B49
102
{ACAD_REACTORS
330
8B44
102
}
330
8B44
100
AcDbScale
 70
     0
300
1:8
140
1.0
141
8.0
290
     0
  0
SCALE
  5
8B4A
102
{ACAD_REACTORS
330
8B44
102
}
330
8B44
100
AcDbScale
 70
     0
300
1:10
140
1.0
141
10.0
290
     0
  0
SCALE
  5
8B4B
102
{ACAD_REACTORS
330
8B44
102
}
330
8B44
100
AcDbScale
 70
     0
300
1:16
140
1.0
141
16.0
290
     0
  0
SCALE
  5
8B4C
102
{ACAD_REACTORS
330
8B44
102
}
330
8B44
100
AcDbScale
 70
     0
300
1:20
140
1.0
141
20.0
290
     0
  0
SCALE
  5
8B4D
102
{ACAD_REACTORS
330
8B44
102
}
330
8B44
100
AcDbScale
 70
     0
300
1:30
140
1.0
141
30.0
290
     0
  0
SCALE
  5
8B4E
102
{ACAD_REACTORS
330
8B44
102
}
330
8B44
100
AcDbScale
 70
     0
300
1:40
140
1.0
141
40.0
290
     0
  0
SCALE
  5
8B4F
102
{ACAD_REACTORS
330
8B44
102
}
330
8B44
100
AcDbScale
 70
     0
300
1:50
140
1.0
141
50.0
290
     0
  0
SCALE
  5
8B50
102
{ACAD_REACTORS
330
8B44
102
}
330
8B44
100
AcDbScale
 70
     0
300
1:100
140
1.0
141
100.0
290
     0
  0
SCALE
  5
8B51
102
{ACAD_REACTORS
330
8B44
102
}
330
8B44
100
AcDbScale
 70
     0
300
2:1
140
2.0
141
1.0
290
     0
  0
SCALE
  5
8B52
102
{ACAD_REACTORS
330
8B44
102
}
330
8B44
100
AcDbScale
 70
     0
300
4:1
140
4.0
141
1.0
290
     0
  0
SCALE
  5
8B53
102
{ACAD_REACTORS
330
8B44
102
}
330
8B44
100
AcDbScale
 70
     0
300
8:1
140
8.0
141
1.0
290
     0
  0
SCALE
  5
8B54
102
{ACAD_REACTORS
330
8B44
102
}
330
8B44
100
AcDbScale
 70
     0
300
10:1
140
10.0
141
1.0
290
     0
  0
SCALE
  5
8B55
102
{ACAD_REACTORS
330
8B44
102
}
330
8B44
100
AcDbScale
 70
     0
300
100:1
140
100.0
141
1.0
290
     0
  0
TABLESTYLE
  5
8848
102
{ACAD_XDICTIONARY
360
8EDD
102
}
102
{ACAD_REACTORS
330
8847
102
}
330
8847
100
AcDbTableStyle
  3
Standard
 70
     0
 71
     0
 40
1.5
 41
1.5
280
     0
281
     0
  7
Standard
140
4.5
170
     2
 62
     0
 63
     7
283
     0
274
    -2
284
     1
 64
     0
275
    -2
285
     1
 65
     0
276
    -2
286
     1
 66
     0
277
    -2
287
     1
 67
     0
278
    -2
288
     1
 68
     0
279
    -2
289
     1
 69
     0
  7
Standard
140
6.0
170
     5
 62
     0
 63
     7
283
     0
274
    -2
284
     1
 64
     0
275
    -2
285
     1
 65
     0
276
    -2
286
     1
 66
     0
277
    -2
287
     1
 67
     0
278
    -2
288
     1
 68
     0
279
    -2
289
     1
 69
     0
  7
Standard
140
4.5
170
     5
 62
     0
 63
     7
283
     0
274
    -2
284
     1
 64
     0
275
    -2
285
     1
 65
     0
276
    -2
286
     1
 66
     0
277
    -2
287
     1
 67
     0
278
    -2
288
     1
 68
     0
279
    -2
289
     1
 69
     0
  0
VISUALSTYLE
  5
8B31
102
{ACAD_XDICTIONARY
360
8F5D
102
}
102
{ACAD_REACTORS
330
8B2B
102
}
330
8B2B
100
AcDbVisualStyle
  2
2dWireframe
 70
     4
 71
     0
 72
     2
 73
     0
 90
        0
 40
-0.6
 41
-30.0
 62
     5
 63
     7
 74
     1
 91
        4
 64
     7
 65
   257
 75
     1
175
     1
 42
1.0
 92
        0
 66
   257
 43
1.0
 76
     1
 77
     6
 78
     2
 67
     7
 79
     5
170
     0
171
     0
290
     0
174
     0
 93
        1
 44
0.0
173
     0
291
     0
 45
0.0
1001
ACAD
1000
AcDbSavedByObjectVersion
1070
     0
  0
VISUALSTYLE
  5
8B30
102
{ACAD_XDICTIONARY
360
8F5B
102
}
102
{ACAD_REACTORS
330
8B2B
102
}
330
8B2B
100
AcDbVisualStyle
  2
Basic
 70
     7
 71
     1
 72
     0
 73
     1
 90
        0
 40
-0.6
 41
-30.0
 62
     5
 63
     7
 74
     0
 91
        4
 64
     7
 65
   257
 75
     1
175
     1
 42
1.0
 92
        8
 66
     7
 43
1.0
 76
     1
 77
     6
 78
     2
 67
     7
 79
     5
170
     0
171
     0
290
     0
174
     0
 93
        1
 44
0.0
173
     0
291
     1
 45
0.0
1001
ACAD
1000
AcDbSavedByObjectVersion
1070
     0
  0
VISUALSTYLE
  5
8B37
102
{ACAD_XDICTIONARY
360
8F69
102
}
102
{ACAD_REACTORS
330
8B2B
102
}
330
8B2B
100
AcDbVisualStyle
  2
Brighten
 70
    12
 71
     2
 72
     2
 73
     0
 90
        0
 40
-0.6
 41
-30.0
 62
     5
 63
     7
 74
     1
 91
        4
 64
     7
 65
   257
 75
     1
175
     1
 42
1.0
 92
        8
 66
     7
 43
1.0
 76
     1
 77
     6
 78
     2
 67
     7
 79
     5
170
     0
171
     0
290
     0
174
     0
 93
        1
 44
50.0
173
     0
291
     1
 45
0.0
1001
ACAD
1000
AcDbSavedByObjectVersion
1070
     0
  0
VISUALSTYLE
  5
8B3B
102
{ACAD_XDICTIONARY
360
8F71
102
}
102
{ACAD_REACTORS
330
8B2B
102
}
330
8B2B
100
AcDbVisualStyle
  2
ColorChange
 70
    16
 71
     2
 72
     2
 73
     3
 90
        0
 40
-0.6
 41
-30.0
 62
     5
 63
     8
 74
     1
 91
        4
 64
     7
 65
   257
 75
     1
175
     1
 42
1.0
 92
        8
 66
     8
 43
1.0
 76
     1
 77
     6
 78
     2
 67
     7
 79
     5
170
     0
171
     0
290
     0
174
     0
 93
        1
 44
0.0
173
     0
291
     1
 45
0.0
1001
ACAD
1000
AcDbSavedByObjectVersion
1070
     0
  0
VISUALSTYLE
  5
8B34
102
{ACAD_XDICTIONARY
360
8F63
102
}
102
{ACAD_REACTORS
330
8B2B
102
}
330
8B2B
100
AcDbVisualStyle
  2
Conceptual
 70
     9
 71
     3
 72
     2
 73
     0
 90
        0
 40
-0.6
 41
-30.0
 62
     5
 63
     7
 74
     2
 91
        2
 64
     7
 65
   257
 75
     1
175
     1
 42
179.0
 92
        8
 66
     7
 43
1.0
 76
     1
 77
     6
 78
     2
 67
     7
 79
     3
170
     0
171
     0
290
     0
174
     0
 93
        1
 44
0.0
173
     0
291
     0
 45
0.0
1001
ACAD
1000
AcDbSavedByObjectVersion
1070
     0
  0
VISUALSTYLE
  5
8B36
102
{ACAD_XDICTIONARY
360
8F67
102
}
102
{ACAD_REACTORS
330
8B2B
102
}
330
8B2B
100
AcDbVisualStyle
  2
Dim
 70
    11
 71
     2
 72
     2
 73
     0
 90
        0
 40
-0.6
 41
-30.0
 62
     5
 63
     7
 74
     1
 91
        4
 64
     7
 65
   257
 75
     1
175
     1
 42
1.0
 92
        8
 66
     7
 43
1.0
 76
     1
 77
     6
 78
     2
 67
     7
 79
     5
170
     0
171
     0
290
     0
174
     0
 93
        1
 44
-50.0
173
     0
291
     1
 45
0.0
1001
ACAD
1000
AcDbSavedByObjectVersion
1070
     0
  0
VISUALSTYLE
  5
8B43
102
{ACAD_XDICTIONARY
360
8F81
102
}
102
{ACAD_REACTORS
330
8B2B
102
}
330
8B2B
100
AcDbVisualStyle
  2
EdgeColorOff
 70
    22
 71
     2
 72
     2
 73
     0
 90
        0
 40
-0.6
 41
-30.0
 62
     5
 63
     7
 74
     1
 91
        4
 64
     7
 65
   257
 75
     1
175
     1
 42
1.0
 92
        8
 66
     7
 43
1.0
 76
     1
 77
     6
 78
     2
 67
     7
 79
     5
170
     0
171
     0
290
     0
174
     0
 93
        1
 44
0.0
173
     0
291
     1
 45
0.0
1001
ACAD
1000
AcDbSavedByObjectVersion
1070
     0
  0
VISUALSTYLE
  5
8B3A
102
{ACAD_XDICTIONARY
360
8F6F
102
}
102
{ACAD_REACTORS
330
8B2B
102
}
330
8B2B
100
AcDbVisualStyle
  2
Facepattern
 70
    15
 71
     2
 72
     2
 73
     0
 90
        0
 40
-0.6
 41
-30.0
 62
     5
 63
     7
 74
     1
 91
        4
 64
     7
 65
   257
 75
     1
175
     1
 42
1.0
 92
        8
 66
     7
 43
1.0
 76
     1
 77
     6
 78
     2
 67
     7
 79
     5
170
     0
171
     0
290
     0
174
     0
 93
        1
 44
0.0
173
     0
291
     1
 45
0.0
1001
ACAD
1000
AcDbSavedByObjectVersion
1070
     0
  0
VISUALSTYLE
  5
8B2C
102
{ACAD_XDICTIONARY
360
8F53
102
}
102
{ACAD_REACTORS
330
8B2B
102
}
330
8B2B
100
AcDbVisualStyle
  2
Flat
 70
     0
 71
     2
 72
     1
 73
     1
 90
        2
 40
-0.6
 41
30.0
 62
     5
 63
     7
 74
     0
 91
        0
 64
     7
 65
   257
 75
     1
175
     1
 42
1.0
 92
        8
 66
     7
 43
1.0
 76
     1
 77
     6
 78
     2
 67
     7
 79
     5
170
     0
171
     0
290
     0
174
     0
 93
       13
 44
0.0
173
     0
291
     1
 45
0.0
1001
ACAD
1000
AcDbSavedByObjectVersion
1070
     0
  0
VISUALSTYLE
  5
8B2D
102
{ACAD_XDICTIONARY
360
8F55
102
}
102
{ACAD_REACTORS
330
8B2B
102
}
330
8B2B
100
AcDbVisualStyle
  2
FlatWithEdges
 70
     1
 71
     2
 72
     1
 73
     1
 90
        2
 40
-0.6
 41
30.0
 62
     5
 63
     7
 74
     1
 91
        0
 64
     7
 65
   257
 75
     1
175
     1
 42
1.0
 92
        0
 66
   257
 43
1.0
 76
     1
 77
     6
 78
     2
 67
     7
 79
     5
170
     0
171
     0
290
     0
174
     0
 93
       13
 44
0.0
173
     0
291
     1
 45
0.0
1001
ACAD
1000
AcDbSavedByObjectVersion
1070
     0
  0
VISUALSTYLE
  5
8B2E
102
{ACAD_XDICTIONARY
360
8F57
102
}
102
{ACAD_REACTORS
330
8B2B
102
}
330
8B2B
100
AcDbVisualStyle
  2
Gouraud
 70
     2
 71
     2
 72
     2
 73
     1
 90
        2
 40
-0.6
 41
30.0
 62
     5
 63
     7
 74
     0
 91
        0
 64
     7
 65
   257
 75
     1
175
     1
 42
1.0
 92
        0
 66
     7
 43
1.0
 76
     1
 77
     6
 78
     2
 67
     7
 79
     5
170
     0
171
     0
290
     0
174
     0
 93
       13
 44
0.0
173
     0
291
     1
 45
0.0
1001
ACAD
1000
AcDbSavedByObjectVersion
1070
     0
  0
VISUALSTYLE
  5
8B2F
102
{ACAD_XDICTIONARY
360
8F59
102
}
102
{ACAD_REACTORS
330
8B2B
102
}
330
8B2B
100
AcDbVisualStyle
  2
GouraudWithEdges
 70
     3
 71
     2
 72
     2
 73
     1
 90
        2
 40
-0.6
 41
30.0
 62
     5
 63
     7
 74
     1
 91
        0
 64
     7
 65
   257
 75
     1
175
     1
 42
1.0
 92
        0
 66
   257
 43
1.0
 76
     1
 77
     6
 78
     2
 67
     7
 79
     5
170
     0
171
     0
290
     0
174
     0
 93
       13
 44
0.0
173
     0
291
     1
 45
0.0
1001
ACAD
1000
AcDbSavedByObjectVersion
1070
     0
  0
VISUALSTYLE
  5
8B33
102
{ACAD_XDICTIONARY
360
8F61
102
}
102
{ACAD_REACTORS
330
8B2B
102
}
330
8B2B
100
AcDbVisualStyle
  2
Hidden
 70
     6
 71
     1
 72
     2
 73
     2
 90
        0
 40
-0.6
 41
-30.0
 62
     5
 63
     7
 74
     2
 91
        2
 64
     7
 65
   257
 75
     2
175
     1
 42
40.0
 92
        0
 66
   257
 43
1.0
 76
     1
 77
     6
 78
     2
 67
     7
 79
     3
170
     0
171
     0
290
     0
174
     0
 93
        1
 44
0.0
173
     0
291
     0
 45
0.0
1001
ACAD
1000
AcDbSavedByObjectVersion
1070
     0
  0
VISUALSTYLE
  5
8B41
102
{ACAD_XDICTIONARY
360
8F7D
102
}
102
{ACAD_REACTORS
330
8B2B
102
}
330
8B2B
100
AcDbVisualStyle
  2
JitterOff
 70
    20
 71
     2
 72
     2
 73
     0
 90
        0
 40
-0.6
 41
-30.0
 62
     5
 63
     7
 74
     1
 91
        4
 64
     7
 65
   257
 75
     1
175
     1
 42
1.0
 92
       10
 66
     7
 43
1.0
 76
     1
 77
     6
 78
     2
 67
     7
 79
     5
170
     0
171
     0
290
     0
174
     0
 93
        1
 44
0.0
173
     0
291
     1
 45
0.0
1001
ACAD
1000
AcDbSavedByObjectVersion
1070
     0
  0
VISUALSTYLE
  5
8B39
102
{ACAD_XDICTIONARY
360
8F6D
102
}
102
{ACAD_REACTORS
330
8B2B
102
}
330
8B2B
100
AcDbVisualStyle
  2
Linepattern
 70
    14
 71
     2
 72
     2
 73
     0
 90
        0
 40
-0.6
 41
-30.0
 62
     5
 63
     7
 74
     1
 91
        4
 64
     7
 65
   257
 75
     7
175
     7
 42
1.0
 92
        8
 66
     7
 43
1.0
 76
     1
 77
     6
 78
     2
 67
     7
 79
     5
170
     0
171
     0
290
     0
174
     0
 93
        1
 44
0.0
173
     0
291
     1
 45
0.0
1001
ACAD
1000
AcDbSavedByObjectVersion
1070
     0
  0
VISUALSTYLE
  5
8B42
102
{ACAD_XDICTIONARY
360
8F7F
102
}
102
{ACAD_REACTORS
330
8B2B
102
}
330
8B2B
100
AcDbVisualStyle
  2
OverhangOff
 70
    21
 71
     2
 72
     2
 73
     0
 90
        0
 40
-0.6
 41
-30.0
 62
     5
 63
     7
 74
     1
 91
        4
 64
     7
 65
   257
 75
     1
175
     1
 42
1.0
 92
        9
 66
     7
 43
1.0
 76
     1
 77
     6
 78
     2
 67
     7
 79
     5
170
     0
171
     0
290
     0
174
     0
 93
        1
 44
0.0
173
     0
291
     1
 45
0.0
1001
ACAD
1000
AcDbSavedByObjectVersion
1070
     0
  0
VISUALSTYLE
  5
8B35
102
{ACAD_XDICTIONARY
360
8F65
102
}
102
{ACAD_REACTORS
330
8B2B
102
}
330
8B2B
100
AcDbVisualStyle
  2
Realistic
 70
     8
 71
     2
 72
     3
 73
     0
 90
        2
 40
-0.6
 41
30.0
 62
     5
 63
     7
 74
     0
 91
        0
 64
     7
 65
   257
 75
     1
175
     1
 42
1.0
 92
        8
 66
   257
 43
1.0
 76
     1
 77
     6
 78
     2
 67
     7
 79
     3
170
     0
171
     0
290
     0
174
     0
 93
       13
 44
0.0
173
     0
291
     0
 45
0.0
1001
ACAD
1000
AcDbSavedByObjectVersion
1070
     0
  0
VISUALSTYLE
  5
8B40
102
{ACAD_XDICTIONARY
360
8F7B
102
}
102
{ACAD_REACTORS
330
8B2B
102
}
330
8B2B
100
AcDbVisualStyle
  2
Shaded
 70
    27
 71
     2
 72
     2
 73
     1
 90
        2
 40
-0.6
 41
30.0
 62
     5
 63
     7
 74
     0
 91
        4
 64
     7
 65
   257
 75
     1
175
     1
 42
1.0
 92
        8
 66
   257
 43
1.0
 76
     1
 77
     6
 78
     2
 67
     8
 79
     3
170
     0
171
     0
290
     0
174
     0
 93
        5
 44
0.0
173
     0
291
     0
 45
0.0
1001
ACAD
1000
AcDbSavedByObjectVersion
1070
     0
  0
VISUALSTYLE
  5
8B3F
102
{ACAD_XDICTIONARY
360
8F79
102
}
102
{ACAD_REACTORS
330
8B2B
102
}
330
8B2B
100
AcDbVisualStyle
  2
Shaded with edges
 70
    26
 71
     2
 72
     2
 73
     1
 90
        2
 40
-0.6
 41
30.0
 62
     5
 63
     7
 74
     1
 91
       10
 64
     7
 65
   257
 75
     2
175
     1
 42
1.0
 92
        8
 66
   257
 43
1.0
 76
     1
 77
     6
 78
     2
 67
     7
 79
     3
170
     0
171
     0
290
     0
174
     0
 93
        5
 44
0.0
173
     0
291
     0
 45
0.0
1001
ACAD
1000
AcDbSavedByObjectVersion
1070
     0
  0
VISUALSTYLE
  5
8B3C
102
{ACAD_XDICTIONARY
360
8F73
102
}
102
{ACAD_REACTORS
330
8B2B
102
}
330
8B2B
100
AcDbVisualStyle
  2
Shades of Gray
 70
    23
 71
     2
 72
     2
 73
     3
 90
        0
 40
-0.6
 41
-30.0
 62
     5
 63
     7
 74
     2
 91
        2
 64
     7
 65
     7
 75
     1
175
     1
 42
40.0
 92
        8
 66
     7
 43
1.0
 76
     1
 77
     6
 78
     2
 67
     7
 79
     3
170
     0
171
     0
290
     0
174
     0
 93
        1
 44
0.0
173
     0
291
     0
 45
0.0
1001
ACAD
1000
AcDbSavedByObjectVersion
1070
     0
  0
VISUALSTYLE
  5
8B3D
102
{ACAD_XDICTIONARY
360
8F75
102
}
102
{ACAD_REACTORS
330
8B2B
102
}
330
8B2B
100
AcDbVisualStyle
  2
Sketchy
 70
    24
 71
     1
 72
     2
 73
     2
 90
        0
 40
-0.6
 41
-30.0
 62
     5
 63
     7
 74
     2
 91
        2
 64
     7
 65
     7
 75
     1
175
     1
 42
40.0
 92
       11
 66
     7
 43
1.0
 76
     1
 77
     6
 78
     2
 67
     7
 79
     6
170
     0
171
     0
290
     0
174
     0
 93
        1
 44
0.0
173
     0
291
     0
 45
0.0
1001
ACAD
1000
AcDbSavedByObjectVersion
1070
     0
  0
VISUALSTYLE
  5
8B38
102
{ACAD_XDICTIONARY
360
8F6B
102
}
102
{ACAD_REACTORS
330
8B2B
102
}
330
8B2B
100
AcDbVisualStyle
  2
Thicken
 70
    13
 71
     2
 72
     2
 73
     0
 90
        0
 40
-0.6
 41
-30.0
 62
     5
 63
     7
 74
     1
 91
        4
 64
     7
 65
   257
 75
     1
175
     1
 42
1.0
 92
       12
 66
     7
 43
1.0
 76
     1
 77
     6
 78
     2
 67
     7
 79
     5
170
     0
171
     0
290
     0
174
     0
 93
        1
 44
0.0
173
     0
291
     1
 45
0.0
1001
ACAD
1000
AcDbSavedByObjectVersion
1070
     0
  0
VISUALSTYLE
  5
8B32
102
{ACAD_XDICTIONARY
360
8F5F
102
}
102
{ACAD_REACTORS
330
8B2B
102
}
330
8B2B
100
AcDbVisualStyle
  2
Wireframe
 70
     5
 71
     0
 72
     2
 73
     0
 90
        0
 40
-0.6
 41
-30.0
 62
     5
 63
     7
 74
     1
 91
        4
 64
     7
 65
   257
 75
     1
175
     1
 42
1.0
 92
        0
 66
   257
 43
1.0
 76
     1
 77
     6
 78
     2
 67
     7
 79
     3
170
     0
171
     0
290
     0
174
     0
 93
        1
 44
0.0
173
     0
291
     0
 45
0.0
1001
ACAD
1000
AcDbSavedByObjectVersion
1070
     0
  0
VISUALSTYLE
  5
8B3E
102
{ACAD_XDICTIONARY
360
8F77
102
}
102
{ACAD_REACTORS
330
8B2B
102
}
330
8B2B
100
AcDbVisualStyle
  2
X-Ray
 70
    25
 71
     2
 72
     2
 73
     1
 90
        1
 40
0.5
 41
-30.0
 62
     5
 63
     7
 74
     1
 91
        0
 64
     7
 65
   257
 75
     1
175
     1
 42
1.0
 92
        8
 66
     7
 43
1.0
 76
     1
 77
     6
 78
     2
 67
     7
 79
     3
170
     0
171
     0
290
     0
174
     0
 93
       13
 44
0.0
173
     0
291
     0
 45
0.0
1001
ACAD
1000
AcDbSavedByObjectVersion
1070
     0
  0
DICTIONARYVAR
  5
8E4E
102
{ACAD_REACTORS
330
74C
102
}
330
74C
100
DictionaryVariables
280
     0
  1
1:1
  0
DICTIONARYVAR
  5
8E4C
102
{ACAD_REACTORS
330
74C
102
}
330
74C
100
DictionaryVariables
280
     0
  1
STANDARD
  0
DICTIONARYVAR
  5
8A33
102
{ACAD_REACTORS
330
74C
102
}
330
74C
100
DictionaryVariables
280
     0
  1
STANDARD
  0
DICTIONARYVAR
  5
8EDC
102
{ACAD_REACTORS
330
74C
102
}
330
74C
100
DictionaryVariables
280
     0
  1
1
  0
DICTIONARYVAR
  5
8EDA
102
{ACAD_REACTORS
330
74C
102
}
330
74C
100
DictionaryVariables
280
     0
  1
0
  0
DICTIONARYVAR
  5
8E50
102
{ACAD_REACTORS
330
74C
102
}
330
74C
100
DictionaryVariables
280
     0
  1
1
  0
DICTIONARYVAR
  5
8E51
102
{ACAD_REACTORS
330
74C
102
}
330
74C
100
DictionaryVariables
280
     0
  1
15
  0
DICTIONARYVAR
  5
8E4F
102
{ACAD_REACTORS
330
74C
102
}
330
74C
100
DictionaryVariables
280
     0
  1
0
  0
DICTIONARYVAR
  5
8E4D
102
{ACAD_REACTORS
330
74C
102
}
330
74C
100
DictionaryVariables
280
     0
  1
0
  0
DICTIONARYVAR
  5
74D
102
{ACAD_REACTORS
330
74C
102
}
330
74C
100
DictionaryVariables
280
     0
  1
96
  0
DICTIONARYVAR
  5
8EDB
102
{ACAD_REACTORS
330
74C
102
}
330
74C
100
DictionaryVariables
280
     0
  1
0
  0
DICTIONARY
  5
8BB7
102
{ACAD_REACTORS
330
8BAE
102
}
330
8BAE
100
AcDbDictionary
281
     1
  0
XRECORD
  5
150
102
{ACAD_REACTORS
330
14E
102
}
330
14E
100
AcDbXrecord
280
     1
  0
DICTIONARY
  5
8EE3
330
22
100
AcDbDictionary
280
     1
281
     1
  3
ACAD_XREC_ROUNDTRIP
360
8EE4
  0
DICTIONARY
  5
8EE1
330
1E
100
AcDbDictionary
280
     1
281
     1
  3
ACAD_XREC_ROUNDTRIP
360
8EE2
  0
DICTIONARY
  5
8EE5
330
26
100
AcDbDictionary
280
     1
281
     1
  3
ACAD_XREC_ROUNDTRIP
360
8EE6
  0
DICTIONARY
  5
8B1C
330
8B1B
100
AcDbDictionary
280
     1
281
     1
  3
ACAD_XREC_ROUNDTRIP
360
8F51
  3
BUMPTILE
360
8B1E
  3
DIFFUSETILE
360
8B1D
  3
OPACITYTILE
360
8B21
  3
REFLECTIONTILE
360
8B20
  3
REFRACTIONTILE
360
8B22
  3
SPECULARTILE
360
8B1F
  0
DICTIONARY
  5
8B14
330
8B13
100
AcDbDictionary
280
     1
281
     1
  3
ACAD_XREC_ROUNDTRIP
360
8F50
  3
BUMPTILE
360
8B16
  3
DIFFUSETILE
360
8B15
  3
OPACITYTILE
360
8B19
  3
REFLECTIONTILE
360
8B18
  3
REFRACTIONTILE
360
8B1A
  3
SPECULARTILE
360
8B17
  0
DICTIONARY
  5
8B24
330
8B23
100
AcDbDictionary
280
     1
281
     1
  3
ACAD_XREC_ROUNDTRIP
360
8F52
  3
BUMPTILE
360
8B26
  3
DIFFUSETILE
360
8B25
  3
OPACITYTILE
360
8B29
  3
REFLECTIONTILE
360
8B28
  3
REFRACTIONTILE
360
8B2A
  3
SPECULARTILE
360
8B27
  0
DICTIONARY
  5
8EDD
330
8848
100
AcDbDictionary
280
     1
281
     1
  3
ACAD_ROUNDTRIP_2008_TABLESTYLE_CELLSTYLEMAP
360
8EDE
  3
ACAD_XREC_ROUNDTRIP
360
8F4F
  0
DICTIONARY
  5
8F5D
330
8B31
100
AcDbDictionary
280
     1
281
     1
  3
ACAD_XREC_ROUNDTRIP
360
8F5E
  0
DICTIONARY
  5
8F5B
330
8B30
100
AcDbDictionary
280
     1
281
     1
  3
ACAD_XREC_ROUNDTRIP
360
8F5C
  0
DICTIONARY
  5
8F69
330
8B37
100
AcDbDictionary
280
     1
281
     1
  3
ACAD_XREC_ROUNDTRIP
360
8F6A
  0
DICTIONARY
  5
8F71
330
8B3B
100
AcDbDictionary
280
     1
281
     1
  3
ACAD_XREC_ROUNDTRIP
360
8F72
  0
DICTIONARY
  5
8F63
330
8B34
100
AcDbDictionary
280
     1
281
     1
  3
ACAD_XREC_ROUNDTRIP
360
8F64
  0
DICTIONARY
  5
8F67
330
8B36
100
AcDbDictionary
280
     1
281
     1
  3
ACAD_XREC_ROUNDTRIP
360
8F68
  0
DICTIONARY
  5
8F81
330
8B43
100
AcDbDictionary
280
     1
281
     1
  3
ACAD_XREC_ROUNDTRIP
360
8F82
  0
DICTIONARY
  5
8F6F
330
8B3A
100
AcDbDictionary
280
     1
281
     1
  3
ACAD_XREC_ROUNDTRIP
360
8F70
  0
DICTIONARY
  5
8F53
330
8B2C
100
AcDbDictionary
280
     1
281
     1
  3
ACAD_XREC_ROUNDTRIP
360
8F54
  0
DICTIONARY
  5
8F55
330
8B2D
100
AcDbDictionary
280
     1
281
     1
  3
ACAD_XREC_ROUNDTRIP
360
8F56
  0
DICTIONARY
  5
8F57
330
8B2E
100
AcDbDictionary
280
     1
281
     1
  3
ACAD_XREC_ROUNDTRIP
360
8F58
  0
DICTIONARY
  5
8F59
330
8B2F
100
AcDbDictionary
280
     1
281
     1
  3
ACAD_XREC_ROUNDTRIP
360
8F5A
  0
DICTIONARY
  5
8F61
330
8B33
100
AcDbDictionary
280
     1
281
     1
  3
ACAD_XREC_ROUNDTRIP
360
8F62
  0
DICTIONARY
  5
8F7D
330
8B41
100
AcDbDictionary
280
     1
281
     1
  3
ACAD_XREC_ROUNDTRIP
360
8F7E
  0
DICTIONARY
  5
8F6D
330
8B39
100
AcDbDictionary
280
     1
281
     1
  3
ACAD_XREC_ROUNDTRIP
360
8F6E
  0
DICTIONARY
  5
8F7F
330
8B42
100
AcDbDictionary
280
     1
281
     1
  3
ACAD_XREC_ROUNDTRIP
360
8F80
  0
DICTIONARY
  5
8F65
330
8B35
100
AcDbDictionary
280
     1
281
     1
  3
ACAD_XREC_ROUNDTRIP
360
8F66
  0
DICTIONARY
  5
8F7B
330
8B40
100
AcDbDictionary
280
     1
281
     1
  3
ACAD_XREC_ROUNDTRIP
360
8F7C
  0
DICTIONARY
  5
8F79
330
8B3F
100
AcDbDictionary
280
     1
281
     1
  3
ACAD_XREC_ROUNDTRIP
360
8F7A
  0
DICTIONARY
  5
8F73
330
8B3C
100
AcDbDictionary
280
     1
281
     1
  3
ACAD_XREC_ROUNDTRIP
360
8F74
  0
DICTIONARY
  5
8F75
330
8B3D
100
AcDbDictionary
280
     1
281
     1
  3
ACAD_XREC_ROUNDTRIP
360
8F76
  0
DICTIONARY
  5
8F6B
330
8B38
100
AcDbDictionary
280
     1
281
     1
  3
ACAD_XREC_ROUNDTRIP
360
8F6C
  0
DICTIONARY
  5
8F5F
330
8B32
100
AcDbDictionary
280
     1
281
     1
  3
ACAD_XREC_ROUNDTRIP
360
8F60
  0
DICTIONARY
  5
8F77
330
8B3E
100
AcDbDictionary
280
     1
281
     1
  3
ACAD_XREC_ROUNDTRIP
360
8F78
  0
XRECORD
  5
8EE4
102
{ACAD_REACTORS
330
8EE3
102
}
330
8EE3
100
AcDbXrecord
280
     1
102
SHADEPLOT
 70
     0
102
SHADEPLOTRESLEVEL
 70
     4
102
SHADEPLOTCUSTOMDPI
 70
   300
  0
XRECORD
  5
8EE2
102
{ACAD_REACTORS
330
8EE1
102
}
330
8EE1
100
AcDbXrecord
280
     1
102
SHADEPLOT
 70
     0
102
SHADEPLOTRESLEVEL
 70
     2
102
SHADEPLOTCUSTOMDPI
 70
   300
  0
XRECORD
  5
8EE6
102
{ACAD_REACTORS
330
8EE5
102
}
330
8EE5
100
AcDbXrecord
280
     1
102
SHADEPLOT
 70
     0
102
SHADEPLOTRESLEVEL
 70
     2
102
SHADEPLOTCUSTOMDPI
 70
   300
  0
XRECORD
  5
8F51
102
{ACAD_REACTORS
330
8B1C
102
}
330
8B1C
100
AcDbXrecord
280
     1
102
MATERIAL
148
0.0
149
0.0
149
0.0
 93
        0
 94
      127
282
     0
 72
     0
 77
     0
171
     0
175
     0
179
     0
273
     0
  0
XRECORD
  5
8B1E
102
{ACAD_REACTORS
330
8B1C
102
}
330
8B1C
100
AcDbXrecord
280
     1
270
     1
271
     1
  0
XRECORD
  5
8B1D
102
{ACAD_REACTORS
330
8B1C
102
}
330
8B1C
100
AcDbXrecord
280
     1
270
     1
271
     1
  0
XRECORD
  5
8B21
102
{ACAD_REACTORS
330
8B1C
102
}
330
8B1C
100
AcDbXrecord
280
     1
270
     1
271
     1
  0
XRECORD
  5
8B20
102
{ACAD_REACTORS
330
8B1C
102
}
330
8B1C
100
AcDbXrecord
280
     1
270
     1
271
     1
  0
XRECORD
  5
8B22
102
{ACAD_REACTORS
330
8B1C
102
}
330
8B1C
100
AcDbXrecord
280
     1
270
     1
271
     1
  0
XRECORD
  5
8B1F
102
{ACAD_REACTORS
330
8B1C
102
}
330
8B1C
100
AcDbXrecord
280
     1
270
     1
271
     1
  0
XRECORD
  5
8F50
102
{ACAD_REACTORS
330
8B14
102
}
330
8B14
100
AcDbXrecord
280
     1
102
MATERIAL
148
0.0
149
0.0
149
0.0
 93
        0
 94
      127
282
     0
 72
     0
 77
     0
171
     0
175
     0
179
     0
273
     0
  0
XRECORD
  5
8B16
102
{ACAD_REACTORS
330
8B14
102
}
330
8B14
100
AcDbXrecord
280
     1
270
     1
271
     1
  0
XRECORD
  5
8B15
102
{ACAD_REACTORS
330
8B14
102
}
330
8B14
100
AcDbXrecord
280
     1
270
     1
271
     1
  0
XRECORD
  5
8B19
102
{ACAD_REACTORS
330
8B14
102
}
330
8B14
100
AcDbXrecord
280
     1
270
     1
271
     1
  0
XRECORD
  5
8B18
102
{ACAD_REACTORS
330
8B14
102
}
330
8B14
100
AcDbXrecord
280
     1
270
     1
271
     1
  0
XRECORD
  5
8B1A
102
{ACAD_REACTORS
330
8B14
102
}
330
8B14
100
AcDbXrecord
280
     1
270
     1
271
     1
  0
XRECORD
  5
8B17
102
{ACAD_REACTORS
330
8B14
102
}
330
8B14
100
AcDbXrecord
280
     1
270
     1
271
     1
  0
XRECORD
  5
8F52
102
{ACAD_REACTORS
330
8B24
102
}
330
8B24
100
AcDbXrecord
280
     1
102
MATERIAL
148
0.0
149
0.0
149
0.0
 93
        0
 94
      127
282
     0
 72
     0
 77
     0
171
     0
175
     0
179
     0
273
     0
  0
XRECORD
  5
8B26
102
{ACAD_REACTORS
330
8B24
102
}
330
8B24
100
AcDbXrecord
280
     1
270
     1
271
     1
  0
XRECORD
  5
8B25
102
{ACAD_REACTORS
330
8B24
102
}
330
8B24
100
AcDbXrecord
280
     1
270
     1
271
     1
  0
XRECORD
  5
8B29
102
{ACAD_REACTORS
330
8B24
102
}
330
8B24
100
AcDbXrecord
280
     1
270
     1
271
     1
  0
XRECORD
  5
8B28
102
{ACAD_REACTORS
330
8B24
102
}
330
8B24
100
AcDbXrecord
280
     1
270
     1
271
     1
  0
XRECORD
  5
8B2A
102
{ACAD_REACTORS
330
8B24
102
}
330
8B24
100
AcDbXrecord
280
     1
270
     1
271
     1
  0
XRECORD
  5
8B27
102
{ACAD_REACTORS
330
8B24
102
}
330
8B24
100
AcDbXrecord
280
     1
270
     1
271
     1
  0
CELLSTYLEMAP
  5
8EDE
102
{ACAD_REACTORS
330
8EDD
102
}
330
8EDD
100
AcDbCellStyleMap
 90
        3
300
CELLSTYLE
  1
TABLEFORMAT_BEGIN
 90
        5
170
     1
 91
        0
 92
    32768
 62
   257
 93
        1
300
CONTENTFORMAT
  1
CONTENTFORMAT_BEGIN
 90
        0
 91
        0
 92
        4
 93
        0
300

 40
0.0
140
1.0
 94
        5
 62
     0
340
11
144
6.0
309
CONTENTFORMAT_END
171
     1
301
MARGIN
  1
CELLMARGIN_BEGIN
 40
1.5
 40
1.5
 40
1.5
 40
1.5
 40
0.18
 40
0.18
309
CELLMARGIN_END
 94
        6
 95
        1
302
GRIDFORMAT
  1
GRIDFORMAT_BEGIN
 90
        0
 91
        1
 62
     0
 92
       -2
340
0
 93
        0
 40
0.045
309
GRIDFORMAT_END
 95
        2
302
GRIDFORMAT
  1
GRIDFORMAT_BEGIN
 90
        0
 91
        1
 62
     0
 92
       -2
340
0
 93
        0
 40
0.045
309
GRIDFORMAT_END
 95
        4
302
GRIDFORMAT
  1
GRIDFORMAT_BEGIN
 90
        0
 91
        1
 62
     0
 92
       -2
340
0
 93
        0
 40
0.045
309
GRIDFORMAT_END
 95
        8
302
GRIDFORMAT
  1
GRIDFORMAT_BEGIN
 90
        0
 91
        1
 62
     0
 92
       -2
340
0
 93
        0
 40
0.045
309
GRIDFORMAT_END
 95
       16
302
GRIDFORMAT
  1
GRIDFORMAT_BEGIN
 90
        0
 91
        1
 62
     0
 92
       -2
340
0
 93
        0
 40
0.045
309
GRIDFORMAT_END
 95
       32
302
GRIDFORMAT
  1
GRIDFORMAT_BEGIN
 90
        0
 91
        1
 62
     0
 92
       -2
340
0
 93
        0
 40
0.045
309
GRIDFORMAT_END
309
TABLEFORMAT_END
  1
CELLSTYLE_BEGIN
 90
        1
 91
        1
300
_TITLE
309
CELLSTYLE_END
300
CELLSTYLE
  1
TABLEFORMAT_BEGIN
 90
        5
170
     1
 91
        0
 92
        0
 62
   257
 93
        1
300
CONTENTFORMAT
  1
CONTENTFORMAT_BEGIN
 90
        0
 91
        0
 92
        4
 93
        0
300

 40
0.0
140
1.0
 94
        5
 62
     0
340
11
144
4.5
309
CONTENTFORMAT_END
171
     1
301
MARGIN
  1
CELLMARGIN_BEGIN
 40
1.5
 40
1.5
 40
1.5
 40
1.5
 40
0.18
 40
0.18
309
CELLMARGIN_END
 94
        6
 95
        1
302
GRIDFORMAT
  1
GRIDFORMAT_BEGIN
 90
        0
 91
        1
 62
     0
 92
       -2
340
0
 93
        0
 40
0.045
309
GRIDFORMAT_END
 95
        2
302
GRIDFORMAT
  1
GRIDFORMAT_BEGIN
 90
        0
 91
        1
 62
     0
 92
       -2
340
0
 93
        0
 40
0.045
309
GRIDFORMAT_END
 95
        4
302
GRIDFORMAT
  1
GRIDFORMAT_BEGIN
 90
        0
 91
        1
 62
     0
 92
       -2
340
0
 93
        0
 40
0.045
309
GRIDFORMAT_END
 95
        8
302
GRIDFORMAT
  1
GRIDFORMAT_BEGIN
 90
        0
 91
        1
 62
     0
 92
       -2
340
0
 93
        0
 40
0.045
309
GRIDFORMAT_END
 95
       16
302
GRIDFORMAT
  1
GRIDFORMAT_BEGIN
 90
        0
 91
        1
 62
     0
 92
       -2
340
0
 93
        0
 40
0.045
309
GRIDFORMAT_END
 95
       32
302
GRIDFORMAT
  1
GRIDFORMAT_BEGIN
 90
        0
 91
        1
 62
     0
 92
       -2
340
0
 93
        0
 40
0.045
309
GRIDFORMAT_END
309
TABLEFORMAT_END
  1
CELLSTYLE_BEGIN
 90
        2
 91
        1
300
_HEADER
309
CELLSTYLE_END
300
CELLSTYLE
  1
TABLEFORMAT_BEGIN
 90
        5
170
     1
 91
        0
 92
        0
 62
   257
 93
        1
300
CONTENTFORMAT
  1
CONTENTFORMAT_BEGIN
 90
        0
 91
        0
 92
        4
 93
        0
300

 40
0.0
140
1.0
 94
        2
 62
     0
340
11
144
4.5
309
CONTENTFORMAT_END
171
     1
301
MARGIN
  1
CELLMARGIN_BEGIN
 40
1.5
 40
1.5
 40
1.5
 40
1.5
 40
0.18
 40
0.18
309
CELLMARGIN_END
 94
        6
 95
        1
302
GRIDFORMAT
  1
GRIDFORMAT_BEGIN
 90
        0
 91
        1
 62
     0
 92
       -2
340
0
 93
        0
 40
0.045
309
GRIDFORMAT_END
 95
        2
302
GRIDFORMAT
  1
GRIDFORMAT_BEGIN
 90
        0
 91
        1
 62
     0
 92
       -2
340
0
 93
        0
 40
0.045
309
GRIDFORMAT_END
 95
        4
302
GRIDFORMAT
  1
GRIDFORMAT_BEGIN
 90
        0
 91
        1
 62
     0
 92
       -2
340
0
 93
        0
 40
0.045
309
GRIDFORMAT_END
 95
        8
302
GRIDFORMAT
  1
GRIDFORMAT_BEGIN
 90
        0
 91
        1
 62
     0
 92
       -2
340
0
 93
        0
 40
0.045
309
GRIDFORMAT_END
 95
       16
302
GRIDFORMAT
  1
GRIDFORMAT_BEGIN
 90
        0
 91
        1
 62
     0
 92
       -2
340
0
 93
        0
 40
0.045
309
GRIDFORMAT_END
 95
       32
302
GRIDFORMAT
  1
GRIDFORMAT_BEGIN
 90
        0
 91
        1
 62
     0
 92
       -2
340
0
 93
        0
 40
0.045
309
GRIDFORMAT_END
309
TABLEFORMAT_END
  1
CELLSTYLE_BEGIN
 90
        3
 91
        2
300
_DATA
309
CELLSTYLE_END
  0
XRECORD
  5
8F4F
102
{ACAD_REACTORS
330
8EDD
102
}
330
8EDD
100
AcDbXrecord
280
     1
102
ACAD_ROUNDTRIP_PRE2007_TABLESTYLE
 90
        4
 91
        0
  1

 92
        4
 93
        0
  2

 94
        4
 95
        0
  3

  0
XRECORD
  5
8F5E
102
{ACAD_REACTORS
330
8F5D
102
}
330
8F5D
100
AcDbXrecord
280
     1
102
RTVSPropertyOp0
 70
     1
102
RTVSPropertyOp1
 70
     1
102
RTVSPropertyOp2
 70
     1
102
RTVSPropertyOp3
 70
     1
102
RTVSPropertyOp4
 70
     1
102
RTVSPropertyOp5
 70
     1
102
RTVSPropertyOp6
 70
     1
102
RTVSPropertyOp7
 70
     1
102
RTVSPropertyOp8
 70
     1
102
RTVSPropertyOp9
 70
     1
102
RTVSPropertyOp10
 70
     1
102
RTVSPropertyOp11
 70
     1
102
RTVSPropertyOp12
 70
     1
102
RTVSPropertyOp13
 70
     1
102
RTVSPropertyOp14
 70
     1
102
RTVSPropertyOp15
 70
     1
102
RTVSPropertyOp16
 70
     1
102
RTVSPropertyOp17
 70
     1
102
RTVSPropertyOp18
 70
     1
102
RTVSPropertyOp19
 70
     1
102
RTVSPropertyOp20
 70
     1
102
RTVSPropertyOp21
 70
     1
102
RTVSPropertyOp22
 70
     1
102
RTVSPropertyOp23
 70
     1
102
RTVSPropertyOp24
 70
     1
102
RTVSPropertyOp25
 70
     1
102
RTVSPropertyOp26
 70
     1
102
RTVSPropertyOp27
 70
     1
102
RTVSPropertyOp28
 70
     1
102
RTVSPropertyOp29
 70
     1
102
RTVSPropertyOp30
 70
     1
102
RTVSPropertyOp31
 70
     1
102
RTVSPropertyOp32
 70
     1
  0
XRECORD
  5
8F5C
102
{ACAD_REACTORS
330
8F5B
102
}
330
8F5B
100
AcDbXrecord
280
     1
102
RTVSPropertyOp0
 70
     1
102
RTVSPropertyOp1
 70
     1
102
RTVSPropertyOp2
 70
     1
102
RTVSPropertyOp3
 70
     1
102
RTVSPropertyOp4
 70
     1
102
RTVSPropertyOp5
 70
     1
102
RTVSPropertyOp6
 70
     1
102
RTVSPropertyOp7
 70
     1
102
RTVSPropertyOp8
 70
     1
102
RTVSPropertyOp9
 70
     1
102
RTVSPropertyOp10
 70
     1
102
RTVSPropertyOp11
 70
     1
102
RTVSPropertyOp12
 70
     1
102
RTVSPropertyOp13
 70
     1
102
RTVSPropertyOp14
 70
     1
102
RTVSPropertyOp15
 70
     1
102
RTVSPropertyOp16
 70
     1
102
RTVSPropertyOp17
 70
     1
102
RTVSPropertyOp18
 70
     1
102
RTVSPropertyOp19
 70
     1
102
RTVSPropertyOp20
 70
     1
102
RTVSPropertyOp21
 70
     1
102
RTVSPropertyOp22
 70
     1
102
RTVSPropertyOp23
 70
     1
102
RTVSPropertyOp24
 70
     1
102
RTVSPropertyOp25
 70
     1
102
RTVSPropertyOp26
 70
     1
102
RTVSPropertyOp27
 70
     1
102
RTVSPropertyOp28
 70
     1
102
RTVSPropertyOp29
 70
     1
102
RTVSPropertyOp30
 70
     1
102
RTVSPropertyOp31
 70
     1
102
RTVSPropertyOp32
 70
     1
  0
XRECORD
  5
8F6A
102
{ACAD_REACTORS
330
8F69
102
}
330
8F69
100
AcDbXrecord
280
     1
102
RTVSPropertyOp0
 70
     1
102
RTVSPropertyOp1
 70
     1
102
RTVSPropertyOp2
 70
     1
102
RTVSPropertyOp3
 70
     1
102
RTVSPropertyOp4
 70
     1
102
RTVSPropertyOp5
 70
     1
102
RTVSPropertyOp6
 70
     1
102
RTVSPropertyOp7
 70
     1
102
RTVSPropertyOp8
 70
     1
102
RTVSPropertyOp9
 70
     1
102
RTVSPropertyOp10
 70
     1
102
RTVSPropertyOp11
 70
     1
102
RTVSPropertyOp12
 70
     1
102
RTVSPropertyOp13
 70
     1
102
RTVSPropertyOp14
 70
     1
102
RTVSPropertyOp15
 70
     1
102
RTVSPropertyOp16
 70
     1
102
RTVSPropertyOp17
 70
     1
102
RTVSPropertyOp18
 70
     1
102
RTVSPropertyOp19
 70
     1
102
RTVSPropertyOp20
 70
     1
102
RTVSPropertyOp21
 70
     1
102
RTVSPropertyOp22
 70
     1
102
RTVSPropertyOp23
 70
     1
102
RTVSPropertyOp24
 70
     1
102
RTVSPropertyOp25
 70
     1
102
RTVSPropertyOp26
 70
     1
102
RTVSPropertyOp27
 70
     1
102
RTVSPropertyOp28
 70
     1
102
RTVSPropertyOp29
 70
     1
102
RTVSPropertyOp30
 70
     1
102
RTVSPropertyOp31
 70
     1
102
RTVSPropertyOp32
 70
     1
  0
XRECORD
  5
8F72
102
{ACAD_REACTORS
330
8F71
102
}
330
8F71
100
AcDbXrecord
280
     1
102
RTVSPropertyOp0
 70
     1
102
RTVSPropertyOp1
 70
     1
102
RTVSPropertyOp2
 70
     1
102
RTVSPropertyOp3
 70
     1
102
RTVSPropertyOp4
 70
     1
102
RTVSPropertyOp5
 70
     1
102
RTVSPropertyOp6
 70
     1
102
RTVSPropertyOp7
 70
     1
102
RTVSPropertyOp8
 70
     1
102
RTVSPropertyOp9
 70
     1
102
RTVSPropertyOp10
 70
     1
102
RTVSPropertyOp11
 70
     1
102
RTVSPropertyOp12
 70
     1
102
RTVSPropertyOp13
 70
     1
102
RTVSPropertyOp14
 70
     1
102
RTVSPropertyOp15
 70
     1
102
RTVSPropertyOp16
 70
     1
102
RTVSPropertyOp17
 70
     1
102
RTVSPropertyOp18
 70
     1
102
RTVSPropertyOp19
 70
     1
102
RTVSPropertyOp20
 70
     1
102
RTVSPropertyOp21
 70
     1
102
RTVSPropertyOp22
 70
     1
102
RTVSPropertyOp23
 70
     1
102
RTVSPropertyOp24
 70
     1
102
RTVSPropertyOp25
 70
     1
102
RTVSPropertyOp26
 70
     1
102
RTVSPropertyOp27
 70
     1
102
RTVSPropertyOp28
 70
     1
102
RTVSPropertyOp29
 70
     1
102
RTVSPropertyOp30
 70
     1
102
RTVSPropertyOp31
 70
     1
102
RTVSPropertyOp32
 70
     1
  0
XRECORD
  5
8F64
102
{ACAD_REACTORS
330
8F63
102
}
330
8F63
100
AcDbXrecord
280
     1
102
RTVSPropertyOp0
 70
     1
102
RTVSPropertyOp1
 70
     1
102
RTVSPropertyOp2
 70
     1
102
RTVSPropertyOp3
 70
     1
102
RTVSPropertyOp4
 70
     1
102
RTVSPropertyOp5
 70
     1
102
RTVSPropertyOp6
 70
     1
102
RTVSPropertyOp7
 70
     1
102
RTVSPropertyOp8
 70
     1
102
RTVSPropertyOp9
 70
     1
102
RTVSPropertyOp10
 70
     1
102
RTVSPropertyOp11
 70
     1
102
RTVSPropertyOp12
 70
     1
102
RTVSPropertyOp13
 70
     1
102
RTVSPropertyOp14
 70
     1
102
RTVSPropertyOp15
 70
     1
102
RTVSPropertyOp16
 70
     1
102
RTVSPropertyOp17
 70
     1
102
RTVSPropertyOp18
 70
     1
102
RTVSPropertyOp19
 70
     1
102
RTVSPropertyOp20
 70
     1
102
RTVSPropertyOp21
 70
     1
102
RTVSPropertyOp22
 70
     1
102
RTVSPropertyOp23
 70
     1
102
RTVSPropertyOp24
 70
     1
102
RTVSPropertyOp25
 70
     1
102
RTVSPropertyOp26
 70
     1
102
RTVSPropertyOp27
 70
     1
102
RTVSPropertyOp28
 70
     1
102
RTVSPropertyOp29
 70
     1
102
RTVSPropertyOp30
 70
     1
102
RTVSPropertyOp31
 70
     1
102
RTVSPropertyOp32
 70
     1
  0
XRECORD
  5
8F68
102
{ACAD_REACTORS
330
8F67
102
}
330
8F67
100
AcDbXrecord
280
     1
102
RTVSPropertyOp0
 70
     1
102
RTVSPropertyOp1
 70
     1
102
RTVSPropertyOp2
 70
     1
102
RTVSPropertyOp3
 70
     1
102
RTVSPropertyOp4
 70
     1
102
RTVSPropertyOp5
 70
     1
102
RTVSPropertyOp6
 70
     1
102
RTVSPropertyOp7
 70
     1
102
RTVSPropertyOp8
 70
     1
102
RTVSPropertyOp9
 70
     1
102
RTVSPropertyOp10
 70
     1
102
RTVSPropertyOp11
 70
     1
102
RTVSPropertyOp12
 70
     1
102
RTVSPropertyOp13
 70
     1
102
RTVSPropertyOp14
 70
     1
102
RTVSPropertyOp15
 70
     1
102
RTVSPropertyOp16
 70
     1
102
RTVSPropertyOp17
 70
     1
102
RTVSPropertyOp18
 70
     1
102
RTVSPropertyOp19
 70
     1
102
RTVSPropertyOp20
 70
     1
102
RTVSPropertyOp21
 70
     1
102
RTVSPropertyOp22
 70
     1
102
RTVSPropertyOp23
 70
     1
102
RTVSPropertyOp24
 70
     1
102
RTVSPropertyOp25
 70
     1
102
RTVSPropertyOp26
 70
     1
102
RTVSPropertyOp27
 70
     1
102
RTVSPropertyOp28
 70
     1
102
RTVSPropertyOp29
 70
     1
102
RTVSPropertyOp30
 70
     1
102
RTVSPropertyOp31
 70
     1
102
RTVSPropertyOp32
 70
     1
  0
XRECORD
  5
8F82
102
{ACAD_REACTORS
330
8F81
102
}
330
8F81
100
AcDbXrecord
280
     1
102
RTVSPropertyOp0
 70
     0
102
RTVSPropertyOp1
 70
     0
102
RTVSPropertyOp2
 70
     0
102
RTVSPropertyOp3
 70
     0
102
RTVSPropertyOp4
 70
     0
102
RTVSPropertyOp5
 70
     0
102
RTVSPropertyOp6
 70
     0
102
RTVSPropertyOp7
 70
     0
102
RTVSPropertyOp8
 70
     0
102
RTVSPropertyOp9
 70
     0
102
RTVSPropertyOp10
 70
     0
102
RTVSPropertyOp11
 70
     0
102
RTVSPropertyOp12
 70
     0
102
RTVSPropertyOp13
 70
     0
102
RTVSPropertyOp14
 70
     2
102
RTVSPropertyOp15
 70
     0
102
RTVSPropertyOp16
 70
     0
102
RTVSPropertyOp17
 70
     0
102
RTVSPropertyOp18
 70
     0
102
RTVSPropertyOp19
 70
     0
102
RTVSPropertyOp20
 70
     0
102
RTVSPropertyOp21
 70
     0
102
RTVSPropertyOp22
 70
     0
102
RTVSPropertyOp23
 70
     0
102
RTVSPropertyOp24
 70
     0
102
RTVSPropertyOp25
 70
     0
102
RTVSPropertyOp26
 70
     0
102
RTVSPropertyOp27
 70
     0
102
RTVSPropertyOp28
 70
     1
102
RTVSPropertyOp29
 70
     1
102
RTVSPropertyOp30
 70
     1
102
RTVSPropertyOp31
 70
     1
102
RTVSPropertyOp32
 70
     1
  0
XRECORD
  5
8F70
102
{ACAD_REACTORS
330
8F6F
102
}
330
8F6F
100
AcDbXrecord
280
     1
102
RTVSPropertyOp0
 70
     1
102
RTVSPropertyOp1
 70
     1
102
RTVSPropertyOp2
 70
     1
102
RTVSPropertyOp3
 70
     1
102
RTVSPropertyOp4
 70
     1
102
RTVSPropertyOp5
 70
     1
102
RTVSPropertyOp6
 70
     1
102
RTVSPropertyOp7
 70
     1
102
RTVSPropertyOp8
 70
     1
102
RTVSPropertyOp9
 70
     1
102
RTVSPropertyOp10
 70
     1
102
RTVSPropertyOp11
 70
     1
102
RTVSPropertyOp12
 70
     1
102
RTVSPropertyOp13
 70
     1
102
RTVSPropertyOp14
 70
     1
102
RTVSPropertyOp15
 70
     1
102
RTVSPropertyOp16
 70
     1
102
RTVSPropertyOp17
 70
     1
102
RTVSPropertyOp18
 70
     1
102
RTVSPropertyOp19
 70
     1
102
RTVSPropertyOp20
 70
     1
102
RTVSPropertyOp21
 70
     1
102
RTVSPropertyOp22
 70
     1
102
RTVSPropertyOp23
 70
     1
102
RTVSPropertyOp24
 70
     1
102
RTVSPropertyOp25
 70
     1
102
RTVSPropertyOp26
 70
     1
102
RTVSPropertyOp27
 70
     1
102
RTVSPropertyOp28
 70
     1
102
RTVSPropertyOp29
 70
     1
102
RTVSPropertyOp30
 70
     1
102
RTVSPropertyOp31
 70
     1
102
RTVSPropertyOp32
 70
     1
  0
XRECORD
  5
8F54
102
{ACAD_REACTORS
330
8F53
102
}
330
8F53
100
AcDbXrecord
280
     1
102
RTVSPropertyOp0
 70
     1
102
RTVSPropertyOp1
 70
     1
102
RTVSPropertyOp2
 70
     1
102
RTVSPropertyOp3
 70
     1
102
RTVSPropertyOp4
 70
     1
102
RTVSPropertyOp5
 70
     1
102
RTVSPropertyOp6
 70
     1
102
RTVSPropertyOp7
 70
     1
102
RTVSPropertyOp8
 70
     1
102
RTVSPropertyOp9
 70
     1
102
RTVSPropertyOp10
 70
     1
102
RTVSPropertyOp11
 70
     1
102
RTVSPropertyOp12
 70
     1
102
RTVSPropertyOp13
 70
     1
102
RTVSPropertyOp14
 70
     1
102
RTVSPropertyOp15
 70
     1
102
RTVSPropertyOp16
 70
     1
102
RTVSPropertyOp17
 70
     1
102
RTVSPropertyOp18
 70
     1
102
RTVSPropertyOp19
 70
     1
102
RTVSPropertyOp20
 70
     1
102
RTVSPropertyOp21
 70
     1
102
RTVSPropertyOp22
 70
     1
102
RTVSPropertyOp23
 70
     1
102
RTVSPropertyOp24
 70
     1
102
RTVSPropertyOp25
 70
     1
102
RTVSPropertyOp26
 70
     1
102
RTVSPropertyOp27
 70
     1
102
RTVSPropertyOp28
 70
     1
102
RTVSPropertyOp29
 70
     1
102
RTVSPropertyOp30
 70
     1
102
RTVSPropertyOp31
 70
     1
102
RTVSPropertyOp32
 70
     1
  0
XRECORD
  5
8F56
102
{ACAD_REACTORS
330
8F55
102
}
330
8F55
100
AcDbXrecord
280
     1
102
RTVSPropertyOp0
 70
     1
102
RTVSPropertyOp1
 70
     1
102
RTVSPropertyOp2
 70
     1
102
RTVSPropertyOp3
 70
     1
102
RTVSPropertyOp4
 70
     1
102
RTVSPropertyOp5
 70
     1
102
RTVSPropertyOp6
 70
     1
102
RTVSPropertyOp7
 70
     1
102
RTVSPropertyOp8
 70
     1
102
RTVSPropertyOp9
 70
     1
102
RTVSPropertyOp10
 70
     1
102
RTVSPropertyOp11
 70
     1
102
RTVSPropertyOp12
 70
     1
102
RTVSPropertyOp13
 70
     1
102
RTVSPropertyOp14
 70
     1
102
RTVSPropertyOp15
 70
     1
102
RTVSPropertyOp16
 70
     1
102
RTVSPropertyOp17
 70
     1
102
RTVSPropertyOp18
 70
     1
102
RTVSPropertyOp19
 70
     1
102
RTVSPropertyOp20
 70
     1
102
RTVSPropertyOp21
 70
     1
102
RTVSPropertyOp22
 70
     1
102
RTVSPropertyOp23
 70
     1
102
RTVSPropertyOp24
 70
     1
102
RTVSPropertyOp25
 70
     1
102
RTVSPropertyOp26
 70
     1
102
RTVSPropertyOp27
 70
     1
102
RTVSPropertyOp28
 70
     1
102
RTVSPropertyOp29
 70
     1
102
RTVSPropertyOp30
 70
     1
102
RTVSPropertyOp31
 70
     1
102
RTVSPropertyOp32
 70
     1
  0
XRECORD
  5
8F58
102
{ACAD_REACTORS
330
8F57
102
}
330
8F57
100
AcDbXrecord
280
     1
102
RTVSPropertyOp0
 70
     1
102
RTVSPropertyOp1
 70
     1
102
RTVSPropertyOp2
 70
     1
102
RTVSPropertyOp3
 70
     1
102
RTVSPropertyOp4
 70
     1
102
RTVSPropertyOp5
 70
     1
102
RTVSPropertyOp6
 70
     1
102
RTVSPropertyOp7
 70
     1
102
RTVSPropertyOp8
 70
     1
102
RTVSPropertyOp9
 70
     1
102
RTVSPropertyOp10
 70
     1
102
RTVSPropertyOp11
 70
     1
102
RTVSPropertyOp12
 70
     1
102
RTVSPropertyOp13
 70
     1
102
RTVSPropertyOp14
 70
     1
102
RTVSPropertyOp15
 70
     1
102
RTVSPropertyOp16
 70
     1
102
RTVSPropertyOp17
 70
     1
102
RTVSPropertyOp18
 70
     1
102
RTVSPropertyOp19
 70
     1
102
RTVSPropertyOp20
 70
     1
102
RTVSPropertyOp21
 70
     1
102
RTVSPropertyOp22
 70
     1
102
RTVSPropertyOp23
 70
     1
102
RTVSPropertyOp24
 70
     1
102
RTVSPropertyOp25
 70
     1
102
RTVSPropertyOp26
 70
     1
102
RTVSPropertyOp27
 70
     1
102
RTVSPropertyOp28
 70
     1
102
RTVSPropertyOp29
 70
     1
102
RTVSPropertyOp30
 70
     1
102
RTVSPropertyOp31
 70
     1
102
RTVSPropertyOp32
 70
     1
  0
XRECORD
  5
8F5A
102
{ACAD_REACTORS
330
8F59
102
}
330
8F59
100
AcDbXrecord
280
     1
102
RTVSPropertyOp0
 70
     1
102
RTVSPropertyOp1
 70
     1
102
RTVSPropertyOp2
 70
     1
102
RTVSPropertyOp3
 70
     1
102
RTVSPropertyOp4
 70
     1
102
RTVSPropertyOp5
 70
     1
102
RTVSPropertyOp6
 70
     1
102
RTVSPropertyOp7
 70
     1
102
RTVSPropertyOp8
 70
     1
102
RTVSPropertyOp9
 70
     1
102
RTVSPropertyOp10
 70
     1
102
RTVSPropertyOp11
 70
     1
102
RTVSPropertyOp12
 70
     1
102
RTVSPropertyOp13
 70
     1
102
RTVSPropertyOp14
 70
     1
102
RTVSPropertyOp15
 70
     1
102
RTVSPropertyOp16
 70
     1
102
RTVSPropertyOp17
 70
     1
102
RTVSPropertyOp18
 70
     1
102
RTVSPropertyOp19
 70
     1
102
RTVSPropertyOp20
 70
     1
102
RTVSPropertyOp21
 70
     1
102
RTVSPropertyOp22
 70
     1
102
RTVSPropertyOp23
 70
     1
102
RTVSPropertyOp24
 70
     1
102
RTVSPropertyOp25
 70
     1
102
RTVSPropertyOp26
 70
     1
102
RTVSPropertyOp27
 70
     1
102
RTVSPropertyOp28
 70
     1
102
RTVSPropertyOp29
 70
     1
102
RTVSPropertyOp30
 70
     1
102
RTVSPropertyOp31
 70
     1
102
RTVSPropertyOp32
 70
     1
  0
XRECORD
  5
8F62
102
{ACAD_REACTORS
330
8F61
102
}
330
8F61
100
AcDbXrecord
280
     1
102
RTVSPropertyOp0
 70
     1
102
RTVSPropertyOp1
 70
     1
102
RTVSPropertyOp2
 70
     1
102
RTVSPropertyOp3
 70
     1
102
RTVSPropertyOp4
 70
     1
102
RTVSPropertyOp5
 70
     1
102
RTVSPropertyOp6
 70
     1
102
RTVSPropertyOp7
 70
     1
102
RTVSPropertyOp8
 70
     1
102
RTVSPropertyOp9
 70
     1
102
RTVSPropertyOp10
 70
     1
102
RTVSPropertyOp11
 70
     1
102
RTVSPropertyOp12
 70
     1
102
RTVSPropertyOp13
 70
     1
102
RTVSPropertyOp14
 70
     1
102
RTVSPropertyOp15
 70
     1
102
RTVSPropertyOp16
 70
     1
102
RTVSPropertyOp17
 70
     1
102
RTVSPropertyOp18
 70
     1
102
RTVSPropertyOp19
 70
     1
102
RTVSPropertyOp20
 70
     1
102
RTVSPropertyOp21
 70
     1
102
RTVSPropertyOp22
 70
     1
102
RTVSPropertyOp23
 70
     1
102
RTVSPropertyOp24
 70
     1
102
RTVSPropertyOp25
 70
     1
102
RTVSPropertyOp26
 70
     1
102
RTVSPropertyOp27
 70
     1
102
RTVSPropertyOp28
 70
     1
102
RTVSPropertyOp29
 70
     1
102
RTVSPropertyOp30
 70
     1
102
RTVSPropertyOp31
 70
     1
102
RTVSPropertyOp32
 70
     1
  0
XRECORD
  5
8F7E
102
{ACAD_REACTORS
330
8F7D
102
}
330
8F7D
100
AcDbXrecord
280
     1
102
RTVSPropertyOp0
 70
     0
102
RTVSPropertyOp1
 70
     0
102
RTVSPropertyOp2
 70
     0
102
RTVSPropertyOp3
 70
     0
102
RTVSPropertyOp4
 70
     0
102
RTVSPropertyOp5
 70
     0
102
RTVSPropertyOp6
 70
     0
102
RTVSPropertyOp7
 70
     0
102
RTVSPropertyOp8
 70
     0
102
RTVSPropertyOp9
 70
     0
102
RTVSPropertyOp10
 70
     0
102
RTVSPropertyOp11
 70
     0
102
RTVSPropertyOp12
 70
     0
102
RTVSPropertyOp13
 70
     0
102
RTVSPropertyOp14
 70
     2
102
RTVSPropertyOp15
 70
     0
102
RTVSPropertyOp16
 70
     0
102
RTVSPropertyOp17
 70
     0
102
RTVSPropertyOp18
 70
     0
102
RTVSPropertyOp19
 70
     0
102
RTVSPropertyOp20
 70
     0
102
RTVSPropertyOp21
 70
     0
102
RTVSPropertyOp22
 70
     0
102
RTVSPropertyOp23
 70
     0
102
RTVSPropertyOp24
 70
     0
102
RTVSPropertyOp25
 70
     0
102
RTVSPropertyOp26
 70
     0
102
RTVSPropertyOp27
 70
     0
102
RTVSPropertyOp28
 70
     1
102
RTVSPropertyOp29
 70
     1
102
RTVSPropertyOp30
 70
     1
102
RTVSPropertyOp31
 70
     1
102
RTVSPropertyOp32
 70
     1
  0
XRECORD
  5
8F6E
102
{ACAD_REACTORS
330
8F6D
102
}
330
8F6D
100
AcDbXrecord
280
     1
102
RTVSPropertyOp0
 70
     1
102
RTVSPropertyOp1
 70
     1
102
RTVSPropertyOp2
 70
     1
102
RTVSPropertyOp3
 70
     1
102
RTVSPropertyOp4
 70
     1
102
RTVSPropertyOp5
 70
     1
102
RTVSPropertyOp6
 70
     1
102
RTVSPropertyOp7
 70
     1
102
RTVSPropertyOp8
 70
     1
102
RTVSPropertyOp9
 70
     1
102
RTVSPropertyOp10
 70
     1
102
RTVSPropertyOp11
 70
     1
102
RTVSPropertyOp12
 70
     1
102
RTVSPropertyOp13
 70
     1
102
RTVSPropertyOp14
 70
     1
102
RTVSPropertyOp15
 70
     1
102
RTVSPropertyOp16
 70
     1
102
RTVSPropertyOp17
 70
     1
102
RTVSPropertyOp18
 70
     1
102
RTVSPropertyOp19
 70
     1
102
RTVSPropertyOp20
 70
     1
102
RTVSPropertyOp21
 70
     1
102
RTVSPropertyOp22
 70
     1
102
RTVSPropertyOp23
 70
     1
102
RTVSPropertyOp24
 70
     1
102
RTVSPropertyOp25
 70
     1
102
RTVSPropertyOp26
 70
     1
102
RTVSPropertyOp27
 70
     1
102
RTVSPropertyOp28
 70
     1
102
RTVSPropertyOp29
 70
     1
102
RTVSPropertyOp30
 70
     1
102
RTVSPropertyOp31
 70
     1
102
RTVSPropertyOp32
 70
     1
  0
XRECORD
  5
8F80
102
{ACAD_REACTORS
330
8F7F
102
}
330
8F7F
100
AcDbXrecord
280
     1
102
RTVSPropertyOp0
 70
     0
102
RTVSPropertyOp1
 70
     0
102
RTVSPropertyOp2
 70
     0
102
RTVSPropertyOp3
 70
     0
102
RTVSPropertyOp4
 70
     0
102
RTVSPropertyOp5
 70
     0
102
RTVSPropertyOp6
 70
     0
102
RTVSPropertyOp7
 70
     0
102
RTVSPropertyOp8
 70
     0
102
RTVSPropertyOp9
 70
     0
102
RTVSPropertyOp10
 70
     0
102
RTVSPropertyOp11
 70
     0
102
RTVSPropertyOp12
 70
     0
102
RTVSPropertyOp13
 70
     0
102
RTVSPropertyOp14
 70
     2
102
RTVSPropertyOp15
 70
     0
102
RTVSPropertyOp16
 70
     0
102
RTVSPropertyOp17
 70
     0
102
RTVSPropertyOp18
 70
     0
102
RTVSPropertyOp19
 70
     0
102
RTVSPropertyOp20
 70
     0
102
RTVSPropertyOp21
 70
     0
102
RTVSPropertyOp22
 70
     0
102
RTVSPropertyOp23
 70
     0
102
RTVSPropertyOp24
 70
     0
102
RTVSPropertyOp25
 70
     0
102
RTVSPropertyOp26
 70
     0
102
RTVSPropertyOp27
 70
     0
102
RTVSPropertyOp28
 70
     1
102
RTVSPropertyOp29
 70
     1
102
RTVSPropertyOp30
 70
     1
102
RTVSPropertyOp31
 70
     1
102
RTVSPropertyOp32
 70
     1
  0
XRECORD
  5
8F66
102
{ACAD_REACTORS
330
8F65
102
}
330
8F65
100
AcDbXrecord
280
     1
102
RTVSPropertyOp0
 70
     1
102
RTVSPropertyOp1
 70
     1
102
RTVSPropertyOp2
 70
     1
102
RTVSPropertyOp3
 70
     1
102
RTVSPropertyOp4
 70
     1
102
RTVSPropertyOp5
 70
     1
102
RTVSPropertyOp6
 70
     1
102
RTVSPropertyOp7
 70
     1
102
RTVSPropertyOp8
 70
     1
102
RTVSPropertyOp9
 70
     1
102
RTVSPropertyOp10
 70
     1
102
RTVSPropertyOp11
 70
     1
102
RTVSPropertyOp12
 70
     1
102
RTVSPropertyOp13
 70
     1
102
RTVSPropertyOp14
 70
     1
102
RTVSPropertyOp15
 70
     1
102
RTVSPropertyOp16
 70
     1
102
RTVSPropertyOp17
 70
     1
102
RTVSPropertyOp18
 70
     1
102
RTVSPropertyOp19
 70
     1
102
RTVSPropertyOp20
 70
     1
102
RTVSPropertyOp21
 70
     1
102
RTVSPropertyOp22
 70
     1
102
RTVSPropertyOp23
 70
     1
102
RTVSPropertyOp24
 70
     1
102
RTVSPropertyOp25
 70
     1
102
RTVSPropertyOp26
 70
     1
102
RTVSPropertyOp27
 70
     1
102
RTVSPropertyOp28
 70
     1
102
RTVSPropertyOp29
 70
     1
102
RTVSPropertyOp30
 70
     1
102
RTVSPropertyOp31
 70
     1
102
RTVSPropertyOp32
 70
     1
  0
XRECORD
  5
8F7C
102
{ACAD_REACTORS
330
8F7B
102
}
330
8F7B
100
AcDbXrecord
280
     1
102
RTVSPropertyOp0
 70
     1
102
RTVSPropertyOp1
 70
     1
102
RTVSPropertyOp2
 70
     1
102
RTVSPropertyOp3
 70
     1
102
RTVSPropertyOp4
 70
     1
102
RTVSPropertyOp5
 70
     1
102
RTVSPropertyOp6
 70
     1
102
RTVSPropertyOp7
 70
     1
102
RTVSPropertyOp8
 70
     1
102
RTVSPropertyOp9
 70
     1
102
RTVSPropertyOp10
 70
     1
102
RTVSPropertyOp11
 70
     1
102
RTVSPropertyOp12
 70
     1
102
RTVSPropertyOp13
 70
     1
102
RTVSPropertyOp14
 70
     1
102
RTVSPropertyOp15
 70
     1
102
RTVSPropertyOp16
 70
     1
102
RTVSPropertyOp17
 70
     1
102
RTVSPropertyOp18
 70
     1
102
RTVSPropertyOp19
 70
     1
102
RTVSPropertyOp20
 70
     1
102
RTVSPropertyOp21
 70
     1
102
RTVSPropertyOp22
 70
     1
102
RTVSPropertyOp23
 70
     1
102
RTVSPropertyOp24
 70
     1
102
RTVSPropertyOp25
 70
     1
102
RTVSPropertyOp26
 70
     1
102
RTVSPropertyOp27
 70
     1
102
RTVSPropertyOp28
 70
     1
102
RTVSPropertyOp29
 70
     1
102
RTVSPropertyOp30
 70
     1
102
RTVSPropertyOp31
 70
     1
102
RTVSPropertyOp32
 70
     1
  0
XRECORD
  5
8F7A
102
{ACAD_REACTORS
330
8F79
102
}
330
8F79
100
AcDbXrecord
280
     1
102
RTVSPropertyOp0
 70
     1
102
RTVSPropertyOp1
 70
     1
102
RTVSPropertyOp2
 70
     1
102
RTVSPropertyOp3
 70
     1
102
RTVSPropertyOp4
 70
     1
102
RTVSPropertyOp5
 70
     1
102
RTVSPropertyOp6
 70
     1
102
RTVSPropertyOp7
 70
     1
102
RTVSPropertyOp8
 70
     1
102
RTVSPropertyOp9
 70
     1
102
RTVSPropertyOp10
 70
     1
102
RTVSPropertyOp11
 70
     1
102
RTVSPropertyOp12
 70
     1
102
RTVSPropertyOp13
 70
     1
102
RTVSPropertyOp14
 70
     1
102
RTVSPropertyOp15
 70
     1
102
RTVSPropertyOp16
 70
     1
102
RTVSPropertyOp17
 70
     1
102
RTVSPropertyOp18
 70
     1
102
RTVSPropertyOp19
 70
     1
102
RTVSPropertyOp20
 70
     1
102
RTVSPropertyOp21
 70
     1
102
RTVSPropertyOp22
 70
     1
102
RTVSPropertyOp23
 70
     1
102
RTVSPropertyOp24
 70
     1
102
RTVSPropertyOp25
 70
     1
102
RTVSPropertyOp26
 70
     1
102
RTVSPropertyOp27
 70
     1
102
RTVSPropertyOp28
 70
     1
102
RTVSPropertyOp29
 70
     1
102
RTVSPropertyOp30
 70
     1
102
RTVSPropertyOp31
 70
     1
102
RTVSPropertyOp32
 70
     1
  0
XRECORD
  5
8F74
102
{ACAD_REACTORS
330
8F73
102
}
330
8F73
100
AcDbXrecord
280
     1
102
RTVSPropertyOp0
 70
     1
102
RTVSPropertyOp1
 70
     1
102
RTVSPropertyOp2
 70
     1
102
RTVSPropertyOp3
 70
     1
102
RTVSPropertyOp4
 70
     1
102
RTVSPropertyOp5
 70
     1
102
RTVSPropertyOp6
 70
     1
102
RTVSPropertyOp7
 70
     1
102
RTVSPropertyOp8
 70
     1
102
RTVSPropertyOp9
 70
     1
102
RTVSPropertyOp10
 70
     1
102
RTVSPropertyOp11
 70
     1
102
RTVSPropertyOp12
 70
     1
102
RTVSPropertyOp13
 70
     1
102
RTVSPropertyOp14
 70
     1
102
RTVSPropertyOp15
 70
     1
102
RTVSPropertyOp16
 70
     1
102
RTVSPropertyOp17
 70
     1
102
RTVSPropertyOp18
 70
     1
102
RTVSPropertyOp19
 70
     1
102
RTVSPropertyOp20
 70
     1
102
RTVSPropertyOp21
 70
     1
102
RTVSPropertyOp22
 70
     1
102
RTVSPropertyOp23
 70
     1
102
RTVSPropertyOp24
 70
     1
102
RTVSPropertyOp25
 70
     1
102
RTVSPropertyOp26
 70
     1
102
RTVSPropertyOp27
 70
     1
102
RTVSPropertyOp28
 70
     1
102
RTVSPropertyOp29
 70
     1
102
RTVSPropertyOp30
 70
     1
102
RTVSPropertyOp31
 70
     1
102
RTVSPropertyOp32
 70
     1
  0
XRECORD
  5
8F76
102
{ACAD_REACTORS
330
8F75
102
}
330
8F75
100
AcDbXrecord
280
     1
102
RTVSPropertyOp0
 70
     1
102
RTVSPropertyOp1
 70
     1
102
RTVSPropertyOp2
 70
     1
102
RTVSPropertyOp3
 70
     1
102
RTVSPropertyOp4
 70
     1
102
RTVSPropertyOp5
 70
     1
102
RTVSPropertyOp6
 70
     1
102
RTVSPropertyOp7
 70
     1
102
RTVSPropertyOp8
 70
     1
102
RTVSPropertyOp9
 70
     1
102
RTVSPropertyOp10
 70
     1
102
RTVSPropertyOp11
 70
     1
102
RTVSPropertyOp12
 70
     1
102
RTVSPropertyOp13
 70
     1
102
RTVSPropertyOp14
 70
     1
102
RTVSPropertyOp15
 70
     1
102
RTVSPropertyOp16
 70
     1
102
RTVSPropertyOp17
 70
     1
102
RTVSPropertyOp18
 70
     1
102
RTVSPropertyOp19
 70
     1
102
RTVSPropertyOp20
 70
     1
102
RTVSPropertyOp21
 70
     1
102
RTVSPropertyOp22
 70
     1
102
RTVSPropertyOp23
 70
     1
102
RTVSPropertyOp24
 70
     1
102
RTVSPropertyOp25
 70
     1
102
RTVSPropertyOp26
 70
     1
102
RTVSPropertyOp27
 70
     1
102
RTVSPropertyOp28
 70
     1
102
RTVSPropertyOp29
 70
     1
102
RTVSPropertyOp30
 70
     1
102
RTVSPropertyOp31
 70
     1
102
RTVSPropertyOp32
 70
     1
  0
XRECORD
  5
8F6C
102
{ACAD_REACTORS
330
8F6B
102
}
330
8F6B
100
AcDbXrecord
280
     1
102
RTVSPropertyOp0
 70
     1
102
RTVSPropertyOp1
 70
     1
102
RTVSPropertyOp2
 70
     1
102
RTVSPropertyOp3
 70
     1
102
RTVSPropertyOp4
 70
     1
102
RTVSPropertyOp5
 70
     1
102
RTVSPropertyOp6
 70
     1
102
RTVSPropertyOp7
 70
     1
102
RTVSPropertyOp8
 70
     1
102
RTVSPropertyOp9
 70
     1
102
RTVSPropertyOp10
 70
     1
102
RTVSPropertyOp11
 70
     1
102
RTVSPropertyOp12
 70
     1
102
RTVSPropertyOp13
 70
     1
102
RTVSPropertyOp14
 70
     1
102
RTVSPropertyOp15
 70
     1
102
RTVSPropertyOp16
 70
     1
102
RTVSPropertyOp17
 70
     1
102
RTVSPropertyOp18
 70
     1
102
RTVSPropertyOp19
 70
     1
102
RTVSPropertyOp20
 70
     1
102
RTVSPropertyOp21
 70
     1
102
RTVSPropertyOp22
 70
     1
102
RTVSPropertyOp23
 70
     1
102
RTVSPropertyOp24
 70
     1
102
RTVSPropertyOp25
 70
     1
102
RTVSPropertyOp26
 70
     1
102
RTVSPropertyOp27
 70
     1
102
RTVSPropertyOp28
 70
     1
102
RTVSPropertyOp29
 70
     1
102
RTVSPropertyOp30
 70
     1
102
RTVSPropertyOp31
 70
     1
102
RTVSPropertyOp32
 70
     1
  0
XRECORD
  5
8F60
102
{ACAD_REACTORS
330
8F5F
102
}
330
8F5F
100
AcDbXrecord
280
     1
102
RTVSPropertyOp0
 70
     1
102
RTVSPropertyOp1
 70
     1
102
RTVSPropertyOp2
 70
     1
102
RTVSPropertyOp3
 70
     1
102
RTVSPropertyOp4
 70
     1
102
RTVSPropertyOp5
 70
     1
102
RTVSPropertyOp6
 70
     1
102
RTVSPropertyOp7
 70
     1
102
RTVSPropertyOp8
 70
     1
102
RTVSPropertyOp9
 70
     1
102
RTVSPropertyOp10
 70
     1
102
RTVSPropertyOp11
 70
     1
102
RTVSPropertyOp12
 70
     1
102
RTVSPropertyOp13
 70
     1
102
RTVSPropertyOp14
 70
     1
102
RTVSPropertyOp15
 70
     1
102
RTVSPropertyOp16
 70
     1
102
RTVSPropertyOp17
 70
     1
102
RTVSPropertyOp18
 70
     1
102
RTVSPropertyOp19
 70
     1
102
RTVSPropertyOp20
 70
     1
102
RTVSPropertyOp21
 70
     1
102
RTVSPropertyOp22
 70
     1
102
RTVSPropertyOp23
 70
     1
102
RTVSPropertyOp24
 70
     1
102
RTVSPropertyOp25
 70
     1
102
RTVSPropertyOp26
 70
     1
102
RTVSPropertyOp27
 70
     1
102
RTVSPropertyOp28
 70
     1
102
RTVSPropertyOp29
 70
     1
102
RTVSPropertyOp30
 70
     1
102
RTVSPropertyOp31
 70
     1
102
RTVSPropertyOp32
 70
     1
  0
XRECORD
  5
8F78
102
{ACAD_REACTORS
330
8F77
102
}
330
8F77
100
AcDbXrecord
280
     1
102
RTVSPropertyOp0
 70
     1
102
RTVSPropertyOp1
 70
     1
102
RTVSPropertyOp2
 70
     1
102
RTVSPropertyOp3
 70
     1
102
RTVSPropertyOp4
 70
     1
102
RTVSPropertyOp5
 70
     1
102
RTVSPropertyOp6
 70
     1
102
RTVSPropertyOp7
 70
     1
102
RTVSPropertyOp8
 70
     1
102
RTVSPropertyOp9
 70
     1
102
RTVSPropertyOp10
 70
     1
102
RTVSPropertyOp11
 70
     1
102
RTVSPropertyOp12
 70
     1
102
RTVSPropertyOp13
 70
     1
102
RTVSPropertyOp14
 70
     1
102
RTVSPropertyOp15
 70
     1
102
RTVSPropertyOp16
 70
     1
102
RTVSPropertyOp17
 70
     1
102
RTVSPropertyOp18
 70
     1
102
RTVSPropertyOp19
 70
     1
102
RTVSPropertyOp20
 70
     1
102
RTVSPropertyOp21
 70
     1
102
RTVSPropertyOp22
 70
     1
102
RTVSPropertyOp23
 70
     1
102
RTVSPropertyOp24
 70
     1
102
RTVSPropertyOp25
 70
     1
102
RTVSPropertyOp26
 70
     1
102
RTVSPropertyOp27
 70
     1
102
RTVSPropertyOp28
 70
     1
102
RTVSPropertyOp29
 70
     1
102
RTVSPropertyOp30
 70
     1
102
RTVSPropertyOp31
 70
     1
102
RTVSPropertyOp32
 70
     1
  0
ENDSEC
  0
EOF
